osu file format v14

[General]
AudioFilename: audio.mp3
AudioLeadIn: 0
PreviewTime: 333
Countdown: 0
SampleSet: Soft
StackLeniency: 0.7
Mode: 0
LetterboxInBreaks: 0
WidescreenStoryboard: 1

[Editor]
Bookmarks: 22746,44815
DistanceSpacing: 1.4
BeatDivisor: 8
GridSize: 32
TimelineZoom: 1

[Metadata]
Title:Fairytale
TitleUnicode:Fairytale
Artist:rionos
ArtistUnicode:rionos
Creator:guineaQ
Version:Advanced
Source:
Tags:
BeatmapID:1745338
BeatmapSetID:833139

[Difficulty]
HPDrainRate:4
CircleSize:3.5
OverallDifficulty:5
ApproachRate:7
SliderMultiplier:2.39999990463257
SliderTickRate:1

[Events]
//Background and Video events
0,0,"49566422_p0.png",0,0
//Break Periods
//Storyboard Layer 0 (Background)
Sprite,Background,Centre,"sb/pop.png",343,289 S,2,22741,23046,0.2,0.9 S,1,23046,23646,0.9,1 F,2,23046,23646,1,0 P,0,22741,24035,A C,0,22741,,26,116,242
Sprite,Background,Centre,"sb/pop.png",428,339 S,2,25500,25805,0.2,0.9 S,1,25805,26405,0.9,1 F,2,25805,26405,1,0 P,0,25500,26449,A C,0,25500,,164,32,240
Sprite,Background,Centre,"sb/pop.png",250,406 S,2,28259,28564,0.2,0.9 S,1,28564,29164,0.9,1 F,2,28564,29164,1,0 P,0,28259,29208,A C,0,28259,,37,185,239
Sprite,Background,Centre,"sb/pop.png",140,207 S,2,31017,31322,0.2,0.9 S,1,31322,31922,0.9,1 F,2,31322,31922,1,0 P,0,31017,31794,A C,0,31017,,23,209,116
Sprite,Background,Centre,"sb/pop.png",198,209 S,2,33776,34081,0.2,0.9 S,1,34081,34681,0.9,1 F,2,34081,34681,1,0 P,0,33776,35070,A C,0,33776,,226,45,124
Sprite,Background,Centre,"sb/pop.png",304,208 S,2,36535,36840,0.2,0.9 S,1,36840,37440,0.9,1 F,2,36840,37440,1,0 P,0,36535,37484,A C,0,36535,,26,116,242
Sprite,Background,Centre,"sb/pop.png",155,348 S,2,39293,39598,0.2,0.9 S,1,39598,40198,0.9,1 F,2,39598,40198,1,0 P,0,39293,40242,A C,0,39293,,164,32,240
Sprite,Background,Centre,"sb/pop.png",277,140 S,2,42052,42357,0.2,0.9 S,1,42357,42957,0.9,1 F,2,42357,42957,1,0 P,0,42052,42829,A C,0,42052,,37,185,239
Sprite,Background,Centre,"sb/pop.png",340,329 S,2,44810,45115,0.2,0.9 S,1,45115,45715,0.9,1 F,2,45115,45715,1,0 P,0,44810,45415,A C,0,44810,,23,209,116
//Storyboard Layer 1 (Fail)
//Storyboard Layer 2 (Pass)
//Storyboard Layer 3 (Foreground)
//Storyboard Sound Samples

[TimingPoints]
678,689.655172413793,4,2,1,30,1,0

[Colours]
Combo1 : 26,116,242
Combo2 : 164,32,240
Combo3 : 37,185,239
Combo4 : 23,209,116
Combo5 : 226,45,124

[HitObjects]
160,192,333,6,0,L|230:192,1,59.9999976158142,0|0,0:0|0:0,0:0:0:0:
291,236,678,6,0,P|271:198|357:97,1,179.999992847443,6|0,0:0|0:0,0:0:0:0:
352,180,1367,2,0,P|393:210|465:202,1,119.999995231628,8|2,0:0|0:0,0:0:0:0:
420,130,1884,2,0,P|418:61|368:16,1,119.999995231628,8|0,0:0|0:0,0:0:0:0:
301,24,2402,2,0,L|228:24,1,59.9999976158142,2|0,0:0|0:0,0:0:0:0:
181,83,2746,1,0,0:0:0:0:
181,251,3091,1,8,0:0:0:0:
181,251,3264,1,8,0:0:0:0:
264,251,3436,6,0,P|232:185|165:168,1,119.999995231628,0|0,0:0|0:0,0:0:0:0:
168,334,4126,2,0,P|116:305|95:250,1,119.999995231628,8|2,0:0|0:0,0:0:0:0:
106,167,4643,2,0,P|79:135|58:120,2,59.9999976158142,8|0|0,0:0|0:0|0:0,0:0:0:0:
191,167,5160,2,0,P|218:199|239:214,1,59.9999976158142,0|2,0:0|0:0,0:0:0:0:
310,241,5505,1,2,0:0:0:0:
326,73,5850,1,2,0:0:0:0:
326,73,6022,1,2,0:0:0:0:
265,132,6195,6,0,L|265:2,1,119.999995231628,2|0,0:0|0:0,0:0:0:0:
352,155,6884,2,0,L|352:275,1,119.999995231628,8|0,0:0|0:0,0:0:0:0:
285,327,7402,2,0,L|211:327,1,59.9999976158142,8|0,0:0|0:0,0:0:0:0:
160,275,7746,2,0,L|160:155,1,119.999995231628,0|0,0:0|0:0,0:0:0:0:
201,81,8264,2,0,P|258:60|317:87,1,119.999995231628,0|2,0:0|0:0,0:0:0:0:
256,145,8781,1,8,0:0:0:0:
203,209,8953,6,0,L|216:281,1,59.9999976158142,2|2,0:0|0:0,0:0:0:0:
298,268,9298,2,0,L|309:209,1,59.9999976158142,2|2,0:0|0:0,0:0:0:0:
256,145,9643,2,0,P|191:164|126:142,1,119.999995231628,8|0,0:0|0:0,0:0:0:0:
59,170,10160,2,0,P|58:141|74:97,1,59.9999976158142,8|0,0:0|0:0,0:0:0:0:
118,43,10505,2,0,P|150:92|141:151,1,119.999995231628,0|2,0:0|0:0,0:0:0:0:
81,209,11022,2,0,L|81:272,1,59.9999976158143,0|8,0:0|0:0,0:0:0:0:
140,328,11367,1,8,0:0:0:0:
251,202,11712,6,0,P|289:182|390:268,1,179.999992847443,2|0,0:0|0:0,0:0:0:0:
307,263,12401,2,0,P|277:304|285:376,1,119.999995231628,8|0,0:0|0:0,0:0:0:0:
357,331,12919,2,0,P|426:329|470:279,1,119.999995231629,8|0,0:0|0:0,0:0:0:0:
463,212,13436,2,0,L|463:139,1,59.9999976158142,2|0,0:0|0:0,0:0:0:0:
404,92,13780,1,0,0:0:0:0:
235,92,14126,1,0,0:0:0:0:
235,92,14298,1,0,0:0:0:0:
150,91,14471,6,0,P|182:157|249:174,1,119.999995231628,0|0,0:0|0:0,0:0:0:0:
246,8,15161,2,0,P|298:37|319:92,1,119.999995231628,8|0,0:0|0:0,0:0:0:0:
308,175,15678,2,0,P|335:207|356:222,2,59.9999976158142,8|0|0,0:0|0:0|0:0,0:0:0:0:
223,175,16195,2,0,P|196:143|175:128,1,59.9999976158142,2|2,0:0|0:0,0:0:0:0:
109,175,16540,2,0,L|37:175,2,59.9999976158143,2|2|2,0:0|0:0|0:0,0:0:0:0:
277,175,17229,6,0,P|317:226|320:298,1,119.999995231629,2|0,0:0|0:0,0:0:0:0:
160,235,17919,2,0,L|160:115,1,119.999995231628,8|0,0:0|0:0,0:0:0:0:
227,63,18437,2,0,L|301:63,1,59.9999976158142,8|0,0:0|0:0,0:0:0:0:
352,115,18781,2,0,L|352:235,1,119.999995231628,0|0,0:0|0:0,0:0:0:0:
311,309,19299,2,0,P|254:330|195:303,1,119.999995231628,0|2,0:0|0:0,0:0:0:0:
256,245,19816,1,0,0:0:0:0:
309,179,19988,6,0,L|296:107,1,59.9999976158142,2|2,0:0|0:0,0:0:0:0:
214,120,20333,2,0,L|203:179,1,59.9999976158142,2|2,0:0|0:0,0:0:0:0:
256,243,20678,2,0,P|318:223|378:258,1,119.999995231629,8|0,0:0|0:0,0:0:0:0:
311,309,21195,2,0,P|302:352|303:373,2,59.9999976158143,8|0|0,0:0|0:0|0:0,0:0:0:0:
365,244,21712,2,0,P|341:173|300:144,1,119.999995231629,8|8,0:0|0:0,0:0:0:0:
235,102,22229,2,0,L|168:102,1,59.9999976158143,8|8,0:0|0:0,0:0:0:0:
279,233,22746,6,0,B|330:233|330:233|348:224|348:224|413:224,2,119.999995231629,6|0|8,0:0|0:0|0:0,0:0:0:0:
219,173,23609,1,0,0:0:0:0:
51,173,23953,2,0,P|30:233|64:296,1,119.999995231629,8|8,0:0|0:0,0:0:0:0:
115,228,24471,2,0,L|186:228,1,59.9999976158143,2|0,0:0|0:0,0:0:0:0:
238,173,24815,2,0,L|238:102,2,59.9999976158143,0|0|0,0:0|0:0|0:0,0:0:0:0:
364,283,25505,6,0,P|385:227|364:173,1,119.999995231629,0|0,0:0|0:0,0:0:0:0:
301,228,26022,1,0,0:0:0:0:
236,282,26195,2,0,P|215:226|236:171,1,119.999995231629,8|0,0:0|0:0,0:0:0:0:
301,117,26712,2,0,P|235:88|185:106,1,119.999995231629,8|0,0:0|0:0,0:0:0:0:
143,169,27229,2,0,L|68:169,2,59.9999976158143,2|2|0,0:0|0:0|0:0,0:0:0:0:
301,228,27919,1,0,0:0:0:0:
186,350,28264,6,0,P|180:313|216:229,1,119.999995231629,2|0,0:0|0:0,0:0:0:0:
364,299,28953,2,0,P|389:245|386:186,1,119.999995231629,8|0,0:0|0:0,0:0:0:0:
315,139,29471,2,0,P|306:101|311:73,2,59.9999976158143,8|0|0,0:0|0:0|0:0,0:0:0:0:
390,100,29988,2,0,L|458:99,2,59.9999976158143,0|0|0,0:0|0:0|0:0,0:0:0:0:
242,181,30677,1,2,0:0:0:0:
76,151,31022,6,0,L|139:150,1,59.9999976158143,2|2,0:0|0:0,0:0:0:0:
135,233,31367,2,0,L|76:233,1,59.9999976158143,2|2,0:0|0:0,0:0:0:0:
2,192,31712,2,0,P|-4:125|48:73,1,119.999995231629,8|0,0:0|0:0,0:0:0:0:
80,21,32229,2,0,P|100:49|107:76,1,59.9999976158143,8|0,0:0|0:0,0:0:0:0:
76,151,32574,2,0,P|105:157|134:154,1,59.9999976158143,0|0,0:0|0:0,0:0:0:0:
196,97,32919,1,2,0:0:0:0:
256,39,33091,2,0,L|338:38,2,59.9999976158143,0|8|0,0:0|0:0|0:0,0:0:0:0:
134,153,33781,6,0,B|83:153|83:153|65:144|65:144|0:144,2,119.999995231629,2|0|8,0:0|0:0|0:0,0:0:0:0:
196,97,34644,1,0,0:0:0:0:
364,97,34988,2,0,P|385:157|351:220,1,119.999995231629,8|0,0:0|0:0,0:0:0:0:
300,152,35506,2,0,L|229:152,1,59.9999976158143,2|0,0:0|0:0,0:0:0:0:
183,90,35850,2,0,L|183:-5,2,89.9999964237214,0|0|0,0:0|0:0|0:0,0:0:0:0:
240,152,36540,6,0,P|296:173|350:152,1,119.999995231629,0|0,0:0|0:0,0:0:0:0:
295,89,37057,1,0,0:0:0:0:
241,24,37230,2,0,P|297:3|352:24,1,119.999995231629,8|0,0:0|0:0,0:0:0:0:
405,88,37746,2,0,L|405:231,1,119.999995231629,8|0,0:0|0:0,0:0:0:0:
405,292,38264,2,0,L|456:337,2,59.9999976158143,2|2|2,0:0|0:0|0:0,0:0:0:0:
320,292,38781,2,0,L|248:292,1,59.9999976158143,0|0,0:0|0:0,0:0:0:0:
91,292,39298,6,0,P|109:252|193:233,1,119.999995231629,2|0,0:0|0:0,0:0:0:0:
334,155,39988,1,8,0:0:0:0:
334,155,40160,2,0,P|391:142|421:92,1,119.999995231629,0|8,0:0|0:0,0:0:0:0:
370,24,40678,2,0,P|313:37|283:87,1,119.999995231629,0|0,0:0|0:0,0:0:0:0:
314,252,41367,2,0,L|185:252,1,119.999995231629,0|2,0:0|0:0,0:0:0:0:
213,84,42057,6,0,L|213:154,1,59.9999976158143,2|2,0:0|0:0,0:0:0:0:
299,144,42402,2,0,L|299:84,1,59.9999976158143,2|2,0:0|0:0,0:0:0:0:
256,11,42746,2,0,P|182:7|140:46,1,119.999995231629,8|0,0:0|0:0,0:0:0:0:
107,107,43264,2,0,L|26:107,1,59.9999976158143,8|0,0:0|0:0,0:0:0:0:
213,84,43781,2,0,P|234:142|229:220,1,119.999995231629,8|8,0:0|0:0,0:0:0:0:
192,273,44298,2,0,P|186:318|189:347,2,59.9999976158143,0|8|0,0:0|0:0|0:0,0:0:0:0:
276,273,44815,5,4,0:0:0:0:
