osu file format v14

[General]
AudioFilename: audio.ogg
AudioLeadIn: 0
PreviewTime: 97421
Countdown: 0
SampleSet: Normal
StackLeniency: 0.7
Mode: 1
LetterboxInBreaks: 0
WidescreenStoryboard: 1

[Editor]
DistanceSpacing: 0.85
BeatDivisor: 4
GridSize: 4
TimelineZoom: 2

[Metadata]
Title:solips
TitleUnicode:sølips
Artist:rintaro soma
ArtistUnicode:rintaro soma
Creator:Raytoly
Version:Re:MASTER
Source:maimai でらっくす UNiVERSE PLUS
Tags:dx deluxe ユニバースプラス + PERFECT CHALLENGE DiSC PLUS -UNiVERSE- optie sega Video Game Electronic Instrumental
BeatmapID:3825757
BeatmapSetID:1859776

[Difficulty]
HPDrainRate:5
CircleSize:7
OverallDifficulty:6
ApproachRate:10
SliderMultiplier:1.4
SliderTickRate:1

[Events]
//Background and Video events
0,0,"solips.png",0,0
Video,0,"solips video.mp4"
//Break Periods
//Storyboard Layer 0 (Background)
//Storyboard Layer 1 (Fail)
//Storyboard Layer 2 (Pass)
//Storyboard Layer 3 (Foreground)
//Storyboard Layer 4 (Overlay)
//Storyboard Sound Samples

[TimingPoints]
35,301.507537688442,4,1,0,20,1,0
5085,-100,4,1,0,20,0,0
19331,301.507537688442,4,1,0,10,1,8
19331,-100,4,1,0,10,0,8
19934,301.507537688442,4,1,0,60,1,0
19934,-100,4,1,0,60,0,0
38024,301.507537688442,4,1,0,60,1,0
47672,-100,4,1,0,20,0,0
51290,-100,4,1,0,60,0,0
57320,-100,4,1,0,60,0,1
66968,-100,4,1,0,60,0,0
67044,-100,4,1,0,20,0,0
76616,-100,4,1,0,40,0,0
86415,-100,4,1,0,20,0,0
93501,-100,4,1,0,40,0,0
98325,301.507537688442,4,1,0,60,1,0
98325,-100,4,1,0,60,0,1
136917,301.507537688442,4,1,0,60,1,8
136917,-100,4,1,0,60,0,0
137520,301.507537688442,4,1,0,10,1,0
137520,-100,4,1,0,10,0,0
139630,-100,4,1,0,10,0,0
139705,-100,4,1,0,10,0,0
139781,-100,4,1,0,20,0,0
139856,-100,4,1,0,30,0,0
139932,-100,4,1,0,40,0,0

[HitObjects]
256,192,487,8,0,4557,0:0:0:0:
261,154,4859,5,4,0:0:0:0:
248,187,5311,1,0,0:0:0:0:
248,187,5612,1,0,0:0:0:0:
248,187,5914,1,0,0:0:0:0:
248,187,6065,1,8,0:0:0:0:
248,187,6818,1,0,0:0:0:0:
297,172,6969,1,0,0:0:0:0:
248,187,7120,1,0,0:0:0:0:
100,212,7195,1,0,0:0:0:0:
248,187,7271,1,8,0:0:0:0:
297,212,7723,1,0,0:0:0:0:
297,212,8024,1,0,0:0:0:0:
297,212,8326,1,0,0:0:0:0:
297,212,8477,1,8,0:0:0:0:
256,170,9230,1,0,0:0:0:0:
256,170,9381,1,0,0:0:0:0:
256,170,9532,1,0,0:0:0:0:
256,170,9607,1,0,0:0:0:0:
256,170,9683,1,8,0:0:0:0:
313,207,10135,1,0,0:0:0:0:
284,192,10437,1,0,0:0:0:0:
284,192,10738,1,0,0:0:0:0:
284,192,10889,1,8,0:0:0:0:
237,134,11643,1,0,0:0:0:0:
237,134,11793,1,0,0:0:0:0:
237,134,11944,1,0,0:0:0:0:
237,134,12019,1,0,0:0:0:0:
237,134,12095,1,8,0:0:0:0:
237,187,12547,1,8,0:0:0:0:
237,187,12849,1,0,0:0:0:0:
237,187,13150,1,0,0:0:0:0:
237,187,13301,1,8,0:0:0:0:
81,147,13452,1,8,0:0:0:0:
243,191,13602,1,0,0:0:0:0:
243,191,13904,1,8,0:0:0:0:
366,228,14055,1,8,0:0:0:0:
366,228,14205,1,0,0:0:0:0:
366,228,14356,1,0,0:0:0:0:
269,134,14431,1,8,0:0:0:0:
307,179,14507,1,0,0:0:0:0:
287,216,15713,1,0,0:0:0:0:
287,216,16919,1,0,0:0:0:0:
130,195,18125,1,0,0:0:0:0:
302,209,18728,1,8,0:0:0:0:
256,192,19331,8,0,19783,0:0:0:0:
237,195,19934,5,0,0:0:0:0:
237,195,20009,1,0,0:0:0:0:
237,195,20084,1,0,0:0:0:0:
237,195,20160,1,0,0:0:0:0:
237,195,20235,1,8,0:0:0:0:
289,200,20386,1,8,0:0:0:0:
237,195,20537,1,0,0:0:0:0:
354,204,20687,1,8,0:0:0:0:
354,204,20763,1,8,0:0:0:0:
322,214,20838,1,0,0:0:0:0:
322,214,20939,1,8,0:0:0:0:
322,214,21039,1,8,0:0:0:0:
270,160,21140,1,0,0:0:0:0:
150,174,21290,1,0,0:0:0:0:
101,163,21366,1,0,0:0:0:0:
273,202,21441,1,8,0:0:0:0:
247,195,21592,1,8,0:0:0:0:
273,202,21743,1,0,0:0:0:0:
388,177,22044,1,8,0:0:0:0:
388,177,22119,1,8,0:0:0:0:
388,177,22195,1,8,0:0:0:0:
349,214,22346,1,0,0:0:0:0:
349,214,22421,1,8,0:0:0:0:
349,214,22496,1,0,0:0:0:0:
355,239,22572,1,0,0:0:0:0:
284,177,22647,1,8,0:0:0:0:
284,177,22798,1,8,0:0:0:0:
361,241,22949,1,0,0:0:0:0:
166,152,23099,1,0,0:0:0:0:
229,160,23250,1,8,0:0:0:0:
121,133,23325,1,0,0:0:0:0:
121,133,23401,1,8,0:0:0:0:
176,171,23552,1,0,0:0:0:0:
232,168,23702,1,8,0:0:0:0:
203,140,23778,1,8,0:0:0:0:
233,168,23853,1,8,0:0:0:0:
156,118,24004,1,8,0:0:0:0:
233,168,24155,1,0,0:0:0:0:
171,142,24305,1,0,0:0:0:0:
171,142,24607,1,0,0:0:0:0:
171,142,24758,1,0,0:0:0:0:
171,142,24833,1,0,0:0:0:0:
171,142,24908,1,8,0:0:0:0:
171,142,24984,1,0,0:0:0:0:
171,142,25059,1,8,0:0:0:0:
171,142,25210,1,8,0:0:0:0:
289,200,25361,1,0,0:0:0:0:
151,157,25511,1,8,0:0:0:0:
188,161,25587,1,8,0:0:0:0:
322,214,25662,1,0,0:0:0:0:
322,214,25763,1,8,0:0:0:0:
322,214,25863,1,8,0:0:0:0:
270,160,25964,1,0,0:0:0:0:
206,123,26114,1,8,0:0:0:0:
206,123,26190,1,0,0:0:0:0:
85,147,26416,1,8,0:0:0:0:
93,150,26491,1,8,0:0:0:0:
273,202,26567,1,0,0:0:0:0:
214,170,26717,1,8,0:0:0:0:
228,172,26793,1,0,0:0:0:0:
388,177,26868,1,8,0:0:0:0:
388,177,27019,1,8,0:0:0:0:
271,210,27170,1,0,0:0:0:0:
284,177,27320,1,8,0:0:0:0:
300,168,27396,1,8,0:0:0:0:
124,134,27622,1,0,0:0:0:0:
299,186,27773,1,8,0:0:0:0:
299,186,27923,1,8,0:0:0:0:
299,186,27999,1,8,0:0:0:0:
299,186,28074,1,0,0:0:0:0:
299,186,28225,1,8,0:0:0:0:
253,178,28376,1,0,0:0:0:0:
221,156,28451,1,8,0:0:0:0:
232,168,28526,1,8,0:0:0:0:
232,168,28602,1,8,0:0:0:0:
283,185,28677,1,0,0:0:0:0:
206,161,28828,1,8,0:0:0:0:
233,168,28979,1,4,0:0:0:0:
271,211,29129,1,4,0:0:0:0:
203,140,29280,1,4,0:0:0:0:
271,211,29431,1,4,0:0:0:0:
271,211,29582,1,12,0:0:0:0:
200,154,30185,1,8,0:0:0:0:
200,154,30260,1,8,0:0:0:0:
200,154,30336,1,8,0:0:0:0:
200,154,30411,1,8,0:0:0:0:
106,149,30486,1,0,0:0:0:0:
302,163,30939,1,12,0:0:0:0:
224,178,31240,1,8,0:0:0:0:
224,178,31391,1,0,0:0:0:0:
311,177,31542,1,8,0:0:0:0:
311,177,31617,1,8,0:0:0:0:
251,179,31692,1,8,0:0:0:0:
251,179,31843,1,0,0:0:0:0:
256,203,31994,1,8,0:0:0:0:
256,203,32069,1,8,0:0:0:0:
256,203,32145,1,0,0:0:0:0:
317,168,32295,1,0,0:0:0:0:
313,162,32446,1,8,0:0:0:0:
312,162,32597,1,8,0:0:0:0:
317,168,32748,1,0,0:0:0:0:
291,184,32898,1,8,0:0:0:0:
291,184,32974,1,0,0:0:0:0:
291,184,33049,1,8,0:0:0:0:
291,184,33200,1,0,0:0:0:0:
240,120,33275,1,0,0:0:0:0:
327,273,33351,1,8,0:0:0:0:
327,273,33426,1,0,0:0:0:0:
327,273,33501,1,8,0:0:0:0:
327,273,33652,1,0,0:0:0:0:
327,273,33803,1,8,0:0:0:0:
220,191,33954,1,8,0:0:0:0:
220,191,34029,1,8,0:0:0:0:
220,191,34104,1,0,0:0:0:0:
220,191,34255,1,0,0:0:0:0:
220,191,34406,1,8,0:0:0:0:
246,179,34707,1,8,0:0:0:0:
321,177,34858,1,0,0:0:0:0:
217,135,34933,1,0,0:0:0:0:
321,177,35009,1,8,0:0:0:0:
239,178,35160,1,0,0:0:0:0:
239,178,35310,1,8,0:0:0:0:
239,178,35461,1,8,0:0:0:0:
434,140,35537,1,0,0:0:0:0:
239,178,35612,1,8,0:0:0:0:
176,162,35763,1,0,0:0:0:0:
195,157,35838,1,0,0:0:0:0:
176,162,35913,1,8,0:0:0:0:
177,157,36064,1,8,0:0:0:0:
177,157,36215,1,8,0:0:0:0:
177,157,36290,1,8,0:0:0:0:
177,157,36366,1,0,0:0:0:0:
177,157,36516,1,0,0:0:0:0:
177,157,36667,1,8,0:0:0:0:
177,157,36818,1,0,0:0:0:0:
177,157,36969,1,0,0:0:0:0:
177,157,37119,1,8,0:0:0:0:
231,196,37195,1,8,0:0:0:0:
231,196,37270,1,0,0:0:0:0:
177,157,37421,1,8,0:0:0:0:
231,196,37496,1,8,0:0:0:0:
231,196,37572,1,8,0:0:0:0:
231,196,37647,1,8,0:0:0:0:
177,157,37722,1,0,0:0:0:0:
337,179,38024,1,8,0:0:0:0:
337,179,38174,1,0,0:0:0:0:
337,179,38325,1,0,0:0:0:0:
305,232,38476,1,8,0:0:0:0:
305,232,38551,1,0,0:0:0:0:
305,232,38627,1,8,0:0:0:0:
305,232,38777,1,0,0:0:0:0:
305,232,38928,1,8,0:0:0:0:
299,101,39003,1,8,0:0:0:0:
250,131,39079,1,8,0:0:0:0:
305,225,39230,1,0,0:0:0:0:
367,199,39380,1,8,0:0:0:0:
367,199,39531,1,0,0:0:0:0:
367,199,39682,1,8,0:0:0:0:
367,199,39757,1,8,0:0:0:0:
319,198,39833,1,0,0:0:0:0:
319,198,39983,1,0,0:0:0:0:
319,198,40134,1,8,0:0:0:0:
328,185,40209,1,0,0:0:0:0:
328,185,40285,1,8,0:0:0:0:
328,185,40360,1,8,0:0:0:0:
328,185,40436,1,0,0:0:0:0:
276,197,40737,1,0,0:0:0:0:
276,197,40888,1,8,0:0:0:0:
276,197,41039,1,0,0:0:0:0:
276,197,41189,1,8,0:0:0:0:
276,197,41265,1,8,0:0:0:0:
276,197,41340,1,0,0:0:0:0:
276,197,41491,1,8,0:0:0:0:
335,156,41642,1,0,0:0:0:0:
335,156,41717,1,8,0:0:0:0:
270,170,41792,1,0,0:0:0:0:
276,197,41943,1,8,0:0:0:0:
276,197,42094,1,0,0:0:0:0:
276,197,42245,1,8,0:0:0:0:
156,152,42320,1,8,0:0:0:0:
276,197,42395,1,0,0:0:0:0:
276,197,42471,1,8,0:0:0:0:
276,197,42546,1,0,0:0:0:0:
281,147,42697,1,0,0:0:0:0:
276,197,42848,1,8,0:0:0:0:
165,198,42998,1,0,0:0:0:0:
198,204,43149,1,0,0:0:0:0:
198,204,43225,1,0,0:0:0:0:
198,204,43300,1,8,0:0:0:0:
198,204,43451,1,0,0:0:0:0:
198,204,43601,1,0,0:0:0:0:
198,204,43752,1,8,0:0:0:0:
198,204,43828,1,8,0:0:0:0:
198,204,43903,1,0,0:0:0:0:
198,204,44054,1,0,0:0:0:0:
272,179,44204,1,8,0:0:0:0:
272,179,44355,1,0,0:0:0:0:
272,179,44506,1,8,0:0:0:0:
222,182,44581,1,8,0:0:0:0:
272,179,44657,1,0,0:0:0:0:
272,179,44807,1,0,0:0:0:0:
272,179,44958,1,8,0:0:0:0:
272,179,45034,1,0,0:0:0:0:
272,179,45109,1,0,0:0:0:0:
272,179,45184,1,0,0:0:0:0:
272,179,45260,1,8,0:0:0:0:
224,171,45561,1,0,0:0:0:0:
224,171,45712,1,8,0:0:0:0:
208,171,45863,1,0,0:0:0:0:
323,241,46013,1,0,0:0:0:0:
323,241,46089,1,0,0:0:0:0:
323,241,46164,1,8,0:0:0:0:
336,108,46315,1,0,0:0:0:0:
323,241,46466,1,8,0:0:0:0:
271,127,46616,1,8,0:0:0:0:
271,127,46692,1,8,0:0:0:0:
271,127,46767,1,8,0:0:0:0:
285,143,46918,1,8,0:0:0:0:
323,225,47069,1,0,0:0:0:0:
323,225,47144,1,8,0:0:0:0:
323,225,47219,1,0,0:0:0:0:
323,225,47295,1,0,0:0:0:0:
323,225,47370,1,8,0:0:0:0:
323,225,47521,1,8,0:0:0:0:
323,225,47672,1,0,0:0:0:0:
292,219,48124,1,8,0:0:0:0:
336,196,48576,1,0,0:0:0:0:
366,273,49481,1,0,0:0:0:0:
366,273,49632,1,0,0:0:0:0:
366,273,49782,1,8,0:0:0:0:
366,273,49933,1,8,0:0:0:0:
366,273,50084,1,8,0:0:0:0:
274,157,50536,1,8,0:0:0:0:
295,180,50988,1,0,0:0:0:0:
275,181,51139,1,0,0:0:0:0:
275,181,51214,1,0,0:0:0:0:
316,187,51290,1,8,0:0:0:0:
316,187,51491,1,8,0:0:0:0:
316,187,51692,1,8,0:0:0:0:
316,187,51893,1,0,0:0:0:0:
316,187,52094,1,0,0:0:0:0:
349,182,52295,1,0,0:0:0:0:
193,150,52496,1,8,0:0:0:0:
204,141,52647,1,0,0:0:0:0:
204,141,52722,1,8,0:0:0:0:
204,141,52797,1,0,0:0:0:0:
320,221,52948,1,8,0:0:0:0:
320,221,53099,1,0,0:0:0:0:
320,221,53250,1,0,0:0:0:0:
320,221,53400,1,8,0:0:0:0:
320,221,53476,1,8,0:0:0:0:
320,221,53551,1,0,0:0:0:0:
320,221,53702,1,8,0:0:0:0:
93,167,53853,1,0,0:0:0:0:
176,171,54003,1,0,0:0:0:0:
176,171,54079,1,8,0:0:0:0:
176,171,54154,1,0,0:0:0:0:
37,172,54230,1,0,0:0:0:0:
186,171,54305,1,8,0:0:0:0:
186,170,54456,1,0,0:0:0:0:
186,170,54606,1,8,0:0:0:0:
190,170,54757,1,8,0:0:0:0:
294,161,54833,1,8,0:0:0:0:
193,170,54908,1,0,0:0:0:0:
254,122,55209,1,8,0:0:0:0:
254,122,55360,1,8,0:0:0:0:
254,122,55511,1,0,0:0:0:0:
258,118,55662,1,8,0:0:0:0:
351,224,55812,1,0,0:0:0:0:
351,224,55888,1,0,0:0:0:0:
340,224,55963,1,0,0:0:0:0:
333,221,56039,1,0,0:0:0:0:
333,221,56114,1,8,0:0:0:0:
286,242,56265,1,0,0:0:0:0:
306,234,56340,1,0,0:0:0:0:
306,234,56415,1,0,0:0:0:0:
306,234,56566,1,0,0:0:0:0:
307,234,56717,1,8,0:0:0:0:
307,234,56792,1,8,0:0:0:0:
307,234,56868,1,0,0:0:0:0:
239,201,56943,1,0,0:0:0:0:
239,201,57018,1,8,0:0:0:0:
239,201,57169,1,8,0:0:0:0:
239,201,57320,1,0,0:0:0:0:
253,195,57546,1,0,0:0:0:0:
253,195,57621,1,8,0:0:0:0:
253,195,57772,1,0,0:0:0:0:
253,195,57923,1,8,0:0:0:0:
253,195,57998,1,8,0:0:0:0:
253,195,58074,1,8,0:0:0:0:
199,178,58225,1,0,0:0:0:0:
202,174,58451,1,0,0:0:0:0:
154,170,58526,1,8,0:0:0:0:
221,157,58677,1,0,0:0:0:0:
225,163,58828,1,8,0:0:0:0:
188,120,58903,1,8,0:0:0:0:
224,163,58978,1,8,0:0:0:0:
225,164,59129,1,8,0:0:0:0:
389,264,59280,1,0,0:0:0:0:
418,164,59431,1,8,0:0:0:0:
418,164,59506,1,8,0:0:0:0:
418,164,59581,1,8,0:0:0:0:
318,138,59657,1,8,0:0:0:0:
389,264,59732,1,0,0:0:0:0:
143,164,59958,1,8,0:0:0:0:
216,174,60034,1,0,0:0:0:0:
221,174,60184,1,8,0:0:0:0:
221,174,60335,1,0,0:0:0:0:
221,174,60410,1,0,0:0:0:0:
287,213,60486,1,8,0:0:0:0:
287,213,60637,1,0,0:0:0:0:
287,213,60863,1,8,0:0:0:0:
287,213,60938,1,0,0:0:0:0:
287,213,61089,1,8,0:0:0:0:
287,213,61240,1,0,0:0:0:0:
232,216,61315,1,0,0:0:0:0:
287,213,61390,1,8,0:0:0:0:
287,213,61541,1,0,0:0:0:0:
323,131,61642,1,0,0:0:0:0:
323,131,61742,1,0,0:0:0:0:
323,131,61843,1,0,0:0:0:0:
323,131,61943,1,0,0:0:0:0:
323,131,62044,1,0,0:0:0:0:
364,88,62144,1,0,0:0:0:0:
84,149,62370,1,0,0:0:0:0:
100,150,62446,1,8,0:0:0:0:
376,251,62596,1,0,0:0:0:0:
376,251,62747,1,8,0:0:0:0:
376,251,62822,1,8,0:0:0:0:
313,213,62898,1,0,0:0:0:0:
313,213,63049,1,8,0:0:0:0:
127,201,63275,1,0,0:0:0:0:
127,201,63350,1,8,0:0:0:0:
138,200,63501,1,0,0:0:0:0:
165,200,63652,1,8,0:0:0:0:
86,119,63727,1,8,0:0:0:0:
165,200,63802,1,0,0:0:0:0:
165,200,63953,1,0,0:0:0:0:
228,166,64029,1,0,0:0:0:0:
165,200,64104,1,0,0:0:0:0:
228,166,64179,1,0,0:0:0:0:
228,166,64255,1,8,0:0:0:0:
228,166,64405,1,8,0:0:0:0:
151,159,64556,1,0,0:0:0:0:
250,192,64707,1,8,0:0:0:0:
250,192,64782,1,8,0:0:0:0:
250,192,64858,1,0,0:0:0:0:
250,192,65008,1,8,0:0:0:0:
250,192,65084,1,0,0:0:0:0:
250,192,65159,1,8,0:0:0:0:
233,193,65235,1,8,0:0:0:0:
233,193,65310,1,0,0:0:0:0:
233,193,65385,1,8,0:0:0:0:
219,193,65461,1,0,0:0:0:0:
203,189,65536,1,0,0:0:0:0:
183,182,65611,1,8,0:0:0:0:
309,219,65913,1,8,0:0:0:0:
309,219,65988,1,8,0:0:0:0:
309,219,66064,1,8,0:0:0:0:
309,219,66214,1,0,0:0:0:0:
309,219,66365,1,8,0:0:0:0:
309,219,66441,1,8,0:0:0:0:
309,219,66516,1,0,0:0:0:0:
309,219,66667,1,8,0:0:0:0:
309,219,66742,1,0,0:0:0:0:
309,219,66817,1,8,0:0:0:0:
309,219,66893,1,8,0:0:0:0:
309,219,66968,1,0,0:0:0:0:
123,167,67270,1,0,0:0:0:0:
252,170,67873,1,8,0:0:0:0:
252,170,68476,1,8,0:0:0:0:
252,170,68777,1,8,0:0:0:0:
252,170,68928,1,8,0:0:0:0:
252,170,69380,1,0,0:0:0:0:
210,98,69682,1,0,0:0:0:0:
267,202,69983,1,8,0:0:0:0:
267,202,70285,1,8,0:0:0:0:
280,180,70888,1,8,0:0:0:0:
280,180,71189,1,8,0:0:0:0:
280,180,71491,1,8,0:0:0:0:
280,180,71792,1,0,0:0:0:0:
242,143,72094,1,0,0:0:0:0:
280,180,72697,1,8,0:0:0:0:
191,187,73300,1,8,0:0:0:0:
191,187,73601,1,8,0:0:0:0:
191,187,73752,1,8,0:0:0:0:
196,185,74204,1,0,0:0:0:0:
183,129,74506,1,0,0:0:0:0:
153,166,74807,1,8,0:0:0:0:
226,160,75712,1,8,0:0:0:0:
226,160,76013,1,8,0:0:0:0:
226,160,76164,1,0,0:0:0:0:
264,184,76616,1,0,0:0:0:0:
264,184,76767,1,8,0:0:0:0:
264,184,76918,1,0,0:0:0:0:
264,184,77069,1,0,0:0:0:0:
256,180,77219,1,8,0:0:0:0:
256,180,77521,1,0,0:0:0:0:
256,180,77672,1,8,0:0:0:0:
256,168,77973,1,0,0:0:0:0:
256,168,78124,1,8,0:0:0:0:
256,168,78426,1,0,0:0:0:0:
252,168,78576,1,8,0:0:0:0:
256,168,79029,1,0,0:0:0:0:
256,168,79179,1,8,0:0:0:0:
256,168,79330,1,0,0:0:0:0:
256,168,79481,1,0,0:0:0:0:
252,168,79632,1,8,0:0:0:0:
256,168,79933,1,0,0:0:0:0:
256,168,80084,1,0,0:0:0:0:
256,168,80235,1,8,0:0:0:0:
256,168,80536,1,0,0:0:0:0:
344,240,80687,1,8,0:0:0:0:
256,168,80988,1,8,0:0:0:0:
256,168,81139,1,0,0:0:0:0:
344,240,81441,1,8,0:0:0:0:
208,168,81591,1,8,0:0:0:0:
208,168,81742,1,0,0:0:0:0:
208,168,81893,1,0,0:0:0:0:
208,168,82044,1,8,0:0:0:0:
208,168,82345,1,0,0:0:0:0:
208,168,82496,1,8,0:0:0:0:
208,168,82797,1,0,0:0:0:0:
208,168,82948,1,8,0:0:0:0:
208,168,83250,1,8,0:0:0:0:
208,168,83853,1,0,0:0:0:0:
208,168,84003,1,8,0:0:0:0:
208,168,84154,1,0,0:0:0:0:
208,168,84305,1,0,0:0:0:0:
208,168,84456,1,8,0:0:0:0:
208,168,84757,1,8,0:0:0:0:
208,168,84908,1,8,0:0:0:0:
208,168,85059,1,0,0:0:0:0:
208,168,85360,1,0,0:0:0:0:
208,168,85511,1,0,0:0:0:0:
208,168,85662,1,8,0:0:0:0:
208,168,85812,1,0,0:0:0:0:
208,168,85963,1,8,0:0:0:0:
224,144,86039,1,8,0:0:0:0:
208,168,86114,1,8,0:0:0:0:
168,144,86189,1,8,0:0:0:0:
208,168,86265,1,0,0:0:0:0:
224,152,86717,1,0,0:0:0:0:
224,152,87018,1,0,0:0:0:0:
224,152,87320,1,0,0:0:0:0:
224,152,87471,1,8,0:0:0:0:
212,156,88225,1,0,0:0:0:0:
212,156,88375,1,0,0:0:0:0:
212,156,88526,1,0,0:0:0:0:
212,156,88601,1,0,0:0:0:0:
212,156,88677,1,8,0:0:0:0:
216,168,89129,1,0,0:0:0:0:
216,164,89431,1,0,0:0:0:0:
216,164,89732,1,0,0:0:0:0:
216,168,89883,1,8,0:0:0:0:
212,152,90637,1,0,0:0:0:0:
212,152,90787,1,0,0:0:0:0:
212,152,90938,1,0,0:0:0:0:
212,152,91013,1,0,0:0:0:0:
212,152,91089,1,8,0:0:0:0:
256,152,91541,1,0,0:0:0:0:
256,152,91843,1,0,0:0:0:0:
256,152,91993,1,8,0:0:0:0:
256,152,92144,1,8,0:0:0:0:
256,152,92295,1,0,0:0:0:0:
224,144,92898,1,8,0:0:0:0:
224,144,93049,1,0,0:0:0:0:
224,144,93199,1,0,0:0:0:0:
224,144,93350,1,0,0:0:0:0:
208,168,93426,1,0,0:0:0:0:
140,120,93501,1,8,0:0:0:0:
160,180,93652,1,0,0:0:0:0:
240,188,93802,1,8,0:0:0:0:
240,188,93878,1,8,0:0:0:0:
240,188,93953,1,8,0:0:0:0:
240,188,94104,1,0,0:0:0:0:
240,188,94255,1,0,0:0:0:0:
240,188,94405,1,8,0:0:0:0:
240,188,94481,1,8,0:0:0:0:
240,188,94556,1,8,0:0:0:0:
240,188,94707,1,0,0:0:0:0:
240,160,94858,1,0,0:0:0:0:
240,160,95008,1,8,0:0:0:0:
240,160,95084,1,8,0:0:0:0:
240,160,95159,1,8,0:0:0:0:
240,160,95310,1,0,0:0:0:0:
240,160,95461,1,0,0:0:0:0:
232,160,95611,1,8,0:0:0:0:
126,147,95687,1,8,0:0:0:0:
126,147,95762,1,8,0:0:0:0:
120,160,95913,1,0,0:0:0:0:
100,192,95988,1,0,0:0:0:0:
176,192,96064,1,0,0:0:0:0:
200,192,96139,1,0,0:0:0:0:
212,192,96214,1,8,0:0:0:0:
216,192,96365,1,0,0:0:0:0:
224,152,96516,1,8,0:0:0:0:
216,192,96591,1,8,0:0:0:0:
312,244,96667,1,0,0:0:0:0:
274,110,96817,1,8,0:0:0:0:
312,244,96893,1,8,0:0:0:0:
312,244,96968,1,8,0:0:0:0:
312,244,97044,1,8,0:0:0:0:
312,244,97119,1,0,0:0:0:0:
288,212,97571,1,0,0:0:0:0:
322,218,97647,1,0,0:0:0:0:
322,218,97722,1,8,0:0:0:0:
322,218,97873,1,8,0:0:0:0:
322,218,98023,1,0,0:0:0:0:
322,218,98174,1,0,0:0:0:0:
358,216,98325,1,8,0:0:0:0:
275,167,98475,1,0,0:0:0:0:
294,152,98551,1,0,0:0:0:0:
275,167,98626,1,8,0:0:0:0:
155,22,98701,1,8,0:0:0:0:
275,167,98777,1,0,0:0:0:0:
275,167,98928,1,8,0:0:0:0:
270,110,99078,1,0,0:0:0:0:
276,118,99154,1,8,0:0:0:0:
263,157,99229,1,0,0:0:0:0:
130,193,99380,1,8,0:0:0:0:
154,191,99681,1,0,0:0:0:0:
344,189,99832,1,8,0:0:0:0:
344,189,99907,1,8,0:0:0:0:
344,189,99983,1,0,0:0:0:0:
344,189,100134,1,8,0:0:0:0:
344,189,100284,1,0,0:0:0:0:
344,189,100435,1,8,0:0:0:0:
344,189,100510,1,0,0:0:0:0:
344,189,100586,1,8,0:0:0:0:
344,189,100661,1,8,0:0:0:0:
344,189,100737,1,0,0:0:0:0:
288,141,100887,1,0,0:0:0:0:
287,181,101038,1,8,0:0:0:0:
288,141,101113,1,0,0:0:0:0:
288,141,101189,1,8,0:0:0:0:
345,257,101490,1,0,0:0:0:0:
288,141,101641,1,8,0:0:0:0:
345,257,101716,1,8,0:0:0:0:
288,141,101792,1,0,0:0:0:0:
288,141,101867,1,8,0:0:0:0:
288,141,101943,1,0,0:0:0:0:
100,150,102093,1,8,0:0:0:0:
294,152,102169,1,8,0:0:0:0:
255,131,102244,1,0,0:0:0:0:
187,155,102395,1,0,0:0:0:0:
277,170,102546,1,8,0:0:0:0:
277,170,102696,1,8,0:0:0:0:
191,141,102772,1,8,0:0:0:0:
277,170,102847,1,0,0:0:0:0:
369,155,102998,1,8,0:0:0:0:
395,140,103073,1,8,0:0:0:0:
425,108,103149,1,0,0:0:0:0:
348,208,103224,1,0,0:0:0:0:
348,208,103299,1,0,0:0:0:0:
348,208,103375,1,0,0:0:0:0:
301,201,103450,1,0,0:0:0:0:
348,208,103601,1,8,0:0:0:0:
348,208,103676,1,8,0:0:0:0:
348,208,103752,1,8,0:0:0:0:
348,208,103827,1,8,0:0:0:0:
348,208,103902,1,8,0:0:0:0:
348,208,104053,1,0,0:0:0:0:
348,208,104204,1,8,0:0:0:0:
348,208,104355,1,0,0:0:0:0:
157,152,104505,1,0,0:0:0:0:
196,154,104581,1,0,0:0:0:0:
196,154,104656,1,8,0:0:0:0:
196,154,104958,1,0,0:0:0:0:
274,180,105108,1,8,0:0:0:0:
288,167,105259,1,0,0:0:0:0:
290,172,105335,1,0,0:0:0:0:
290,172,105410,1,8,0:0:0:0:
290,172,105485,1,0,0:0:0:0:
290,172,105561,1,8,0:0:0:0:
257,72,105711,1,8,0:0:0:0:
197,179,105862,1,0,0:0:0:0:
197,179,106013,1,0,0:0:0:0:
197,179,106088,1,0,0:0:0:0:
197,179,106164,1,8,0:0:0:0:
210,183,106314,1,0,0:0:0:0:
241,104,106465,1,8,0:0:0:0:
241,104,106541,1,0,0:0:0:0:
241,104,106616,1,8,0:0:0:0:
258,146,106691,1,8,0:0:0:0:
258,146,106767,1,0,0:0:0:0:
169,174,106917,1,8,0:0:0:0:
219,160,106993,1,8,0:0:0:0:
317,179,107068,1,0,0:0:0:0:
317,179,107219,1,0,0:0:0:0:
317,179,107370,1,8,0:0:0:0:
193,172,107445,1,8,0:0:0:0:
317,179,107520,1,0,0:0:0:0:
70,143,107596,1,0,0:0:0:0:
317,179,107671,1,8,0:0:0:0:
276,213,107973,1,8,0:0:0:0:
301,143,108123,1,0,0:0:0:0:
301,143,108199,1,0,0:0:0:0:
427,233,108274,1,8,0:0:0:0:
206,182,108350,1,8,0:0:0:0:
248,143,108425,1,0,0:0:0:0:
427,233,108576,1,0,0:0:0:0:
427,233,108727,1,8,0:0:0:0:
427,233,108802,1,0,0:0:0:0:
427,233,108877,1,8,0:0:0:0:
275,179,109028,1,8,0:0:0:0:
275,179,109179,1,0,0:0:0:0:
163,223,109330,1,8,0:0:0:0:
181,227,109480,1,0,0:0:0:0:
198,222,109556,1,0,0:0:0:0:
198,222,109631,1,0,0:0:0:0:
198,222,109782,1,8,0:0:0:0:
294,188,110083,1,8,0:0:0:0:
294,188,110234,1,0,0:0:0:0:
294,188,110309,1,0,0:0:0:0:
276,178,110385,1,8,0:0:0:0:
383,199,110536,1,0,0:0:0:0:
408,205,110686,1,8,0:0:0:0:
408,205,110762,1,0,0:0:0:0:
408,205,110837,1,8,0:0:0:0:
362,169,110912,1,8,0:0:0:0:
328,217,110988,1,0,0:0:0:0:
308,127,111139,1,8,0:0:0:0:
308,201,111289,1,0,0:0:0:0:
308,201,111365,1,0,0:0:0:0:
308,201,111440,1,8,0:0:0:0:
357,184,111515,1,8,0:0:0:0:
347,226,111591,1,0,0:0:0:0:
216,185,111792,1,0,0:0:0:0:
317,188,111993,1,0,0:0:0:0:
307,186,112194,1,8,0:0:0:0:
307,186,112395,1,8,0:0:0:0:
307,186,112596,1,8,0:0:0:0:
249,127,112797,1,8,0:0:0:0:
139,173,112872,1,8,0:0:0:0:
211,180,112948,1,8,0:0:0:0:
211,180,113098,1,0,0:0:0:0:
283,210,113249,1,8,0:0:0:0:
283,210,113400,1,0,0:0:0:0:
283,210,113475,1,8,0:0:0:0:
283,210,113551,1,0,0:0:0:0:
283,210,113626,1,0,0:0:0:0:
276,207,113701,1,8,0:0:0:0:
47,149,113852,1,8,0:0:0:0:
338,214,114003,1,0,0:0:0:0:
166,191,114154,1,8,0:0:0:0:
338,214,114229,1,8,0:0:0:0:
223,200,114304,1,0,0:0:0:0:
223,200,114455,1,8,0:0:0:0:
223,200,114757,1,8,0:0:0:0:
223,200,114907,1,0,0:0:0:0:
223,200,114983,1,0,0:0:0:0:
223,200,115058,1,8,0:0:0:0:
223,200,115134,1,0,0:0:0:0:
223,200,115209,1,8,0:0:0:0:
231,201,115360,1,8,0:0:0:0:
231,201,115510,1,0,0:0:0:0:
231,201,115661,1,8,0:0:0:0:
238,134,115812,1,0,0:0:0:0:
252,160,115887,1,0,0:0:0:0:
252,160,115963,1,0,0:0:0:0:
261,167,116113,1,8,0:0:0:0:
261,167,116264,1,8,0:0:0:0:
261,167,116340,1,8,0:0:0:0:
261,167,116415,1,0,0:0:0:0:
261,167,116566,1,8,0:0:0:0:
191,159,116716,1,0,0:0:0:0:
212,184,116867,1,0,0:0:0:0:
338,223,116943,1,0,0:0:0:0:
212,184,117018,1,8,0:0:0:0:
115,140,117093,1,0,0:0:0:0:
212,184,117169,1,8,0:0:0:0:
47,151,117244,1,8,0:0:0:0:
212,184,117319,1,0,0:0:0:0:
188,179,117470,1,0,0:0:0:0:
178,173,117621,1,8,0:0:0:0:
156,160,117847,1,8,0:0:0:0:
155,159,117922,1,0,0:0:0:0:
158,161,118073,1,8,0:0:0:0:
281,162,118224,1,0,0:0:0:0:
159,161,118299,1,0,0:0:0:0:
281,162,118375,1,0,0:0:0:0:
161,156,118526,1,8,0:0:0:0:
221,161,118752,1,8,0:0:0:0:
312,196,118827,1,0,0:0:0:0:
241,166,118978,1,8,0:0:0:0:
319,203,119129,1,0,0:0:0:0:
346,238,119204,1,0,0:0:0:0:
302,185,119279,1,0,0:0:0:0:
312,196,119430,1,8,0:0:0:0:
220,181,119581,1,0,0:0:0:0:
249,184,119656,1,8,0:0:0:0:
257,189,119732,1,0,0:0:0:0:
268,206,119882,1,8,0:0:0:0:
268,206,119958,1,8,0:0:0:0:
268,206,120033,1,8,0:0:0:0:
195,180,120259,1,8,0:0:0:0:
157,171,120335,1,0,0:0:0:0:
195,180,120485,1,8,0:0:0:0:
209,161,120636,1,0,0:0:0:0:
208,161,120711,1,8,0:0:0:0:
453,184,120787,1,0,0:0:0:0:
318,207,120938,1,8,0:0:0:0:
336,186,121164,1,8,0:0:0:0:
322,207,121239,1,0,0:0:0:0:
336,186,121390,1,8,0:0:0:0:
336,186,121541,1,0,0:0:0:0:
135,176,121616,1,8,0:0:0:0:
366,165,121691,1,0,0:0:0:0:
355,211,121842,1,8,0:0:0:0:
368,234,121993,1,8,0:0:0:0:
339,162,122144,1,8,0:0:0:0:
339,162,122219,1,8,0:0:0:0:
355,211,122294,1,0,0:0:0:0:
355,211,122370,1,0,0:0:0:0:
355,211,122445,1,8,0:0:0:0:
301,228,122671,1,0,0:0:0:0:
301,228,122747,1,8,0:0:0:0:
301,228,122897,1,8,0:0:0:0:
353,261,123048,1,0,0:0:0:0:
301,228,123123,1,0,0:0:0:0:
353,261,123199,1,0,0:0:0:0:
353,261,123350,1,8,0:0:0:0:
396,302,123576,1,0,0:0:0:0:
424,316,123651,1,8,0:0:0:0:
396,302,123802,1,8,0:0:0:0:
210,187,123953,1,0,0:0:0:0:
218,187,124028,1,0,0:0:0:0:
218,187,124103,1,0,0:0:0:0:
218,187,124254,1,8,0:0:0:0:
328,174,124405,1,0,0:0:0:0:
328,174,124480,1,8,0:0:0:0:
328,174,124556,1,0,0:0:0:0:
328,174,124706,1,8,0:0:0:0:
310,158,124782,1,8,0:0:0:0:
310,158,124857,1,0,0:0:0:0:
281,211,125083,1,8,0:0:0:0:
166,126,125159,1,0,0:0:0:0:
281,211,125309,1,8,0:0:0:0:
281,211,125460,1,0,0:0:0:0:
281,211,125536,1,0,0:0:0:0:
281,211,125611,1,0,0:0:0:0:
281,211,125762,1,8,0:0:0:0:
281,211,125988,1,8,0:0:0:0:
281,211,126063,1,0,0:0:0:0:
158,142,126214,1,8,0:0:0:0:
281,211,126365,1,0,0:0:0:0:
215,79,126440,1,0,0:0:0:0:
281,211,126515,1,0,0:0:0:0:
333,141,126591,1,0,0:0:0:0:
281,211,126666,1,8,0:0:0:0:
281,211,126817,1,0,0:0:0:0:
281,211,126968,1,8,0:0:0:0:
358,178,127043,1,8,0:0:0:0:
281,211,127118,1,0,0:0:0:0:
281,211,127194,1,0,0:0:0:0:
281,211,127269,1,8,0:0:0:0:
80,144,127420,1,0,0:0:0:0:
132,144,127571,1,8,0:0:0:0:
192,144,127646,1,8,0:0:0:0:
192,144,127721,1,8,0:0:0:0:
192,148,127872,1,0,0:0:0:0:
192,148,128023,1,8,0:0:0:0:
192,148,128098,1,8,0:0:0:0:
192,148,128174,1,0,0:0:0:0:
192,148,128324,1,8,0:0:0:0:
192,148,128475,1,0,0:0:0:0:
240,160,128626,1,0,0:0:0:0:
248,160,128701,1,0,0:0:0:0:
252,168,128777,1,8,0:0:0:0:
252,168,128928,1,0,0:0:0:0:
252,168,129078,1,8,0:0:0:0:
252,168,129229,1,0,0:0:0:0:
252,168,129380,1,8,0:0:0:0:
252,168,129455,1,0,0:0:0:0:
252,168,129531,1,8,0:0:0:0:
252,168,129606,1,8,0:0:0:0:
252,168,129681,1,0,0:0:0:0:
232,176,129832,1,0,0:0:0:0:
232,176,129983,1,8,0:0:0:0:
232,176,130058,1,0,0:0:0:0:
232,176,130134,1,8,0:0:0:0:
324,204,130284,1,8,0:0:0:0:
324,204,130435,1,0,0:0:0:0:
324,204,130586,1,0,0:0:0:0:
280,200,130661,1,0,0:0:0:0:
280,200,130737,1,8,0:0:0:0:
280,200,130812,1,8,0:0:0:0:
280,200,130887,1,0,0:0:0:0:
148,152,131038,1,8,0:0:0:0:
224,160,131189,1,0,0:0:0:0:
324,192,131340,1,0,0:0:0:0:
324,192,131490,1,8,0:0:0:0:
324,192,131641,1,8,0:0:0:0:
152,176,131716,1,8,0:0:0:0:
324,192,131792,1,0,0:0:0:0:
324,192,131943,1,8,0:0:0:0:
196,164,132018,1,8,0:0:0:0:
272,176,132093,1,0,0:0:0:0:
240,192,132244,1,0,0:0:0:0:
240,192,132395,1,8,0:0:0:0:
240,192,132470,1,0,0:0:0:0:
240,192,132546,1,8,0:0:0:0:
240,192,132696,1,0,0:0:0:0:
240,192,132772,1,8,0:0:0:0:
240,192,132847,1,8,0:0:0:0:
240,192,132922,1,8,0:0:0:0:
240,192,132998,1,0,0:0:0:0:
240,192,133149,1,0,0:0:0:0:
240,192,133299,1,8,0:0:0:0:
240,192,133375,1,8,0:0:0:0:
240,192,133450,1,8,0:0:0:0:
240,192,133601,1,0,0:0:0:0:
240,192,133676,1,0,0:0:0:0:
240,192,133752,1,8,0:0:0:0:
240,192,133827,1,8,0:0:0:0:
240,192,133902,1,0,0:0:0:0:
248,184,134053,1,0,0:0:0:0:
260,180,134204,1,8,0:0:0:0:
272,192,134279,1,8,0:0:0:0:
272,192,134355,1,8,0:0:0:0:
296,184,134430,1,8,0:0:0:0:
288,176,134505,1,0,0:0:0:0:
236,168,134807,1,8,0:0:0:0:
280,172,134882,1,8,0:0:0:0:
280,172,134958,1,0,0:0:0:0:
280,172,135108,1,8,0:0:0:0:
280,172,135184,1,8,0:0:0:0:
280,172,135259,1,0,0:0:0:0:
280,172,135410,1,8,0:0:0:0:
280,172,135485,1,8,0:0:0:0:
280,172,135561,1,8,0:0:0:0:
264,188,135711,1,0,0:0:0:0:
264,188,135787,1,0,0:0:0:0:
264,188,135862,1,0,0:0:0:0:
264,188,135938,1,0,0:0:0:0:
264,188,136013,1,8,0:0:0:0:
264,188,136164,1,0,0:0:0:0:
264,188,136314,1,8,0:0:0:0:
264,188,136390,1,0,0:0:0:0:
264,188,136465,1,8,0:0:0:0:
272,200,136541,1,8,0:0:0:0:
324,204,136616,1,0,0:0:0:0:
304,200,136691,1,8,0:0:0:0:
288,188,136767,1,0,0:0:0:0:
256,180,136842,1,0,0:0:0:0:
352,204,136917,1,8,0:0:0:0:
256,192,137520,8,0,138123,0:0:0:0:
256,192,138726,8,0,139329,0:0:0:0:
266,210,139932,5,0,0:0:0:0:
272,208,140007,1,0,0:0:0:0:
276,208,140082,1,0,0:0:0:0:
276,208,140158,1,0,0:0:0:0:
266,210,140233,1,8,0:0:0:0:
266,210,140384,1,8,0:0:0:0:
266,210,140535,1,0,0:0:0:0:
266,210,140685,1,8,0:0:0:0:
266,210,140761,1,8,0:0:0:0:
258,195,140836,1,0,0:0:0:0:
258,195,140987,1,0,0:0:0:0:
35,144,141138,1,0,0:0:0:0:
51,142,141213,1,0,0:0:0:0:
97,149,141288,1,0,0:0:0:0:
97,149,141364,1,0,0:0:0:0:
258,195,141439,1,8,0:0:0:0:
258,195,141590,1,0,0:0:0:0:
258,195,141741,1,8,0:0:0:0:
302,134,141816,1,8,0:0:0:0:
302,134,141891,1,0,0:0:0:0:
302,134,141967,1,0,0:0:0:0:
302,134,142042,1,8,0:0:0:0:
302,134,142117,1,8,0:0:0:0:
302,134,142193,1,8,0:0:0:0:
302,134,142268,1,8,0:0:0:0:
258,195,142344,1,0,0:0:0:0:
