osu file format v14

[General]
AudioFilename: audio.ogg
AudioLeadIn: 0
PreviewTime: 97421
Countdown: 0
SampleSet: Normal
StackLeniency: 0.7
Mode: 1
LetterboxInBreaks: 0
WidescreenStoryboard: 1

[Editor]
DistanceSpacing: 0.85
BeatDivisor: 6
GridSize: 4
TimelineZoom: 1.5

[Metadata]
Title:solips
TitleUnicode:sølips
Artist:rintaro soma
ArtistUnicode:rintaro soma
Creator:Raytoly
Version:MASTER
Source:maimai でらっくす UNiVERSE PLUS
Tags:dx deluxe ユニバースプラス + PERFECT CHALLENGE DiSC PLUS -UNiVERSE- optie sega Video Game Electronic Instrumental
BeatmapID:3825029
BeatmapSetID:1859776

[Difficulty]
HPDrainRate:5.5
CircleSize:7
OverallDifficulty:5.5
ApproachRate:10
SliderMultiplier:1.4
SliderTickRate:1

[Events]
//Background and Video events
0,0,"solips.png",0,0
Video,0,"solips video.mp4"
//Break Periods
//Storyboard Layer 0 (Background)
//Storyboard Layer 1 (Fail)
//Storyboard Layer 2 (Pass)
//Storyboard Layer 3 (Foreground)
//Storyboard Layer 4 (Overlay)
//Storyboard Sound Samples

[TimingPoints]
35,301.507537688442,4,1,0,20,1,0
5085,-100,4,1,0,20,0,0
19331,301.507537688442,4,1,0,10,1,8
19331,-100,4,1,0,10,0,8
19934,301.507537688442,4,1,0,60,1,0
19934,-100,4,1,0,60,0,0
38024,301.507537688442,4,1,0,60,1,0
47672,-100,4,1,0,20,0,0
51290,-100,4,1,0,60,0,0
57320,-100,4,1,0,60,0,1
66968,-100,4,1,0,60,0,0
67044,-100,4,1,0,20,0,0
76616,-100,4,1,0,40,0,0
86415,-100,4,1,0,20,0,0
93501,-100,4,1,0,40,0,0
98325,301.507537688442,4,1,0,60,1,0
98325,-100,4,1,0,60,0,1
136917,301.507537688442,4,1,0,60,1,8
136917,-100,4,1,0,60,0,0
137520,301.507537688442,4,1,0,10,1,0
137520,-100,4,1,0,10,0,0
139630,-100,4,1,0,10,0,0
139705,-100,4,1,0,10,0,0
139781,-100,4,1,0,20,0,0
139856,-100,4,1,0,30,0,0
139932,-100,4,1,0,40,0,0

[HitObjects]
188,209,4859,5,4,0:0:0:0:
249,162,5311,1,0,0:0:0:0:
245,147,5612,1,0,0:0:0:0:
243,142,5914,1,0,0:0:0:0:
243,142,6065,1,8,0:0:0:0:
243,142,6818,1,0,0:0:0:0:
275,109,6969,1,0,0:0:0:0:
275,109,7120,1,0,0:0:0:0:
275,109,7271,1,8,0:0:0:0:
196,113,7723,1,0,0:0:0:0:
199,161,8024,1,0,0:0:0:0:
199,161,8326,1,0,0:0:0:0:
248,137,8477,1,8,0:0:0:0:
248,137,9230,1,0,0:0:0:0:
248,137,9381,1,0,0:0:0:0:
248,137,9532,1,0,0:0:0:0:
248,137,9683,1,8,0:0:0:0:
248,137,10135,1,0,0:0:0:0:
248,137,10437,1,0,0:0:0:0:
248,137,10738,1,0,0:0:0:0:
248,137,10889,1,8,0:0:0:0:
248,137,11643,1,0,0:0:0:0:
248,137,11793,1,0,0:0:0:0:
248,137,11944,1,0,0:0:0:0:
248,137,12095,1,8,0:0:0:0:
248,137,12547,1,0,0:0:0:0:
165,144,12849,1,0,0:0:0:0:
165,144,13150,1,0,0:0:0:0:
165,144,13301,1,8,0:0:0:0:
201,112,13904,1,8,0:0:0:0:
201,112,14055,1,8,0:0:0:0:
201,112,14205,1,0,0:0:0:0:
201,112,14356,1,8,0:0:0:0:
201,112,14507,1,0,0:0:0:0:
268,157,15713,1,0,0:0:0:0:
269,157,16919,1,0,0:0:0:0:
269,157,18125,1,0,0:0:0:0:
269,157,19331,1,8,0:0:0:0:
269,157,19934,1,0,0:0:0:0:
254,155,20084,1,8,0:0:0:0:
254,155,20160,1,8,0:0:0:0:
254,155,20235,1,8,0:0:0:0:
254,155,20386,1,8,0:0:0:0:
255,155,20537,1,0,0:0:0:0:
273,133,20838,1,8,0:0:0:0:
273,133,20989,1,8,0:0:0:0:
273,133,21140,1,0,0:0:0:0:
270,162,21290,1,0,0:0:0:0:
215,119,21441,1,8,0:0:0:0:
215,119,21516,1,0,0:0:0:0:
215,119,21592,1,8,0:0:0:0:
215,119,21743,1,0,0:0:0:0:
345,181,22044,1,8,0:0:0:0:
345,181,22119,1,8,0:0:0:0:
345,181,22195,1,8,0:0:0:0:
345,181,22346,1,0,0:0:0:0:
245,181,22647,1,8,0:0:0:0:
245,181,22798,1,8,0:0:0:0:
245,181,22949,1,0,0:0:0:0:
286,117,23099,1,8,0:0:0:0:
286,117,23175,1,8,0:0:0:0:
286,117,23250,1,0,0:0:0:0:
184,130,23401,1,0,0:0:0:0:
286,213,23552,1,8,0:0:0:0:
278,132,23702,1,0,0:0:0:0:
278,132,23778,1,0,0:0:0:0:
278,132,23853,1,8,0:0:0:0:
278,132,24004,1,8,0:0:0:0:
278,132,24155,1,0,0:0:0:0:
278,132,24305,1,0,0:0:0:0:
206,163,24607,1,0,0:0:0:0:
206,163,24758,1,0,0:0:0:0:
181,131,24908,1,8,0:0:0:0:
188,134,24984,1,8,0:0:0:0:
197,138,25059,1,8,0:0:0:0:
197,138,25210,1,8,0:0:0:0:
197,138,25361,1,0,0:0:0:0:
186,161,25662,1,8,0:0:0:0:
186,161,25813,1,8,0:0:0:0:
175,161,25964,1,0,0:0:0:0:
248,137,26114,1,8,0:0:0:0:
248,137,26416,1,8,0:0:0:0:
248,137,26491,1,8,0:0:0:0:
248,137,26567,1,0,0:0:0:0:
268,142,26717,1,8,0:0:0:0:
268,142,26868,1,8,0:0:0:0:
265,147,27019,1,8,0:0:0:0:
253,148,27170,1,0,0:0:0:0:
223,108,27320,1,8,0:0:0:0:
154,187,27396,1,8,0:0:0:0:
246,147,27773,1,0,0:0:0:0:
246,147,28074,1,8,0:0:0:0:
246,148,28225,1,8,0:0:0:0:
186,168,28376,1,0,0:0:0:0:
248,170,28526,1,8,0:0:0:0:
247,161,28602,1,8,0:0:0:0:
248,170,28677,1,0,0:0:0:0:
177,177,28828,1,8,0:0:0:0:
207,175,28979,1,0,0:0:0:0:
255,176,29129,1,0,0:0:0:0:
255,176,29280,1,0,0:0:0:0:
255,176,29431,1,0,0:0:0:0:
255,176,29582,1,8,0:0:0:0:
368,214,30185,1,8,0:0:0:0:
233,227,30939,1,12,0:0:0:0:
251,187,31240,1,0,0:0:0:0:
251,187,31391,1,8,0:0:0:0:
251,187,31542,1,0,0:0:0:0:
299,209,31617,1,0,0:0:0:0:
299,209,31692,1,0,0:0:0:0:
300,222,31843,1,8,0:0:0:0:
302,230,31994,1,0,0:0:0:0:
232,157,32295,1,0,0:0:0:0:
232,157,32446,1,8,0:0:0:0:
232,157,32597,1,8,0:0:0:0:
232,157,32748,1,0,0:0:0:0:
232,157,32823,1,0,0:0:0:0:
232,157,32898,1,8,0:0:0:0:
232,157,33049,1,8,0:0:0:0:
232,157,33200,1,0,0:0:0:0:
359,192,33351,1,8,0:0:0:0:
359,192,33501,1,0,0:0:0:0:
359,192,33652,1,0,0:0:0:0:
340,192,33803,1,8,0:0:0:0:
283,160,33954,1,0,0:0:0:0:
283,160,34029,1,0,0:0:0:0:
286,213,34104,1,0,0:0:0:0:
286,213,34255,1,0,0:0:0:0:
286,213,34406,1,8,0:0:0:0:
308,191,34707,1,8,0:0:0:0:
308,191,34858,1,0,0:0:0:0:
308,191,34933,1,0,0:0:0:0:
308,191,35009,1,8,0:0:0:0:
320,156,35160,1,0,0:0:0:0:
320,156,35310,1,0,0:0:0:0:
306,161,35461,1,8,0:0:0:0:
296,148,35612,1,8,0:0:0:0:
296,148,35913,1,8,0:0:0:0:
296,148,36064,1,0,0:0:0:0:
296,148,36215,1,8,0:0:0:0:
284,151,36290,1,8,0:0:0:0:
284,151,36366,1,0,0:0:0:0:
284,151,36516,1,0,0:0:0:0:
284,151,36667,1,8,0:0:0:0:
284,151,36818,1,0,0:0:0:0:
285,188,36969,1,0,0:0:0:0:
285,188,37119,1,8,0:0:0:0:
284,113,37421,1,8,0:0:0:0:
167,148,38024,1,8,0:0:0:0:
285,160,38174,1,0,0:0:0:0:
265,74,38250,1,0,0:0:0:0:
265,74,38325,1,0,0:0:0:0:
285,160,38476,1,8,0:0:0:0:
293,200,38777,1,0,0:0:0:0:
293,200,38928,1,8,0:0:0:0:
293,200,39079,1,8,0:0:0:0:
293,200,39230,1,0,0:0:0:0:
309,204,39305,1,0,0:0:0:0:
309,204,39380,1,8,0:0:0:0:
309,204,39531,1,8,0:0:0:0:
440,226,39682,1,0,0:0:0:0:
440,226,39757,1,0,0:0:0:0:
320,167,39833,1,0,0:0:0:0:
320,167,39983,1,0,0:0:0:0:
320,167,40134,1,8,0:0:0:0:
320,167,40209,1,8,0:0:0:0:
283,42,40285,1,8,0:0:0:0:
320,167,40360,1,8,0:0:0:0:
311,167,40436,1,0,0:0:0:0:
290,173,40737,1,8,0:0:0:0:
290,173,40888,1,0,0:0:0:0:
290,173,40963,1,0,0:0:0:0:
290,173,41039,1,0,0:0:0:0:
290,173,41189,1,8,0:0:0:0:
290,173,41340,1,0,0:0:0:0:
290,173,41491,1,0,0:0:0:0:
240,128,41566,1,0,0:0:0:0:
251,173,41642,1,8,0:0:0:0:
205,182,41943,1,0,0:0:0:0:
295,171,42094,1,8,0:0:0:0:
295,171,42245,1,0,0:0:0:0:
295,171,42395,1,8,0:0:0:0:
295,171,42471,1,8,0:0:0:0:
295,171,42546,1,0,0:0:0:0:
295,171,42697,1,0,0:0:0:0:
167,148,42848,1,8,0:0:0:0:
285,160,42998,1,0,0:0:0:0:
236,97,43074,1,0,0:0:0:0:
285,160,43149,1,0,0:0:0:0:
285,160,43300,1,8,0:0:0:0:
293,200,43601,1,0,0:0:0:0:
293,200,43752,1,8,0:0:0:0:
293,200,43903,1,8,0:0:0:0:
293,200,44054,1,0,0:0:0:0:
309,204,44129,1,0,0:0:0:0:
309,204,44204,1,8,0:0:0:0:
309,204,44355,1,0,0:0:0:0:
145,139,44506,1,8,0:0:0:0:
145,139,44581,1,8,0:0:0:0:
320,167,44657,1,0,0:0:0:0:
320,167,44807,1,0,0:0:0:0:
320,167,44958,1,8,0:0:0:0:
320,167,45034,1,8,0:0:0:0:
320,167,45109,1,8,0:0:0:0:
320,167,45184,1,8,0:0:0:0:
311,167,45260,1,0,0:0:0:0:
290,173,45561,1,0,0:0:0:0:
290,173,45712,1,8,0:0:0:0:
290,173,45787,1,8,0:0:0:0:
290,173,45863,1,0,0:0:0:0:
290,173,46013,1,0,0:0:0:0:
290,173,46164,1,8,0:0:0:0:
290,173,46315,1,0,0:0:0:0:
251,173,46466,1,8,0:0:0:0:
182,123,46616,1,8,0:0:0:0:
193,106,46692,1,8,0:0:0:0:
205,182,46767,1,0,0:0:0:0:
295,171,46918,1,8,0:0:0:0:
295,171,47069,1,0,0:0:0:0:
332,116,47144,1,0,0:0:0:0:
295,171,47219,1,0,0:0:0:0:
236,97,47295,1,0,0:0:0:0:
295,171,47370,1,8,0:0:0:0:
295,171,47521,1,8,0:0:0:0:
295,171,47672,1,0,0:0:0:0:
228,161,47973,1,0,0:0:0:0:
228,161,48878,1,0,0:0:0:0:
228,161,49179,1,0,0:0:0:0:
228,161,50084,1,0,0:0:0:0:
228,161,50385,1,0,0:0:0:0:
236,158,51290,1,8,0:0:0:0:
294,153,51491,1,8,0:0:0:0:
294,153,51692,1,8,0:0:0:0:
294,153,51893,1,0,0:0:0:0:
294,153,52094,1,0,0:0:0:0:
294,153,52295,1,0,0:0:0:0:
294,153,52496,1,8,0:0:0:0:
301,168,52797,1,8,0:0:0:0:
301,168,52948,1,0,0:0:0:0:
301,168,53023,1,0,0:0:0:0:
301,168,53099,1,0,0:0:0:0:
301,168,53250,1,0,0:0:0:0:
201,192,53400,1,8,0:0:0:0:
201,192,53551,1,8,0:0:0:0:
201,192,53702,1,0,0:0:0:0:
201,192,54003,1,8,0:0:0:0:
195,191,54154,1,0,0:0:0:0:
166,189,54230,1,0,0:0:0:0:
154,189,54305,1,8,0:0:0:0:
328,159,54456,1,0,0:0:0:0:
328,159,54606,1,8,0:0:0:0:
275,161,54908,1,8,0:0:0:0:
275,161,55059,1,0,0:0:0:0:
275,161,55209,1,8,0:0:0:0:
221,123,55285,1,0,0:0:0:0:
275,161,55360,1,8,0:0:0:0:
275,161,55511,1,0,0:0:0:0:
275,161,55662,1,0,0:0:0:0:
275,161,55812,1,8,0:0:0:0:
275,161,55963,1,0,0:0:0:0:
267,160,56039,1,0,0:0:0:0:
267,160,56114,1,8,0:0:0:0:
217,167,56265,1,0,0:0:0:0:
233,169,56415,1,8,0:0:0:0:
235,169,56566,1,0,0:0:0:0:
268,140,56717,1,8,0:0:0:0:
268,140,56792,1,8,0:0:0:0:
268,140,56868,1,8,0:0:0:0:
266,133,56943,1,8,0:0:0:0:
250,84,57018,5,0,0:0:0:0:
295,94,57169,1,0,0:0:0:0:
295,94,57320,1,8,0:0:0:0:
269,180,57546,1,8,0:0:0:0:
269,180,57621,1,0,0:0:0:0:
265,150,57772,1,8,0:0:0:0:
244,113,57923,1,0,0:0:0:0:
301,162,58074,1,0,0:0:0:0:
151,189,58225,1,8,0:0:0:0:
163,191,58375,1,0,0:0:0:0:
163,191,58451,1,8,0:0:0:0:
163,191,58677,1,8,0:0:0:0:
354,150,59129,1,8,0:0:0:0:
354,150,59280,1,8,0:0:0:0:
354,150,59431,1,8,0:0:0:0:
354,150,59506,1,8,0:0:0:0:
354,150,59581,1,8,0:0:0:0:
354,150,59657,1,8,0:0:0:0:
354,150,59732,1,0,0:0:0:0:
231,142,59958,1,8,0:0:0:0:
231,142,60034,1,0,0:0:0:0:
231,142,60184,1,8,0:0:0:0:
250,103,60335,1,0,0:0:0:0:
195,108,60486,1,0,0:0:0:0:
169,138,60637,1,8,0:0:0:0:
169,138,60787,1,0,0:0:0:0:
169,138,60863,1,8,0:0:0:0:
169,138,61089,1,8,0:0:0:0:
358,171,61541,1,8,0:0:0:0:
123,148,61843,1,0,0:0:0:0:
360,161,62144,1,8,0:0:0:0:
269,180,62370,1,8,0:0:0:0:
269,180,62446,1,0,0:0:0:0:
265,150,62596,1,8,0:0:0:0:
250,103,62747,1,0,0:0:0:0:
301,162,62898,1,0,0:0:0:0:
151,189,63049,1,8,0:0:0:0:
163,191,63199,1,0,0:0:0:0:
163,191,63275,1,8,0:0:0:0:
163,191,63501,1,8,0:0:0:0:
354,150,63953,1,8,0:0:0:0:
207,163,64029,1,8,0:0:0:0:
354,150,64104,1,0,0:0:0:0:
207,163,64179,1,0,0:0:0:0:
354,150,64255,1,8,0:0:0:0:
354,150,64556,1,0,0:0:0:0:
153,156,64707,1,0,0:0:0:0:
305,147,64782,1,0,0:0:0:0:
231,142,64858,1,0,0:0:0:0:
231,142,65008,1,8,0:0:0:0:
240,150,65159,1,0,0:0:0:0:
195,108,65310,1,8,0:0:0:0:
169,138,65461,1,0,0:0:0:0:
301,129,65536,1,0,0:0:0:0:
301,129,65611,1,8,0:0:0:0:
358,171,66365,1,8,0:0:0:0:
123,148,66667,1,8,0:0:0:0:
360,161,66968,1,0,0:0:0:0:
255,167,67270,1,0,0:0:0:0:
269,131,67873,1,8,0:0:0:0:
269,131,68777,1,8,0:0:0:0:
269,131,69380,1,0,0:0:0:0:
255,167,69682,1,0,0:0:0:0:
255,83,70285,1,8,0:0:0:0:
255,83,71189,1,8,0:0:0:0:
255,83,71792,1,0,0:0:0:0:
256,167,72094,1,0,0:0:0:0:
248,108,72697,1,8,0:0:0:0:
248,108,73601,1,8,0:0:0:0:
248,108,74204,1,0,0:0:0:0:
247,162,74506,1,0,0:0:0:0:
248,108,74807,1,8,0:0:0:0:
200,132,75712,1,8,0:0:0:0:
200,132,76013,1,8,0:0:0:0:
200,132,76164,1,0,0:0:0:0:
260,199,76616,1,0,0:0:0:0:
290,149,76918,1,0,0:0:0:0:
266,174,77219,1,8,0:0:0:0:
290,149,77521,1,0,0:0:0:0:
266,174,77672,1,8,0:0:0:0:
290,149,77973,1,0,0:0:0:0:
266,174,78124,1,8,0:0:0:0:
290,149,78426,1,0,0:0:0:0:
266,174,78576,1,8,0:0:0:0:
266,174,79029,1,0,0:0:0:0:
229,145,79330,1,0,0:0:0:0:
229,145,79632,1,8,0:0:0:0:
229,145,79933,1,0,0:0:0:0:
320,161,80084,1,0,0:0:0:0:
229,145,80235,1,8,0:0:0:0:
229,145,80536,1,0,0:0:0:0:
229,145,80687,1,8,0:0:0:0:
229,145,80988,1,8,0:0:0:0:
229,145,81139,1,0,0:0:0:0:
229,145,81441,1,8,0:0:0:0:
229,145,81742,1,0,0:0:0:0:
229,145,82044,1,8,0:0:0:0:
229,145,82345,1,0,0:0:0:0:
229,145,82496,1,8,0:0:0:0:
229,145,82797,1,0,0:0:0:0:
229,145,82948,1,8,0:0:0:0:
229,145,83250,1,8,0:0:0:0:
238,132,83853,1,0,0:0:0:0:
238,131,84154,1,0,0:0:0:0:
238,131,84305,1,0,0:0:0:0:
238,132,84456,1,8,0:0:0:0:
238,132,84757,1,8,0:0:0:0:
238,131,85059,1,0,0:0:0:0:
238,131,85360,1,8,0:0:0:0:
238,132,85662,1,8,0:0:0:0:
238,132,85812,1,0,0:0:0:0:
238,131,86265,1,0,0:0:0:0:
304,187,86717,1,0,0:0:0:0:
304,187,87018,1,0,0:0:0:0:
304,187,87320,1,0,0:0:0:0:
304,187,87471,1,8,0:0:0:0:
237,149,88225,1,0,0:0:0:0:
237,149,88375,1,0,0:0:0:0:
237,149,88526,1,0,0:0:0:0:
237,149,88677,1,8,0:0:0:0:
237,149,89129,1,0,0:0:0:0:
237,149,89431,1,0,0:0:0:0:
237,149,89732,1,0,0:0:0:0:
237,149,89883,1,8,0:0:0:0:
237,149,90637,1,0,0:0:0:0:
237,149,90787,1,0,0:0:0:0:
237,149,90938,1,0,0:0:0:0:
237,149,91089,1,8,0:0:0:0:
237,149,91541,1,0,0:0:0:0:
237,149,91843,1,0,0:0:0:0:
237,149,91993,1,8,0:0:0:0:
237,149,92295,1,8,0:0:0:0:
245,164,92898,1,8,0:0:0:0:
199,132,93501,1,0,0:0:0:0:
199,132,93652,1,0,0:0:0:0:
199,132,93802,1,8,0:0:0:0:
199,132,94104,1,0,0:0:0:0:
199,132,94255,1,0,0:0:0:0:
199,132,94405,1,8,0:0:0:0:
199,132,94707,1,0,0:0:0:0:
199,132,94858,1,0,0:0:0:0:
199,132,95008,1,8,0:0:0:0:
295,127,95159,1,8,0:0:0:0:
199,132,95310,1,0,0:0:0:0:
199,132,95461,1,0,0:0:0:0:
199,132,95611,1,8,0:0:0:0:
308,157,95913,1,0,0:0:0:0:
243,126,95988,1,0,0:0:0:0:
243,126,96064,1,0,0:0:0:0:
308,157,96214,1,8,0:0:0:0:
308,157,96365,1,0,0:0:0:0:
308,157,96516,1,8,0:0:0:0:
301,159,96591,1,8,0:0:0:0:
301,159,96667,1,0,0:0:0:0:
243,126,96742,1,0,0:0:0:0:
301,159,96817,1,8,0:0:0:0:
302,159,96968,1,8,0:0:0:0:
305,168,97119,1,0,0:0:0:0:
255,197,98325,1,8,0:0:0:0:
236,157,98475,1,0,0:0:0:0:
236,157,98626,1,8,0:0:0:0:
298,145,98701,1,8,0:0:0:0:
236,157,98777,1,0,0:0:0:0:
236,157,98928,1,8,0:0:0:0:
236,157,99078,1,0,0:0:0:0:
236,157,99154,1,0,0:0:0:0:
236,157,99229,1,8,0:0:0:0:
236,142,99380,1,0,0:0:0:0:
158,181,99681,1,0,0:0:0:0:
158,181,99832,1,8,0:0:0:0:
163,140,99983,1,0,0:0:0:0:
256,145,100058,1,0,0:0:0:0:
256,145,100134,1,8,0:0:0:0:
297,158,100284,1,0,0:0:0:0:
297,158,100435,1,8,0:0:0:0:
297,158,100586,1,8,0:0:0:0:
232,152,100737,1,0,0:0:0:0:
235,146,100812,1,0,0:0:0:0:
212,136,100887,1,0,0:0:0:0:
232,152,101038,1,8,0:0:0:0:
232,152,101189,1,0,0:0:0:0:
232,152,101490,1,0,0:0:0:0:
232,152,101641,1,0,0:0:0:0:
232,152,101792,1,8,0:0:0:0:
216,132,101943,1,0,0:0:0:0:
259,128,102018,1,0,0:0:0:0:
232,152,102093,1,8,0:0:0:0:
274,128,102244,1,0,0:0:0:0:
276,156,102395,1,0,0:0:0:0:
276,156,102546,1,8,0:0:0:0:
120,128,102696,1,0,0:0:0:0:
120,128,102772,1,0,0:0:0:0:
276,156,102847,1,0,0:0:0:0:
276,156,102998,1,0,0:0:0:0:
276,156,103149,1,8,0:0:0:0:
411,224,103450,1,0,0:0:0:0:
236,148,103601,1,8,0:0:0:0:
195,141,103902,1,0,0:0:0:0:
195,141,104053,1,8,0:0:0:0:
195,141,104204,1,8,0:0:0:0:
195,141,104355,1,0,0:0:0:0:
341,173,104430,1,0,0:0:0:0:
243,130,104505,1,0,0:0:0:0:
243,130,104656,1,8,0:0:0:0:
148,149,104958,1,0,0:0:0:0:
148,149,105108,1,0,0:0:0:0:
148,149,105259,1,8,0:0:0:0:
148,149,105410,1,8,0:0:0:0:
310,143,105485,1,0,0:0:0:0:
148,149,105561,1,8,0:0:0:0:
238,161,105711,1,0,0:0:0:0:
215,131,105862,1,8,0:0:0:0:
215,131,106013,1,0,0:0:0:0:
215,131,106164,1,8,0:0:0:0:
243,115,106239,1,8,0:0:0:0:
215,131,106314,1,0,0:0:0:0:
215,131,106465,1,0,0:0:0:0:
215,131,106616,1,8,0:0:0:0:
215,131,106917,1,8,0:0:0:0:
222,98,107068,1,0,0:0:0:0:
222,98,107219,1,0,0:0:0:0:
256,162,107370,1,8,0:0:0:0:
256,162,107445,1,8,0:0:0:0:
256,162,107520,1,8,0:0:0:0:
212,162,107671,1,0,0:0:0:0:
188,152,107973,1,8,0:0:0:0:
256,140,108123,1,0,0:0:0:0:
217,147,108199,1,0,0:0:0:0:
256,140,108274,1,8,0:0:0:0:
217,157,108425,1,0,0:0:0:0:
344,184,108576,1,8,0:0:0:0:
304,232,108727,1,0,0:0:0:0:
304,232,108802,1,0,0:0:0:0:
304,232,108877,1,0,0:0:0:0:
280,160,109028,1,8,0:0:0:0:
184,176,109330,1,0,0:0:0:0:
184,176,109480,1,8,0:0:0:0:
224,120,109631,1,8,0:0:0:0:
283,134,109706,1,8,0:0:0:0:
208,152,109782,1,0,0:0:0:0:
283,134,109933,1,0,0:0:0:0:
232,152,110083,1,8,0:0:0:0:
232,152,110234,1,0,0:0:0:0:
232,152,110385,1,8,0:0:0:0:
212,136,110536,1,0,0:0:0:0:
185,122,110611,1,0,0:0:0:0:
232,152,110686,1,8,0:0:0:0:
232,152,110837,1,8,0:0:0:0:
232,152,111139,1,0,0:0:0:0:
232,152,111289,1,8,0:0:0:0:
306,180,111365,1,8,0:0:0:0:
232,152,111440,1,8,0:0:0:0:
301,126,111515,1,8,0:0:0:0:
216,132,111591,1,0,0:0:0:0:
232,152,111792,1,0,0:0:0:0:
74,175,111993,1,0,0:0:0:0:
214,163,112194,1,8,0:0:0:0:
214,163,112395,1,8,0:0:0:0:
214,163,112596,1,8,0:0:0:0:
214,163,112797,1,0,0:0:0:0:
242,179,113098,1,0,0:0:0:0:
258,153,113249,1,8,0:0:0:0:
258,153,113400,1,0,0:0:0:0:
213,193,113475,1,0,0:0:0:0:
258,153,113551,1,0,0:0:0:0:
258,153,113701,1,8,0:0:0:0:
258,153,113852,1,8,0:0:0:0:
258,153,114003,1,0,0:0:0:0:
203,143,114154,1,8,0:0:0:0:
255,124,114229,1,8,0:0:0:0:
255,124,114304,1,0,0:0:0:0:
221,143,114455,1,8,0:0:0:0:
221,143,114757,1,0,0:0:0:0:
221,143,114907,1,8,0:0:0:0:
221,144,115058,1,8,0:0:0:0:
330,221,115209,1,0,0:0:0:0:
315,174,115284,1,0,0:0:0:0:
315,174,115360,1,0,0:0:0:0:
240,127,115510,1,0,0:0:0:0:
240,127,115661,1,8,0:0:0:0:
313,192,115963,1,0,0:0:0:0:
240,127,116113,1,8,0:0:0:0:
313,192,116189,1,8,0:0:0:0:
203,152,116264,1,0,0:0:0:0:
240,127,116415,1,0,0:0:0:0:
336,238,116566,1,8,0:0:0:0:
293,191,116867,1,0,0:0:0:0:
293,191,117018,1,8,0:0:0:0:
358,243,117093,1,8,0:0:0:0:
358,243,117169,1,0,0:0:0:0:
263,121,117244,1,0,0:0:0:0:
358,243,117319,1,8,0:0:0:0:
255,156,117470,1,8,0:0:0:0:
266,116,117621,1,0,0:0:0:0:
213,125,117847,1,8,0:0:0:0:
227,135,117922,1,0,0:0:0:0:
213,125,118073,1,8,0:0:0:0:
235,154,118224,1,0,0:0:0:0:
235,154,118375,1,0,0:0:0:0:
122,155,118526,1,8,0:0:0:0:
289,159,118676,1,0,0:0:0:0:
185,144,118752,1,8,0:0:0:0:
185,144,118978,1,8,0:0:0:0:
317,225,119430,1,8,0:0:0:0:
308,175,119581,1,0,0:0:0:0:
205,139,119656,1,0,0:0:0:0:
96,133,119732,1,8,0:0:0:0:
373,266,119882,1,8,0:0:0:0:
373,266,119958,1,8,0:0:0:0:
130,130,120033,1,0,0:0:0:0:
173,117,120259,1,8,0:0:0:0:
173,90,120335,1,0,0:0:0:0:
217,127,120485,1,8,0:0:0:0:
217,127,120636,1,0,0:0:0:0:
217,127,120787,1,8,0:0:0:0:
217,127,120938,1,0,0:0:0:0:
183,147,121088,1,8,0:0:0:0:
178,172,121164,1,0,0:0:0:0:
201,172,121390,1,8,0:0:0:0:
235,154,121842,1,0,0:0:0:0:
235,154,121993,1,0,0:0:0:0:
164,175,122068,1,0,0:0:0:0:
179,176,122144,1,8,0:0:0:0:
242,101,122294,1,0,0:0:0:0:
242,101,122370,1,0,0:0:0:0:
242,101,122445,1,8,0:0:0:0:
271,119,122671,1,8,0:0:0:0:
268,156,122747,1,0,0:0:0:0:
288,127,122897,1,8,0:0:0:0:
235,167,123048,1,0,0:0:0:0:
235,167,123199,1,0,0:0:0:0:
235,167,123350,1,8,0:0:0:0:
141,134,123500,1,0,0:0:0:0:
235,167,123576,1,8,0:0:0:0:
259,162,123802,1,0,0:0:0:0:
259,172,124254,1,8,0:0:0:0:
257,89,124405,1,0,0:0:0:0:
321,118,124556,1,8,0:0:0:0:
107,131,124706,1,8,0:0:0:0:
226,124,124782,1,8,0:0:0:0:
321,118,124857,1,0,0:0:0:0:
307,187,125083,1,8,0:0:0:0:
228,167,125159,1,0,0:0:0:0:
307,187,125309,1,0,0:0:0:0:
307,187,125460,1,8,0:0:0:0:
160,147,125611,1,0,0:0:0:0:
338,191,125762,1,0,0:0:0:0:
338,191,125837,1,0,0:0:0:0:
338,191,125912,1,0,0:0:0:0:
323,167,125988,1,0,0:0:0:0:
368,227,126063,1,8,0:0:0:0:
251,159,126365,1,0,0:0:0:0:
251,159,126515,1,0,0:0:0:0:
260,116,126591,1,0,0:0:0:0:
285,147,126666,1,8,0:0:0:0:
260,116,126817,1,8,0:0:0:0:
166,160,126968,1,0,0:0:0:0:
150,162,127118,1,0,0:0:0:0:
188,152,127269,1,8,0:0:0:0:
256,140,127420,1,0,0:0:0:0:
256,140,127571,1,8,0:0:0:0:
156,161,127646,1,8,0:0:0:0:
176,153,127721,1,0,0:0:0:0:
344,184,127872,1,8,0:0:0:0:
304,232,128023,1,0,0:0:0:0:
304,232,128098,1,0,0:0:0:0:
304,232,128174,1,0,0:0:0:0:
280,160,128324,1,8,0:0:0:0:
184,176,128626,1,0,0:0:0:0:
184,176,128777,1,8,0:0:0:0:
224,120,128928,1,8,0:0:0:0:
211,126,129003,1,8,0:0:0:0:
208,152,129078,1,0,0:0:0:0:
193,160,129229,1,0,0:0:0:0:
232,152,129380,1,8,0:0:0:0:
232,152,129531,1,0,0:0:0:0:
232,152,129681,1,8,0:0:0:0:
212,136,129832,1,0,0:0:0:0:
241,125,129907,1,0,0:0:0:0:
232,152,129983,1,8,0:0:0:0:
232,152,130134,1,8,0:0:0:0:
232,152,130435,1,0,0:0:0:0:
232,152,130586,1,0,0:0:0:0:
316,152,130661,1,0,0:0:0:0:
232,152,130737,1,8,0:0:0:0:
216,132,130887,1,0,0:0:0:0:
232,152,131038,1,8,0:0:0:0:
311,198,131189,1,0,0:0:0:0:
276,156,131340,1,0,0:0:0:0:
276,156,131490,1,8,0:0:0:0:
120,128,131641,1,0,0:0:0:0:
120,128,131716,1,0,0:0:0:0:
276,156,131792,1,0,0:0:0:0:
276,156,131943,1,0,0:0:0:0:
276,156,132093,1,8,0:0:0:0:
264,138,132395,1,0,0:0:0:0:
145,157,132546,1,0,0:0:0:0:
277,145,132696,1,8,0:0:0:0:
277,145,132772,1,8,0:0:0:0:
276,144,132847,1,8,0:0:0:0:
296,104,132922,1,8,0:0:0:0:
183,138,132998,1,0,0:0:0:0:
218,136,133149,1,8,0:0:0:0:
345,214,133299,1,0,0:0:0:0:
313,191,133450,1,0,0:0:0:0:
313,191,133601,1,8,0:0:0:0:
313,191,133676,1,8,0:0:0:0:
313,191,133752,1,8,0:0:0:0:
260,167,133827,1,8,0:0:0:0:
313,191,133902,1,0,0:0:0:0:
98,137,134053,1,0,0:0:0:0:
209,81,134204,1,8,0:0:0:0:
327,209,134355,1,0,0:0:0:0:
205,81,134430,1,0,0:0:0:0:
305,202,134505,1,8,0:0:0:0:
304,201,134807,1,8,0:0:0:0:
305,202,134958,1,0,0:0:0:0:
305,202,135108,1,8,0:0:0:0:
269,151,135259,1,0,0:0:0:0:
305,139,135410,1,8,0:0:0:0:
305,139,135485,1,8,0:0:0:0:
305,139,135561,1,8,0:0:0:0:
311,152,135711,1,0,0:0:0:0:
46,83,135787,1,0,0:0:0:0:
187,135,135862,1,0,0:0:0:0:
264,72,135938,1,0,0:0:0:0:
264,152,136013,1,8,0:0:0:0:
264,152,136164,1,0,0:0:0:0:
263,152,136314,1,8,0:0:0:0:
313,191,136390,1,8,0:0:0:0:
263,152,136465,1,8,0:0:0:0:
291,163,136541,1,8,0:0:0:0:
263,152,136616,1,0,0:0:0:0:
263,152,136767,1,0,0:0:0:0:
260,151,136917,1,8,0:0:0:0:
161,157,137520,1,4,0:0:0:0:
265,183,138726,1,0,0:0:0:0:
264,182,139932,1,0,0:0:0:0:
373,150,140082,1,8,0:0:0:0:
386,149,140233,1,0,0:0:0:0:
386,149,140384,1,0,0:0:0:0:
386,149,140535,1,8,0:0:0:0:
386,149,140685,1,0,0:0:0:0:
386,149,140836,1,8,0:0:0:0:
386,149,140987,1,8,0:0:0:0:
269,151,141138,1,0,0:0:0:0:
386,149,141288,1,8,0:0:0:0:
386,149,141439,1,0,0:0:0:0:
386,149,141590,1,0,0:0:0:0:
386,149,141741,1,8,0:0:0:0:
386,149,141816,1,8,0:0:0:0:
386,149,141891,1,8,0:0:0:0:
386,149,141967,1,8,0:0:0:0:
386,149,142042,1,0,0:0:0:0:
386,149,142193,1,0,0:0:0:0:
269,151,142344,1,8,0:0:0:0:
