osu file format v14

[General]
AudioFilename: audio.ogg
AudioLeadIn: 0
PreviewTime: 97421
Countdown: 0
SampleSet: Normal
StackLeniency: 0.7
Mode: 1
LetterboxInBreaks: 0
WidescreenStoryboard: 1

[Editor]
DistanceSpacing: 0.85
BeatDivisor: 4
GridSize: 4
TimelineZoom: 0.9

[Metadata]
Title:solips
TitleUnicode:sølips
Artist:rintaro soma
ArtistUnicode:rintaro soma
Creator:Raytoly
Version:EXPERT
Source:maimai でらっくす UNiVERSE PLUS
Tags:dx deluxe ユニバースプラス + PERFECT CHALLENGE DiSC PLUS -UNiVERSE- optie sega Video Game Electronic Instrumental
BeatmapID:3823662
BeatmapSetID:1859776

[Difficulty]
HPDrainRate:6
CircleSize:7
OverallDifficulty:5
ApproachRate:10
SliderMultiplier:1.4
SliderTickRate:1

[Events]
//Background and Video events
0,0,"solips.png",0,0
Video,0,"solips video.mp4"
//Break Periods
//Storyboard Layer 0 (Background)
//Storyboard Layer 1 (Fail)
//Storyboard Layer 2 (Pass)
//Storyboard Layer 3 (Foreground)
//Storyboard Layer 4 (Overlay)
//Storyboard Sound Samples

[TimingPoints]
35,301.507537688442,4,1,0,20,1,0
5085,-100,4,1,0,20,0,0
19331,301.507537688442,4,1,0,10,1,8
19331,-100,4,1,0,10,0,8
19934,301.507537688442,4,1,0,60,1,0
19934,-100,4,1,0,60,0,0
38024,301.507537688442,4,1,0,60,1,0
47672,-100,4,1,0,20,0,0
51290,-100,4,1,0,60,0,0
57320,-100,4,1,0,60,0,1
66968,-100,4,1,0,60,0,0
67044,-100,4,1,0,20,0,0
76616,-100,4,1,0,40,0,0
86415,-100,4,1,0,20,0,0
93501,-100,4,1,0,40,0,0
98325,301.507537688442,4,1,0,60,1,0
98325,-100,4,1,0,60,0,1
136917,301.507537688442,4,1,0,60,1,8
136917,-100,4,1,0,60,0,0
137520,301.507537688442,4,1,0,10,1,0
137520,-100,4,1,0,10,0,0
139630,-100,4,1,0,10,0,0
139705,-100,4,1,0,10,0,0
139781,-100,4,1,0,20,0,0
139856,-100,4,1,0,30,0,0
139932,-100,4,1,0,40,0,0

[HitObjects]
153,150,4859,5,4,0:0:0:0:
304,98,5311,1,0,0:0:0:0:
304,98,5612,1,8,0:0:0:0:
304,98,5914,1,0,0:0:0:0:
159,162,6969,1,0,0:0:0:0:
159,162,7271,1,8,0:0:0:0:
150,145,7723,1,0,0:0:0:0:
150,145,8024,1,8,0:0:0:0:
151,141,8326,1,0,0:0:0:0:
303,157,9381,1,0,0:0:0:0:
303,157,9683,1,8,0:0:0:0:
303,157,10135,1,0,0:0:0:0:
303,157,10437,1,8,0:0:0:0:
303,157,10738,1,0,0:0:0:0:
319,177,11793,1,0,0:0:0:0:
312,174,12095,1,8,0:0:0:0:
111,228,14507,1,0,0:0:0:0:
166,132,15713,1,0,0:0:0:0:
200,170,16919,1,0,0:0:0:0:
201,170,18125,1,0,0:0:0:0:
201,170,19331,1,8,0:0:0:0:
296,204,19934,1,0,0:0:0:0:
296,204,20084,1,0,0:0:0:0:
296,204,20235,1,0,0:0:0:0:
296,204,20386,1,0,0:0:0:0:
296,204,20537,1,8,0:0:0:0:
166,160,20838,1,8,0:0:0:0:
166,160,21140,1,0,0:0:0:0:
224,160,21290,1,0,0:0:0:0:
295,177,21441,1,8,0:0:0:0:
295,177,21592,1,8,0:0:0:0:
295,177,21743,1,0,0:0:0:0:
295,177,22044,1,8,0:0:0:0:
279,183,22119,1,8,0:0:0:0:
279,183,22195,1,8,0:0:0:0:
295,177,22346,1,0,0:0:0:0:
270,212,22949,1,0,0:0:0:0:
251,150,23250,1,8,0:0:0:0:
251,150,23401,1,8,0:0:0:0:
251,150,23552,1,0,0:0:0:0:
296,185,23702,1,8,0:0:0:0:
296,185,23778,1,8,0:0:0:0:
251,150,23853,1,8,0:0:0:0:
251,150,24004,1,8,0:0:0:0:
251,150,24155,1,0,0:0:0:0:
251,150,24305,1,0,0:0:0:0:
283,178,24607,1,8,0:0:0:0:
283,178,24758,1,0,0:0:0:0:
225,103,24908,1,8,0:0:0:0:
213,133,25059,1,0,0:0:0:0:
213,133,25210,1,0,0:0:0:0:
213,133,25361,1,8,0:0:0:0:
203,120,25662,1,8,0:0:0:0:
203,120,25964,1,0,0:0:0:0:
331,247,26114,1,8,0:0:0:0:
331,247,26416,1,8,0:0:0:0:
331,247,26567,1,0,0:0:0:0:
240,190,26717,1,8,0:0:0:0:
240,190,26868,1,8,0:0:0:0:
240,190,27019,1,8,0:0:0:0:
240,190,27170,1,0,0:0:0:0:
240,190,27320,1,8,0:0:0:0:
216,151,27622,1,8,0:0:0:0:
216,151,27773,1,0,0:0:0:0:
216,151,28074,1,8,0:0:0:0:
216,151,28225,1,0,0:0:0:0:
216,151,28376,1,8,0:0:0:0:
142,134,28526,1,0,0:0:0:0:
142,134,28602,1,0,0:0:0:0:
278,201,28677,1,0,0:0:0:0:
278,201,28828,1,8,0:0:0:0:
278,201,28979,1,0,0:0:0:0:
278,201,29129,1,0,0:0:0:0:
278,201,29280,1,0,0:0:0:0:
278,201,29431,1,0,0:0:0:0:
278,201,29582,1,8,0:0:0:0:
187,177,30185,1,8,0:0:0:0:
177,149,30939,1,12,0:0:0:0:
251,142,31240,1,0,0:0:0:0:
251,142,31391,1,8,0:0:0:0:
251,142,31542,1,0,0:0:0:0:
251,142,31843,1,8,0:0:0:0:
251,142,31994,1,0,0:0:0:0:
234,132,32295,1,0,0:0:0:0:
234,132,32446,1,8,0:0:0:0:
239,154,32748,1,0,0:0:0:0:
238,153,32898,1,8,0:0:0:0:
239,154,33049,1,8,0:0:0:0:
239,154,33200,1,0,0:0:0:0:
239,154,33351,1,8,0:0:0:0:
239,154,33501,1,0,0:0:0:0:
239,154,33652,1,0,0:0:0:0:
239,154,33803,1,8,0:0:0:0:
242,122,33954,1,0,0:0:0:0:
350,208,34029,1,0,0:0:0:0:
216,115,34104,1,0,0:0:0:0:
216,115,34255,1,0,0:0:0:0:
216,115,34406,1,8,0:0:0:0:
216,115,34707,1,8,0:0:0:0:
216,115,34858,1,0,0:0:0:0:
232,96,35009,1,8,0:0:0:0:
232,96,35160,1,8,0:0:0:0:
232,96,35310,1,0,0:0:0:0:
232,96,35461,1,8,0:0:0:0:
232,96,35612,1,0,0:0:0:0:
306,160,35913,1,8,0:0:0:0:
274,218,36064,1,0,0:0:0:0:
192,120,36215,1,8,0:0:0:0:
372,254,36290,1,8,0:0:0:0:
192,120,36366,1,8,0:0:0:0:
192,120,36516,1,0,0:0:0:0:
192,120,36667,1,0,0:0:0:0:
246,137,36818,1,8,0:0:0:0:
153,131,36969,1,8,0:0:0:0:
257,151,37119,1,0,0:0:0:0:
280,198,37421,1,8,0:0:0:0:
419,170,38024,1,8,0:0:0:0:
326,258,38325,1,0,0:0:0:0:
326,258,38476,1,8,0:0:0:0:
326,258,38777,1,0,0:0:0:0:
326,258,38928,1,8,0:0:0:0:
326,258,39079,1,0,0:0:0:0:
326,258,39230,1,0,0:0:0:0:
326,258,39380,1,8,0:0:0:0:
326,258,39531,1,0,0:0:0:0:
230,139,39833,1,8,0:0:0:0:
252,137,39983,1,0,0:0:0:0:
252,137,40134,1,8,0:0:0:0:
348,202,40209,1,8,0:0:0:0:
348,202,40285,1,8,0:0:0:0:
252,137,40436,1,0,0:0:0:0:
252,137,40888,1,0,0:0:0:0:
252,137,41189,1,8,0:0:0:0:
252,137,41340,1,0,0:0:0:0:
252,137,41491,1,0,0:0:0:0:
252,137,41642,1,8,0:0:0:0:
214,56,41792,1,8,0:0:0:0:
226,165,41943,1,0,0:0:0:0:
239,179,42245,1,0,0:0:0:0:
302,165,42395,1,8,0:0:0:0:
302,165,42546,1,0,0:0:0:0:
302,165,42697,1,0,0:0:0:0:
239,179,42848,1,8,0:0:0:0:
281,158,43149,1,0,0:0:0:0:
281,158,43300,1,8,0:0:0:0:
281,158,43601,1,8,0:0:0:0:
281,158,43752,1,0,0:0:0:0:
281,158,43903,1,0,0:0:0:0:
281,158,44054,1,8,0:0:0:0:
281,158,44204,1,0,0:0:0:0:
281,158,44355,1,8,0:0:0:0:
251,159,44657,1,8,0:0:0:0:
251,159,44807,1,0,0:0:0:0:
204,163,44958,1,8,0:0:0:0:
204,163,45034,1,8,0:0:0:0:
228,109,45109,1,8,0:0:0:0:
251,159,45260,1,8,0:0:0:0:
244,127,45561,1,0,0:0:0:0:
244,127,45712,1,8,0:0:0:0:
244,127,45863,1,0,0:0:0:0:
244,127,46013,1,0,0:0:0:0:
244,127,46164,1,8,0:0:0:0:
244,127,46315,1,0,0:0:0:0:
244,127,46466,1,8,0:0:0:0:
222,153,46616,1,0,0:0:0:0:
222,153,46692,1,0,0:0:0:0:
244,127,46767,1,0,0:0:0:0:
244,127,46918,1,8,0:0:0:0:
244,127,47069,1,0,0:0:0:0:
244,127,47219,1,0,0:0:0:0:
244,127,47370,1,8,0:0:0:0:
244,127,47521,1,8,0:0:0:0:
244,127,47672,1,0,0:0:0:0:
239,120,48878,1,0,0:0:0:0:
239,120,50084,1,0,0:0:0:0:
242,120,51290,1,8,0:0:0:0:
199,113,51491,1,8,0:0:0:0:
208,115,51692,1,8,0:0:0:0:
208,115,51893,1,0,0:0:0:0:
208,115,52094,1,0,0:0:0:0:
208,115,52295,1,0,0:0:0:0:
208,115,52496,1,8,0:0:0:0:
264,152,52797,1,8,0:0:0:0:
264,152,52948,1,0,0:0:0:0:
264,152,53250,1,0,0:0:0:0:
264,152,53400,1,8,0:0:0:0:
277,137,53551,1,8,0:0:0:0:
264,152,53702,1,0,0:0:0:0:
188,118,54003,1,8,0:0:0:0:
188,118,54154,1,8,0:0:0:0:
188,118,54305,1,0,0:0:0:0:
210,132,54456,1,0,0:0:0:0:
195,136,54606,1,8,0:0:0:0:
195,136,54908,1,0,0:0:0:0:
252,141,55059,1,0,0:0:0:0:
252,141,55209,1,8,0:0:0:0:
252,141,55662,1,8,0:0:0:0:
252,141,55812,1,0,0:0:0:0:
252,141,56114,1,8,0:0:0:0:
241,134,56265,1,8,0:0:0:0:
241,134,56415,1,0,0:0:0:0:
241,134,56566,1,0,0:0:0:0:
241,134,56717,1,8,0:0:0:0:
241,134,56868,1,0,0:0:0:0:
241,134,57018,1,8,0:0:0:0:
315,207,57094,1,8,0:0:0:0:
241,134,57169,1,8,0:0:0:0:
241,134,57320,1,0,0:0:0:0:
241,147,57546,1,0,0:0:0:0:
241,147,57772,1,8,0:0:0:0:
83,155,57923,1,0,0:0:0:0:
113,155,58074,1,8,0:0:0:0:
113,155,58225,1,0,0:0:0:0:
198,168,58451,1,0,0:0:0:0:
198,168,58677,1,8,0:0:0:0:
198,168,59129,1,0,0:0:0:0:
211,167,59280,1,0,0:0:0:0:
248,101,59431,1,8,0:0:0:0:
247,80,59506,1,8,0:0:0:0:
220,85,59581,5,8,0:0:0:0:
319,220,59732,1,0,0:0:0:0:
281,201,59958,1,0,0:0:0:0:
281,201,60184,1,8,0:0:0:0:
281,201,60335,1,0,0:0:0:0:
269,165,60486,1,8,0:0:0:0:
269,165,60637,1,0,0:0:0:0:
269,165,60863,1,0,0:0:0:0:
269,165,61089,1,8,0:0:0:0:
269,165,61541,1,0,0:0:0:0:
152,83,61843,1,8,0:0:0:0:
164,133,62144,1,0,0:0:0:0:
296,203,62370,1,0,0:0:0:0:
296,203,62596,1,8,0:0:0:0:
296,203,62747,1,0,0:0:0:0:
296,203,62898,1,8,0:0:0:0:
296,203,63049,1,0,0:0:0:0:
296,203,63275,1,0,0:0:0:0:
296,203,63501,1,8,0:0:0:0:
296,203,63953,1,0,0:0:0:0:
329,202,64029,1,0,0:0:0:0:
329,202,64104,1,0,0:0:0:0:
329,202,64255,1,8,0:0:0:0:
329,202,64556,1,0,0:0:0:0:
237,149,64707,1,0,0:0:0:0:
237,149,64858,1,8,0:0:0:0:
237,149,65008,1,0,0:0:0:0:
261,142,65084,1,0,0:0:0:0:
237,149,65159,1,0,0:0:0:0:
373,210,65310,1,0,0:0:0:0:
237,149,65461,1,8,0:0:0:0:
237,149,65611,1,8,0:0:0:0:
221,159,66365,1,8,0:0:0:0:
221,159,66667,1,8,0:0:0:0:
221,159,66968,1,0,0:0:0:0:
269,131,67873,1,8,0:0:0:0:
269,131,68777,1,8,0:0:0:0:
269,131,69380,1,0,0:0:0:0:
255,83,70285,1,8,0:0:0:0:
255,83,71189,1,8,0:0:0:0:
255,83,71792,1,0,0:0:0:0:
248,108,72697,1,8,0:0:0:0:
248,108,73601,1,8,0:0:0:0:
248,108,74204,1,0,0:0:0:0:
248,108,74807,1,8,0:0:0:0:
200,132,75712,1,8,0:0:0:0:
200,132,76013,1,8,0:0:0:0:
200,132,76164,1,0,0:0:0:0:
184,136,76616,1,0,0:0:0:0:
244,160,77219,1,0,0:0:0:0:
200,152,77672,1,0,0:0:0:0:
200,152,78124,1,0,0:0:0:0:
200,152,78576,1,0,0:0:0:0:
200,152,79029,1,0,0:0:0:0:
200,152,79933,1,0,0:0:0:0:
200,152,80235,1,8,0:0:0:0:
200,152,80687,1,0,0:0:0:0:
200,152,81139,1,0,0:0:0:0:
200,152,81441,1,8,0:0:0:0:
200,152,82044,1,0,0:0:0:0:
240,136,82496,1,0,0:0:0:0:
240,136,82948,1,0,0:0:0:0:
240,136,83250,1,8,0:0:0:0:
240,136,83853,1,0,0:0:0:0:
236,144,84456,1,8,0:0:0:0:
236,144,84757,1,0,0:0:0:0:
236,144,85360,1,8,0:0:0:0:
236,144,85662,1,8,0:0:0:0:
236,144,85812,1,0,0:0:0:0:
196,148,86265,1,0,0:0:0:0:
168,120,86717,1,0,0:0:0:0:
168,120,87018,1,8,0:0:0:0:
168,120,87320,1,0,0:0:0:0:
168,120,88375,1,0,0:0:0:0:
168,120,88677,1,8,0:0:0:0:
184,116,89129,1,0,0:0:0:0:
184,116,89431,1,8,0:0:0:0:
184,116,89732,1,0,0:0:0:0:
188,152,90787,1,0,0:0:0:0:
276,148,91089,1,8,0:0:0:0:
159,97,91993,1,8,0:0:0:0:
159,97,92295,1,8,0:0:0:0:
159,97,92898,1,8,0:0:0:0:
192,152,93501,1,0,0:0:0:0:
152,156,93652,1,0,0:0:0:0:
192,152,93802,1,8,0:0:0:0:
192,152,94104,1,0,0:0:0:0:
168,148,94255,1,0,0:0:0:0:
192,152,94405,1,8,0:0:0:0:
192,152,94707,1,0,0:0:0:0:
168,148,94858,1,0,0:0:0:0:
192,152,95008,1,8,0:0:0:0:
192,152,95310,1,0,0:0:0:0:
168,148,95461,1,0,0:0:0:0:
192,152,95611,1,8,0:0:0:0:
168,148,95913,1,0,0:0:0:0:
168,148,96064,1,0,0:0:0:0:
168,148,96214,1,8,0:0:0:0:
168,148,96365,1,0,0:0:0:0:
168,148,96516,1,8,0:0:0:0:
232,124,96591,1,8,0:0:0:0:
168,148,96667,1,8,0:0:0:0:
168,148,96817,1,0,0:0:0:0:
168,148,96968,1,8,0:0:0:0:
168,148,97119,1,0,0:0:0:0:
188,152,98325,1,8,0:0:0:0:
256,140,98475,1,0,0:0:0:0:
256,140,98626,1,8,0:0:0:0:
344,184,98928,1,8,0:0:0:0:
304,232,99078,1,0,0:0:0:0:
304,232,99154,1,0,0:0:0:0:
304,232,99229,1,0,0:0:0:0:
280,160,99380,1,8,0:0:0:0:
184,176,99681,1,0,0:0:0:0:
184,176,99832,1,8,0:0:0:0:
224,120,99983,1,8,0:0:0:0:
208,152,100134,1,0,0:0:0:0:
232,152,100435,1,0,0:0:0:0:
232,152,100586,1,0,0:0:0:0:
232,152,100737,1,8,0:0:0:0:
212,136,100887,1,0,0:0:0:0:
232,152,101038,1,8,0:0:0:0:
232,152,101189,1,8,0:0:0:0:
232,152,101490,1,0,0:0:0:0:
232,152,101641,1,0,0:0:0:0:
232,152,101792,1,8,0:0:0:0:
216,132,101943,1,0,0:0:0:0:
232,152,102093,1,8,0:0:0:0:
276,156,102395,1,0,0:0:0:0:
276,156,102546,1,8,0:0:0:0:
120,128,102696,1,0,0:0:0:0:
120,128,102772,1,0,0:0:0:0:
276,156,102847,1,0,0:0:0:0:
276,156,102998,1,0,0:0:0:0:
276,156,103149,1,8,0:0:0:0:
236,148,103601,1,8,0:0:0:0:
195,141,103902,1,0,0:0:0:0:
195,141,104053,1,8,0:0:0:0:
195,141,104204,1,8,0:0:0:0:
195,141,104355,1,0,0:0:0:0:
243,130,104505,1,0,0:0:0:0:
243,130,104656,1,8,0:0:0:0:
148,149,104958,1,0,0:0:0:0:
148,149,105108,1,0,0:0:0:0:
148,149,105259,1,8,0:0:0:0:
148,149,105410,1,0,0:0:0:0:
148,149,105561,1,8,0:0:0:0:
215,131,105862,1,0,0:0:0:0:
215,131,106013,1,0,0:0:0:0:
215,131,106164,1,8,0:0:0:0:
215,131,106314,1,0,0:0:0:0:
215,131,106465,1,0,0:0:0:0:
215,131,106616,1,8,0:0:0:0:
215,131,106917,1,0,0:0:0:0:
256,162,107370,1,8,0:0:0:0:
256,162,107445,1,8,0:0:0:0:
256,162,107520,1,8,0:0:0:0:
212,162,107671,1,0,0:0:0:0:
188,152,107973,1,8,0:0:0:0:
256,140,108123,1,0,0:0:0:0:
256,140,108274,1,8,0:0:0:0:
344,184,108576,1,8,0:0:0:0:
304,232,108727,1,0,0:0:0:0:
304,232,108802,1,0,0:0:0:0:
304,232,108877,1,0,0:0:0:0:
280,160,109028,1,8,0:0:0:0:
184,176,109330,1,0,0:0:0:0:
184,176,109480,1,8,0:0:0:0:
224,120,109631,1,8,0:0:0:0:
208,152,109782,1,0,0:0:0:0:
232,152,110083,1,0,0:0:0:0:
232,152,110234,1,0,0:0:0:0:
232,152,110385,1,8,0:0:0:0:
212,136,110536,1,0,0:0:0:0:
232,152,110686,1,8,0:0:0:0:
232,152,110837,1,8,0:0:0:0:
232,152,111139,1,0,0:0:0:0:
232,152,111289,1,8,0:0:0:0:
351,268,111440,1,0,0:0:0:0:
351,268,111515,1,0,0:0:0:0:
216,132,111591,1,0,0:0:0:0:
232,152,111792,1,0,0:0:0:0:
74,175,111993,1,0,0:0:0:0:
214,163,112194,1,8,0:0:0:0:
214,163,112395,1,8,0:0:0:0:
214,163,112596,1,8,0:0:0:0:
214,163,112797,1,0,0:0:0:0:
258,153,113249,1,8,0:0:0:0:
258,153,113400,1,0,0:0:0:0:
213,193,113475,1,0,0:0:0:0:
258,153,113551,1,0,0:0:0:0:
258,153,113701,1,8,0:0:0:0:
258,153,113852,1,0,0:0:0:0:
203,143,114154,1,8,0:0:0:0:
61,98,114304,1,0,0:0:0:0:
221,143,114455,1,8,0:0:0:0:
221,143,114757,1,0,0:0:0:0:
221,143,114907,1,8,0:0:0:0:
221,144,115058,1,8,0:0:0:0:
330,221,115209,1,0,0:0:0:0:
240,127,115510,1,0,0:0:0:0:
240,127,115661,1,8,0:0:0:0:
240,127,116113,1,8,0:0:0:0:
203,152,116264,1,0,0:0:0:0:
240,127,116415,1,0,0:0:0:0:
336,238,116566,1,8,0:0:0:0:
293,191,116867,1,0,0:0:0:0:
293,191,117018,1,8,0:0:0:0:
358,243,117093,1,8,0:0:0:0:
358,243,117169,1,8,0:0:0:0:
358,243,117319,1,0,0:0:0:0:
255,156,117470,1,8,0:0:0:0:
266,116,117621,1,0,0:0:0:0:
213,125,117847,1,0,0:0:0:0:
213,125,118073,1,8,0:0:0:0:
235,154,118224,1,8,0:0:0:0:
235,154,118375,1,8,0:0:0:0:
122,155,118526,1,0,0:0:0:0:
185,144,118752,1,0,0:0:0:0:
185,144,118978,1,8,0:0:0:0:
317,225,119430,1,8,0:0:0:0:
308,175,119581,1,0,0:0:0:0:
96,133,119732,1,8,0:0:0:0:
373,266,119882,1,8,0:0:0:0:
373,266,119958,1,8,0:0:0:0:
130,130,120033,1,8,0:0:0:0:
217,127,120259,1,8,0:0:0:0:
217,127,120485,1,8,0:0:0:0:
217,127,120636,1,0,0:0:0:0:
217,127,120787,1,8,0:0:0:0:
217,127,120938,1,0,0:0:0:0:
178,172,121164,1,0,0:0:0:0:
201,172,121390,1,8,0:0:0:0:
235,154,121842,1,0,0:0:0:0:
235,154,121993,1,0,0:0:0:0:
227,83,122144,1,8,0:0:0:0:
242,101,122219,1,8,0:0:0:0:
242,101,122294,1,8,0:0:0:0:
242,101,122445,1,0,0:0:0:0:
271,119,122671,1,0,0:0:0:0:
288,127,122897,1,8,0:0:0:0:
235,167,123048,1,0,0:0:0:0:
235,167,123199,1,0,0:0:0:0:
235,167,123350,1,8,0:0:0:0:
235,167,123576,1,8,0:0:0:0:
259,162,123802,1,0,0:0:0:0:
259,172,124254,1,8,0:0:0:0:
257,89,124405,1,0,0:0:0:0:
321,118,124556,1,8,0:0:0:0:
107,131,124706,1,8,0:0:0:0:
321,118,124857,1,0,0:0:0:0:
307,187,125083,1,0,0:0:0:0:
307,187,125309,1,0,0:0:0:0:
307,187,125460,1,8,0:0:0:0:
338,191,125762,1,0,0:0:0:0:
338,191,125837,1,0,0:0:0:0:
338,191,125912,1,0,0:0:0:0:
368,227,126063,1,8,0:0:0:0:
251,159,126365,1,0,0:0:0:0:
251,159,126515,1,0,0:0:0:0:
373,133,126666,1,8,0:0:0:0:
188,152,127269,1,8,0:0:0:0:
256,140,127420,1,0,0:0:0:0:
256,140,127571,1,8,0:0:0:0:
344,184,127872,1,8,0:0:0:0:
304,232,128023,1,0,0:0:0:0:
304,232,128098,1,0,0:0:0:0:
304,232,128174,1,0,0:0:0:0:
280,160,128324,1,8,0:0:0:0:
184,176,128626,1,0,0:0:0:0:
184,176,128777,1,8,0:0:0:0:
224,120,128928,1,8,0:0:0:0:
208,152,129078,1,0,0:0:0:0:
232,152,129380,1,0,0:0:0:0:
232,152,129531,1,0,0:0:0:0:
232,152,129681,1,8,0:0:0:0:
212,136,129832,1,0,0:0:0:0:
232,152,129983,1,8,0:0:0:0:
232,152,130134,1,8,0:0:0:0:
232,152,130435,1,0,0:0:0:0:
232,152,130586,1,0,0:0:0:0:
232,152,130737,1,8,0:0:0:0:
216,132,130887,1,0,0:0:0:0:
232,152,131038,1,8,0:0:0:0:
276,156,131340,1,0,0:0:0:0:
276,156,131490,1,8,0:0:0:0:
120,128,131641,1,0,0:0:0:0:
120,128,131716,1,0,0:0:0:0:
276,156,131792,1,0,0:0:0:0:
276,156,131943,1,0,0:0:0:0:
276,156,132093,1,8,0:0:0:0:
145,157,132546,1,0,0:0:0:0:
277,145,132696,1,8,0:0:0:0:
277,145,132772,1,8,0:0:0:0:
276,144,132847,1,8,0:0:0:0:
183,138,132998,1,0,0:0:0:0:
345,214,133299,1,0,0:0:0:0:
313,191,133450,1,0,0:0:0:0:
313,191,133601,1,8,0:0:0:0:
313,191,133676,1,8,0:0:0:0:
313,191,133752,1,8,0:0:0:0:
313,191,133902,1,0,0:0:0:0:
327,209,134204,1,0,0:0:0:0:
327,209,134355,1,0,0:0:0:0:
305,202,134505,1,8,0:0:0:0:
304,201,134807,1,8,0:0:0:0:
305,202,134958,1,0,0:0:0:0:
305,202,135108,1,8,0:0:0:0:
269,151,135259,1,0,0:0:0:0:
305,139,135410,1,8,0:0:0:0:
305,139,135485,1,8,0:0:0:0:
305,139,135561,1,8,0:0:0:0:
311,152,135711,1,0,0:0:0:0:
264,152,136013,1,8,0:0:0:0:
264,152,136164,1,0,0:0:0:0:
263,152,136314,1,8,0:0:0:0:
313,191,136390,1,8,0:0:0:0:
263,152,136465,1,8,0:0:0:0:
263,152,136616,1,0,0:0:0:0:
263,152,136767,1,0,0:0:0:0:
260,151,136917,1,8,0:0:0:0:
161,157,137520,1,4,0:0:0:0:
265,183,138726,1,0,0:0:0:0:
264,182,139932,1,0,0:0:0:0:
264,182,141138,1,0,0:0:0:0:
194,123,141741,1,8,0:0:0:0:
264,182,142344,1,0,0:0:0:0:
