osu file format v14

[General]
AudioFilename: audio.ogg
AudioLeadIn: 0
PreviewTime: 97421
Countdown: 0
SampleSet: Normal
StackLeniency: 0.7
Mode: 1
LetterboxInBreaks: 0
WidescreenStoryboard: 1

[Editor]
DistanceSpacing: 0.85
BeatDivisor: 4
GridSize: 4
TimelineZoom: 0.9

[Metadata]
Title:solips
TitleUnicode:sølips
Artist:rintaro soma
ArtistUnicode:rintaro soma
Creator:Raytoly
Version:ADVANCED
Source:maimai でらっくす UNiVERSE PLUS
Tags:dx deluxe ユニバースプラス + PERFECT CHALLENGE DiSC PLUS -UNiVERSE- optie sega Video Game Electronic Instrumental
BeatmapID:3823646
BeatmapSetID:1859776

[Difficulty]
HPDrainRate:6.5
CircleSize:7
OverallDifficulty:4
ApproachRate:10
SliderMultiplier:1.2
SliderTickRate:1

[Events]
//Background and Video events
0,0,"solips.png",0,0
Video,0,"solips video.mp4"
//Break Periods
//Storyboard Layer 0 (Background)
//Storyboard Layer 1 (Fail)
//Storyboard Layer 2 (Pass)
//Storyboard Layer 3 (Foreground)
//Storyboard Layer 4 (Overlay)
//Storyboard Sound Samples

[TimingPoints]
35,301.507537688442,4,1,0,20,1,0
5085,-100,4,1,0,20,0,0
19331,301.507537688442,4,1,0,10,1,8
19331,-100,4,1,0,10,0,8
19934,301.507537688442,4,1,0,60,1,0
19934,-100,4,1,0,60,0,0
38024,301.507537688442,4,1,0,60,1,0
47672,-100,4,1,0,20,0,0
51290,-100,4,1,0,60,0,0
57320,-100,4,1,0,60,0,1
66968,-100,4,1,0,60,0,0
67044,-100,4,1,0,20,0,0
76616,-100,4,1,0,40,0,0
86415,-100,4,1,0,20,0,0
93501,-100,4,1,0,40,0,0
98325,301.507537688442,4,1,0,60,1,0
98325,-100,4,1,0,60,0,1
136917,301.507537688442,4,1,0,60,1,8
136917,-100,4,1,0,60,0,0
137520,301.507537688442,4,1,0,10,1,0
137520,-100,4,1,0,10,0,0
139630,-100,4,1,0,10,0,0
139705,-100,4,1,0,10,0,0
139781,-100,4,1,0,20,0,0
139856,-100,4,1,0,30,0,0
139932,-100,4,1,0,40,0,0

[HitObjects]
159,154,4859,5,4,0:0:0:0:
229,176,7271,1,0,0:0:0:0:
295,178,9683,1,0,0:0:0:0:
295,178,12095,1,0,0:0:0:0:
316,174,14507,1,0,0:0:0:0:
226,172,15713,1,0,0:0:0:0:
229,173,16919,1,0,0:0:0:0:
230,173,18125,1,0,0:0:0:0:
194,132,19331,1,8,0:0:0:0:
194,132,19934,1,4,0:0:0:0:
230,173,20235,1,8,0:0:0:0:
230,173,20386,1,8,0:0:0:0:
230,173,20537,1,0,0:0:0:0:
230,173,20838,1,8,0:0:0:0:
336,169,21140,1,0,0:0:0:0:
262,204,21441,1,0,0:0:0:0:
262,204,21592,1,0,0:0:0:0:
262,204,21743,1,8,0:0:0:0:
336,169,22044,1,8,0:0:0:0:
336,169,22346,1,0,0:0:0:0:
256,232,22949,1,0,0:0:0:0:
256,232,23250,1,8,0:0:0:0:
256,232,23401,1,8,0:0:0:0:
226,125,23552,1,0,0:0:0:0:
176,137,23853,1,8,0:0:0:0:
256,97,24004,1,8,0:0:0:0:
246,156,24155,1,0,0:0:0:0:
246,156,24305,1,0,0:0:0:0:
246,156,24607,1,8,0:0:0:0:
127,124,24758,1,0,0:0:0:0:
205,149,25059,1,8,0:0:0:0:
205,149,25210,1,8,0:0:0:0:
205,149,25361,1,0,0:0:0:0:
205,149,25662,1,8,0:0:0:0:
237,140,25964,1,0,0:0:0:0:
306,174,26114,1,8,0:0:0:0:
237,140,26416,1,8,0:0:0:0:
378,194,26567,1,0,0:0:0:0:
237,140,26868,1,8,0:0:0:0:
237,140,27170,1,0,0:0:0:0:
303,190,27320,1,8,0:0:0:0:
303,190,27471,1,0,0:0:0:0:
237,140,27773,1,0,0:0:0:0:
216,151,28376,1,0,0:0:0:0:
241,142,28526,1,8,0:0:0:0:
216,151,28677,1,0,0:0:0:0:
216,151,28979,1,0,0:0:0:0:
191,163,29129,1,0,0:0:0:0:
191,163,29280,1,0,0:0:0:0:
191,163,29431,1,0,0:0:0:0:
216,151,29582,1,8,0:0:0:0:
246,134,30185,1,8,0:0:0:0:
160,122,30939,1,12,0:0:0:0:
288,203,31391,1,0,0:0:0:0:
247,100,31542,1,8,0:0:0:0:
288,203,31843,1,8,0:0:0:0:
296,173,31994,1,0,0:0:0:0:
306,159,32295,1,8,0:0:0:0:
251,179,32597,1,0,0:0:0:0:
323,202,32748,1,0,0:0:0:0:
306,159,32898,1,8,0:0:0:0:
306,159,33200,1,0,0:0:0:0:
224,158,33501,1,8,0:0:0:0:
306,159,33803,1,8,0:0:0:0:
249,127,33954,1,8,0:0:0:0:
306,159,34104,1,0,0:0:0:0:
227,163,34406,1,8,0:0:0:0:
306,159,35009,1,8,0:0:0:0:
192,143,35310,1,0,0:0:0:0:
192,143,35461,1,8,0:0:0:0:
306,159,35612,1,0,0:0:0:0:
306,159,35913,1,0,0:0:0:0:
192,143,36064,1,8,0:0:0:0:
334,186,36366,1,0,0:0:0:0:
306,159,36516,1,0,0:0:0:0:
334,186,36667,1,0,0:0:0:0:
172,127,36818,1,0,0:0:0:0:
369,212,36969,1,0,0:0:0:0:
306,159,37119,1,8,0:0:0:0:
306,159,38024,1,8,0:0:0:0:
258,163,38325,1,0,0:0:0:0:
231,147,38476,1,8,0:0:0:0:
258,163,38777,1,8,0:0:0:0:
231,147,38928,1,0,0:0:0:0:
258,163,39230,1,0,0:0:0:0:
231,147,39380,1,8,0:0:0:0:
258,163,39531,1,0,0:0:0:0:
271,142,39833,1,0,0:0:0:0:
271,142,40436,1,0,0:0:0:0:
258,120,40737,1,8,0:0:0:0:
271,142,40888,1,0,0:0:0:0:
271,142,41189,1,8,0:0:0:0:
258,120,41491,1,0,0:0:0:0:
271,142,41642,1,8,0:0:0:0:
191,142,41943,1,0,0:0:0:0:
191,142,42245,1,0,0:0:0:0:
191,142,42395,1,8,0:0:0:0:
191,142,42546,1,0,0:0:0:0:
191,142,42697,1,0,0:0:0:0:
271,194,42848,1,8,0:0:0:0:
224,133,43149,1,0,0:0:0:0:
271,194,43300,1,8,0:0:0:0:
224,133,43601,1,8,0:0:0:0:
271,194,43752,1,0,0:0:0:0:
236,146,44054,1,0,0:0:0:0:
271,194,44204,1,8,0:0:0:0:
236,146,44355,1,0,0:0:0:0:
271,194,44657,1,0,0:0:0:0:
271,194,44958,1,0,0:0:0:0:
271,194,45260,1,8,0:0:0:0:
206,127,45863,1,0,0:0:0:0:
210,151,46164,1,0,0:0:0:0:
210,151,46315,1,0,0:0:0:0:
214,128,46466,1,8,0:0:0:0:
214,128,46767,1,8,0:0:0:0:
214,128,47069,1,0,0:0:0:0:
210,151,47219,1,0,0:0:0:0:
206,127,47370,1,8,0:0:0:0:
210,151,47521,1,8,0:0:0:0:
214,128,47672,1,0,0:0:0:0:
326,204,48878,1,0,0:0:0:0:
326,204,50084,1,0,0:0:0:0:
326,204,51290,1,8,0:0:0:0:
214,159,51893,1,8,0:0:0:0:
212,172,52496,1,4,0:0:0:0:
216,123,52797,1,0,0:0:0:0:
173,172,52948,1,8,0:0:0:0:
216,123,53250,1,8,0:0:0:0:
173,172,53400,1,0,0:0:0:0:
216,123,53702,1,8,0:0:0:0:
280,202,54003,1,0,0:0:0:0:
179,141,54154,1,0,0:0:0:0:
280,202,54305,1,8,0:0:0:0:
179,141,54606,1,0,0:0:0:0:
274,201,54908,1,8,0:0:0:0:
206,68,55209,1,0,0:0:0:0:
274,201,55812,1,0,0:0:0:0:
274,201,56114,1,8,0:0:0:0:
197,111,56415,1,0,0:0:0:0:
197,111,56566,1,0,0:0:0:0:
274,201,56717,1,8,0:0:0:0:
197,111,57018,1,8,0:0:0:0:
197,111,57169,1,8,0:0:0:0:
274,201,57320,1,0,0:0:0:0:
215,168,57546,1,0,0:0:0:0:
316,148,57772,1,8,0:0:0:0:
238,157,58225,1,0,0:0:0:0:
215,168,58451,1,0,0:0:0:0:
238,157,58677,1,8,0:0:0:0:
238,157,59129,1,0,0:0:0:0:
215,168,59280,1,0,0:0:0:0:
215,168,59431,1,8,0:0:0:0:
238,157,59732,1,0,0:0:0:0:
197,136,59958,1,0,0:0:0:0:
238,157,60184,1,8,0:0:0:0:
238,157,60637,1,0,0:0:0:0:
197,136,60863,1,0,0:0:0:0:
238,157,61089,1,8,0:0:0:0:
196,168,61541,1,0,0:0:0:0:
288,184,62144,1,0,0:0:0:0:
241,107,62370,1,0,0:0:0:0:
288,184,62596,1,8,0:0:0:0:
288,184,63049,1,0,0:0:0:0:
241,107,63275,1,0,0:0:0:0:
288,184,63501,1,8,0:0:0:0:
208,152,63953,1,0,0:0:0:0:
241,107,64255,1,8,0:0:0:0:
208,152,64556,1,0,0:0:0:0:
252,90,64858,1,0,0:0:0:0:
252,90,65159,1,0,0:0:0:0:
252,90,65310,1,0,0:0:0:0:
252,90,65461,1,0,0:0:0:0:
252,90,65611,1,8,0:0:0:0:
208,152,66365,1,8,0:0:0:0:
208,152,66667,1,8,0:0:0:0:
208,152,66968,1,0,0:0:0:0:
296,192,69380,1,0,0:0:0:0:
296,192,71792,1,0,0:0:0:0:
296,192,74204,1,0,0:0:0:0:
296,192,76616,1,0,0:0:0:0:
304,196,79933,1,0,0:0:0:0:
304,196,80235,1,8,0:0:0:0:
304,196,80687,1,0,0:0:0:0:
304,196,81139,1,0,0:0:0:0:
304,196,81441,1,8,0:0:0:0:
256,128,83250,1,8,0:0:0:0:
256,128,83853,1,0,0:0:0:0:
232,204,86265,1,0,0:0:0:0:
300,144,88677,1,0,0:0:0:0:
256,192,91089,1,0,0:0:0:0:
256,192,93501,1,0,0:0:0:0:
275,192,93802,1,8,0:0:0:0:
256,192,94104,1,0,0:0:0:0:
275,192,94405,1,8,0:0:0:0:
256,192,94707,1,0,0:0:0:0:
275,192,95008,1,8,0:0:0:0:
256,192,95310,1,0,0:0:0:0:
275,192,95611,1,8,0:0:0:0:
257,186,95913,1,0,0:0:0:0:
257,186,96064,1,0,0:0:0:0:
268,124,96214,1,8,0:0:0:0:
268,124,96516,1,8,0:0:0:0:
257,186,96667,1,8,0:0:0:0:
257,186,96817,1,8,0:0:0:0:
256,192,96968,1,8,0:0:0:0:
268,124,97119,1,0,0:0:0:0:
232,192,98325,1,8,0:0:0:0:
260,184,98626,1,8,0:0:0:0:
231,168,98928,1,0,0:0:0:0:
262,159,99078,1,0,0:0:0:0:
231,168,99229,1,0,0:0:0:0:
260,184,99380,1,8,0:0:0:0:
262,159,99681,1,8,0:0:0:0:
325,192,99832,1,0,0:0:0:0:
184,132,100134,1,8,0:0:0:0:
184,132,100737,1,8,0:0:0:0:
184,132,101038,1,8,0:0:0:0:
237,148,101189,1,0,0:0:0:0:
184,132,101490,1,0,0:0:0:0:
161,143,101641,1,0,0:0:0:0:
184,132,101792,1,8,0:0:0:0:
184,132,102093,1,0,0:0:0:0:
259,96,102395,1,0,0:0:0:0:
184,132,102546,1,8,0:0:0:0:
259,96,102696,1,0,0:0:0:0:
259,96,102998,1,0,0:0:0:0:
228,148,103149,1,8,0:0:0:0:
228,148,103601,1,8,0:0:0:0:
228,148,104053,1,8,0:0:0:0:
300,157,104204,1,8,0:0:0:0:
300,157,104355,1,0,0:0:0:0:
300,157,104656,1,0,0:0:0:0:
296,133,105108,1,0,0:0:0:0:
264,160,105259,1,0,0:0:0:0:
296,133,105410,1,8,0:0:0:0:
264,160,105561,1,8,0:0:0:0:
204,156,105862,1,0,0:0:0:0:
204,156,106164,1,8,0:0:0:0:
217,128,106314,1,0,0:0:0:0:
217,128,106465,1,0,0:0:0:0:
216,148,106616,1,8,0:0:0:0:
216,148,106917,1,0,0:0:0:0:
217,128,107219,1,0,0:0:0:0:
216,148,107370,1,8,0:0:0:0:
232,192,107973,1,8,0:0:0:0:
260,184,108274,1,8,0:0:0:0:
260,184,108576,1,0,0:0:0:0:
299,155,108727,1,0,0:0:0:0:
299,155,108877,1,0,0:0:0:0:
260,184,109028,1,8,0:0:0:0:
299,155,109330,1,8,0:0:0:0:
184,132,109480,1,0,0:0:0:0:
184,132,109782,1,8,0:0:0:0:
184,132,110385,1,8,0:0:0:0:
184,132,110686,1,8,0:0:0:0:
274,111,110837,1,0,0:0:0:0:
184,132,111139,1,0,0:0:0:0:
164,151,111289,1,8,0:0:0:0:
164,151,111440,1,8,0:0:0:0:
184,132,111591,1,0,0:0:0:0:
105,132,112194,1,8,0:0:0:0:
204,152,112797,1,0,0:0:0:0:
216,168,113249,1,0,0:0:0:0:
290,155,113551,1,0,0:0:0:0:
290,155,113701,1,8,0:0:0:0:
216,168,113852,1,8,0:0:0:0:
216,176,114154,1,8,0:0:0:0:
216,176,114455,1,0,0:0:0:0:
225,135,114757,1,0,0:0:0:0:
225,135,114907,1,0,0:0:0:0:
225,135,115058,1,8,0:0:0:0:
308,160,115209,1,8,0:0:0:0:
316,152,115510,1,8,0:0:0:0:
280,164,115661,1,0,0:0:0:0:
316,152,115963,1,0,0:0:0:0:
280,164,116113,1,8,0:0:0:0:
316,152,116415,1,8,0:0:0:0:
280,164,116566,1,8,0:0:0:0:
316,152,116867,1,8,0:0:0:0:
280,164,117018,1,0,0:0:0:0:
240,168,117621,1,0,0:0:0:0:
295,139,117847,1,0,0:0:0:0:
240,168,118073,1,8,0:0:0:0:
240,168,118526,1,0,0:0:0:0:
246,119,118752,1,8,0:0:0:0:
240,168,118978,1,0,0:0:0:0:
240,168,119430,1,8,0:0:0:0:
213,117,119732,1,0,0:0:0:0:
248,172,120033,1,8,0:0:0:0:
313,165,120259,1,0,0:0:0:0:
248,172,120485,1,8,0:0:0:0:
248,172,120938,1,0,0:0:0:0:
319,204,121164,1,8,0:0:0:0:
248,172,121390,1,0,0:0:0:0:
248,172,121842,1,8,0:0:0:0:
229,120,122144,1,0,0:0:0:0:
248,172,122445,1,0,0:0:0:0:
284,133,122671,1,0,0:0:0:0:
248,172,122897,1,8,0:0:0:0:
248,172,123350,1,8,0:0:0:0:
223,131,123576,1,8,0:0:0:0:
248,172,123802,1,0,0:0:0:0:
248,172,124254,1,8,0:0:0:0:
230,161,124405,1,8,0:0:0:0:
230,161,124556,1,0,0:0:0:0:
230,161,124706,1,0,0:0:0:0:
248,172,124857,1,8,0:0:0:0:
177,108,125083,1,8,0:0:0:0:
248,172,125309,1,0,0:0:0:0:
248,172,125762,1,0,0:0:0:0:
173,169,125988,1,0,0:0:0:0:
248,172,126214,1,8,0:0:0:0:
157,112,126666,1,8,0:0:0:0:
232,192,127269,1,8,0:0:0:0:
260,184,127571,1,8,0:0:0:0:
260,184,127872,1,0,0:0:0:0:
156,135,128023,1,0,0:0:0:0:
156,135,128174,1,0,0:0:0:0:
260,184,128324,1,8,0:0:0:0:
195,124,128626,1,8,0:0:0:0:
184,132,128777,1,0,0:0:0:0:
184,132,129078,1,8,0:0:0:0:
184,132,129681,1,8,0:0:0:0:
184,132,129983,1,8,0:0:0:0:
236,135,130134,1,0,0:0:0:0:
236,135,130435,1,0,0:0:0:0:
236,135,130586,1,0,0:0:0:0:
184,132,130737,1,8,0:0:0:0:
184,132,131038,1,0,0:0:0:0:
238,187,131340,1,0,0:0:0:0:
184,132,131490,1,8,0:0:0:0:
238,187,131641,1,0,0:0:0:0:
238,187,131943,1,0,0:0:0:0:
240,144,132093,1,8,0:0:0:0:
240,144,132696,1,8,0:0:0:0:
248,111,132847,1,8,0:0:0:0:
181,22,132998,1,0,0:0:0:0:
281,125,133299,1,0,0:0:0:0:
248,168,133601,1,8,0:0:0:0:
281,125,133752,1,8,0:0:0:0:
248,168,133902,1,0,0:0:0:0:
281,125,134204,1,0,0:0:0:0:
248,168,134505,1,8,0:0:0:0:
281,125,134656,1,0,0:0:0:0:
248,168,134807,1,8,0:0:0:0:
248,168,135108,1,8,0:0:0:0:
248,168,135410,1,8,0:0:0:0:
248,168,135711,1,0,0:0:0:0:
245,89,136013,1,0,0:0:0:0:
245,89,136314,1,8,0:0:0:0:
170,143,136465,1,8,0:0:0:0:
170,143,136616,1,0,0:0:0:0:
170,143,136767,1,0,0:0:0:0:
224,156,136917,1,8,0:0:0:0:
224,156,137520,1,4,0:0:0:0:
184,128,138726,1,0,0:0:0:0:
240,128,139932,1,0,0:0:0:0:
244,128,141138,1,0,0:0:0:0:
244,128,142344,1,0,0:0:0:0:
