osu file format v14

[General]
AudioFilename: audio.mp3
AudioLeadIn: 0
PreviewTime: 77208
Countdown: 0
SampleSet: Soft
StackLeniency: 0.5
Mode: 0
LetterboxInBreaks: 0
WidescreenStoryboard: 0

[Editor]
DistanceSpacing: 1.2
BeatDivisor: 4
GridSize: 8
TimelineZoom: 1

[Metadata]
Title:Dream ~The ally of~
TitleUnicode:Dream ~The ally of~
Artist:rino
ArtistUnicode:rino
Creator:Kell
Version:Insane
Source:Da Capo II
Tags:D.C.II P.C. ~ダ・カーポII~プラスコミュニケーション d c da capo 2 ii plus communication circus visual novel ending theme
BeatmapID:2223243
BeatmapSetID:1061684

[Difficulty]
HPDrainRate:5
CircleSize:4
OverallDifficulty:6
ApproachRate:9
SliderMultiplier:1.6
SliderTickRate:1

[Events]
//Background and Video events
0,0,"Da Capo 2 Otome Yume.jpg",0,0
//Break Periods
2,176667,189054
//Storyboard Layer 0 (Background)
//Storyboard Layer 1 (Fail)
//Storyboard Layer 2 (Pass)
//Storyboard Layer 3 (Foreground)
//Storyboard Layer 4 (Overlay)
//Storyboard Sound Samples

[TimingPoints]
1083,659.340659340659,4,2,2,100,1,0
12951,-100,4,2,1,40,0,0
16824,-100,4,2,1,5,0,0
16907,-100,4,2,1,40,0,0
20780,-100,4,2,1,5,0,0
20863,-100,4,2,1,40,0,0
22758,-100,4,2,1,5,0,0
22841,-100,4,2,1,40,0,0
23418,-100,4,2,1,5,0,0
23500,-100,4,2,1,40,0,0
24736,-100,4,2,1,5,0,0
24819,-100,4,2,1,40,0,0
31000,-100,4,2,1,5,0,0
31082,-100,4,2,1,40,0,0
32319,-100,4,2,1,5,0,0
32401,-100,4,2,1,40,0,0
38582,-100,4,2,1,5,0,0
38665,-100,4,2,1,40,0,0
44846,-100,4,2,1,5,0,0
44929,-100,4,2,1,40,0,0
46824,-100,4,2,1,5,0,0
46907,-100,4,2,1,40,0,0
55148,-90.9090909090909,4,2,2,45,0,0
70231,-90.9090909090909,4,2,2,5,0,0
70313,-90.9090909090909,4,2,2,45,0,0
70890,-90.9090909090909,4,2,2,5,0,0
70973,-90.9090909090909,4,2,2,45,0,0
76577,-90.9090909090909,4,2,2,45,0,0
77566,-76.9230769230769,4,2,2,47,0,1
79462,-76.9230769230769,4,2,2,5,0,1
79544,-76.9230769230769,4,2,2,50,0,1
80451,-76.9230769230769,4,2,2,5,0,1
80533,-76.9230769230769,4,2,2,50,0,1
80780,-76.9230769230769,4,2,2,5,0,1
80863,-76.9230769230769,4,2,2,50,0,1
84736,-76.9230769230769,4,2,2,5,0,1
84819,-76.9230769230769,4,2,2,50,0,1
95368,-90.9090909090909,4,2,2,50,0,1
98665,-90.9090909090909,4,2,2,45,0,0
102209,-90.9090909090909,4,2,2,5,0,0
102291,-90.9090909090909,4,2,2,45,0,0
106824,-90.9090909090909,4,2,2,5,0,0
106907,-90.9090909090909,4,2,2,45,0,0
107154,-90.9090909090909,4,2,2,5,0,0
107236,-90.9090909090909,4,2,2,45,0,0
113170,-100,4,2,2,60,0,0
114407,-100,4,2,2,5,0,0
114489,-100,4,2,2,40,0,0
118363,-100,4,2,2,5,0,0
118445,-100,4,2,2,40,0,0
120011,-100,4,2,2,5,0,0
120093,-100,4,2,2,40,0,0
130231,-100,4,2,2,5,0,0
130313,-90.9090909090909,4,2,2,45,0,0
138802,-90.9090909090909,4,2,2,5,0,0
138885,-90.9090909090909,4,2,2,45,0,0
141110,-90.9090909090909,4,2,2,5,0,0
141192,-90.9090909090909,4,2,2,45,0,0
144077,-90.9090909090909,4,2,2,5,0,0
144159,-90.9090909090909,4,2,2,45,0,0
144736,-90.9090909090909,4,2,2,5,0,0
144819,-90.9090909090909,4,2,2,45,0,0
146055,-90.9090909090909,4,2,2,5,0,0
146137,-90.9090909090909,4,2,2,45,0,0
148033,-90.9090909090909,4,2,2,5,0,0
148115,-90.9090909090909,4,2,2,45,0,0
148363,-90.9090909090909,4,2,2,5,0,0
148445,-90.9090909090909,4,2,2,45,0,0
152731,-76.9230769230769,4,2,2,47,0,1
154626,-76.9230769230769,4,2,2,5,0,1
154709,-76.9230769230769,4,2,2,50,0,1
155615,-76.9230769230769,4,2,2,5,0,1
155698,-76.9230769230769,4,2,2,50,0,1
166165,-76.9230769230769,4,2,2,5,0,1
166247,-76.9230769230769,4,2,2,50,0,1
166495,-76.9230769230769,4,2,2,5,0,1
166577,-76.9230769230769,4,2,2,50,0,1
173830,-76.9230769230769,4,2,2,50,0,0
189654,-90.9090909090909,4,2,2,55,0,0
192539,-90.9090909090909,4,2,2,5,0,0
192621,-90.9090909090909,4,2,2,55,0,0
197813,-90.9090909090909,4,2,2,5,0,0
197896,-90.9090909090909,4,2,2,55,0,0
202841,-76.9230769230769,4,2,2,50,0,1
206055,-76.9230769230769,4,2,2,5,0,1
206137,-76.9230769230769,4,2,2,50,0,1
208363,-76.9230769230769,4,2,2,5,0,1
208445,-76.9230769230769,4,2,2,50,0,1
212072,-66.6666666666667,4,2,2,80,0,1
212731,-58.8235294117647,4,2,2,80,0,1
213390,-76.9230769230769,4,2,2,50,0,1
213967,-76.9230769230769,4,2,2,5,0,1
214050,-76.9230769230769,4,2,2,50,0,1
215286,-76.9230769230769,4,2,2,5,0,1
215368,-76.9230769230769,4,2,2,50,0,1
217923,-76.9230769230769,4,2,2,5,0,1
218006,-76.9230769230769,4,2,2,50,0,1
222621,-76.9230769230769,4,2,2,55,0,0
223940,-76.9230769230769,4,2,2,50,0,1
224187,-76.9230769230769,4,2,2,5,0,1
224269,-76.9230769230769,4,2,2,50,0,1
225835,-76.9230769230769,4,2,2,5,0,1
225918,-76.9230769230769,4,2,2,50,0,1
227813,-76.9230769230769,4,2,2,5,0,1
227896,-76.9230769230769,4,2,2,50,0,1
229462,-76.9230769230769,4,2,2,5,0,1
229544,-76.9230769230769,4,2,2,50,0,1
234736,-76.9230769230769,4,2,2,5,0,1
234819,-76.9230769230769,4,2,2,50,0,1
235066,-76.9230769230769,4,2,2,5,0,1
235148,-76.9230769230769,4,2,2,50,0,1
243308,-76.9230769230769,4,2,2,5,0,1
243390,-76.9230769230769,4,2,2,50,0,1
245039,-66.6666666666667,4,2,2,50,0,0
249654,-90.9090909090909,4,2,2,45,0,0
255588,-100,4,2,2,50,0,0
258225,-90.9090909090909,4,2,2,40,0,0
259874,-90.9090909090909,4,2,2,55,0,0
268775,-76.9230769230769,4,2,2,55,0,0
272319,-76.9230769230769,4,2,2,5,0,0
272401,-76.9230769230769,4,2,2,55,0,0
274050,-90.9090909090909,4,2,2,50,0,0
275918,-90.9090909090909,4,2,2,25,0,0
287401,-90.9090909090909,4,2,2,5,0,0

[Colours]
Combo1 : 179,0,0
Combo2 : 130,69,64
Combo3 : 4,94,183

[HitObjects]
70,147,12951,6,0,L|123:87,1,80,4|2,0:3|0:0,0:0:0:0:
307,52,13610,2,0,L|251:116,1,80,4|0,1:3|3:3,2:0:0:0:
272,268,14269,2,0,L|299:236,1,40,4|0,3:0|3:0,2:0:0:0:
299,148,14599,1,2,2:0:0:0:
123,88,14929,1,4,1:3:0:0:
53,200,15258,2,0,P|86:225|137:225,1,80,0|4,3:3|0:3,0:0:0:0:
214,105,15918,6,0,L|255:112,1,40,2|0,0:0|3:0,2:0:0:0:
356,180,16247,1,4,1:3:0:0:
371,326,16577,2,0,P|410:301|424:277,1,60,0|0,3:3|0:3,0:3:0:0:
331,215,16907,2,0,L|297:236,1,40,4|0,0:3|3:0,2:0:0:0:
431,221,17236,1,2,0:0:0:0:
218,311,17566,6,0,L|259:302,1,40,4|0,1:3|3:0,2:0:0:0:
168,240,17896,1,0,2:3:0:0:
64,76,18225,2,0,L|103:84,1,40,4|0,0:3|3:0,2:0:0:0:
14,147,18555,1,2,2:0:0:0:
254,112,18885,6,0,L|161:93,1,80,4|0,1:3|3:0,2:0:0:0:
220,250,19544,2,0,L|261:242,1,40,4|0,3:0|3:0,2:0:0:0:
356,180,19874,1,2,2:0:0:0:
390,42,20203,6,0,L|349:50,1,40,4|0,1:3|3:0,2:0:0:0:
195,99,20533,2,0,L|264:113,1,60,0|0,3:3|3:0,3:0:0:0:
323,161,20863,1,4,0:3:0:0:
356,320,21192,2,0,P|317:316|286:292,1,80,2|4,0:0|1:3,0:0:0:0:
226,162,21852,6,0,L|186:170,1,40,0|0,3:3|0:0,3:0:0:0:
183,312,22181,1,4,0:3:0:0:
238,262,22346,1,0,0:0:0:0:
109,252,22511,6,0,P|138:242|178:238,1,60,2|0,0:0|3:0,3:0:0:0:
226,162,22841,2,0,L|266:170,1,40,12|0,3:3|3:0,3:0:0:0:
175,95,23170,2,0,L|116:82,1,60,2|0,2:0|2:0,2:0:0:0:
46,127,23500,5,4,0:3:0:0:
168,240,23830,1,0,3:0:0:0:
234,86,24159,1,4,1:3:0:0:
355,179,24489,2,0,L|317:226,1,60,2|0,0:0|3:0,3:0:0:0:
348,82,24819,5,4,0:3:0:0:
316,224,25148,2,0,L|280:240,1,40,2|0,0:0|3:0,3:0:0:0:
477,168,25478,1,4,1:3:0:0:
504,291,25808,2,0,B|477:328|477:328|430:349,1,80,0|4,3:0|2:3,2:0:0:0:
111,340,26467,1,2,0:0:0:0:
224,262,26797,1,4,1:3:0:0:
86,212,27126,2,0,L|122:228,1,40,0|0,3:0|0:0,3:0:0:0:
226,162,27456,5,4,0:3:0:0:
116,82,27786,2,0,P|100:94|91:111,2,40,2|0|4,0:0|0:0|1:3,0:0:0:0:
262,145,28445,2,0,L|226:161,1,40,0|0,3:0|0:0,3:0:0:0:
316,224,28775,6,0,L|352:208,1,40,4|0,3:0|0:0,3:0:0:0:
407,287,29104,2,0,L|443:271,1,40,2|0,0:0|3:0,0:0:0:0:
409,372,29434,1,4,1:3:0:0:
477,168,29764,1,0,3:0:0:0:
316,224,30093,5,4,3:0:0:0:
384,98,30423,2,0,L|348:80,1,40,2|0,0:0|3:0,0:0:0:0:
183,83,30753,2,0,L|241:130,1,60,4|0,1:3|3:0,0:0:0:0:
318,144,31082,1,0,3:0:0:0:
183,83,31412,6,0,L|147:100,1,40,4|0,0:3|3:0,0:0:0:0:
181,240,31742,1,2,0:0:0:0:
221,177,31907,1,0,0:0:0:0:
93,200,32072,6,0,L|156:168,1,60,4|0,1:3|3:0,3:0:0:0:
183,83,32401,1,0,3:0:0:0:
335,203,32731,6,0,L|297:215,1,40,4|0,3:0|3:0,3:0:0:0:
367,113,33061,1,2,0:0:0:0:
479,294,33390,1,0,1:2:0:0:
409,372,33555,1,0,1:0:0:0:
296,214,33720,1,2,0:0:0:0:
348,80,34050,5,4,0:3:0:0:
367,113,34379,1,2,0:0:0:0:
183,312,34709,2,0,B|226:335|226:335|257:333,1,80,0|0,1:3|0:3,0:0:0:0:
94,172,35368,6,0,L|124:198,1,40,4|0,0:3|0:3,2:0:0:0:
216,190,35698,1,2,0:0:0:0:
64,146,36028,1,6,1:3:0:0:
101,300,36357,1,0,3:0:0:0:
286,221,36687,6,0,P|255:196|216:191,1,80,4|2,0:3|0:0,0:0:0:0:
211,277,37181,1,0,0:0:0:0:
329,341,37346,2,0,L|298:314,1,40,6|0,1:3|0:3,2:0:0:0:
285,220,37676,2,0,L|255:194,1,40,0|0,3:3|0:3,2:0:0:0:
210,72,38006,1,12,0:3:0:0:
362,269,38335,2,0,L|431:255,1,60,2|0,0:0|3:0,3:0:0:0:
478,180,38665,6,0,L|438:172,1,40,6|0,1:3|3:0,3:0:0:0:
298,101,38995,2,0,L|338:93,1,40,0|0,3:3|0:0,3:0:0:0:
254,193,39324,2,0,L|294:185,1,40,6|0,3:3|3:0,3:0:0:0:
210,72,39654,2,0,B|180:77|180:77|140:117,1,80,2|0,0:2|1:3,2:0:0:0:
420,257,40313,5,2,0:0:0:0:
420,257,40478,1,0,3:0:0:0:
260,308,40643,2,0,P|277:314|299:314,1,40,4|0,0:3|3:3,0:3:0:0:
165,260,40973,1,0,3:0:0:0:
165,260,41137,1,0,0:0:0:0:
267,156,41302,6,0,P|282:166|292:183,1,40,4|0,1:3|0:0,0:0:0:0:
197,126,41632,2,0,P|222:93|261:81,1,80,2|4,0:0|0:3,0:0:0:0:
291,280,42291,1,2,0:0:0:0:
450,210,42621,1,4,1:3:0:0:
236,181,42951,2,0,L|266:155,1,40,2|0,0:0|3:0,2:0:0:0:
77,227,43280,6,0,L|108:202,1,40,4|0,0:3|3:0,2:0:0:0:
155,72,43610,2,0,L|216:20,1,80,0|4,3:3|1:3,2:0:0:0:
236,181,44104,1,0,0:0:0:0:
177,282,44269,2,4,P|160:272|151:255,1,40,4|4,0:3|0:3,0:3:0:0:
224,122,44599,6,0,L|238:191,1,60,4|0,0:3|3:0,3:0:0:0:
140,136,44929,2,0,L|130:90,1,40,2|2,0:0|0:0,3:0:0:0:
208,43,45258,1,4,1:3:0:0:
188,245,45588,1,0,3:2:0:0:
304,148,45918,6,0,L|331:179,1,40,4|0,3:0|3:0,2:0:0:0:
365,289,46247,1,2,2:0:0:0:
347,13,46577,2,0,L|395:53,1,60,4|0,1:3|3:0,2:0:0:0:
415,162,46907,2,0,B|374:162|374:162|342:140,1,80,2|4,0:2|1:3,2:0:0:0:
208,43,47566,1,2,0:0:0:0:
347,13,47896,1,4,1:3:0:0:
311,230,48225,2,0,P|292:234|273:227,1,40,0|0,3:3|0:0,0:0:0:0:
357,113,48555,6,0,P|394:129|415:164,1,80,4|2,0:3|0:0,0:0:0:0:
187,243,49214,1,4,1:3:0:0:
100,139,49544,2,0,L|140:135,1,40,0|0,3:2|3:0,2:0:0:0:
242,82,49874,1,4,2:3:0:0:
412,239,50203,2,0,L|371:235,1,40,2|0,3:2|3:0,2:0:0:0:
270,182,50533,1,4,2:3:0:0:
100,339,50863,6,0,L|140:335,1,40,0|0,3:2|3:0,2:0:0:0:
242,282,51193,1,4,2:3:0:0:
440,139,51522,2,0,L|399:135,1,40,2|0,3:2|3:0,2:0:0:0:
298,82,51852,1,0,1:0:0:0:
244,133,52017,1,0,3:0:0:0:
335,247,52181,2,4,P|353:244|372:233,1,40,4|4,0:3|0:3,0:3:0:0:
190,184,52511,5,4,2:0:0:0:
212,231,53006,5,4,2:0:0:0:
242,282,53500,5,4,2:0:0:0:
298,82,54489,5,0,1:0:0:0:
142,111,54819,5,0,1:0:0:0:
142,111,54984,1,0,1:0:0:0:
92,183,55148,6,0,L|145:105,1,88.000002685547,4|0,1:0|3:3,2:0:0:0:
321,199,55808,2,0,L|269:276,1,88.000002685547,0|0,1:0|3:3,2:0:0:0:
157,306,56302,1,0,0:0:0:0:
190,184,56467,6,0,L|163:222,1,44.0000013427735,4|0,0:3|0:3,2:0:0:0:
141,110,56797,2,0,L|193:39,1,88.000002685547,12|0,0:3|1:3,2:0:0:0:
321,199,57456,2,0,L|278:207,1,44.0000013427735,0|0,0:0|0:3,2:0:0:0:
400,135,57786,6,0,L|445:127,1,44.0000013427735,4|0,0:3|0:3,2:0:0:0:
374,287,58115,2,0,P|331:271|303:235,1,88.000002685547,4|0,0:3|1:0,0:0:0:0:
297,40,58775,2,0,P|318:45|334:61,1,44.0000013427735
226,204,59104,6,0,B|204:198|204:198|188:181,1,44.0000013427735,4|0,0:3|0:0,0:0:0:0:
111,75,59434,1,12,0:3:0:0:
225,322,59764,2,0,L|173:245,1,88.000002685547,0|0,1:0|3:3,2:0:0:0:
305,240,60258,1,0,0:0:0:0:
122,196,60423,5,4,0:3:0:0:
155,177,60753,1,4,0:3:0:0:
477,199,61082,2,0,B|473:234|473:234|431:285,1,88.000002685547,0|0,1:3|0:3,2:0:0:0:
305,240,61577,1,0,0:0:0:0:
337,104,61742,6,0,P|358:109|374:125,1,44.0000013427735,4|0,0:3|0:0,0:0:0:0:
358,334,62072,2,0,P|316:321|285:288,1,88.000002685547,12|0,2:3|1:0,0:0:0:0:
453,163,62731,2,0,L|479:201,1,44.0000013427735,0|0,0:0|3:3,2:0:0:0:
358,334,63061,5,4,0:3:0:0:
90,302,63390,1,4,0:0:0:0:
139,110,63720,1,0,1:0:0:0:
353,161,64050,2,0,B|365:151|365:151|373:124,1,44.0000013427735,4|0,0:3|0:3,2:0:0:0:
225,161,64379,5,4,0:3:0:0:
206,194,64709,1,0,1:0:0:0:
337,104,65039,1,0,1:0:0:0:
359,297,65368,1,0,1:0:0:0:
359,297,65533,1,0,1:0:0:0:
477,199,65698,6,0,B|441:228|428:193|391:222,1,88.000002685547,12|4,0:3|0:3,0:0:0:0:
188,141,66357,2,0,L|260:91,1,88.000002685547,0|0,1:2|0:3,2:0:0:0:
211,215,66852,1,0,0:0:0:0:
142,66,67017,6,0,P|157:53|180:52,1,44.0000013427735,4|0,0:3|0:0,0:0:0:0:
124,209,67346,1,12,0:3:0:0:
307,200,67676,1,0,1:0:0:0:
232,253,68006,2,0,L|254:297,1,44.0000013427735
378,336,68335,6,0,L|356:292,1,44.0000013427735,4|0,0:3|0:0,0:0:0:0:
484,355,68665,2,0,L|440:267,1,88.000002685547,12|0,0:3|0:0,0:0:0:0:
343,179,69324,6,0,B|324:183|324:183|307:201,1,44.0000013427735
298,352,69654,1,4,0:3:0:0:
358,296,69819,1,0,0:0:0:0:
216,284,69984,6,0,L|292:267,1,66.0000020141602,12|0,0:3|3:0,3:0:0:0:
343,179,70313,1,0,1:0:0:0:
451,41,70643,2,0,L|374:57,1,66.0000020141602,12|0,0:3|3:0,3:0:0:0:
324,146,70972,5,12,0:3:0:0:
305,113,71302,1,4,0:3:0:0:
232,253,71632,1,0,1:3:0:0:
127,101,71962,2,0,L|167:82,1,44.0000013427735,8|0,0:3|0:0,0:0:0:0:
83,227,72291,6,0,L|123:208,1,44.0000013427735,12|0,0:3|0:0,0:0:0:0:
78,332,72621,1,4,0:3:0:0:
304,178,72951,1,4,1:0:0:0:
180,40,73280,1,0,1:0:0:0:
180,40,73445,1,0,1:0:0:0:
324,146,73610,5,8,1:3:0:0:
344,114,73940,1,4,0:3:0:0:
232,253,74269,2,0,L|203:219,1,44.0000013427735,0|0,1:0|3:0,2:0:0:0:
355,279,74599,1,12,0:3:0:0:
335,311,74929,1,0,1:3:0:0:
295,179,75258,2,0,L|324:143,1,44.0000013427735,0|4,1:0|3:3,2:0:0:0:
365,27,75588,5,2,0:0:0:0:
425,83,75753,1,0,0:0:0:0:
323,145,75918,1,2,0:0:0:0:
237,99,76083,1,0,0:0:0:0:
235,220,76247,1,4,0:3:0:0:
180,40,76577,5,0,1:0:0:0:
294,218,76907,1,0,1:0:0:0:
83,227,77236,1,0,1:0:0:0:
283,319,77566,2,0,L|336:309,1,51.999997619629,6|0,0:3|3:0,2:0:0:0:
467,221,77895,1,4,0:3:0:0:
237,99,78225,6,0,P|218:113|206:141,2,51.999997619629,2|0|0,1:2|0:0|0:0,0:0:0:0:
372,207,78720,1,0,0:0:0:0:
283,319,78885,2,0,L|248:277,1,51.999997619629,6|0,0:3|3:0,2:0:0:0:
230,119,79214,2,0,L|181:180,1,77.9999964294435,4|0,0:3|3:0,2:0:0:0:
56,221,79544,5,2,1:2:0:0:
127,101,79709,1,0,0:0:0:0:
159,239,79874,1,0,0:0:0:0:
230,119,80039,1,0,0:0:0:0:
279,179,80203,6,0,L|229:118,1,77.9999964294435,6|0,0:3|3:0,2:0:0:0:
265,21,80533,2,0,L|314:80,1,77.9999964294435,4|0,0:3|3:0,2:0:0:0:
372,207,80863,1,2,1:2:0:0:
194,356,81192,6,0,L|159:314,1,51.999997619629,0|0,0:3|3:0,2:0:0:0:
208,193,81522,2,0,L|241:232,1,51.999997619629,6|0,0:3|0:0,0:0:0:0:
358,370,81852,2,0,L|324:330,1,51.999997619629,0|0,0:3|0:0,0:0:0:0:
371,206,82181,6,0,L|331:239,1,51.999997619629,6|0,0:3|0:0,0:0:0:0:
194,356,82511,2,0,L|233:322,1,51.999997619629,0|0,0:3|0:0,0:0:0:0:
48,326,82841,2,0,L|128:259,1,103.999995239258,6|4,0:3|0:3,0:0:0:0:
127,101,83500,1,6,1:3:0:0:
404,235,83830,1,0,0:0:0:0:
208,193,84159,6,0,L|247:159,1,51.999997619629,6|0,0:3|0:0,0:0:0:0:
364,173,84489,2,0,P|356:211|330:240,1,77.9999964294435,4|0,0:3|0:3,0:0:0:0:
247,158,84819,1,2,1:3:0:0:
265,21,85148,1,0,0:0:0:0:
403,139,85478,6,0,L|361:174,1,51.999997619629,6|0,0:3|3:0,2:0:0:0:
323,329,85808,2,0,L|363:296,1,51.999997619629,4|0,0:3|0:0,0:0:0:0:
208,193,86137,2,0,L|130:261,1,103.999995239258,2|0,1:3|0:0,0:0:0:0:
331,239,86632,1,0,1:0:0:0:
331,239,86797,1,6,0:3:0:0:
127,101,87126,1,4,1:3:0:0:
441,41,87456,5,2,1:2:0:0:
277,197,87786,2,0,B|257:182|257:182|245:155,1,51.999997619629,0|0,1:3|0:0,0:0:0:0:
460,272,88115,2,0,B|418:309|402:266|356:300,1,103.999995239258,6|6,0:3|0:3,0:0:0:0:
73,216,88775,6,0,P|85:193|113:182,1,51.999997619629,2|0,1:2|0:0,0:0:0:0:
319,192,89104,2,0,P|307:215|279:225,1,51.999997619629,2|0,0:2|0:0,0:0:0:0:
258,70,89434,6,0,B|277:54|277:54|303:50,1,51.999997619629,6|0,0:3|0:0,0:0:0:0:
319,192,89764,2,0,B|273:211|273:211|215:204,1,103.999995239258,4|2,0:3|1:3,0:0:0:0:
258,70,90258,1,0,0:0:0:0:
107,182,90423,1,0,0:0:0:0:
142,84,90588,1,0,0:0:0:0:
219,205,90753,6,0,L|153:286,1,103.999995239258,6|4,0:3|0:3,2:0:0:0:
486,126,91412,2,0,L|420:207,1,103.999995239258,6|0,0:0|0:3,2:0:0:0:
321,221,91907,1,0,0:0:0:0:
471,318,92072,2,0,L|503:277,1,51.999997619629,2|0,1:3|0:3,2:0:0:0:
384,110,92401,1,4,0:3:0:0:
219,205,92731,6,0,L|259:237,1,51.999997619629,2|0,1:3|0:3,2:0:0:0:
107,182,93061,2,0,L|66:149,1,51.999997619629,0|0,0:3|0:3,2:0:0:0:
76,55,93390,1,6,0:3:0:0:
110,37,93720,1,4,0:3:0:0:
110,37,93885,1,0,0:0:0:0:
280,125,94050,6,0,B|262:171|262:171|219:205,1,103.999995239258,2|0,1:3|0:3,0:0:0:0:
181,108,94544,1,0,0:0:0:0:
362,197,94709,6,0,L|329:237,1,51.999997619629,6|0,0:3|0:3,2:0:0:0:
280,125,95039,2,0,L|313:85,1,51.999997619629,0|0,1:3|1:3,1:0:0:0:
356,310,95368,5,6,0:3:0:0:
322,328,95698,1,4,0:3:0:0:
288,346,96028,1,6,0:3:0:0:
167,276,96357,2,0,L|219:205,1,88.000002685547,4|0,0:3|1:3,2:0:0:0:
181,107,97017,2,0,L|155:143,1,44.0000013427735,0|0,1:3|0:3,2:0:0:0:
312,84,97346,5,6,1:3:0:0:
362,198,97676,1,2,1:3:0:0:
436,98,98006,1,4,1:3:0:0:
462,272,98335,1,6,1:3:0:0:
336,233,98665,6,0,L|362:197,1,44.0000013427735,4|0,1:3|0:3,2:0:0:0:
254,218,98995,2,0,P|257:263|284:298,1,88.000002685547,4|2,0:3|1:2,0:0:0:0:
155,143,99654,2,0,L|129:178,1,44.0000013427735,0|0,0:3|0:3,0:0:0:0:
167,275,99984,5,6,0:3:0:0:
101,310,100148,1,0,1:0:0:0:
233,240,100313,1,4,0:3:0:0:
76,55,100643,1,2,1:2:0:0:
76,218,100973,1,4,0:3:0:0:
319,256,101302,6,0,L|227:238,1,88.000002685547,6|4,0:3|0:3,2:0:0:0:
353,322,101962,2,0,L|421:335,1,66.0000020141602,2|0,1:3|0:3,2:0:0:0:
505,280,102291,2,0,L|459:271,1,44.0000013427735,0|0,0:3|0:3,2:0:0:0:
319,256,102621,1,2,1:2:0:0:
279,319,102786,1,0,1:2:0:0:
358,192,102951,1,0,1:2:0:0:
392,89,103280,6,0,L|437:97,1,44.0000013427735,6|0,0:3|0:3,2:0:0:0:
358,192,103610,2,0,L|312:183,1,44.0000013427735,0|0,0:3|0:3,2:0:0:0:
225,155,103940,2,0,P|236:134|257:119,1,44.0000013427735,6|0,0:3|0:0,0:0:0:0:
196,244,104269,2,0,P|150:215|130:166,1,88.000002685547,4|10,0:3|0:3,0:0:0:0:
196,244,104929,6,0,P|184:264|163:279,1,44.0000013427735,2|0,0:3|0:0,0:0:0:0:
95,170,105258,2,0,B|108:152|108:152|130:142,1,44.0000013427735,6|0,2:3|2:3,2:0:0:0:
286,96,105588,2,0,B|262:133|262:133|219:157,1,88.000002685547,6|2,2:3|1:3,2:0:0:0:
37,76,106247,2,0,L|82:51,1,44.0000013427735,2|0,0:0|0:0,0:0:0:0:
185,111,106577,6,0,L|117:148,1,66.0000020141602,6|0,0:3|0:0,0:0:0:0:
76,218,106907,2,0,L|143:180,1,66.0000020141602,6|0,0:3|0:0,0:0:0:0:
168,277,107236,1,2,1:2:0:0:
134,295,107566,1,0,1:3:0:0:
279,319,107896,5,2,1:2:0:0:
342,285,108061,1,0,1:3:0:0:
314,183,108390,5,0,1:3:0:0:
249,220,108555,1,2,1:3:0:0:
375,141,108720,1,0,1:3:0:0:
75,54,109214,5,0,3:0:0:0:
49,92,109874,1,0,0:0:0:0:
113,327,110533,5,2,3:0:0:0:
139,289,111193,1,0,0:0:0:0:
314,183,111852,5,0,3:0:0:0:
340,221,112512,1,0,0:0:0:0:
75,54,113170,5,4,0:3:0:0:
42,73,113500,1,0,1:0:0:0:
289,157,113830,1,4,0:3:0:0:
249,220,113995,1,0,0:3:0:0:
161,180,114160,6,0,L|224:148,1,60,12|0,1:3|3:0,3:0:0:0:
250,36,114489,1,4,1:3:0:0:
364,160,114819,1,0,0:0:0:0:
226,361,115148,6,0,L|208:281,1,80,0|0,1:3|3:0,2:0:0:0:
164,120,115808,2,0,L|137:152,1,40,4|0,3:0|3:0,2:0:0:0:
103,261,116138,1,2,2:0:0:0:
284,306,116467,2,0,L|311:274,1,40,4|0,1:3|3:0,2:0:0:0:
345,165,116797,1,0,3:0:0:0:
493,296,117126,6,0,L|453:302,1,40,4|0,0:3|3:0,2:0:0:0:
309,275,117456,2,0,L|349:269,1,40,2|0,0:0|0:3,0:0:0:0:
345,165,117786,1,4,1:3:0:0:
319,334,118115,2,0,L|308:272,1,60,2|0,0:3|3:0,3:0:0:0:
344,164,118445,6,0,L|351:204,1,40,4|0,0:3|3:0,2:0:0:0:
392,97,118775,2,0,P|376:84|357:81,1,40,2|0,0:0|0:3,0:0:0:0:
214,152,119104,2,0,P|230:165|249:167,1,40,0|0,1:0|0:3,0:0:0:0:
114,40,119434,2,0,L|78:56,1,40,0|0,3:0|0:0,3:0:0:0:
164,115,119764,6,0,L|220:92,1,60,4|0,3:0|0:0,3:0:0:0:
348,118,120093,2,0,P|346:137|336:154,1,40,2|0,0:0|0:3,0:0:0:0:
251,262,120423,2,0,L|217:188,1,80,4|0,1:3|3:0,3:0:0:0:
348,118,121082,6,0,P|361:130|368:149,1,40,4|0,0:3|0:3,0:3:0:0:
286,77,121412,2,0,P|316:49|357:44,1,80,2|4,0:3|1:3,0:3:0:0:
178,166,122072,2,0,B|191:149|191:149|210:144,1,40,0|0,3:3|0:3,2:3:0:0:
368,150,122401,1,4,3:3:0:0:
286,77,122566,1,0,3:0:0:0:
296,202,122731,1,2,0:0:0:0:
399,360,123061,6,0,L|371:286,1,80,4|0,1:3|3:0,0:0:0:0:
100,191,123720,2,0,L|136:207,1,40,4|0,0:3|0:0,0:0:0:0:
36,115,124050,1,2,0:0:0:0:
113,285,124379,1,0,1:0:0:0:
412,91,124709,6,0,L|372:87,1,40,0|0,3:2|3:0,2:0:0:0:
270,34,125039,1,4,2:3:0:0:
100,191,125368,2,0,L|141:187,1,40,2|0,3:2|3:0,2:0:0:0:
242,134,125698,1,4,2:3:0:0:
412,291,126028,2,0,L|372:287,1,40,0|0,3:2|3:0,2:0:0:0:
230,237,126357,6,0,L|270:233,1,40,4|0,2:3|3:0,2:0:0:0:
87,179,126687,2,0,L|127:183,1,40,2|0,0:2|3:0,2:0:0:0:
242,134,127017,1,0,1:0:0:0:
71,38,127346,5,4,0:3:0:0:
71,38,127511,1,4,0:3:0:0:
126,182,127676,1,6,0:3:0:0:
324,85,128006,5,0,3:0:0:0:
270,34,128171,1,4,0:3:0:0:
378,136,128335,1,0,3:0:0:0:
348,187,128665,5,4,2:0:0:0:
71,38,129324,5,0,0:0:0:0:
242,134,129654,1,0,1:0:0:0:
242,134,129819,1,0,1:0:0:0:
161,228,129984,6,0,P|129:193|122:166,1,60,4|0,3:3|0:3,0:3:0:0:
242,134,130313,2,0,L|278:217,1,88.000002685547,6|0,0:3|0:3,2:3:0:0:
468,157,130973,2,0,L|433:76,1,88.000002685547,2|0,1:3|0:3,2:3:0:0:
324,22,131467,1,0,0:0:0:0:
242,134,131632,6,0,P|260:145|282:145,1,44.0000013427735,4|0,0:3|0:0,0:0:0:0:
195,66,131962,2,0,P|209:108|245:135,1,88.000002685547,4|0,0:3|1:0,0:0:0:0:
399,286,132621,2,0,L|356:278,1,44.0000013427735,0|0,0:0|0:3,2:0:0:0:
233,206,132951,2,0,L|277:214,1,44.0000013427735,4|0,0:3|0:3,2:0:0:0:
55,266,133280,6,0,L|141:281,1,88.000002685547,12|0,0:3|1:3,2:0:0:0:
29,53,133940,2,0,L|36:10,1,44.0000013427735,2|0,2:0|0:3,2:0:0:0:
116,138,134269,2,0,L|124:181,1,44.0000013427735,4|0,0:3|0:3,2:0:0:0:
195,66,134599,1,4,0:3:0:0:
265,235,134929,6,0,B|220:227|220:227|190:197,1,88.000002685547,0|0,1:2|0:3,2:0:0:0:
296,123,135423,1,0,0:0:0:0:
351,250,135588,2,0,L|264:234,1,88.000002685547,4|0,0:3|0:3,2:0:0:0:
324,22,136247,2,0,L|410:37,1,88.000002685547,0|0,1:3|0:3,2:0:0:0:
491,126,136742,1,0,0:0:0:0:
305,163,136907,6,0,P|294:144|295:122,1,44.0000013427735,4|0,0:3|0:0,0:0:0:0:
351,250,137236,1,4,0:3:0:0:
226,361,137566,1,0,1:0:0:0:
55,266,137896,2,0,L|105:193,1,88.000002685547,0|4,0:3|0:3,2:0:0:0:
332,68,138555,6,0,L|294:122,1,66.0000020141602,8|0,0:3|0:3,2:0:0:0:
233,206,138885,1,0,1:0:0:0:
70,37,139214,2,0,L|157:21,1,88.000002685547,0|4,0:3|0:3,2:0:0:0:
415,82,139874,6,0,L|450:55,1,44.0000013427735,0|4,3:0|3:0,2:0:0:0:
294,122,140204,1,8,1:3:0:0:
399,286,140533,1,4,1:3:0:0:
399,286,140698,1,0,1:0:0:0:
224,333,140863,2,8,L|288:344,1,66.0000020141602,4|0,0:2|3:3,2:0:0:0:
307,241,141192,1,4,0:3:0:0:
137,317,141522,6,0,L|223:332,1,88.000002685547,0|0,1:2|3:3,2:0:0:0:
350,248,142017,2,0,L|306:240,1,44.0000013427735,0|4,0:2|3:3,2:0:0:0:
160,134,142346,1,0,1:3:0:0:
104,193,142511,1,12,0:3:0:0:
272,16,142841,1,0,1:3:0:0:
80,115,143170,2,0,L|36:107,1,44.0000013427735,0|0,0:2|0:3,2:0:0:0:
238,96,143500,6,0,L|267:59,1,44.0000013427735,4|0,0:3|0:0,2:0:0:0:
80,115,143830,2,0,L|35:168,1,66.0000020141602,12|0,0:3|3:0,2:0:0:0:
117,232,144159,1,0,1:0:0:0:
347,324,144489,2,0,P|386:298|400:274,1,66.0000020141602,0|0,3:3|0:3,0:3:0:0:
293,212,144819,6,0,L|264:247,1,44.0000013427735,4|0,0:3|0:3,2:3:0:0:
397,164,145148,2,0,L|455:94,1,88.000002685547,12|0,0:3|1:3,2:3:0:0:
166,118,145808,2,0,L|122:170,1,66.0000020141602,12|0,0:3|0:3,2:3:0:0:
93,279,146137,1,12,0:3:0:0:
112,312,146467,1,4,0:3:0:0:
372,232,146797,1,0,1:3:0:0:
288,337,147126,6,0,L|244:340,1,44.0000013427735,0|0,0:3|3:3,2:3:0:0:
372,232,147456,2,0,L|416:229,1,44.0000013427735,4|0,0:3|0:0,0:0:0:0:
500,124,147786,2,0,L|433:130,1,66.0000020141602,12|0,0:3|0:0,0:0:0:0:
308,103,148115,5,8,0:3:0:0:
249,204,148445,1,4,0:3:0:0:
338,332,148775,1,12,0:3:0:0:
357,299,149104,1,4,0:3:0:0:
154,170,149434,5,0,1:0:0:0:
319,300,149764,2,0,B|281:333|266:294|225:325,1,88.000002685547,4|0,0:3|1:3,0:0:0:0:
54,107,150423,6,0,L|95:91,1,44.0000013427735,0|0,0:0|1:0,0:0:0:0:
273,156,150753,1,2,0:0:0:0:
158,243,150918,1,0,0:0:0:0:
273,156,151082,1,6,0:0:0:0:
94,91,151247,1,2,0:0:0:0:
372,309,151742,5,0,1:0:0:0:
463,80,152072,1,0,1:0:0:0:
221,117,152401,1,0,1:0:0:0:
424,319,152731,2,0,L|371:309,1,51.999997619629,6|0,0:3|3:0,2:0:0:0:
240,221,153060,1,4,0:3:0:0:
446,33,153390,6,0,L|468:79,1,51.999997619629,12|0,0:3|0:3,0:3:0:0:
381,191,153720,2,0,L|338:162,1,51.999997619629,0|0,0:3|0:3,0:3:0:0:
198,196,154050,2,0,P|213:215|244:219,1,51.999997619629,6|0,3:3|3:0,3:0:0:0:
207,74,154379,2,0,L|158:135,1,77.9999964294435,12|0,0:3|0:0,2:0:0:0:
310,91,154709,1,2,1:2:0:0:
284,243,154874,6,0,P|260:238|238:218,2,51.999997619629,0|0|0,0:2|0:0|0:0,0:0:0:0:
158,135,155368,2,0,L|80:126,1,77.9999964294435,6|0,0:3|0:0,2:0:0:0:
19,212,155698,1,12,0:3:0:0:
223,332,156028,1,2,0:0:0:0:
417,179,156357,6,0,L|382:137,1,51.999997619629,0|0,0:3|3:0,2:0:0:0:
187,44,156687,2,0,L|220:83,1,51.999997619629,6|0,0:3|0:0,0:0:0:0:
337,221,157017,2,0,L|303:181,1,51.999997619629,0|0,0:3|0:0,0:0:0:0:
350,57,157346,6,0,L|310:90,1,51.999997619629,2|0,1:3|0:0,0:0:0:0:
173,207,157676,2,0,L|212:173,1,51.999997619629,0|0,1:3|0:0,0:0:0:0:
403,153,158006,2,0,P|385:197|331:220,1,103.999995239258,14|0,0:3|0:0,0:0:0:0:
480,144,158665,1,2,1:2:0:0:
163,190,158995,6,0,B|182:174|182:174|211:170,1,51.999997619629
223,332,159324,1,6,0:3:0:0:
301,180,159489,1,0,1:0:0:0:
356,256,159654,2,0,P|314:230|301:173,1,103.999995239258,4|2,0:3|1:3,0:0:0:0:
401,48,160313,1,0,0:0:0:0:
220,83,160643,2,0,B|178:120|162:77|116:111,1,103.999995239258,6|4,0:3|0:3,0:0:0:0:
321,289,161302,6,0,P|343:279|356:250,1,51.999997619629,2|0,1:3|0:0,0:0:0:0:
196,170,161632,2,0,P|171:177|155:205,1,51.999997619629,0|0,0:3|0:0,0:0:0:0:
401,48,161962,2,0,L|318:111,1,103.999995239258,14|0,0:3|1:0,2:0:0:0:
313,229,162456,1,0,1:0:0:0:
268,102,162621,6,0,L|227:133,1,51.999997619629,2|0,1:3|1:0,2:0:0:0:
158,200,162951,2,0,L|115:230,1,51.999997619629,0|0,1:3|1:0,2:0:0:0:
121,106,163280,2,0,L|203:42,1,103.999995239258,6|6,0:3|0:3,2:0:0:0:
397,166,163940,6,0,L|357:199,1,51.999997619629,6|0,1:3|0:3,2:0:0:0:
400,48,164269,2,0,L|440:15,1,51.999997619629,0|0,0:3|0:3,2:0:0:0:
351,317,164599,6,0,L|310:349,1,51.999997619629,6|0,0:3|0:3,2:0:0:0:
357,200,164929,1,4,0:3:0:0:
46,115,165258,5,2,1:3:0:0:
115,230,165423,1,0,0:0:0:0:
112,41,165588,1,2,0:3:0:0:
181,156,165753,1,0,0:0:0:0:
308,260,165918,6,0,L|360:194,1,77.9999964294435,6|0,0:3|3:0,2:0:0:0:
322,88,166248,2,0,L|268:151,1,77.9999964294435,4|0,0:3|3:0,2:0:0:0:
427,118,166577,1,2,1:2:0:0:
310,348,166907,6,0,L|278:307,1,51.999997619629,0|0,0:3|0:3,2:0:0:0:
30,190,167236,2,0,L|62:231,1,51.999997619629,6|0,2:3|0:3,2:0:0:0:
169,268,167566,1,4,0:3:0:0:
245,53,167896,6,0,P|228:35|197:33,1,51.999997619629,14|0,1:3|0:0,0:0:0:0:
189,191,168225,1,0,3:3:0:0:
110,39,168390,1,0,3:0:0:0:
305,129,168555,1,6,0:3:0:0:
245,53,168885,6,0,L|296:59,1,51.999997619629,4|0,2:3|0:3,2:0:0:0:
475,171,169214,1,14,0:3:0:0:
351,317,169544,1,12,0:3:0:0:
119,154,169874,6,0,L|88:113,1,51.999997619629,2|0,1:3|0:3,0:0:0:0:
206,264,170203,2,0,L|238:305,1,51.999997619629,0|4,0:3|0:3,2:0:0:0:
305,129,170533,5,14,0:3:0:0:
339,111,170863,1,4,0:3:0:0:
327,269,171192,6,0,P|289:301|227:300,1,103.999995239258,14|0,0:3|0:0,0:0:0:0:
220,83,171852,1,2,1:3:0:0:
427,118,172181,1,0,0:0:0:0:
395,305,172511,5,6,1:3:0:0:
361,287,172841,1,6,1:3:0:0:
156,209,173170,1,6,1:3:0:0:
189,191,173500,1,6,1:3:0:0:
256,192,173830,12,0,176467,0:0:0:0:
34,112,189654,6,0,L|119:106,1,88.000002685547,2|4,0:3|0:3,0:0:0:0:
449,206,190313,2,0,B|411:237|397:200|356:230,1,88.000002685547,10|0,1:3|0:3,0:0:0:0:
121,289,190973,1,6,0:3:0:0:
391,188,191302,6,0,L|344:183,1,44.0000013427735,0|0,3:3|3:3,3:0:0:0:
466,321,191632,2,0,L|418:317,1,44.0000013427735,6|0,0:3|0:3,0:0:0:0:
267,193,191962,2,0,L|313:195,1,44.0000013427735,0|0,0:3|0:3,0:0:0:0:
121,289,192291,6,0,L|185:284,1,66.0000020141602,6|0,0:3|0:3,0:0:0:0:
287,232,192621,1,4,0:3:0:0:
159,62,192786,1,2,0:3:0:0:
203,120,192951,1,2,1:3:0:0:
496,112,193280,6,0,L|448:108,1,44.0000013427735,2|0,0:3|0:3,0:0:0:0:
322,228,193610,2,0,L|368:224,1,44.0000013427735,6|0,0:3|0:3,0:0:0:0:
214,315,193940,2,0,P|194:300|184:279,2,44.0000013427735,4|2|6,0:3|0:3|0:3,0:3:0:0:
423,318,194599,1,2,0:0:0:0:
189,66,194929,2,4,B|225:97|239:60|280:90,1,88.000002685547,6|4,0:3|0:3,0:3:0:0:
438,178,195423,1,2,0:0:0:0:
380,245,195588,6,0,L|438:179,1,88.000002685547,2|2,1:3|0:3,0:0:0:0:
415,40,196082,1,2,0:0:0:0:
308,130,196247,1,6,0:3:0:0:
415,40,196412,1,0,3:0:0:0:
247,49,196577,6,0,L|289:44,1,44.0000013427735,4|0,3:3|3:3,3:0:0:0:
189,134,196907,1,2,1:3:0:0:
246,328,197236,1,2,0:0:0:0:
22,200,197566,6,0,P|50:183|82:184,1,66.0000020141602,6|0,0:3|0:0,0:0:0:0:
142,285,197896,2,0,L|98:287,1,44.0000013427735,4|0,0:3|0:3,0:0:0:0:
289,324,198225,2,0,L|331:320,1,44.0000013427735,0|0,1:3|0:3,0:0:0:0:
417,155,198555,2,0,L|375:151,1,44.0000013427735,0|2,0:3|0:3,0:0:0:0:
197,213,198885,6,0,L|239:209,1,44.0000013427735,2|0,1:3|0:3,0:0:0:0:
325,44,199214,2,0,L|283:40,1,44.0000013427735,0|2,0:3|0:3,0:0:0:0:
68,111,199544,6,0,L|110:107,1,44.0000013427735,2|0,1:3|0:3,0:0:0:0:
282,40,199874,1,0,0:0:0:0:
82,16,200039,1,2,0:0:0:0:
256,192,200203,12,0,201852,0:0:0:0:
112,107,202181,5,2,0:3:0:0:
148,97,202511,1,2,0:3:0:0:
350,100,202841,6,0,L|305:130,1,51.999997619629,6|0,0:3|3:0,2:0:0:0:
150,160,203170,1,4,0:3:0:0:
394,274,203500,6,0,L|439:244,1,51.999997619629,10|0,1:3|3:0,2:0:0:0:
240,208,203830,2,0,B|221:224|221:224|212:250,1,51.999997619629,0|0,0:3|0:3,0:0:0:0:
148,97,204159,2,0,P|163:76|193:72,1,51.999997619629,6|0,0:3|0:0,0:0:0:0:
285,184,204489,1,4,0:3:0:0:
54,257,204819,6,0,L|98:286,1,51.999997619629,2|0,1:3|3:0,2:0:0:0:
283,236,205148,2,0,L|240:207,1,51.999997619629,0|0,0:3|0:0,0:0:0:0:
211,18,205478,2,0,L|255:47,1,51.999997619629,6|0,0:3|0:0,2:0:0:0:
283,236,205808,2,0,L|217:193,1,77.9999964294435,4|0,0:3|0:0,2:0:0:0:
377,220,206137,1,2,1:2:0:0:
140,314,206467,2,0,L|96:285,1,51.999997619629,0|0,0:3|1:0,0:0:0:0:
258,144,206797,6,0,P|279:159|283:189,1,51.999997619629,6|0,0:3|0:0,0:0:0:0:
394,274,207126,2,0,P|384:298|357:309,1,51.999997619629,4|0,0:3|0:0,0:0:0:0:
218,249,207456,2,0,P|197:234|193:204,1,51.999997619629,6|0,1:3|0:0,0:0:0:0:
81,119,207786,2,0,P|90:94|117:83,1,51.999997619629,0|0,0:3|3:0,0:0:0:0:
306,82,208115,6,0,L|254:148,1,77.9999964294435,6|0,0:3|3:0,2:0:0:0:
292,254,208445,2,0,L|327:212,1,51.999997619629,4|0,0:3|0:0,2:0:0:0:
191,209,208774,1,2,1:2:0:0:
438,178,209104,2,0,L|416:122,1,51.999997619629,0|0,0:3|3:0,2:0:0:0:
254,46,209434,5,6,0:3:0:0:
217,193,209599,1,0,1:0:0:0:
254,46,209764,1,4,0:3:0:0:
0,261,210093,2,0,B|42:298|58:255|104:289,1,103.999995239258,2|0,1:3|0:3,0:0:0:0:
246,328,210588,1,0,0:0:0:0:
422,293,210753,6,0,L|402:342,1,51.999997619629,6|0,0:3|0:0,2:0:0:0:
386,170,211082,2,0,L|406:122,1,51.999997619629,4|0,0:3|0:0,2:0:0:0:
136,131,211412,2,0,P|146:177|195:209,1,103.999995239258,2|0,1:3|0:3,0:3:0:0:
325,130,211907,1,0,0:0:0:0:
235,276,212072,6,0,B|282:311|301:259|352:304,1,120.000004577637,12|0,2:3|2:3,2:0:0:0:
217,193,212566,1,0,0:0:0:0:
303,48,212731,2,0,P|369:68|406:124,1,136.000002593994,12|0,0:3|1:3,0:0:0:0:
289,324,213225,1,0,1:0:0:0:
466,289,213390,1,6,0:3:0:0:
185,94,213720,2,0,L|123:142,1,77.9999964294435,6|0,0:3|0:0,2:0:0:0:
57,279,214050,6,0,L|106:259,1,51.999997619629,2|0,1:3|0:0,2:0:0:0:
239,245,214379,1,2,0:0:0:0:
118,326,214544,1,0,0:0:0:0:
289,324,214709,2,0,L|338:304,1,51.999997619629,6|0,0:3|0:0,2:0:0:0:
438,178,215039,2,0,P|418:144|384:125,1,77.9999964294435,4|0,0:3|0:3,0:0:0:0:
283,207,215368,6,0,L|330:226,1,51.999997619629,2|0,1:3|0:0,0:0:0:0:
233,73,215698,2,0,L|185:92,1,51.999997619629,8|0,0:3|0:0,0:0:0:0:
105,259,216028,2,0,L|153:240,1,51.999997619629,6|0,0:3|0:0,0:0:0:0:
325,130,216357,1,4,0:3:0:0:
330,355,216687,5,2,1:3:0:0:
70,291,217017,2,0,P|81:267|109:258,1,51.999997619629,0|0,0:3|3:0,0:0:0:0:
283,207,217346,6,0,P|271:230|243:239,1,51.999997619629,6|0,0:3|3:0,0:0:0:0:
233,73,217676,2,0,P|266:53|310:67,1,77.9999964294435,4|0,0:3|3:0,0:0:0:0:
366,197,218006,1,10,1:3:0:0:
330,355,218170,1,0,0:0:0:0:
248,239,218335,1,0,3:3:0:0:
215,381,218499,1,0,3:0:0:0:
145,163,218665,2,0,L|103:257,1,103.999995239258,6|4,0:3|0:3,0:0:0:0:
65,74,219159,1,0,0:0:0:0:
102,257,219324,6,0,L|143:162,1,103.999995239258,2|0,1:3|0:3,0:0:0:0:
437,196,219984,6,0,L|384:207,1,51.999997619629,2|0,0:3|3:3,2:0:0:0:
197,250,220313,2,0,L|249:236,1,51.999997619629,0|0,1:3|1:3,0:0:0:0:
396,353,220642,5,6,0:3:0:0:
363,335,220972,1,12,0:3:0:0:
329,316,221302,1,14,0:3:0:0:
143,161,221632,1,4,0:3:0:0:
215,381,221962,1,2,1:3:0:0:
356,132,222291,2,0,L|309:112,1,51.999997619629,0|0,1:3|0:3,0:0:0:0:
143,161,222621,6,0,L|194:173,1,51.999997619629,6|0,0:3|0:3,0:0:0:0:
329,316,222951,2,0,L|282:296,1,51.999997619629,2|0,3:3|3:3,3:0:0:0:
409,203,223280,6,0,L|457:223,1,51.999997619629,2|0,1:3|1:3,1:0:0:0:
264,29,223610,2,0,L|217:9,1,51.999997619629,2|0,1:3|3:3,0:0:0:0:
205,163,223940,6,0,P|213:201|239:230,1,77.9999964294435,14|0,0:3|0:3,0:0:0:0:
361,183,224270,1,4,0:3:0:0:
53,236,224599,6,0,L|100:256,1,51.999997619629,10|0,1:3|3:3,3:0:0:0:
301,320,224929,2,0,B|285:338|285:338|258:348,1,51.999997619629,0|0,0:3|0:3,0:0:0:0:
344,180,225258,6,0,L|391:160,1,51.999997619629,6|0,0:3|3:3,3:0:0:0:
223,61,225588,2,0,L|147:92,1,77.9999964294435,4|0,0:3|3:3,3:0:0:0:
94,204,225918,6,0,L|74:155,1,51.999997619629,2|0,1:3|3:3,3:0:0:0:
250,246,226247,2,0,L|230:198,1,51.999997619629,0|2,0:3|0:3,3:0:0:0:
386,240,226577,6,0,L|406:288,1,51.999997619629,6|0,0:3|0:3,3:0:0:0:
304,370,226907,1,4,0:3:0:0:
508,206,227236,1,2,1:3:0:0:
297,65,227566,6,0,P|268:90|255:127,1,77.9999964294435,0|0,0:3|0:3,0:0:0:0:
316,239,227896,2,0,B|339:230|339:230|357:207,1,51.999997619629,6|0,0:3|0:0,0:0:0:0:
150,90,228225,2,0,B|126:98|126:98|108:121,1,51.999997619629,2|0,0:3|0:0,0:0:0:0:
347,83,228555,6,0,L|327:35,1,51.999997619629,10|0,1:3|0:3,3:0:0:0:
138,293,228885,2,0,L|158:341,1,51.999997619629,10|0,1:3|0:3,3:0:0:0:
250,246,229214,2,0,L|220:174,1,77.9999964294435,6|0,0:3|0:3,3:0:0:0:
109,119,229544,2,0,L|89:167,1,51.999997619629,6|0,0:3|0:3,3:0:0:0:
287,131,229874,2,0,L|328:30,1,103.999995239258,2|0,1:3|0:3,3:0:0:0:
426,313,230533,6,0,B|417:336|417:336|394:354,1,51.999997619629,6|0,0:3|0:0,0:0:0:0:
355,208,230863,2,0,B|371:161|371:161|418:125,1,103.999995239258,6|10,0:3|1:3,0:0:0:0:
221,335,231522,2,0,P|198:323|189:295,1,51.999997619629,0|0,0:3|0:0,0:0:0:0:
276,147,231852,1,6,0:3:0:0:
64,73,232181,1,4,0:3:0:0:
276,147,232511,6,0,L|327:153,1,51.999997619629,10|0,1:3|0:3,3:0:0:0:
493,13,232841,2,0,L|445:32,1,51.999997619629,6|0,0:3|0:3,3:0:0:0:
260,78,233170,1,2,1:3:0:0:
383,298,233500,5,2,0:0:0:0:
437,246,233665,1,0,1:0:0:0:
328,348,233830,1,6,0:3:0:0:
328,348,234159,5,6,0:3:0:0:
296,195,234324,1,0,1:0:0:0:
100,257,234489,2,0,L|150:196,1,77.9999964294435,6|0,0:3|3:0,2:0:0:0:
188,298,234819,2,0,L|139:359,1,77.9999964294435,4|0,0:3|3:0,2:0:0:0:
149,196,235148,6,0,L|181:155,1,51.999997619629,10|0,1:3|3:0,2:0:0:0:
96,32,235478,2,0,L|63:72,1,51.999997619629,0|0,0:3|0:0,2:0:0:0:
180,155,235808,1,6,0:3:0:0:
319,84,235973,1,0,0:0:0:0:
311,240,236137,1,4,0:3:0:0:
444,32,236467,6,0,L|475:72,1,51.999997619629,2|0,1:3|0:3,3:0:0:0:
469,286,236797,2,2,L|437:245,1,51.999997619629,2|0,0:3|0:3,0:0:0:0:
325,157,237126,6,0,P|302:170|296:198,1,51.999997619629,6|0,0:3|0:0,0:0:0:0:
328,348,237456,2,0,P|369:321|385:271,1,103.999995239258,4|2,0:3|1:3,0:0:0:0:
129,147,238115,1,0,0:0:0:0:
56,284,238280,1,0,1:0:0:0:
212,279,238445,6,0,B|235:272|235:272|255:250,1,51.999997619629,6|0,0:3|0:0,0:0:0:0:
260,78,238775,1,4,0:3:0:0:
478,213,239104,6,0,L|438:244,1,51.999997619629,2|0,1:3|0:3,3:0:0:0:
253,251,239434,1,0,1:0:0:0:
319,84,239599,1,0,1:0:0:0:
436,244,239764,6,0,L|348:312,1,103.999995239258,6|4,0:3|0:3,3:0:0:0:
253,251,240258,1,0,0:0:0:0:
70,258,240423,2,0,L|158:190,1,103.999995239258,2|0,1:3|0:3,3:0:0:0:
319,84,240918,5,4,0:3:0:0:
286,167,241082,1,6,0:3:0:0:
352,1,241247,1,0,0:3:0:0:
450,98,241412,2,0,P|437:121|409:127,1,51.999997619629,2|0,0:3|0:0,0:0:0:0:
195,49,241742,5,14,0:3:0:0:
229,31,242072,1,6,0:3:0:0:
263,13,242401,1,2,1:3:0:0:
374,154,242566,1,0,0:0:0:0:
237,152,242731,2,0,B|251:128|251:128|273:117,1,51.999997619629,4|4,0:3|0:3,0:0:0:0:
330,254,243061,6,0,L|285:324,1,77.9999964294435,2|0,1:3|0:3,3:0:0:0:
215,381,243390,1,4,0:3:0:0:
55,185,243720,1,6,1:3:0:0:
89,167,244050,1,6,1:3:0:0:
123,149,244379,5,6,1:3:0:0:
181,239,244544,1,0,0:0:0:0:
224,103,244709,1,2,1:3:0:0:
442,229,245039,6,0,B|395:264|376:212|325:257,1,120.000004577637,12|4,2:3|2:3,2:0:0:0:
21,203,245698,2,0,P|66:140|112:125,1,120.000004577637,14|0,1:3|0:3,0:0:0:0:
237,152,246192,1,0,0:0:0:0:
457,55,246357,6,0,L|417:11,1,60.0000022888184,14|0,0:3|0:3,0:0:0:0:
395,154,246687,2,0,L|435:198,1,60.0000022888184,0|0,3:3|0:3,0:0:0:0:
355,341,247017,5,2,1:2:0:0:
284,221,247181,1,0,3:0:0:0:
252,359,247347,1,0,1:0:0:0:
181,239,247512,1,0,1:0:0:0:
181,45,247676,2,0,L|235:151,1,120.000004577637,14|4,1:3|0:3,0:0:0:0:
133,363,248335,6,0,B|96:335|96:335|67:262,1,120.000004577637,6|0,1:3|0:3,0:0:0:0:
116,146,248830,1,0,0:0:0:0:
236,151,248995,1,2,0:0:0:0:
116,146,249159,1,0,1:0:0:0:
181,45,249324,1,2,0:0:0:0:
457,55,249654,6,0,L|414:106,1,66.0000020141602,2|0,0:2|3:0,0:0:0:0:
297,162,249984,1,0,1:0:0:0:
341,232,250148,1,0,0:0:0:0:
253,92,250313,1,14,0:3:0:0:
164,280,250643,6,0,L|137:246,1,44.0000013427735,6|0,0:3|0:0,0:0:0:0:
311,348,250973,1,10,1:3:0:0:
77,256,251302,5,0,3:0:0:0:
77,256,251467,1,0,1:0:0:0:
73,139,251632,2,0,P|95:136|116:145,2,44.0000013427735,2|0|2,0:0|0:0|0:0,0:0:0:0:
143,337,252126,1,0,3:0:0:0:
181,239,252291,1,6,0:3:0:0:
69,32,252621,1,4,0:3:0:0:
256,192,252951,12,0,255258,0:0:0:0:
62,72,255588,5,0,1:0:0:0:
100,57,255918,1,0,1:0:0:0:
189,205,256247,2,0,L|149:197,1,40,0|4,1:3|1:3,2:0:0:0:
335,88,256742,1,0,1:0:0:0:
335,88,256907,1,0,1:3:0:0:
150,198,257236,1,4,1:3:0:0:
274,336,257401,1,4,1:3:0:0:
312,351,257731,5,4,1:3:0:0:
274,170,257896,1,4,1:3:0:0:
236,155,258225,1,12,1:3:0:0:
101,293,258555,2,0,L|77:256,1,44.0000013427735,0|0,0:0|1:3,0:0:0:0:
197,354,258885,1,0,1:3:0:0:
449,182,259214,6,4,B|377:243|350:169|268:228,1,176.000005371094,12|4,0:3|0:3,0:3:0:0:
197,354,260286,2,0,L|158:332,2,44.0000013427735,0|4|4,3:0|2:3|2:3,2:0:0:0:
500,247,260863,2,0,P|448:177|399:160,1,132.00000402832,12|0,1:3|1:3,0:0:0:0:
283,220,261522,1,0,1:0:0:0:
69,32,261852,6,4,B|141:94|169:20|251:80,1,176.000005371094,12|4,0:3|1:3,0:3:0:0:
48,252,262841,2,0,L|57:296,1,44.0000013427735,0|0,1:0|0:3,2:0:0:0:
250,249,263170,2,0,L|241:205,1,44.0000013427735,0|0,1:0|0:3,2:0:0:0:
124,329,263500,6,0,L|210:347,1,88.000002685547,12|0,0:3|0:3,2:0:0:0:
315,333,263995,1,0,2:0:0:0:
208,235,264159,1,0,1:0:0:0:
359,40,264489,6,0,B|306:84|285:31|226:74,1,132.00000402832,12|0,0:3|1:3,0:3:0:0:
250,249,265313,1,4,0:3:0:0:
131,191,265478,1,0,1:3:0:0:
315,333,265808,6,0,L|359:323,1,44.0000013427735,4|0,0:3|0:3,2:0:0:0:
500,247,266137,2,0,P|465:200|432:189,1,88.000002685547,12|0,1:3|0:3,0:0:0:0:
198,102,266797,1,0,1:0:0:0:
45,305,267126,6,0,B|111:361|136:294|211:347,1,176.000005371094,12|4,0:3|0:3,0:3:0:0:
410,158,268115,6,0,B|425:166|425:166|439:190,1,44.0000013427735,2|0,0:3|0:3,0:0:0:0:
198,102,268445,1,0,1:0:0:0:
276,225,268610,1,0,1:0:0:0:
103,196,268775,2,0,P|132:131|168:112,1,103.999995239258,14|0,1:3|0:3,0:0:0:0:
209,346,269434,1,0,1:0:0:0:
485,339,269764,6,0,L|326:303,1,155.999992858887,12|0,0:3|1:3,0:0:0:0:
276,225,270423,1,4,0:3:0:0:
410,158,270588,1,4,0:3:0:0:
160,117,270753,1,0,1:0:0:0:
198,102,271082,1,4,0:3:0:0:
234,311,271412,1,12,1:3:0:0:
103,196,271742,1,2,0:0:0:0:
332,139,272072,2,0,L|412:156,1,77.9999964294435,8|0,1:3|0:3,0:0:0:0:
276,225,272401,6,0,B|355:292|385:211|475:275,1,207.999990478516,12|0,0:3|0:3,0:3:0:0:
433,82,273225,1,0,0:0:0:0:
318,199,273390,2,0,P|301:217|276:224,1,51.999997619629,8|0,1:3|0:0,0:0:0:0:
121,148,273720,2,0,P|134:127|158:116,1,51.999997619629,0|0,0:3|0:0,0:0:0:0:
359,208,274050,6,4,B|319:242|304:201|258:234,1,88.000002685547,12|4,0:3|1:3,0:3:0:0:
31,262,274709,2,0,L|74:272,1,44.0000013427735,4|0,0:3|0:3,2:0:0:0:
180,344,275039,2,0,L|138:335,1,44.0000013427735,0|0,0:3|0:3,2:0:0:0:
332,304,275368,1,0,1:0:0:0:
435,168,275918,2,4,L|409:157,3,29.3333342285157,0|4|4|4,0:3|0:3|0:3|0:3,0:3:0:0:
359,208,276357,1,12,1:3:0:0:
256,192,276440,12,0,279984,0:0:0:0:
256,192,280066,12,0,287566,0:0:0:0:
