osu file format v14

[General]
AudioFilename: audio.mp3
AudioLeadIn: 0
PreviewTime: 6209
Countdown: 0
SampleSet: None
StackLeniency: 0.7
Mode: 0
LetterboxInBreaks: 0
WidescreenStoryboard: 1

[Editor]
DistanceSpacing: 0.3
BeatDivisor: 4
GridSize: 4
TimelineZoom: 2.399999

[Metadata]
Title:DON QUIXOTE BEAM ~
TitleUnicode:DON QUIXOTE BEAM ~
Artist:riguruma
ArtistUnicode:riguruma
Creator:arraf
Version:[MORE SPACED] DONKI DONKI BEEEEEEEEEEEEEEEEEEEEEEEEEEEEEEEEEEEAM!!!
Source:youtube.com/watch?v=x6_9dUTlSe8
Tags:limbuscompany limbus donquixote LC projectmoon project moon don quixote limbus company riguruma
BeatmapID:4584191
BeatmapSetID:2171861

[Difficulty]
HPDrainRate:5.4
CircleSize:4.3
OverallDifficulty:5.3
ApproachRate:9.5
SliderMultiplier:2.2
SliderTickRate:1

[Events]
//Background and Video events
0,0,"85jXUIjlSCU-gigapixel-art-scale-4_00x.jpg",0,0
Video,0,"DON QUIXOTE BEAM.mp4"
//Break Periods
//Storyboard Layer 0 (Background)
//Storyboard Layer 1 (Fail)
//Storyboard Layer 2 (Pass)
//Storyboard Layer 3 (Foreground)
//Storyboard Layer 4 (Overlay)
//Storyboard Sound Samples

[TimingPoints]
180,312.517904671622,4,1,0,100,1,0
1273,-50,4,1,0,100,0,0
11352,156.258952335811,4,1,0,100,1,0
16196,312.5,4,1,0,100,1,0
16274,-66.6666666666667,4,1,0,100,0,0

[Colours]
Combo1 : 255,167,79
Combo2 : 255,255,0
Combo3 : 255,128,64
Combo4 : 255,255,128

[HitObjects]
148,32,180,5,0,0:0:0:0:
20,200,492,1,0,0:0:0:0:
128,316,805,2,0,P|216:324|340:244,1,220
124,64,1430,1,0,0:0:0:0:
164,272,1586,1,0,0:0:0:0:
480,96,1742,2,0,P|388:44|212:68,1,220
232,132,2055,1,0,0:0:0:0:
404,336,2211,1,0,0:0:0:0:
92,208,2367,2,0,P|120:76|216:52,1,220
336,156,2680,5,0,0:0:0:0:
236,292,2836,1,0,0:0:0:0:
116,92,2992,1,0,0:0:0:0:
492,248,3148,1,0,0:0:0:0:
428,80,3305,1,0,0:0:0:0:
428,80,3461,2,0,B|348:56|348:56|196:192,1,220
152,288,3773,1,0,0:0:0:0:
100,72,3930,1,0,0:0:0:0:
268,192,4086,2,0,P|340:256|324:260,1,220
272,56,4398,5,0,0:0:0:0:
360,288,4555,1,0,0:0:0:0:
116,204,4711,2,0,B|120:84|120:84|228:116,1,220
260,304,5024,1,0,0:0:0:0:
440,272,5180,1,0,0:0:0:0:
328,180,5336,2,0,B|204:156|204:156|124:76,1,220
184,204,5649,2,0,B|308:228|308:228|374:294,1,220
72,112,5961,1,0,0:0:0:0:
184,68,6117,2,0,B|272:24|376:100|344:232,1,220
424,236,6430,6,0,B|272:284|272:284|156:252,1,220
120,212,6742,2,0,B|48:96|56:104|56:104|176:112,1,220
256,64,7055,2,0,B|360:160|360:160|244:196,1,220
184,272,7367,2,0,P|56:284|48:192,1,220
152,72,7680,2,0,B|252:176|252:176|340:148,1,220
472,160,7992,2,0,B|432:300|432:300|296:264,1,220
208,172,8305,2,0,P|264:72|388:80,1,220
396,168,8617,2,0,B|276:288|276:288|176:256,1,220
76,128,8930,2,0,B|188:96|188:96|300:152,1,220
276,248,9243,6,0,B|144:252|144:252|68:208,1,220
120,88,9555,2,0,P|260:104|340:172,1,220
216,292,9868,2,0,P|96:240|40:132,1,220
216,292,10180,2,0,P|144:208|104:100,1,220
216,292,10493,2,0,P|168:144|192:56,1,220
296,72,10805,5,0,0:0:0:0:
136,72,11118,1,0,0:0:0:0:
152,260,11430,1,0,0:0:0:0:
348,196,11508,2,0,P|368:132|328:104,1,110
128,120,11664,1,0,0:0:0:0:
108,148,11742,1,0,0:0:0:0:
100,180,11820,1,0,0:0:0:0:
196,292,11898,2,0,P|292:332|328:316,1,110
396,224,12055,5,0,0:0:0:0:
412,208,12133,2,0,P|432:128|432:80,1,110
276,44,12289,2,0,B|188:48|188:48|136:100,1,110
88,196,12445,2,0,P|100:279|117:308,1,110
372,320,12602,1,0,0:0:0:0:
392,308,12680,1,0,0:0:0:0:
412,292,12758,1,0,0:0:0:0:
404,120,12836,2,0,P|360:48|304:20,1,110
164,64,12992,1,0,0:0:0:0:
164,64,13070,6,0,P|96:140|92:164,1,110
359,124,13227,1,0,0:0:0:0:
176,232,13305,2,0,P|156:296|196:324,1,110
364,300,13461,1,0,0:0:0:0:
385,272,13539,1,0,0:0:0:0:
393,240,13617,1,0,0:0:0:0:
352,112,13695,2,0,P|256:72|220:88,1,110
152,164,13852,5,0,0:0:0:0:
136,180,13930,2,0,P|116:260|116:308,1,110
260,319,14086,2,0,B|348:315|348:315|400:263,1,110
312,164,14242,2,0,P|299:81|282:52,1,110
152,96,14399,1,0,0:0:0:0:
132,108,14477,1,0,0:0:0:0:
112,124,14555,1,0,0:0:0:0:
124,264,14633,2,0,P|168:336|224:363,1,110
328,312,14789,1,0,0:0:0:0:
332,308,14867,6,0,P|400:231|404:208,1,110
348,56,15024,5,0,0:0:0:0:
260,120,15102,2,0,P|219:156|196:205,1,110
100,292,15258,1,0,0:0:0:0:
120,308,15336,1,0,0:0:0:0:
140,320,15414,1,0,0:0:0:0:
336,240,15493,2,0,P|358:190|361:136,1,110
232,72,15649,2,0,B|217:57|217:57|129:53,1,110
68,156,15805,2,0,P|73:211|90:264,1,110
224,320,15961,1,0,0:0:0:0:
464,104,16352,5,0,0:0:0:0:
352,136,16430,1,0,0:0:0:0:
248,72,16508,1,0,0:0:0:0:
164,136,16586,1,0,0:0:0:0:
256,248,16664,6,0,B|296:292|296:292|260:372,1,82.5000031471254
160,352,16821,2,0,P|157:292|106:274,1,82.5000031471254
44,204,16977,5,0,0:0:0:0:
48,64,17055,1,0,0:0:0:0:
152,92,17133,1,0,0:0:0:0:
272,144,17211,1,0,0:0:0:0:
420,80,17289,6,0,B|466:88|466:88|489:140,1,82.5000031471254
428,236,17446,2,0,P|386:222|332:232,1,82.5000031471254
172,236,17602,1,0,0:0:0:0:
88,128,17680,1,0,0:0:0:0:
168,52,17758,5,0,0:0:0:0:
320,44,17836,1,0,0:0:0:0:
412,112,17914,2,0,L|468:172,1,82.5000031471254
384,240,18071,2,0,L|422:372,1,82.5000031471254
300,340,18227,5,0,0:0:0:0:
200,292,18305,1,0,0:0:0:0:
140,208,18383,1,0,0:0:0:0:
160,104,18461,1,0,0:0:0:0:
292,40,18539,2,0,P|330:66|363:100,1,82.5000031471254
372,236,18696,2,0,B|340:228|340:228|224:252,1,82.5000031471254
152,288,18852,5,0,0:0:0:0:
88,216,18930,1,0,0:0:0:0:
116,100,19008,1,0,0:0:0:0:
200,60,19086,1,0,0:0:0:0:
332,52,19164,6,0,L|388:128,1,82.5000031471254
420,152,19321,2,0,L|459:254,1,82.5000031471254
388,332,19477,1,0,0:0:0:0:
288,264,19555,1,0,0:0:0:0:
192,324,19633,1,0,0:0:0:0:
88,272,19711,1,0,0:0:0:0:
60,160,19789,2,0,P|73:105|137:21,1,82.5000031471254
208,60,19946,2,0,P|256:59|296:89,1,82.5000031471254
123,83,21157,6,0,L|47:136,1,82.5000031471254
