osu file format v14

[General]
AudioFilename: audio.ogg
AudioLeadIn: 0
PreviewTime: 26032
Countdown: 0
SampleSet: Soft
StackLeniency: 0.7
Mode: 3
LetterboxInBreaks: 0
SpecialStyle: 0
WidescreenStoryboard: 1
SamplesMatchPlaybackRate: 1

[Editor]
Bookmarks: 14652,56780,65716,77205,87418
DistanceSpacing: 0.8
BeatDivisor: 2
GridSize: 32
TimelineZoom: 0.6999998

[Metadata]
Title:mint tears
TitleUnicode:mint tears
Artist:ribbon room
ArtistUnicode:ribbon room
Creator:cai_ji_ccc
Version:YuEast's Normal
Source:太鼓の達人
Tags:[GB]V1do VidoriyaIzuku Taiko no Tatsujin ds: dororon! yokai daikessen!! tnt ナムコオリジナル bandai namco original YuEast 2018 cotoribbon silvercoin breakcore video game instrumental japanese english 太鼓の達人ds ドロロン!ヨーカイ大決戦!!
BeatmapID:3659977
BeatmapSetID:1773264

[Difficulty]
HPDrainRate:7
CircleSize:4
OverallDifficulty:7
ApproachRate:5
SliderMultiplier:1.4
SliderTickRate:1

[Events]
//Background and Video events
0,0,"121ab41fc18d4914b62ae0950a1dce3f.jpg",0,0
//Break Periods
//Storyboard Layer 0 (Background)
//Storyboard Layer 1 (Fail)
//Storyboard Layer 2 (Pass)
//Storyboard Layer 3 (Foreground)
//Storyboard Layer 4 (Overlay)
//Storyboard Sound Samples
Sample,68958,0,"LR_Clap Low 2.wav",50
Sample,71511,0,"LR_Clap Low 2.wav",50
Sample,74064,0,"LR_Clap Low 2.wav",50
Sample,76618,0,"LR_Clap Low 2.wav",50
Sample,79171,0,"LR_Clap Low 2.wav",50
Sample,81724,0,"LR_Clap Low 2.wav",50
Sample,84277,0,"LR_Clap Low 2.wav",50
Sample,86830,0,"LR_Clap Low 2.wav",50

[TimingPoints]
501,319.148936170213,4,2,1,45,1,0
26032,-100.0,4,2,1,45,0,1
46458,-100.0,4,2,1,45,0,0
56671,-100.0,4,2,1,45,0,1
65607,-100.0,4,2,1,45,0,0
97522,-100.0,4,2,1,45,0,1
107735,-100.0,4,2,1,45,0,0

[HitObjects]
64,192,501,1,0,0:0:0:0:
192,192,501,1,0,0:0:0:0:
448,192,820,1,0,0:0:0:0:
320,192,979,1,0,0:0:0:0:
192,192,1139,1,0,0:0:0:0:
64,192,1458,1,0,0:0:0:0:
192,192,1618,1,0,0:0:0:0:
320,192,1777,1,0,0:0:0:0:
448,192,1777,1,0,0:0:0:0:
64,192,2096,1,0,0:0:0:0:
192,192,2256,1,0,0:0:0:0:
320,192,2415,1,0,0:0:0:0:
448,192,2735,1,0,0:0:0:0:
320,192,2894,1,0,0:0:0:0:
64,192,3054,1,0,0:0:0:0:
192,192,3054,1,0,0:0:0:0:
448,192,3213,1,0,0:0:0:0:
192,192,3373,1,0,0:0:0:0:
64,192,3532,1,0,0:0:0:0:
320,192,3692,1,0,0:0:0:0:
192,192,3852,1,0,0:0:0:0:
448,192,4011,1,0,0:0:0:0:
320,192,4171,1,0,0:0:0:0:
64,192,4330,1,8,0:0:0:0:
192,192,4330,1,0,0:0:0:0:
448,192,4490,1,2,0:0:0:0:
64,192,4649,1,8,0:0:0:0:
192,192,4649,1,0,0:0:0:0:
448,192,4809,1,2,0:0:0:0:
64,192,4969,128,8,5288:0:0:0:0:
192,192,5288,128,10,5607:0:0:0:0:
64,192,5607,1,4,0:0:0:0:
448,192,5607,128,2,5926:0:0:0:0:
64,192,5926,1,8,0:0:0:0:
192,192,5926,1,0,0:0:0:0:
320,192,6086,1,0,0:0:0:0:
192,192,6245,1,0,0:0:0:0:
320,192,6405,1,2,0:0:0:0:
64,192,6564,1,8,0:0:0:0:
448,192,6564,1,0,0:0:0:0:
192,192,6724,1,0,0:0:0:0:
448,192,6883,1,2,0:0:0:0:
192,192,7043,1,0,0:0:0:0:
320,192,7203,1,8,0:0:0:0:
448,192,7203,1,0,0:0:0:0:
64,192,7362,1,0,0:0:0:0:
448,192,7522,128,0,7841:0:0:0:0:
64,192,7681,1,2,0:0:0:0:
192,192,7841,1,8,0:0:0:0:
320,192,7841,128,0,8160:0:0:0:0:
64,192,8160,128,2,8479:0:0:0:0:
320,192,8479,1,8,0:0:0:0:
448,192,8479,1,0,0:0:0:0:
64,192,8639,1,0,0:0:0:0:
192,192,8798,1,0,0:0:0:0:
320,192,8958,1,2,0:0:0:0:
64,192,9118,1,8,0:0:0:0:
192,192,9118,1,0,0:0:0:0:
320,192,9277,1,0,0:0:0:0:
448,192,9437,1,2,0:0:0:0:
192,192,9596,1,0,0:0:0:0:
64,192,9756,1,8,0:0:0:0:
448,192,9756,1,0,0:0:0:0:
192,192,9915,1,0,0:0:0:0:
320,192,10075,1,0,0:0:0:0:
448,192,10235,1,2,0:0:0:0:
64,192,10394,1,8,0:0:0:0:
192,192,10394,1,0,0:0:0:0:
448,192,10554,128,0,11990:0:0:0:0:
64,192,10713,1,2,0:0:0:0:
192,192,11032,1,8,0:0:0:0:
64,192,11192,1,0,0:0:0:0:
320,192,11352,1,0,0:0:0:0:
64,192,11511,1,2,0:0:0:0:
320,192,11671,1,8,0:0:0:0:
192,192,11830,1,0,0:0:0:0:
64,192,11990,1,2,0:0:0:0:
320,192,12149,1,0,0:0:0:0:
64,192,12309,1,8,0:0:0:0:
448,192,12309,1,0,0:0:0:0:
320,192,12469,1,0,0:0:0:0:
192,192,12628,1,0,0:0:0:0:
64,192,12788,1,2,0:0:0:0:
320,192,12947,1,8,0:0:0:0:
448,192,12947,1,0,0:0:0:0:
64,192,13107,128,0,14543:0:0:0:0:
448,192,13266,1,2,0:0:0:0:
320,192,13586,1,8,0:0:0:0:
448,192,13745,1,0,0:0:0:0:
192,192,13905,1,0,0:0:0:0:
448,192,14064,1,2,0:0:0:0:
192,192,14224,1,8,0:0:0:0:
320,192,14383,1,0,0:0:0:0:
448,192,14543,1,2,0:0:0:0:
192,192,14703,1,8,0:0:0:0:
320,192,14862,1,2,0:0:0:0:
448,192,14862,1,8,0:0:0:0:
192,192,15022,1,8,0:0:0:0:
64,192,15181,128,10,15501:0:0:0:0:
192,192,15501,128,10,15820:0:0:0:0:
64,192,15820,1,4,0:0:0:0:
448,192,15820,128,2,16139:0:0:0:0:
192,192,16139,1,8,0:0:0:0:
320,192,16139,1,0,0:0:0:0:
64,192,16298,1,0,0:0:0:0:
320,192,16458,1,0,0:0:0:0:
64,192,16618,1,2,0:0:0:0:
192,192,16777,1,8,0:0:0:0:
448,192,16777,1,0,0:0:0:0:
64,192,16937,1,0,0:0:0:0:
320,192,17096,1,2,0:0:0:0:
192,192,17256,1,0,0:0:0:0:
64,192,17415,1,8,0:0:0:0:
448,192,17415,1,0,0:0:0:0:
192,192,17575,1,0,0:0:0:0:
320,192,17735,1,0,0:0:0:0:
448,192,17894,1,2,0:0:0:0:
64,192,18054,1,8,0:0:0:0:
192,192,18054,1,0,0:0:0:0:
448,192,18213,128,0,19649:0:0:0:0:
64,192,18373,1,2,0:0:0:0:
192,192,18692,1,8,0:0:0:0:
64,192,18852,1,0,0:0:0:0:
320,192,19011,1,0,0:0:0:0:
64,192,19171,1,2,0:0:0:0:
320,192,19330,1,8,0:0:0:0:
192,192,19490,1,0,0:0:0:0:
64,192,19649,1,2,0:0:0:0:
320,192,19809,1,0,0:0:0:0:
64,192,19969,1,8,0:0:0:0:
448,192,19969,1,0,0:0:0:0:
320,192,20128,1,0,0:0:0:0:
192,192,20288,1,0,0:0:0:0:
64,192,20447,1,2,0:0:0:0:
320,192,20607,1,8,0:0:0:0:
448,192,20607,1,0,0:0:0:0:
64,192,20766,128,0,22203:0:0:0:0:
448,192,20926,1,2,0:0:0:0:
320,192,21245,1,8,0:0:0:0:
448,192,21405,1,0,0:0:0:0:
192,192,21564,1,0,0:0:0:0:
448,192,21724,1,2,0:0:0:0:
192,192,21883,1,8,0:0:0:0:
320,192,22043,1,0,0:0:0:0:
448,192,22203,1,2,0:0:0:0:
192,192,22362,1,0,0:0:0:0:
64,192,22522,1,8,0:0:0:0:
448,192,22522,1,0,0:0:0:0:
192,192,22681,1,0,0:0:0:0:
320,192,22841,1,0,0:0:0:0:
448,192,23001,1,2,0:0:0:0:
64,192,23160,1,8,0:0:0:0:
192,192,23160,1,0,0:0:0:0:
320,192,23320,1,0,0:0:0:0:
64,192,23479,128,2,23798:0:0:0:0:
192,192,23798,1,8,0:0:0:0:
320,192,23798,1,0,0:0:0:0:
448,192,23958,128,0,24756:0:0:0:0:
192,192,24118,1,0,0:0:0:0:
320,192,24277,1,2,0:0:0:0:
64,192,24437,1,8,0:0:0:0:
320,192,24596,1,0,0:0:0:0:
192,192,24756,1,2,0:0:0:0:
448,192,24915,1,8,0:0:0:0:
192,192,25075,1,2,0:0:0:0:
448,192,25235,1,8,0:0:0:0:
320,192,25394,1,2,0:0:0:0:
192,192,25554,1,8,0:0:0:0:
64,192,25713,1,10,0:0:0:0:
448,192,25873,1,8,0:0:0:0:
64,192,26032,1,4,0:0:0:0:
192,192,26032,1,2,0:0:0:0:
448,192,26192,1,0,0:0:0:0:
192,192,26352,1,8,0:0:0:0:
320,192,26352,1,0,0:0:0:0:
64,192,26511,1,0,0:0:0:0:
320,192,26671,1,0,0:0:0:0:
64,192,26830,1,2,0:0:0:0:
320,192,26990,1,8,0:0:0:0:
448,192,26990,1,0,0:0:0:0:
192,192,27149,1,0,0:0:0:0:
448,192,27309,1,2,0:0:0:0:
192,192,27469,1,0,0:0:0:0:
320,192,27628,1,8,0:0:0:0:
448,192,27628,1,0,0:0:0:0:
64,192,27788,1,0,0:0:0:0:
320,192,28107,1,2,0:0:0:0:
64,192,28266,1,8,0:0:0:0:
448,192,28266,1,0,0:0:0:0:
320,192,28426,1,0,0:0:0:0:
192,192,28586,1,2,0:0:0:0:
448,192,28745,1,0,0:0:0:0:
64,192,28905,1,8,0:0:0:0:
192,192,28905,1,0,0:0:0:0:
448,192,29064,1,0,0:0:0:0:
64,192,29224,1,0,0:0:0:0:
320,192,29383,1,2,0:0:0:0:
64,192,29543,1,8,0:0:0:0:
192,192,29543,1,0,0:0:0:0:
320,192,29703,1,0,0:0:0:0:
192,192,29862,1,2,0:0:0:0:
448,192,30022,1,0,0:0:0:0:
64,192,30181,1,8,0:0:0:0:
192,192,30181,1,0,0:0:0:0:
448,192,30341,1,0,0:0:0:0:
192,192,30660,1,2,0:0:0:0:
64,192,30820,1,8,0:0:0:0:
448,192,30820,1,0,0:0:0:0:
192,192,30979,1,0,0:0:0:0:
320,192,31139,1,2,0:0:0:0:
64,192,31298,1,0,0:0:0:0:
192,192,31458,1,8,0:0:0:0:
320,192,31458,1,0,0:0:0:0:
448,192,31618,1,0,0:0:0:0:
192,192,31777,1,0,0:0:0:0:
448,192,31937,1,2,0:0:0:0:
64,192,32096,1,8,0:0:0:0:
192,192,32096,1,0,0:0:0:0:
320,192,32256,1,0,0:0:0:0:
64,192,32415,1,2,0:0:0:0:
320,192,32575,1,0,0:0:0:0:
64,192,32735,1,8,0:0:0:0:
192,192,32735,1,0,0:0:0:0:
448,192,32894,1,0,0:0:0:0:
192,192,33213,1,2,0:0:0:0:
64,192,33373,1,8,0:0:0:0:
448,192,33373,1,0,0:0:0:0:
192,192,33532,1,0,0:0:0:0:
320,192,33692,1,2,0:0:0:0:
64,192,33852,1,0,0:0:0:0:
320,192,34011,1,8,0:0:0:0:
448,192,34011,1,0,0:0:0:0:
64,192,34171,1,0,0:0:0:0:
448,192,34330,1,0,0:0:0:0:
192,192,34490,1,2,0:0:0:0:
320,192,34649,1,8,0:0:0:0:
448,192,34649,1,0,0:0:0:0:
192,192,34809,1,0,0:0:0:0:
320,192,34969,1,2,0:0:0:0:
64,192,35128,1,8,0:0:0:0:
320,192,35288,1,2,0:0:0:0:
448,192,35288,1,8,0:0:0:0:
64,192,35447,1,8,0:0:0:0:
320,192,35766,1,10,0:0:0:0:
64,192,35926,1,2,0:0:0:0:
448,192,35926,1,8,0:0:0:0:
320,192,36086,1,8,0:0:0:0:
64,192,36245,1,4,0:0:0:0:
192,192,36245,1,2,0:0:0:0:
448,192,36405,1,0,0:0:0:0:
192,192,36564,1,8,0:0:0:0:
320,192,36564,1,0,0:0:0:0:
448,192,36724,1,0,0:0:0:0:
192,192,36883,1,0,0:0:0:0:
64,192,37043,1,2,0:0:0:0:
320,192,37203,1,8,0:0:0:0:
448,192,37203,1,0,0:0:0:0:
192,192,37362,1,0,0:0:0:0:
448,192,37522,1,2,0:0:0:0:
192,192,37681,1,0,0:0:0:0:
320,192,37841,1,8,0:0:0:0:
448,192,37841,1,0,0:0:0:0:
64,192,38001,1,0,0:0:0:0:
320,192,38320,1,2,0:0:0:0:
64,192,38479,1,8,0:0:0:0:
448,192,38479,1,0,0:0:0:0:
320,192,38639,1,0,0:0:0:0:
192,192,38798,1,2,0:0:0:0:
448,192,38958,1,0,0:0:0:0:
64,192,39118,1,8,0:0:0:0:
192,192,39118,1,0,0:0:0:0:
448,192,39277,1,0,0:0:0:0:
64,192,39437,1,0,0:0:0:0:
320,192,39596,1,2,0:0:0:0:
64,192,39756,1,8,0:0:0:0:
192,192,39756,1,0,0:0:0:0:
320,192,39915,1,0,0:0:0:0:
192,192,40075,1,2,0:0:0:0:
448,192,40235,1,0,0:0:0:0:
64,192,40394,1,8,0:0:0:0:
192,192,40394,1,0,0:0:0:0:
448,192,40554,1,0,0:0:0:0:
192,192,40873,1,2,0:0:0:0:
64,192,41032,1,8,0:0:0:0:
448,192,41032,1,0,0:0:0:0:
192,192,41192,1,0,0:0:0:0:
320,192,41352,1,2,0:0:0:0:
64,192,41511,1,0,0:0:0:0:
192,192,41671,1,8,0:0:0:0:
320,192,41671,1,0,0:0:0:0:
448,192,41830,1,0,0:0:0:0:
192,192,41990,1,0,0:0:0:0:
448,192,42149,1,2,0:0:0:0:
64,192,42309,1,8,0:0:0:0:
192,192,42309,1,0,0:0:0:0:
320,192,42469,1,0,0:0:0:0:
64,192,42628,1,2,0:0:0:0:
320,192,42788,1,0,0:0:0:0:
64,192,42947,1,8,0:0:0:0:
192,192,42947,1,0,0:0:0:0:
448,192,43107,1,0,0:0:0:0:
192,192,43426,1,2,0:0:0:0:
64,192,43586,1,8,0:0:0:0:
448,192,43586,1,0,0:0:0:0:
192,192,43745,1,0,0:0:0:0:
320,192,43905,1,2,0:0:0:0:
64,192,44064,1,0,0:0:0:0:
320,192,44224,1,8,0:0:0:0:
448,192,44224,1,0,0:0:0:0:
64,192,44383,1,0,0:0:0:0:
448,192,44543,1,0,0:0:0:0:
192,192,44703,1,2,0:0:0:0:
320,192,44862,1,8,0:0:0:0:
448,192,44862,1,0,0:0:0:0:
192,192,45022,1,0,0:0:0:0:
320,192,45181,1,2,0:0:0:0:
64,192,45341,1,8,0:0:0:0:
320,192,45501,1,10,0:0:0:0:
64,192,45660,1,8,0:0:0:0:
192,192,45820,1,2,0:0:0:0:
320,192,45979,1,10,0:0:0:0:
448,192,46139,1,10,0:0:0:0:
64,192,46298,1,8,0:0:0:0:
320,192,46458,1,4,0:0:0:0:
448,192,46458,1,0,0:0:0:0:
192,192,46777,1,0,0:0:0:0:
448,192,47096,1,0,0:0:0:0:
192,192,47256,1,0,0:0:0:0:
320,192,47575,1,0,0:0:0:0:
448,192,47894,1,0,0:0:0:0:
64,192,48054,1,0,0:0:0:0:
320,192,48213,1,0,0:0:0:0:
64,192,48373,1,0,0:0:0:0:
448,192,48532,1,0,0:0:0:0:
192,192,48692,1,0,0:0:0:0:
320,192,49011,1,0,0:0:0:0:
64,192,49330,1,0,0:0:0:0:
192,192,49649,1,0,0:0:0:0:
448,192,49809,1,0,0:0:0:0:
320,192,50128,1,0,0:0:0:0:
192,192,50447,1,0,0:0:0:0:
64,192,50766,1,0,0:0:0:0:
320,192,50926,1,0,0:0:0:0:
192,192,51086,1,0,0:0:0:0:
448,192,51245,1,0,0:0:0:0:
320,192,51405,1,0,0:0:0:0:
64,192,51564,1,0,0:0:0:0:
320,192,51883,1,0,0:0:0:0:
64,192,52203,1,0,0:0:0:0:
320,192,52362,1,0,0:0:0:0:
192,192,52522,1,0,0:0:0:0:
448,192,52841,1,0,0:0:0:0:
320,192,53160,1,0,0:0:0:0:
192,192,53479,1,0,0:0:0:0:
64,192,53798,1,0,0:0:0:0:
320,192,54118,1,0,0:0:0:0:
64,192,54437,1,0,0:0:0:0:
320,192,54596,1,0,0:0:0:0:
192,192,54756,1,0,0:0:0:0:
448,192,54915,1,0,0:0:0:0:
192,192,55235,1,0,0:0:0:0:
320,192,55394,1,2,0:0:0:0:
448,192,55394,1,0,0:0:0:0:
192,192,55713,1,2,0:0:0:0:
320,192,55713,1,0,0:0:0:0:
64,192,56032,1,8,0:0:0:0:
192,192,56032,1,0,0:0:0:0:
448,192,56192,1,2,0:0:0:0:
320,192,56352,1,8,0:0:0:0:
192,192,56511,1,2,0:0:0:0:
64,192,56671,1,4,0:0:0:0:
448,192,56671,128,2,56990:0:0:0:0:
192,192,56990,1,8,0:0:0:0:
320,192,56990,1,0,0:0:0:0:
64,192,57149,1,0,0:0:0:0:
320,192,57309,1,0,0:0:0:0:
64,192,57469,1,2,0:0:0:0:
192,192,57628,1,8,0:0:0:0:
448,192,57628,1,0,0:0:0:0:
64,192,57788,1,0,0:0:0:0:
320,192,57947,1,2,0:0:0:0:
192,192,58107,1,0,0:0:0:0:
64,192,58266,1,8,0:0:0:0:
448,192,58266,1,0,0:0:0:0:
192,192,58426,1,0,0:0:0:0:
320,192,58586,1,0,0:0:0:0:
448,192,58745,1,2,0:0:0:0:
64,192,58905,1,8,0:0:0:0:
192,192,58905,1,0,0:0:0:0:
448,192,59064,128,0,60501:0:0:0:0:
64,192,59224,1,2,0:0:0:0:
192,192,59543,1,8,0:0:0:0:
64,192,59703,1,0,0:0:0:0:
320,192,59862,1,0,0:0:0:0:
64,192,60022,1,2,0:0:0:0:
320,192,60181,1,8,0:0:0:0:
192,192,60341,1,0,0:0:0:0:
64,192,60501,1,2,0:0:0:0:
320,192,60660,1,0,0:0:0:0:
64,192,60820,1,8,0:0:0:0:
448,192,60820,1,0,0:0:0:0:
320,192,60979,1,0,0:0:0:0:
192,192,61139,1,0,0:0:0:0:
64,192,61298,1,2,0:0:0:0:
320,192,61458,1,8,0:0:0:0:
448,192,61458,1,0,0:0:0:0:
64,192,61618,128,0,63054:0:0:0:0:
448,192,61777,1,2,0:0:0:0:
320,192,62096,1,8,0:0:0:0:
448,192,62256,1,0,0:0:0:0:
192,192,62415,1,0,0:0:0:0:
448,192,62575,1,2,0:0:0:0:
192,192,62735,1,8,0:0:0:0:
320,192,62894,1,0,0:0:0:0:
448,192,63054,1,2,0:0:0:0:
192,192,63213,1,0,0:0:0:0:
64,192,63373,1,8,0:0:0:0:
448,192,63373,1,0,0:0:0:0:
192,192,63532,1,0,0:0:0:0:
320,192,63692,1,0,0:0:0:0:
448,192,63852,1,2,0:0:0:0:
64,192,64011,1,8,0:0:0:0:
192,192,64011,1,0,0:0:0:0:
320,192,64171,1,0,0:0:0:0:
64,192,64330,128,2,64649:0:0:0:0:
192,192,64649,1,8,0:0:0:0:
320,192,64649,1,0,0:0:0:0:
448,192,64809,128,0,65607:0:0:0:0:
192,192,64969,1,0,0:0:0:0:
320,192,65128,1,2,0:0:0:0:
64,192,65288,1,8,0:0:0:0:
320,192,65447,1,0,0:0:0:0:
192,192,65607,1,2,0:0:0:0:
64,192,65926,128,0,66564:0:0:0:0:
448,192,66405,1,0,0:0:0:50:LR_Clap Low 2.wav
320,192,66564,1,0,0:0:0:50:LR_Clap Low 2.wav
64,192,66883,1,4,0:0:0:0:
192,192,66883,1,2,0:0:0:0:
320,192,67203,1,8,0:0:0:0:
448,192,67203,1,0,0:0:0:0:
192,192,67362,1,0,0:0:0:0:
64,192,67522,1,0,0:0:0:0:
320,192,67681,1,2,0:0:0:0:
64,192,67841,1,8,0:0:0:0:
192,192,67841,1,0,0:0:0:0:
448,192,68001,1,0,0:0:0:0:
192,192,68160,1,2,0:0:0:0:
448,192,68320,1,0,0:0:0:0:
64,192,68479,1,8,0:0:0:0:
320,192,68479,1,0,0:0:0:0:
192,192,68639,128,0,68958:0:0:0:0:
448,192,68958,1,2,0:0:0:0:
64,192,69118,1,8,0:0:0:0:
320,192,69118,1,0,0:0:0:50:LR_Clap Low 2.wav
320,192,69437,1,2,0:0:0:0:
64,192,69756,1,8,0:0:0:0:
192,192,69756,1,0,0:0:0:0:
320,192,69915,1,0,0:0:0:0:
448,192,70075,1,0,0:0:0:0:
192,192,70235,1,2,0:0:0:0:
320,192,70394,1,8,0:0:0:0:
448,192,70394,1,0,0:0:0:0:
64,192,70554,1,0,0:0:0:0:
320,192,70713,1,2,0:0:0:0:
64,192,70873,1,0,0:0:0:0:
192,192,71032,1,8,0:0:0:0:
448,192,71032,1,0,0:0:0:0:
320,192,71192,128,0,71511:0:0:0:0:
64,192,71511,1,2,0:0:0:0:
192,192,71671,1,8,0:0:0:0:
448,192,71671,1,0,0:0:0:50:LR_Clap Low 2.wav
192,192,71990,1,2,0:0:0:0:
320,192,72309,1,8,0:0:0:0:
448,192,72309,1,0,0:0:0:0:
192,192,72469,1,0,0:0:0:0:
64,192,72628,1,0,0:0:0:0:
320,192,72788,1,2,0:0:0:0:
64,192,72947,1,8,0:0:0:0:
192,192,72947,1,0,0:0:0:0:
448,192,73107,1,0,0:0:0:0:
192,192,73266,1,2,0:0:0:0:
448,192,73426,1,0,0:0:0:0:
64,192,73586,1,8,0:0:0:0:
320,192,73586,1,0,0:0:0:0:
192,192,73745,128,0,74064:0:0:0:0:
448,192,74064,1,2,0:0:0:0:
64,192,74224,1,8,0:0:0:0:
320,192,74224,1,0,0:0:0:50:LR_Clap Low 2.wav
320,192,74543,1,2,0:0:0:0:
64,192,74862,1,8,0:0:0:0:
192,192,74862,1,0,0:0:0:0:
320,192,75022,1,0,0:0:0:0:
448,192,75181,1,0,0:0:0:0:
192,192,75341,1,2,0:0:0:0:
320,192,75501,1,8,0:0:0:0:
448,192,75501,1,0,0:0:0:0:
64,192,75660,1,0,0:0:0:0:
320,192,75820,1,2,0:0:0:0:
64,192,75979,1,8,0:0:0:0:
192,192,76139,1,2,0:0:0:0:
448,192,76139,1,8,0:0:0:0:
320,192,76298,128,8,76618:0:0:0:0:
64,192,76618,1,10,0:0:0:0:
192,192,76777,1,10,0:0:0:0:
448,192,76777,1,0,0:0:0:50:LR_Clap Low 2.wav
64,192,77096,1,4,0:0:0:0:
192,192,77096,1,2,0:0:0:0:
320,192,77415,1,8,0:0:0:0:
448,192,77415,1,0,0:0:0:0:
192,192,77575,1,0,0:0:0:0:
448,192,77735,1,0,0:0:0:0:
320,192,77894,1,2,0:0:0:0:
64,192,78054,1,8,0:0:0:0:
192,192,78054,1,0,0:0:0:0:
448,192,78213,1,0,0:0:0:0:
192,192,78373,1,2,0:0:0:0:
448,192,78532,1,0,0:0:0:0:
64,192,78692,1,8,0:0:0:0:
320,192,78692,1,0,0:0:0:0:
192,192,78852,128,0,79171:0:0:0:0:
448,192,79171,1,2,0:0:0:0:
64,192,79330,1,8,0:0:0:0:
320,192,79330,1,0,0:0:0:50:LR_Clap Low 2.wav
320,192,79649,1,2,0:0:0:0:
64,192,79969,1,8,0:0:0:0:
192,192,79969,1,0,0:0:0:0:
320,192,80128,1,0,0:0:0:0:
64,192,80288,1,0,0:0:0:0:
192,192,80447,1,2,0:0:0:0:
320,192,80607,1,8,0:0:0:0:
448,192,80607,1,0,0:0:0:0:
64,192,80766,1,0,0:0:0:0:
320,192,80926,1,2,0:0:0:0:
64,192,81086,1,0,0:0:0:0:
192,192,81245,1,8,0:0:0:0:
448,192,81245,1,0,0:0:0:0:
320,192,81405,128,0,81724:0:0:0:0:
64,192,81724,1,2,0:0:0:0:
192,192,81883,1,8,0:0:0:0:
448,192,81883,1,0,0:0:0:50:LR_Clap Low 2.wav
192,192,82203,1,2,0:0:0:0:
320,192,82522,1,8,0:0:0:0:
448,192,82522,1,0,0:0:0:0:
192,192,82681,1,0,0:0:0:0:
448,192,82841,1,0,0:0:0:0:
320,192,83001,1,2,0:0:0:0:
64,192,83160,1,8,0:0:0:0:
192,192,83160,1,0,0:0:0:0:
448,192,83320,1,0,0:0:0:0:
192,192,83479,1,2,0:0:0:0:
448,192,83639,1,0,0:0:0:0:
64,192,83798,1,8,0:0:0:0:
320,192,83798,1,0,0:0:0:0:
192,192,83958,128,0,84277:0:0:0:0:
448,192,84277,1,2,0:0:0:0:
64,192,84437,1,8,0:0:0:0:
320,192,84437,1,0,0:0:0:50:LR_Clap Low 2.wav
320,192,84756,1,2,0:0:0:0:
64,192,85075,1,8,0:0:0:0:
192,192,85075,1,0,0:0:0:0:
320,192,85235,1,0,0:0:0:0:
64,192,85394,1,0,0:0:0:0:
192,192,85554,1,2,0:0:0:0:
320,192,85713,1,8,0:0:0:0:
448,192,85713,1,0,0:0:0:0:
64,192,85873,1,0,0:0:0:0:
320,192,86032,1,2,0:0:0:0:
64,192,86192,1,8,0:0:0:0:
192,192,86352,1,2,0:0:0:0:
448,192,86352,1,8,0:0:0:0:
320,192,86511,1,8,0:0:0:0:
64,192,86671,1,8,0:0:0:0:
320,192,86830,1,10,0:0:0:0:
192,192,86990,1,10,0:0:0:0:
448,192,86990,1,0,0:0:0:50:LR_Clap Low 2.wav
64,192,87149,1,8,0:0:0:0:
448,192,87309,128,4,88586:0:0:0:0:
320,192,88586,128,0,89703:0:0:0:0:
64,192,89703,128,0,90341:0:0:0:0:
192,192,90341,128,0,90979:0:0:0:0:
448,192,90979,128,0,92096:0:0:0:0:
64,192,92415,128,0,93532:0:0:0:0:
192,192,93532,128,0,94490:0:0:0:0:
448,192,94969,128,0,95607:0:0:0:0:
320,192,95607,128,0,95926:0:0:0:0:
192,192,95926,128,0,96245:0:0:0:0:
64,192,96245,128,0,97203:0:0:0:0:
448,192,97203,128,0,97522:0:0:0:0:
64,192,97522,1,2,0:0:0:0:
192,192,97522,1,4,0:0:0:0:
320,192,97681,1,0,0:0:0:0:
64,192,97841,1,8,0:0:0:0:
448,192,97841,1,0,0:0:0:0:
320,192,98001,1,0,0:0:0:0:
192,192,98160,1,0,0:0:0:0:
64,192,98320,1,2,0:0:0:0:
320,192,98479,1,8,0:0:0:0:
448,192,98479,1,0,0:0:0:0:
64,192,98639,1,0,0:0:0:0:
320,192,98798,1,2,0:0:0:0:
192,192,98958,1,0,0:0:0:0:
64,192,99118,1,8,0:0:0:0:
448,192,99118,1,0,0:0:0:0:
192,192,99277,1,0,0:0:0:0:
320,192,99437,1,0,0:0:0:0:
448,192,99596,1,2,0:0:0:0:
64,192,99756,1,8,0:0:0:0:
192,192,99756,1,0,0:0:0:0:
448,192,99915,1,0,0:0:0:0:
192,192,100075,1,2,0:0:0:0:
320,192,100235,1,0,0:0:0:0:
64,192,100394,1,8,0:0:0:0:
448,192,100394,1,0,0:0:0:0:
320,192,100554,1,0,0:0:0:0:
192,192,100713,1,0,0:0:0:0:
64,192,100873,1,2,0:0:0:0:
320,192,101032,1,8,0:0:0:0:
448,192,101032,1,0,0:0:0:0:
64,192,101192,1,0,0:0:0:0:
320,192,101352,1,2,0:0:0:0:
192,192,101511,1,8,0:0:0:0:
320,192,101671,1,2,0:0:0:0:
448,192,101671,1,8,0:0:0:0:
64,192,101830,1,8,0:0:0:0:
320,192,102149,1,10,0:0:0:0:
192,192,102309,1,2,0:0:0:0:
448,192,102309,1,8,0:0:0:0:
64,192,102469,1,8,0:0:0:0:
320,192,102628,1,2,0:0:0:0:
192,192,102788,1,0,0:0:0:0:
64,192,102947,1,8,0:0:0:0:
448,192,102947,1,0,0:0:0:0:
192,192,103107,1,0,0:0:0:0:
320,192,103266,1,0,0:0:0:0:
448,192,103426,1,2,0:0:0:0:
64,192,103586,1,8,0:0:0:0:
192,192,103586,1,0,0:0:0:0:
448,192,103745,1,0,0:0:0:0:
192,192,103905,1,2,0:0:0:0:
320,192,104064,1,0,0:0:0:0:
64,192,104224,1,8,0:0:0:0:
448,192,104224,1,0,0:0:0:0:
320,192,104383,1,0,0:0:0:0:
192,192,104543,1,0,0:0:0:0:
64,192,104703,1,2,0:0:0:0:
320,192,104862,1,8,0:0:0:0:
448,192,104862,1,0,0:0:0:0:
64,192,105022,1,0,0:0:0:0:
320,192,105181,1,2,0:0:0:0:
192,192,105341,1,0,0:0:0:0:
64,192,105501,1,8,0:0:0:0:
448,192,105501,1,0,0:0:0:0:
192,192,105660,1,0,0:0:0:0:
320,192,105820,1,0,0:0:0:0:
448,192,105979,1,2,0:0:0:0:
64,192,106139,1,8,0:0:0:0:
192,192,106139,1,0,0:0:0:0:
448,192,106298,1,0,0:0:0:0:
192,192,106458,1,2,0:0:0:0:
320,192,106618,1,8,0:0:0:0:
64,192,106777,1,2,0:0:0:0:
192,192,106777,1,8,0:0:0:0:
320,192,106937,1,8,0:0:0:0:
192,192,107256,1,10,0:0:0:0:
64,192,107415,1,2,0:0:0:0:
448,192,107415,1,8,0:0:0:0:
320,192,107575,1,8,0:0:0:0:
