osu file format v14

[General]
AudioFilename: audio.ogg
AudioLeadIn: 0
PreviewTime: 26032
Countdown: 0
SampleSet: Soft
StackLeniency: 0.7
Mode: 3
LetterboxInBreaks: 0
SpecialStyle: 0
WidescreenStoryboard: 1
SamplesMatchPlaybackRate: 1

[Editor]
Bookmarks: 14652,24915,56780,65716,77205,87418
DistanceSpacing: 0.8
BeatDivisor: 4
GridSize: 32
TimelineZoom: 1.7

[Metadata]
Title:mint tears
TitleUnicode:mint tears
Artist:ribbon room
ArtistUnicode:ribbon room
Creator:cai_ji_ccc
Version:V1do's Affection
Source:太鼓の達人
Tags:[GB]V1do VidoriyaIzuku Taiko no Tatsujin ds: dororon! yokai daikessen!! tnt ナムコオリジナル bandai namco original YuEast 2018 cotoribbon silvercoin breakcore video game instrumental japanese english 太鼓の達人ds ドロロン!ヨーカイ大決戦!!
BeatmapID:3683963
BeatmapSetID:1773264

[Difficulty]
HPDrainRate:8.5
CircleSize:4
OverallDifficulty:8.5
ApproachRate:5
SliderMultiplier:1.4
SliderTickRate:1

[Events]
//Background and Video events
0,0,"121ab41fc18d4914b62ae0950a1dce3f.jpg",0,0
//Break Periods
//Storyboard Layer 0 (Background)
//Storyboard Layer 1 (Fail)
//Storyboard Layer 2 (Pass)
//Storyboard Layer 3 (Foreground)
//Storyboard Layer 4 (Overlay)
//Storyboard Sound Samples
Sample,68958,0,"LR_Clap Low 2.wav",50
Sample,71511,0,"LR_Clap Low 2.wav",50
Sample,74064,0,"LR_Clap Low 2.wav",50
Sample,76618,0,"LR_Clap Low 2.wav",50
Sample,79171,0,"LR_Clap Low 2.wav",50
Sample,81724,0,"LR_Clap Low 2.wav",50
Sample,84277,0,"LR_Clap Low 2.wav",50
Sample,86830,0,"LR_Clap Low 2.wav",50

[TimingPoints]
501,319.148936170213,4,2,1,45,1,0
26032,-100.0,4,2,1,45,0,1
46458,-100.0,4,2,1,45,0,0
56671,-100.0,4,2,1,45,0,1
65607,-100.0,4,2,1,45,0,0
97522,-100.0,4,2,1,45,0,1
107735,-100.0,4,2,1,45,0,0

[HitObjects]
64,192,501,1,0,0:0:0:0:
320,192,501,1,0,0:0:0:0:
448,192,501,1,0,0:0:0:0:
320,192,660,1,0,0:0:0:0:
64,192,820,1,0,0:0:0:0:
192,192,820,1,0,0:0:0:0:
192,192,979,1,0,0:0:0:0:
320,192,979,1,0,0:0:0:0:
320,192,1139,1,0,0:0:0:0:
448,192,1139,1,0,0:0:0:0:
192,192,1298,1,0,0:0:0:0:
64,192,1458,1,0,0:0:0:0:
448,192,1458,1,0,0:0:0:0:
64,192,1618,1,0,0:0:0:0:
192,192,1618,1,0,0:0:0:0:
320,192,1697,1,0,0:0:0:0:
64,192,1777,1,0,0:0:0:0:
192,192,1777,1,0,0:0:0:0:
448,192,1777,1,0,0:0:0:0:
448,192,1937,1,0,0:0:0:0:
64,192,2096,1,0,0:0:0:0:
192,192,2096,1,0,0:0:0:0:
192,192,2256,1,0,0:0:0:0:
320,192,2256,1,0,0:0:0:0:
64,192,2415,1,0,0:0:0:0:
320,192,2415,1,0,0:0:0:0:
448,192,2415,1,0,0:0:0:0:
448,192,2575,1,0,0:0:0:0:
192,192,2735,1,0,0:0:0:0:
192,192,2894,1,0,0:0:0:0:
64,192,3054,1,0,0:0:0:0:
320,192,3054,1,0,0:0:0:0:
448,192,3054,1,0,0:0:0:0:
192,192,3213,1,0,0:0:0:0:
320,192,3213,1,0,0:0:0:0:
192,192,3373,1,0,0:0:0:0:
448,192,3373,1,0,0:0:0:0:
64,192,3532,1,0,0:0:0:0:
448,192,3532,1,0,0:0:0:0:
64,192,3692,1,0,0:0:0:0:
320,192,3692,1,0,0:0:0:0:
192,192,3852,1,0,0:0:0:0:
320,192,3852,1,0,0:0:0:0:
192,192,4011,1,0,0:0:0:0:
448,192,4011,1,0,0:0:0:0:
320,192,4171,1,0,0:0:0:0:
448,192,4171,1,0,0:0:0:0:
192,192,4251,1,0,0:0:0:0:
64,192,4330,1,8,0:0:0:0:
320,192,4330,128,0,4570:0:0:0:0:
448,192,4330,128,0,4570:0:0:0:0:
64,192,4490,1,2,0:0:0:0:
64,192,4649,128,8,4889:0:0:0:0:
192,192,4649,128,0,4889:0:0:0:0:
448,192,4649,1,0,0:0:0:0:
448,192,4809,1,2,0:0:0:0:
320,192,4889,1,0,0:0:0:0:
64,192,4969,1,8,0:0:0:0:
192,192,4969,1,0,0:0:0:0:
448,192,4969,1,0,0:0:0:0:
320,192,5128,1,8,0:0:0:0:
192,192,5208,1,8,0:0:0:0:
320,192,5288,1,8,0:0:0:0:
448,192,5288,1,2,0:0:0:0:
192,192,5368,1,8,0:0:0:0:
320,192,5447,1,2,0:0:0:0:
64,192,5607,1,4,0:0:0:0:
192,192,5607,1,2,0:0:0:0:
448,192,5607,1,0,0:0:0:0:
320,192,5766,1,0,0:0:0:0:
192,192,5926,1,8,0:0:0:0:
320,192,5926,1,0,0:0:0:0:
448,192,5926,1,0,0:0:0:0:
64,192,6086,1,0,0:0:0:0:
192,192,6086,1,0,0:0:0:0:
320,192,6165,1,0,0:0:0:0:
64,192,6245,1,0,0:0:0:0:
192,192,6245,1,0,0:0:0:0:
320,192,6325,1,0,0:0:0:0:
64,192,6405,1,2,0:0:0:0:
448,192,6405,1,0,0:0:0:0:
192,192,6485,1,0,0:0:0:0:
64,192,6564,1,8,0:0:0:0:
320,192,6564,1,0,0:0:0:0:
448,192,6564,1,0,0:0:0:0:
320,192,6724,1,0,0:0:0:0:
448,192,6724,1,0,0:0:0:0:
192,192,6804,1,0,0:0:0:0:
64,192,6883,1,2,0:0:0:0:
320,192,6883,1,0,0:0:0:0:
448,192,6883,1,0,0:0:0:0:
64,192,7043,1,0,0:0:0:0:
192,192,7043,1,0,0:0:0:0:
448,192,7123,1,0,0:0:0:0:
64,192,7203,1,8,0:0:0:0:
192,192,7203,1,0,0:0:0:0:
320,192,7203,1,0,0:0:0:0:
320,192,7362,1,0,0:0:0:0:
448,192,7362,1,0,0:0:0:0:
192,192,7442,1,0,0:0:0:0:
320,192,7522,1,0,0:0:0:0:
448,192,7522,1,0,0:0:0:0:
192,192,7602,1,0,0:0:0:0:
64,192,7681,1,2,0:0:0:0:
448,192,7681,1,0,0:0:0:0:
320,192,7761,1,0,0:0:0:0:
64,192,7841,1,8,0:0:0:0:
192,192,7841,1,0,0:0:0:0:
448,192,7841,1,0,0:0:0:0:
320,192,8001,1,0,0:0:0:0:
192,192,8080,1,0,0:0:0:0:
64,192,8160,1,2,0:0:0:0:
320,192,8160,1,0,0:0:0:0:
448,192,8160,1,0,0:0:0:0:
192,192,8320,1,0,0:0:0:0:
64,192,8479,1,8,0:0:0:0:
192,192,8479,1,0,0:0:0:0:
448,192,8479,1,0,0:0:0:0:
64,192,8639,1,0,0:0:0:0:
320,192,8639,1,0,0:0:0:0:
192,192,8719,1,0,0:0:0:0:
320,192,8798,1,0,0:0:0:0:
448,192,8798,1,0,0:0:0:0:
64,192,8878,1,0,0:0:0:0:
192,192,8958,1,2,0:0:0:0:
448,192,8958,1,0,0:0:0:0:
320,192,9038,1,0,0:0:0:0:
64,192,9118,1,8,0:0:0:0:
192,192,9118,1,0,0:0:0:0:
448,192,9118,1,0,0:0:0:0:
64,192,9277,1,0,0:0:0:0:
320,192,9277,1,0,0:0:0:0:
192,192,9357,1,0,0:0:0:0:
64,192,9437,1,2,0:0:0:0:
320,192,9437,1,0,0:0:0:0:
448,192,9437,1,0,0:0:0:0:
192,192,9596,1,0,0:0:0:0:
64,192,9756,1,8,0:0:0:0:
192,192,9756,128,0,9915:0:0:0:0:
448,192,9756,1,0,0:0:0:0:
320,192,9915,128,0,10075:0:0:0:0:
448,192,9915,1,0,0:0:0:0:
192,192,10075,1,0,0:0:0:0:
448,192,10075,128,0,10235:0:0:0:0:
64,192,10155,128,0,10314:0:0:0:0:
192,192,10235,128,2,10394:0:0:0:0:
320,192,10235,1,0,0:0:0:0:
448,192,10314,1,0,0:0:0:0:
64,192,10394,1,8,0:0:0:0:
320,192,10394,1,0,0:0:0:0:
192,192,10554,128,0,10713:0:0:0:0:
448,192,10554,128,0,11990:0:0:0:0:
64,192,10713,1,2,0:0:0:0:
320,192,10713,1,0,0:0:0:0:
192,192,10873,1,0,0:0:0:0:
64,192,11032,1,8,0:0:0:0:
192,192,11032,1,0,0:0:0:0:
320,192,11192,1,0,0:0:0:0:
192,192,11272,1,0,0:0:0:0:
320,192,11352,1,0,0:0:0:0:
192,192,11431,1,0,0:0:0:0:
64,192,11511,1,2,0:0:0:0:
320,192,11511,1,0,0:0:0:0:
64,192,11671,1,8,0:0:0:0:
192,192,11671,1,0,0:0:0:0:
320,192,11830,1,0,0:0:0:0:
192,192,11910,1,0,0:0:0:0:
64,192,11990,1,2,0:0:0:0:
320,192,11990,1,0,0:0:0:0:
192,192,12149,1,0,0:0:0:0:
64,192,12309,1,8,0:0:0:0:
320,192,12309,128,0,12469:0:0:0:0:
448,192,12309,1,0,0:0:0:0:
64,192,12469,1,0,0:0:0:0:
192,192,12469,128,0,12628:0:0:0:0:
64,192,12628,128,0,12788:0:0:0:0:
320,192,12628,1,0,0:0:0:0:
448,192,12708,128,0,12868:0:0:0:0:
192,192,12788,1,2,0:0:0:0:
320,192,12788,128,0,12947:0:0:0:0:
64,192,12868,1,0,0:0:0:0:
192,192,12947,1,8,0:0:0:0:
448,192,12947,1,0,0:0:0:0:
64,192,13107,128,0,14543:0:0:0:0:
320,192,13107,128,0,13266:0:0:0:0:
192,192,13266,1,2,0:0:0:0:
448,192,13266,1,0,0:0:0:0:
320,192,13426,1,0,0:0:0:0:
320,192,13586,1,8,0:0:0:0:
448,192,13586,1,0,0:0:0:0:
192,192,13745,1,0,0:0:0:0:
320,192,13825,1,0,0:0:0:0:
192,192,13905,1,0,0:0:0:0:
320,192,13985,1,0,0:0:0:0:
192,192,14064,1,2,0:0:0:0:
448,192,14064,1,0,0:0:0:0:
320,192,14224,1,8,0:0:0:0:
448,192,14224,1,0,0:0:0:0:
192,192,14383,1,0,0:0:0:0:
320,192,14463,1,0,0:0:0:0:
192,192,14543,1,2,0:0:0:0:
448,192,14543,1,0,0:0:0:0:
64,192,14703,1,8,0:0:0:0:
448,192,14703,1,0,0:0:0:0:
320,192,14782,1,8,0:0:0:0:
64,192,14862,1,2,0:0:0:0:
192,192,14862,1,8,0:0:0:0:
448,192,14862,1,0,0:0:0:0:
192,192,15022,1,8,0:0:0:0:
320,192,15022,1,0,0:0:0:0:
64,192,15102,1,8,0:0:0:0:
192,192,15181,1,2,0:0:0:0:
320,192,15181,1,8,0:0:0:0:
448,192,15181,1,0,0:0:0:0:
64,192,15341,1,8,0:0:0:0:
320,192,15341,1,0,0:0:0:0:
192,192,15421,1,8,0:0:0:0:
64,192,15501,1,2,0:0:0:0:
448,192,15501,1,8,0:0:0:0:
320,192,15580,1,0,0:0:0:15:soft-hitclap.wav
64,192,15660,1,8,0:0:0:0:
448,192,15660,1,0,0:0:0:0:
320,192,15740,1,8,0:0:0:0:
64,192,15820,128,4,16139:0:0:0:0:
192,192,15820,1,2,0:0:0:0:
448,192,15820,1,0,0:0:0:0:
320,192,15979,1,0,0:0:0:0:
320,192,16139,1,8,0:0:0:0:
448,192,16139,1,0,0:0:0:0:
64,192,16298,1,0,0:0:0:0:
192,192,16298,1,0,0:0:0:0:
320,192,16378,1,0,0:0:0:0:
64,192,16458,1,0,0:0:0:0:
192,192,16458,1,0,0:0:0:0:
320,192,16538,1,0,0:0:0:0:
64,192,16618,1,2,0:0:0:0:
192,192,16618,1,0,0:0:0:0:
320,192,16697,1,0,0:0:0:0:
64,192,16777,1,8,0:0:0:0:
192,192,16777,1,0,0:0:0:0:
448,192,16777,1,0,0:0:0:0:
320,192,16937,1,0,0:0:0:0:
448,192,16937,1,0,0:0:0:0:
192,192,17016,1,0,0:0:0:0:
64,192,17096,1,2,0:0:0:0:
320,192,17096,1,0,0:0:0:0:
448,192,17096,1,0,0:0:0:0:
320,192,17256,1,0,0:0:0:0:
64,192,17415,1,8,0:0:0:0:
192,192,17415,128,0,17575:0:0:0:0:
448,192,17415,1,0,0:0:0:0:
64,192,17575,128,0,17735:0:0:0:0:
320,192,17575,1,0,0:0:0:0:
192,192,17735,128,0,17894:0:0:0:0:
448,192,17735,1,0,0:0:0:0:
320,192,17814,128,0,17974:0:0:0:0:
64,192,17894,1,2,0:0:0:0:
448,192,17894,128,0,18054:0:0:0:0:
192,192,17974,1,0,0:0:0:0:
64,192,18054,1,8,0:0:0:0:
320,192,18054,1,0,0:0:0:0:
192,192,18213,128,0,19649:0:0:0:0:
320,192,18213,128,0,18373:0:0:0:0:
64,192,18373,1,2,0:0:0:0:
448,192,18373,1,0,0:0:0:0:
320,192,18532,1,0,0:0:0:0:
320,192,18692,1,8,0:0:0:0:
448,192,18692,1,0,0:0:0:0:
64,192,18852,1,0,0:0:0:0:
320,192,18931,1,0,0:0:0:0:
64,192,19011,1,0,0:0:0:0:
320,192,19091,1,0,0:0:0:0:
64,192,19171,1,2,0:0:0:0:
448,192,19171,1,0,0:0:0:0:
320,192,19330,1,8,0:0:0:0:
448,192,19330,1,0,0:0:0:0:
64,192,19490,1,0,0:0:0:0:
448,192,19570,1,0,0:0:0:0:
64,192,19649,1,2,0:0:0:0:
320,192,19649,1,0,0:0:0:0:
192,192,19809,1,0,0:0:0:0:
64,192,19969,1,8,0:0:0:0:
320,192,19969,128,0,20128:0:0:0:0:
448,192,19969,1,0,0:0:0:0:
192,192,20128,1,0,0:0:0:0:
448,192,20128,128,0,20288:0:0:0:0:
64,192,20288,1,0,0:0:0:0:
320,192,20288,128,0,20447:0:0:0:0:
192,192,20368,128,0,20527:0:0:0:0:
64,192,20447,128,2,20607:0:0:0:0:
448,192,20447,1,0,0:0:0:0:
320,192,20527,1,0,0:0:0:0:
192,192,20607,1,8,0:0:0:0:
448,192,20607,1,0,0:0:0:0:
192,192,20766,128,0,20926:0:0:0:0:
320,192,20766,128,0,22203:0:0:0:0:
64,192,20926,1,2,0:0:0:0:
448,192,20926,1,0,0:0:0:0:
192,192,21086,1,0,0:0:0:0:
64,192,21245,1,8,0:0:0:0:
192,192,21245,1,0,0:0:0:0:
448,192,21405,1,0,0:0:0:0:
192,192,21485,1,0,0:0:0:0:
448,192,21564,1,0,0:0:0:0:
192,192,21644,1,0,0:0:0:0:
64,192,21724,1,2,0:0:0:0:
448,192,21724,1,0,0:0:0:0:
64,192,21883,1,8,0:0:0:0:
192,192,21883,1,0,0:0:0:0:
448,192,22043,1,0,0:0:0:0:
192,192,22123,1,0,0:0:0:0:
64,192,22203,1,2,0:0:0:0:
448,192,22203,1,0,0:0:0:0:
192,192,22362,1,0,0:0:0:0:
64,192,22522,1,8,0:0:0:0:
320,192,22522,128,0,22681:0:0:0:0:
448,192,22522,1,0,0:0:0:0:
192,192,22681,1,0,0:0:0:0:
448,192,22681,128,0,22841:0:0:0:0:
64,192,22841,1,0,0:0:0:0:
320,192,22841,128,0,23001:0:0:0:0:
192,192,22921,128,0,23080:0:0:0:0:
64,192,23001,128,2,23160:0:0:0:0:
448,192,23001,1,0,0:0:0:0:
320,192,23080,1,0,0:0:0:0:
192,192,23160,1,8,0:0:0:0:
448,192,23160,1,0,0:0:0:0:
64,192,23320,1,0,0:0:0:0:
320,192,23320,128,0,23479:0:0:0:0:
64,192,23479,128,2,23798:0:0:0:0:
192,192,23479,128,0,23639:0:0:0:0:
448,192,23479,1,0,0:0:0:0:
448,192,23639,1,0,0:0:0:0:
192,192,23798,128,8,23958:0:0:0:0:
320,192,23798,1,0,0:0:0:0:
64,192,23958,128,0,24756:0:0:0:0:
448,192,23958,1,0,0:0:0:0:
320,192,24038,1,0,0:0:0:0:
448,192,24118,1,0,0:0:0:0:
320,192,24197,1,0,0:0:0:0:
192,192,24277,1,2,0:0:0:0:
448,192,24277,1,0,0:0:0:0:
192,192,24437,1,8,0:0:0:0:
320,192,24437,1,0,0:0:0:0:
448,192,24596,1,0,0:0:0:0:
320,192,24676,1,0,0:0:0:0:
192,192,24756,1,2,0:0:0:0:
448,192,24756,1,0,0:0:0:0:
64,192,24915,1,8,0:0:0:0:
192,192,24995,1,8,0:0:0:0:
64,192,25075,1,2,0:0:0:0:
320,192,25075,1,0,0:0:0:0:
64,192,25235,1,8,0:0:0:0:
192,192,25314,1,8,0:0:0:0:
64,192,25394,1,2,0:0:0:0:
320,192,25394,1,0,0:0:0:0:
192,192,25474,1,2,0:0:0:20:soft-hitwhistle.wav
448,192,25554,1,8,0:0:0:0:
320,192,25633,1,8,0:0:0:0:
64,192,25713,1,2,0:0:0:0:
448,192,25713,1,8,0:0:0:0:
192,192,25793,1,8,0:0:0:0:
64,192,25873,1,8,0:0:0:0:
320,192,25873,1,0,0:0:0:0:
192,192,25953,1,8,0:0:0:0:
64,192,26032,1,4,0:0:0:0:
320,192,26032,1,2,0:0:0:0:
448,192,26032,1,0,0:0:0:0:
320,192,26192,1,0,0:0:0:0:
64,192,26352,1,8,0:0:0:0:
192,192,26352,1,0,0:0:0:0:
448,192,26352,1,0,0:0:0:0:
64,192,26511,1,0,0:0:0:0:
192,192,26511,1,0,0:0:0:0:
64,192,26671,1,0,0:0:0:0:
320,192,26671,1,0,0:0:0:0:
448,192,26671,1,0,0:0:0:0:
192,192,26830,1,2,0:0:0:0:
320,192,26830,1,0,0:0:0:0:
64,192,26990,1,8,0:0:0:0:
192,192,26990,1,0,0:0:0:0:
448,192,26990,1,0,0:0:0:0:
64,192,27149,1,0,0:0:0:0:
320,192,27149,1,0,0:0:0:0:
448,192,27149,1,0,0:0:0:0:
192,192,27309,1,2,0:0:0:0:
320,192,27309,1,0,0:0:0:0:
64,192,27469,1,0,0:0:0:0:
192,192,27469,1,0,0:0:0:0:
448,192,27469,1,0,0:0:0:0:
64,192,27628,1,8,0:0:0:0:
320,192,27628,1,0,0:0:0:0:
448,192,27628,1,0,0:0:0:0:
192,192,27788,1,0,0:0:0:0:
320,192,27788,1,0,0:0:0:0:
64,192,27868,1,0,0:0:0:0:
320,192,27947,1,0,0:0:0:0:
448,192,27947,1,0,0:0:0:0:
192,192,28027,1,0,0:0:0:0:
64,192,28107,1,2,0:0:0:0:
448,192,28107,1,0,0:0:0:0:
320,192,28187,1,0,0:0:0:0:
64,192,28266,1,8,0:0:0:0:
192,192,28266,1,0,0:0:0:0:
448,192,28266,1,0,0:0:0:0:
192,192,28426,1,0,0:0:0:0:
64,192,28586,1,2,0:0:0:0:
320,192,28586,1,0,0:0:0:0:
448,192,28586,1,0,0:0:0:0:
64,192,28745,1,0,0:0:0:0:
192,192,28745,1,0,0:0:0:0:
448,192,28745,1,0,0:0:0:0:
192,192,28905,1,8,0:0:0:0:
320,192,28905,1,0,0:0:0:0:
448,192,28905,1,0,0:0:0:0:
64,192,29064,1,0,0:0:0:0:
320,192,29064,1,0,0:0:0:0:
64,192,29224,1,0,0:0:0:0:
192,192,29224,1,0,0:0:0:0:
448,192,29224,1,0,0:0:0:0:
192,192,29383,1,2,0:0:0:0:
320,192,29383,1,0,0:0:0:0:
448,192,29383,1,0,0:0:0:0:
64,192,29543,1,8,0:0:0:0:
192,192,29543,1,0,0:0:0:0:
320,192,29543,1,0,0:0:0:0:
64,192,29703,1,0,0:0:0:0:
448,192,29703,1,0,0:0:0:0:
192,192,29862,1,2,0:0:0:0:
320,192,29862,1,0,0:0:0:0:
448,192,29862,1,0,0:0:0:0:
64,192,30022,1,0,0:0:0:0:
192,192,30022,1,0,0:0:0:0:
64,192,30181,1,8,0:0:0:0:
320,192,30181,1,0,0:0:0:0:
448,192,30181,1,0,0:0:0:0:
192,192,30341,1,0,0:0:0:0:
320,192,30341,1,0,0:0:0:0:
448,192,30421,1,0,0:0:0:0:
64,192,30501,1,0,0:0:0:0:
192,192,30501,1,0,0:0:0:0:
320,192,30580,1,0,0:0:0:0:
64,192,30660,1,2,0:0:0:0:
448,192,30660,1,0,0:0:0:0:
192,192,30740,1,0,0:0:0:0:
64,192,30820,1,8,0:0:0:0:
320,192,30820,1,0,0:0:0:0:
448,192,30820,1,0,0:0:0:0:
320,192,30979,1,0,0:0:0:0:
64,192,31139,1,2,0:0:0:0:
192,192,31139,1,0,0:0:0:0:
448,192,31139,1,0,0:0:0:0:
192,192,31298,1,0,0:0:0:0:
64,192,31458,1,8,0:0:0:0:
320,192,31458,1,0,0:0:0:0:
448,192,31458,1,0,0:0:0:0:
320,192,31618,1,0,0:0:0:0:
448,192,31618,1,0,0:0:0:0:
64,192,31777,1,0,0:0:0:0:
192,192,31777,1,0,0:0:0:0:
448,192,31777,1,0,0:0:0:0:
192,192,31937,1,2,0:0:0:0:
320,192,31937,1,0,0:0:0:0:
64,192,32096,1,8,0:0:0:0:
320,192,32096,1,0,0:0:0:0:
448,192,32096,1,0,0:0:0:0:
64,192,32256,1,0,0:0:0:0:
192,192,32256,1,0,0:0:0:0:
448,192,32256,1,0,0:0:0:0:
192,192,32415,1,2,0:0:0:0:
320,192,32415,1,0,0:0:0:0:
64,192,32575,1,0,0:0:0:0:
320,192,32575,1,0,0:0:0:0:
448,192,32575,1,0,0:0:0:0:
64,192,32735,1,8,0:0:0:0:
192,192,32735,1,0,0:0:0:0:
448,192,32735,1,0,0:0:0:0:
320,192,32894,1,0,0:0:0:0:
448,192,32894,1,0,0:0:0:0:
192,192,32974,1,0,0:0:0:0:
64,192,33054,1,0,0:0:0:0:
320,192,33054,1,0,0:0:0:0:
448,192,33133,1,0,0:0:0:0:
64,192,33213,1,2,0:0:0:0:
192,192,33213,1,0,0:0:0:0:
320,192,33293,1,0,0:0:0:0:
64,192,33373,1,8,0:0:0:0:
192,192,33373,1,0,0:0:0:0:
448,192,33373,1,0,0:0:0:0:
192,192,33532,1,0,0:0:0:0:
64,192,33692,1,2,0:0:0:0:
320,192,33692,1,0,0:0:0:0:
448,192,33692,1,0,0:0:0:0:
64,192,33852,1,0,0:0:0:0:
192,192,33852,1,0,0:0:0:0:
320,192,33852,1,0,0:0:0:0:
64,192,34011,1,8,0:0:0:0:
192,192,34011,1,0,0:0:0:0:
448,192,34011,1,0,0:0:0:0:
192,192,34171,1,0,0:0:0:0:
320,192,34171,1,0,0:0:0:0:
64,192,34330,1,0,0:0:0:0:
320,192,34330,1,0,0:0:0:0:
448,192,34330,1,0,0:0:0:0:
64,192,34490,1,2,0:0:0:0:
192,192,34490,1,0,0:0:0:0:
448,192,34490,1,0,0:0:0:0:
192,192,34649,1,8,0:0:0:0:
320,192,34649,1,0,0:0:0:0:
448,192,34649,1,0,0:0:0:0:
64,192,34809,1,0,0:0:0:0:
320,192,34809,1,0,0:0:0:0:
64,192,34969,1,2,0:0:0:0:
192,192,34969,1,0,0:0:0:0:
448,192,34969,1,0,0:0:0:0:
320,192,35128,1,8,0:0:0:0:
448,192,35128,1,0,0:0:0:0:
192,192,35208,1,8,0:0:0:0:
64,192,35288,1,2,0:0:0:0:
320,192,35288,1,8,0:0:0:0:
448,192,35288,1,0,0:0:0:0:
64,192,35447,1,8,0:0:0:0:
192,192,35447,1,0,0:0:0:0:
320,192,35527,1,8,0:0:0:0:
64,192,35607,1,8,0:0:0:0:
448,192,35607,1,0,0:0:0:0:
192,192,35687,1,8,0:0:0:15:soft-hitclap.wav
320,192,35766,1,2,0:0:0:0:
448,192,35766,1,8,0:0:0:0:
64,192,35846,1,8,0:0:0:0:
192,192,35926,1,2,0:0:0:0:
448,192,35926,1,8,0:0:0:0:
320,192,36006,1,8,0:0:0:0:
64,192,36086,1,8,0:0:0:0:
192,192,36086,1,0,0:0:0:0:
64,192,36245,1,4,0:0:0:0:
320,192,36245,1,2,0:0:0:0:
448,192,36245,1,0,0:0:0:0:
192,192,36405,1,0,0:0:0:0:
320,192,36405,1,0,0:0:0:0:
64,192,36564,1,8,0:0:0:0:
192,192,36564,1,0,0:0:0:0:
448,192,36564,1,0,0:0:0:0:
320,192,36724,1,0,0:0:0:0:
448,192,36724,1,0,0:0:0:0:
64,192,36883,1,0,0:0:0:0:
192,192,36883,1,0,0:0:0:0:
448,192,36883,1,0,0:0:0:0:
192,192,37043,1,2,0:0:0:0:
320,192,37043,1,0,0:0:0:0:
64,192,37203,1,8,0:0:0:0:
320,192,37203,1,0,0:0:0:0:
448,192,37203,1,0,0:0:0:0:
64,192,37362,1,0,0:0:0:0:
192,192,37362,1,0,0:0:0:0:
448,192,37362,1,0,0:0:0:0:
192,192,37522,1,2,0:0:0:0:
320,192,37522,1,0,0:0:0:0:
64,192,37681,1,0,0:0:0:0:
320,192,37681,1,0,0:0:0:0:
448,192,37681,1,0,0:0:0:0:
64,192,37841,1,8,0:0:0:0:
192,192,37841,1,0,0:0:0:0:
448,192,37841,1,0,0:0:0:0:
192,192,38001,1,0,0:0:0:0:
320,192,38001,1,0,0:0:0:0:
448,192,38080,1,0,0:0:0:0:
64,192,38160,1,0,0:0:0:0:
192,192,38160,1,0,0:0:0:0:
320,192,38240,1,0,0:0:0:0:
64,192,38320,1,2,0:0:0:0:
448,192,38320,1,0,0:0:0:0:
192,192,38399,1,0,0:0:0:0:
64,192,38479,1,8,0:0:0:0:
320,192,38479,1,0,0:0:0:0:
448,192,38479,1,0,0:0:0:0:
320,192,38639,1,0,0:0:0:0:
64,192,38798,1,2,0:0:0:0:
192,192,38798,1,0,0:0:0:0:
448,192,38798,1,0,0:0:0:0:
192,192,38958,1,0,0:0:0:0:
320,192,38958,1,0,0:0:0:0:
448,192,38958,1,0,0:0:0:0:
64,192,39118,1,8,0:0:0:0:
320,192,39118,1,0,0:0:0:0:
448,192,39118,1,0,0:0:0:0:
192,192,39277,1,0,0:0:0:0:
320,192,39277,1,0,0:0:0:0:
64,192,39437,1,0,0:0:0:0:
192,192,39437,1,0,0:0:0:0:
448,192,39437,1,0,0:0:0:0:
64,192,39596,1,2,0:0:0:0:
192,192,39596,1,0,0:0:0:0:
320,192,39596,1,0,0:0:0:0:
64,192,39756,1,8,0:0:0:0:
320,192,39756,1,0,0:0:0:0:
448,192,39756,1,0,0:0:0:0:
192,192,39915,1,0,0:0:0:0:
320,192,39915,1,0,0:0:0:0:
64,192,40075,1,2,0:0:0:0:
192,192,40075,1,0,0:0:0:0:
448,192,40075,1,0,0:0:0:0:
320,192,40235,1,0,0:0:0:0:
448,192,40235,1,0,0:0:0:0:
64,192,40394,1,8,0:0:0:0:
192,192,40394,1,0,0:0:0:0:
448,192,40394,1,0,0:0:0:0:
192,192,40554,1,0,0:0:0:0:
320,192,40554,1,0,0:0:0:0:
64,192,40633,1,0,0:0:0:0:
320,192,40713,1,0,0:0:0:0:
448,192,40713,1,0,0:0:0:0:
192,192,40793,1,0,0:0:0:0:
64,192,40873,1,2,0:0:0:0:
448,192,40873,1,0,0:0:0:0:
320,192,40953,1,0,0:0:0:0:
64,192,41032,1,8,0:0:0:0:
192,192,41032,1,0,0:0:0:0:
448,192,41032,1,0,0:0:0:0:
192,192,41192,1,0,0:0:0:0:
64,192,41352,1,2,0:0:0:0:
320,192,41352,1,0,0:0:0:0:
448,192,41352,1,0,0:0:0:0:
320,192,41511,1,0,0:0:0:0:
64,192,41671,1,8,0:0:0:0:
192,192,41671,1,0,0:0:0:0:
448,192,41671,1,0,0:0:0:0:
64,192,41830,1,0,0:0:0:0:
192,192,41830,1,0,0:0:0:0:
64,192,41990,1,0,0:0:0:0:
320,192,41990,1,0,0:0:0:0:
448,192,41990,1,0,0:0:0:0:
192,192,42149,1,2,0:0:0:0:
320,192,42149,1,0,0:0:0:0:
64,192,42309,1,8,0:0:0:0:
192,192,42309,1,0,0:0:0:0:
448,192,42309,1,0,0:0:0:0:
64,192,42469,1,0,0:0:0:0:
320,192,42469,1,0,0:0:0:0:
448,192,42469,1,0,0:0:0:0:
192,192,42628,1,2,0:0:0:0:
320,192,42628,1,0,0:0:0:0:
64,192,42788,1,0,0:0:0:0:
192,192,42788,1,0,0:0:0:0:
448,192,42788,1,0,0:0:0:0:
64,192,42947,1,8,0:0:0:0:
320,192,42947,1,0,0:0:0:0:
448,192,42947,1,0,0:0:0:0:
64,192,43107,1,0,0:0:0:0:
192,192,43107,1,0,0:0:0:0:
320,192,43187,1,0,0:0:0:0:
192,192,43266,1,0,0:0:0:0:
448,192,43266,1,0,0:0:0:0:
64,192,43346,1,0,0:0:0:0:
320,192,43426,1,2,0:0:0:0:
448,192,43426,1,0,0:0:0:0:
192,192,43506,1,0,0:0:0:0:
64,192,43586,1,8,0:0:0:0:
320,192,43586,1,0,0:0:0:0:
448,192,43586,1,0,0:0:0:0:
320,192,43745,1,0,0:0:0:0:
64,192,43905,1,2,0:0:0:0:
192,192,43905,1,0,0:0:0:0:
448,192,43905,1,0,0:0:0:0:
192,192,44064,1,0,0:0:0:0:
320,192,44064,1,0,0:0:0:0:
448,192,44064,1,0,0:0:0:0:
64,192,44224,1,8,0:0:0:0:
320,192,44224,1,0,0:0:0:0:
448,192,44224,1,0,0:0:0:0:
192,192,44383,1,0,0:0:0:0:
320,192,44383,1,0,0:0:0:0:
192,192,44543,1,0,0:0:0:0:
448,192,44543,1,0,0:0:0:0:
64,192,44703,1,2,0:0:0:0:
320,192,44703,1,0,0:0:0:0:
448,192,44703,1,0,0:0:0:0:
64,192,44862,1,8,0:0:0:0:
192,192,44862,1,0,0:0:0:0:
320,192,44862,1,0,0:0:0:0:
192,192,45022,1,0,0:0:0:0:
448,192,45022,1,0,0:0:0:0:
64,192,45181,1,2,0:0:0:0:
192,192,45181,1,0,0:0:0:0:
320,192,45181,1,0,0:0:0:0:
448,192,45341,1,8,0:0:0:0:
320,192,45421,1,8,0:0:0:0:
192,192,45501,1,8,0:0:0:0:
448,192,45501,1,2,0:0:0:0:
448,192,45660,1,8,0:0:0:0:
320,192,45740,1,8,0:0:0:0:
192,192,45820,1,2,0:0:0:0:
448,192,45820,1,0,0:0:0:0:
320,192,45899,1,0,0:0:0:15:soft-hitwhistle.wav
64,192,45979,1,10,0:0:0:0:
192,192,46059,1,8,0:0:0:0:
64,192,46139,1,2,0:0:0:0:
448,192,46139,1,8,0:0:0:0:
320,192,46219,1,8,0:0:0:0:
192,192,46298,1,8,0:0:0:0:
448,192,46298,1,0,0:0:0:0:
320,192,46378,1,8,0:0:0:0:
64,192,46458,1,4,0:0:0:0:
192,192,46458,1,0,0:0:0:0:
448,192,46458,1,0,0:0:0:0:
64,192,46777,1,0,0:0:0:0:
448,192,46777,1,0,0:0:0:0:
192,192,46937,1,0,0:0:0:0:
320,192,46937,1,0,0:0:0:0:
64,192,47096,1,0,0:0:0:0:
192,192,47096,1,0,0:0:0:0:
320,192,47256,1,0,0:0:0:0:
448,192,47256,1,0,0:0:0:0:
192,192,47415,1,0,0:0:0:0:
448,192,47415,1,0,0:0:0:0:
64,192,47575,1,0,0:0:0:0:
192,192,47575,1,0,0:0:0:0:
320,192,47735,1,0,0:0:0:0:
448,192,47735,1,0,0:0:0:0:
64,192,47894,1,0,0:0:0:0:
320,192,47894,1,0,0:0:0:0:
192,192,48054,1,0,0:0:0:0:
448,192,48054,1,0,0:0:0:0:
320,192,48213,1,0,0:0:0:0:
64,192,48373,1,0,0:0:0:0:
192,192,48373,1,0,0:0:0:0:
448,192,48373,1,0,0:0:0:0:
192,192,48532,1,0,0:0:0:0:
64,192,48692,1,0,0:0:0:0:
320,192,48692,1,0,0:0:0:0:
448,192,48692,1,0,0:0:0:0:
320,192,48852,1,0,0:0:0:0:
64,192,49011,1,0,0:0:0:0:
192,192,49011,1,0,0:0:0:0:
448,192,49011,1,0,0:0:0:0:
192,192,49171,1,0,0:0:0:0:
320,192,49330,1,0,0:0:0:0:
448,192,49330,1,0,0:0:0:0:
192,192,49490,1,0,0:0:0:0:
64,192,49649,1,0,0:0:0:0:
448,192,49649,1,0,0:0:0:0:
192,192,49809,1,0,0:0:0:0:
448,192,49809,1,0,0:0:0:0:
64,192,49969,1,0,0:0:0:0:
320,192,49969,1,0,0:0:0:0:
64,192,50128,1,0,0:0:0:0:
192,192,50128,1,0,0:0:0:0:
320,192,50288,1,0,0:0:0:0:
448,192,50288,1,0,0:0:0:0:
192,192,50447,1,0,0:0:0:0:
448,192,50447,1,0,0:0:0:0:
64,192,50607,1,0,0:0:0:0:
320,192,50607,1,0,0:0:0:0:
64,192,50766,1,0,0:0:0:0:
192,192,50766,1,0,0:0:0:0:
320,192,50926,1,0,0:0:0:0:
448,192,50926,1,0,0:0:0:0:
192,192,51086,1,0,0:0:0:0:
64,192,51245,1,0,0:0:0:0:
320,192,51245,1,0,0:0:0:0:
448,192,51245,1,0,0:0:0:0:
320,192,51405,1,0,0:0:0:0:
64,192,51564,1,0,0:0:0:0:
192,192,51564,1,0,0:0:0:0:
448,192,51564,1,0,0:0:0:0:
192,192,51724,1,0,0:0:0:0:
320,192,51883,1,0,0:0:0:0:
448,192,51883,1,0,0:0:0:0:
64,192,52043,1,0,0:0:0:0:
192,192,52203,1,0,0:0:0:0:
448,192,52203,1,0,0:0:0:0:
320,192,52362,1,0,0:0:0:0:
64,192,52522,1,0,0:0:0:0:
192,192,52522,1,0,0:0:0:0:
448,192,52522,1,0,0:0:0:0:
64,192,52681,1,0,0:0:0:0:
192,192,52841,1,0,0:0:0:0:
320,192,52841,1,0,0:0:0:0:
448,192,52841,1,0,0:0:0:0:
320,192,53001,1,0,0:0:0:0:
64,192,53160,1,0,0:0:0:0:
448,192,53160,1,0,0:0:0:0:
448,192,53320,1,0,0:0:0:0:
64,192,53479,1,0,0:0:0:0:
192,192,53479,1,0,0:0:0:0:
320,192,53479,1,0,0:0:0:0:
64,192,53639,1,0,0:0:0:0:
192,192,53798,1,0,0:0:0:0:
320,192,53798,1,0,0:0:0:0:
448,192,53798,1,0,0:0:0:0:
320,192,53958,1,0,0:0:0:0:
64,192,54118,1,0,0:0:0:0:
192,192,54118,1,0,0:0:0:0:
448,192,54118,1,0,0:0:0:0:
192,192,54277,1,0,0:0:0:0:
64,192,54437,1,0,0:0:0:0:
320,192,54437,1,0,0:0:0:0:
448,192,54437,1,0,0:0:0:0:
320,192,54596,1,0,0:0:0:0:
448,192,54596,1,0,0:0:0:0:
64,192,54756,1,0,0:0:0:0:
192,192,54756,1,0,0:0:0:0:
64,192,54915,1,0,0:0:0:0:
448,192,54915,1,0,0:0:0:0:
192,192,55075,1,0,0:0:0:0:
320,192,55075,1,0,0:0:0:0:
448,192,55235,1,0,0:0:0:0:
64,192,55394,1,2,0:0:0:0:
192,192,55394,1,0,0:0:0:0:
320,192,55394,1,0,0:0:0:0:
320,192,55554,1,0,0:0:0:0:
64,192,55713,128,2,55873:0:0:0:0:
192,192,55713,128,0,55873:0:0:0:0:
448,192,55713,1,0,0:0:0:0:
320,192,55873,1,0,0:0:0:0:
64,192,56032,128,8,56352:0:0:0:0:
192,192,56032,128,0,56192:0:0:0:0:
448,192,56032,1,0,0:0:0:0:
320,192,56192,128,2,56511:0:0:0:0:
192,192,56352,128,8,56671:0:0:0:0:
448,192,56352,128,0,56511:0:0:0:0:
64,192,56511,128,2,56671:0:0:0:0:
320,192,56671,128,4,56990:0:0:0:0:
448,192,56671,128,2,56990:0:0:0:0:
64,192,56990,1,8,0:0:0:0:
192,192,56990,1,0,0:0:0:0:
320,192,57149,1,0,0:0:0:0:
448,192,57149,1,0,0:0:0:0:
192,192,57229,1,0,0:0:0:0:
320,192,57309,1,0,0:0:0:0:
448,192,57309,1,0,0:0:0:0:
192,192,57389,1,0,0:0:0:0:
320,192,57469,1,2,0:0:0:0:
448,192,57469,1,0,0:0:0:0:
64,192,57548,1,0,0:0:0:0:
192,192,57628,1,8,0:0:0:0:
320,192,57628,1,0,0:0:0:0:
448,192,57628,1,0,0:0:0:0:
64,192,57788,1,0,0:0:0:0:
192,192,57788,1,0,0:0:0:0:
320,192,57868,1,0,0:0:0:0:
64,192,57947,1,2,0:0:0:0:
192,192,57947,1,0,0:0:0:0:
448,192,57947,1,0,0:0:0:0:
192,192,58107,1,0,0:0:0:0:
320,192,58107,1,0,0:0:0:0:
64,192,58266,1,8,0:0:0:0:
320,192,58266,128,0,58426:0:0:0:0:
448,192,58266,1,0,0:0:0:0:
192,192,58426,1,0,0:0:0:0:
448,192,58426,128,0,58586:0:0:0:0:
64,192,58586,1,0,0:0:0:0:
192,192,58586,128,0,58745:0:0:0:0:
320,192,58665,128,0,58825:0:0:0:0:
64,192,58745,128,2,58905:0:0:0:0:
448,192,58745,1,0,0:0:0:0:
192,192,58825,1,0,0:0:0:0:
320,192,58905,1,8,0:0:0:0:
448,192,58905,1,0,0:0:0:0:
192,192,59064,128,0,59224:0:0:0:0:
320,192,59064,128,0,60501:0:0:0:0:
64,192,59224,1,2,0:0:0:0:
448,192,59224,1,0,0:0:0:0:
192,192,59383,1,0,0:0:0:0:
64,192,59543,1,8,0:0:0:0:
192,192,59543,1,0,0:0:0:0:
448,192,59703,1,0,0:0:0:0:
192,192,59782,1,0,0:0:0:0:
448,192,59862,1,0,0:0:0:0:
192,192,59942,1,0,0:0:0:0:
64,192,60022,1,2,0:0:0:0:
448,192,60022,1,0,0:0:0:0:
64,192,60181,1,8,0:0:0:0:
192,192,60181,1,0,0:0:0:0:
448,192,60341,1,0,0:0:0:0:
192,192,60421,1,0,0:0:0:0:
64,192,60501,1,2,0:0:0:0:
448,192,60501,1,0,0:0:0:0:
64,192,60660,1,0,0:0:0:0:
320,192,60660,1,0,0:0:0:0:
192,192,60820,128,8,60979:0:0:0:0:
320,192,60820,1,0,0:0:0:0:
448,192,60820,1,0,0:0:0:0:
64,192,60979,128,0,61139:0:0:0:0:
320,192,60979,1,0,0:0:0:0:
320,192,61139,128,0,61298:0:0:0:0:
448,192,61139,1,0,0:0:0:0:
192,192,61219,128,0,61378:0:0:0:0:
64,192,61298,1,2,0:0:0:0:
448,192,61298,128,0,61458:0:0:0:0:
320,192,61378,1,0,0:0:0:0:
64,192,61458,1,8,0:0:0:0:
192,192,61458,1,0,0:0:0:0:
192,192,61618,128,0,63054:0:0:0:0:
320,192,61618,128,0,61777:0:0:0:0:
64,192,61777,1,2,0:0:0:0:
448,192,61777,1,0,0:0:0:0:
320,192,61937,1,0,0:0:0:0:
320,192,62096,1,8,0:0:0:0:
448,192,62096,1,0,0:0:0:0:
64,192,62256,1,0,0:0:0:0:
320,192,62336,1,0,0:0:0:0:
64,192,62415,1,0,0:0:0:0:
320,192,62495,1,0,0:0:0:0:
64,192,62575,1,2,0:0:0:0:
448,192,62575,1,0,0:0:0:0:
320,192,62735,1,8,0:0:0:0:
448,192,62735,1,0,0:0:0:0:
64,192,62894,1,0,0:0:0:0:
320,192,62974,1,0,0:0:0:0:
64,192,63054,1,2,0:0:0:0:
448,192,63054,1,0,0:0:0:0:
320,192,63213,1,0,0:0:0:0:
64,192,63373,1,8,0:0:0:0:
192,192,63373,128,0,63532:0:0:0:0:
448,192,63373,1,0,0:0:0:0:
64,192,63532,128,0,63692:0:0:0:0:
320,192,63532,1,0,0:0:0:0:
320,192,63692,128,0,63852:0:0:0:0:
448,192,63692,1,0,0:0:0:0:
192,192,63772,128,0,63931:0:0:0:0:
64,192,63852,1,2,0:0:0:0:
448,192,63852,128,0,64011:0:0:0:0:
320,192,63931,1,0,0:0:0:0:
64,192,64011,1,8,0:0:0:0:
192,192,64011,1,0,0:0:0:0:
192,192,64171,128,0,64330:0:0:0:0:
448,192,64171,1,0,0:0:0:0:
64,192,64330,1,2,0:0:0:0:
320,192,64330,128,0,64490:0:0:0:0:
448,192,64330,128,0,64649:0:0:0:0:
64,192,64490,1,0,0:0:0:0:
192,192,64649,1,8,0:0:0:0:
320,192,64649,128,0,64809:0:0:0:0:
64,192,64809,1,0,0:0:0:0:
448,192,64809,128,0,65607:0:0:0:0:
192,192,64889,1,0,0:0:0:0:
64,192,64969,1,0,0:0:0:0:
192,192,65048,1,0,0:0:0:0:
64,192,65128,1,2,0:0:0:0:
320,192,65128,1,0,0:0:0:0:
192,192,65288,1,8,0:0:0:0:
320,192,65288,1,0,0:0:0:0:
64,192,65447,1,0,0:0:0:0:
320,192,65527,1,0,0:0:0:0:
64,192,65607,1,2,0:0:0:0:
192,192,65607,1,0,0:0:0:0:
64,192,65926,128,0,66086:0:0:0:0:
192,192,65966,128,0,66126:0:0:0:0:
320,192,66006,128,0,66165:0:0:0:0:
448,192,66046,128,0,66883:0:0:0:0:
64,192,66405,1,0,0:0:0:50:LR_Clap Low 2.wav
192,192,66405,1,0,0:0:0:0:
64,192,66564,1,0,0:0:0:50:LR_Clap Low 2.wav
192,192,66564,1,0,0:0:0:0:
64,192,66883,128,4,67043:0:0:0:0:
192,192,66883,128,2,67043:0:0:0:0:
320,192,66883,128,0,67043:0:0:0:0:
448,192,67043,1,0,0:0:0:0:
64,192,67203,1,8,0:0:0:0:
448,192,67203,128,0,67362:0:0:0:0:
192,192,67282,1,0,0:0:0:0:
320,192,67362,128,0,67522:0:0:0:0:
64,192,67442,1,0,0:0:0:0:
192,192,67522,128,0,67681:0:0:0:0:
448,192,67602,1,0,0:0:0:0:
64,192,67681,128,2,67841:0:0:0:0:
320,192,67761,1,0,0:0:0:0:
192,192,67841,1,8,0:0:0:0:
448,192,67841,1,0,0:0:0:0:
64,192,68001,128,0,68160:0:0:0:0:
192,192,68001,128,0,68160:0:0:0:0:
448,192,68001,1,0,0:0:0:0:
320,192,68080,1,0,0:0:0:0:
448,192,68160,1,2,0:0:0:0:
192,192,68320,1,0,0:0:0:0:
320,192,68320,128,0,68479:0:0:0:0:
448,192,68320,128,0,68479:0:0:0:0:
64,192,68479,1,8,0:0:0:0:
64,192,68639,128,0,68798:0:0:0:0:
320,192,68639,128,0,68798:0:0:0:0:
448,192,68639,1,0,0:0:0:0:
192,192,68719,1,0,0:0:0:0:
448,192,68798,1,0,0:0:0:0:
64,192,68958,1,2,0:0:0:0:
448,192,69038,1,0,0:0:0:0:
64,192,69118,1,8,0:0:0:0:
192,192,69118,1,0,0:0:0:50:LR_Clap Low 2.wav
320,192,69118,1,0,0:0:0:0:
448,192,69197,1,0,0:0:0:0:
192,192,69277,1,0,0:0:0:0:
64,192,69357,1,0,0:0:0:0:
192,192,69437,128,2,69596:0:0:0:0:
320,192,69437,128,0,69596:0:0:0:0:
448,192,69437,128,0,69596:0:0:0:0:
64,192,69596,1,0,0:0:0:0:
64,192,69756,128,8,69915:0:0:0:0:
448,192,69756,1,0,0:0:0:0:
320,192,69836,1,0,0:0:0:0:
192,192,69915,128,0,70075:0:0:0:0:
448,192,69995,1,0,0:0:0:0:
320,192,70075,128,0,70235:0:0:0:0:
64,192,70155,1,0,0:0:0:0:
448,192,70235,128,2,70394:0:0:0:0:
192,192,70314,1,0,0:0:0:0:
64,192,70394,1,8,0:0:0:0:
320,192,70394,1,0,0:0:0:0:
64,192,70554,1,0,0:0:0:0:
320,192,70554,128,0,70713:0:0:0:0:
448,192,70554,128,0,70713:0:0:0:0:
192,192,70633,1,0,0:0:0:0:
64,192,70713,1,2,0:0:0:0:
64,192,70873,128,0,71032:0:0:0:0:
192,192,70873,128,0,71032:0:0:0:0:
320,192,70873,1,0,0:0:0:0:
448,192,71032,1,8,0:0:0:0:
192,192,71192,128,0,71352:0:0:0:0:
320,192,71192,1,0,0:0:0:0:
448,192,71192,128,0,71352:0:0:0:0:
64,192,71272,1,0,0:0:0:0:
320,192,71352,1,0,0:0:0:0:
192,192,71511,1,2,0:0:0:0:
320,192,71591,1,0,0:0:0:0:
64,192,71671,1,8,0:0:0:0:
192,192,71671,1,0,0:0:0:50:LR_Clap Low 2.wav
448,192,71671,1,0,0:0:0:0:
320,192,71751,1,0,0:0:0:0:
64,192,71830,1,0,0:0:0:0:
448,192,71910,1,0,0:0:0:0:
64,192,71990,128,2,72149:0:0:0:0:
192,192,71990,128,0,72149:0:0:0:0:
320,192,71990,128,0,72149:0:0:0:0:
448,192,72149,1,0,0:0:0:0:
64,192,72309,1,8,0:0:0:0:
448,192,72309,128,0,72469:0:0:0:0:
320,192,72389,1,0,0:0:0:0:
192,192,72469,128,0,72628:0:0:0:0:
64,192,72548,1,0,0:0:0:0:
320,192,72628,128,0,72788:0:0:0:0:
448,192,72708,1,0,0:0:0:0:
64,192,72788,128,2,72947:0:0:0:0:
192,192,72868,1,0,0:0:0:0:
320,192,72947,1,8,0:0:0:0:
448,192,72947,1,0,0:0:0:0:
64,192,73107,128,0,73266:0:0:0:0:
320,192,73107,128,0,73266:0:0:0:0:
448,192,73107,1,0,0:0:0:0:
192,192,73187,1,0,0:0:0:0:
448,192,73266,1,2,0:0:0:0:
192,192,73426,128,0,73586:0:0:0:0:
320,192,73426,1,0,0:0:0:0:
448,192,73426,128,0,73586:0:0:0:0:
64,192,73586,1,8,0:0:0:0:
64,192,73745,128,0,73905:0:0:0:0:
192,192,73745,128,0,73905:0:0:0:0:
320,192,73745,1,0,0:0:0:0:
448,192,73825,1,0,0:0:0:0:
320,192,73905,1,0,0:0:0:0:
64,192,74064,1,2,0:0:0:0:
320,192,74144,1,0,0:0:0:0:
64,192,74224,1,8,0:0:0:0:
192,192,74224,1,0,0:0:0:50:LR_Clap Low 2.wav
448,192,74224,1,0,0:0:0:0:
320,192,74304,1,0,0:0:0:0:
448,192,74383,1,0,0:0:0:0:
64,192,74463,1,0,0:0:0:0:
192,192,74543,128,2,74703:0:0:0:0:
320,192,74543,128,0,74703:0:0:0:0:
448,192,74543,128,0,74703:0:0:0:0:
64,192,74703,1,0,0:0:0:0:
64,192,74862,128,8,75022:0:0:0:0:
448,192,74862,1,0,0:0:0:0:
192,192,74942,1,0,0:0:0:0:
320,192,75022,128,0,75181:0:0:0:0:
448,192,75102,1,0,0:0:0:0:
192,192,75181,128,0,75341:0:0:0:0:
64,192,75261,1,0,0:0:0:0:
448,192,75341,128,2,75501:0:0:0:0:
320,192,75421,1,0,0:0:0:0:
64,192,75501,1,8,0:0:0:0:
192,192,75501,1,0,0:0:0:0:
64,192,75660,1,0,0:0:0:0:
192,192,75660,128,0,75820:0:0:0:0:
448,192,75660,128,0,75820:0:0:0:0:
320,192,75740,1,0,0:0:0:0:
64,192,75820,1,2,0:0:0:0:
64,192,75979,128,8,76139:0:0:0:0:
192,192,75979,1,0,0:0:0:0:
320,192,75979,128,0,76139:0:0:0:0:
448,192,76139,1,10,0:0:0:0:
192,192,76298,1,8,0:0:0:0:
320,192,76298,128,0,76458:0:0:0:0:
448,192,76298,128,0,76458:0:0:0:0:
64,192,76378,1,8,0:0:0:0:
192,192,76458,1,8,0:0:0:0:
448,192,76618,1,10,0:0:0:0:
192,192,76697,1,8,0:0:0:0:
64,192,76777,1,2,0:0:0:0:
320,192,76777,1,8,0:0:0:0:
448,192,76777,1,0,0:0:0:50:LR_Clap Low 2.wav
192,192,76857,1,0,0:0:0:0:
64,192,76937,1,8,0:0:0:0:
320,192,77016,1,0,0:0:0:0:
64,192,77096,128,4,78054:0:0:0:0:
192,192,77096,128,2,77256:0:0:0:0:
448,192,77096,1,0,0:0:0:0:
192,192,77415,1,8,0:0:0:0:
448,192,77415,128,0,77575:0:0:0:0:
320,192,77575,128,0,77735:0:0:0:0:
192,192,77735,128,0,77894:0:0:0:0:
448,192,77894,128,2,78054:0:0:0:0:
192,192,78054,128,8,78373:0:0:0:0:
320,192,78054,1,0,0:0:0:0:
64,192,78213,128,0,78373:0:0:0:0:
320,192,78373,1,2,0:0:0:0:
448,192,78373,128,0,79649:0:0:0:0:
192,192,78532,128,0,78692:0:0:0:0:
64,192,78692,1,8,0:0:0:0:
320,192,78692,1,0,0:0:0:0:
320,192,78852,1,0,0:0:0:0:
192,192,78931,1,0,0:0:0:0:
64,192,79011,1,0,0:0:0:0:
320,192,79091,1,0,0:0:0:0:
64,192,79171,1,2,0:0:0:0:
320,192,79251,1,0,0:0:0:0:
64,192,79330,1,8,0:0:0:0:
192,192,79330,1,0,0:0:0:50:LR_Clap Low 2.wav
320,192,79490,1,0,0:0:0:0:
192,192,79570,1,0,0:0:0:0:
64,192,79649,128,2,79809:0:0:0:0:
320,192,79649,128,0,79969:0:0:0:0:
64,192,79969,1,8,0:0:0:0:
192,192,79969,128,0,80288:0:0:0:0:
448,192,79969,128,0,80128:0:0:0:0:
320,192,80128,128,0,80288:0:0:0:0:
64,192,80288,128,0,80607:0:0:0:0:
448,192,80288,128,0,80447:0:0:0:0:
192,192,80447,128,2,80607:0:0:0:0:
320,192,80607,128,8,80926:0:0:0:0:
448,192,80607,1,0,0:0:0:0:
64,192,80766,128,0,80926:0:0:0:0:
192,192,80926,128,2,81245:0:0:0:0:
448,192,80926,1,0,0:0:0:0:
320,192,81086,128,0,81245:0:0:0:0:
64,192,81245,128,8,82203:0:0:0:0:
448,192,81245,1,0,0:0:0:0:
192,192,81405,1,0,0:0:0:0:
320,192,81485,1,0,0:0:0:0:
448,192,81564,1,0,0:0:0:0:
192,192,81644,1,0,0:0:0:0:
448,192,81724,1,2,0:0:0:0:
192,192,81804,1,0,0:0:0:0:
320,192,81883,1,8,0:0:0:0:
448,192,81883,1,0,0:0:0:50:LR_Clap Low 2.wav
192,192,82043,1,0,0:0:0:0:
320,192,82123,1,0,0:0:0:0:
192,192,82203,128,2,82362:0:0:0:0:
448,192,82203,128,0,83160:0:0:0:0:
64,192,82522,128,8,82681:0:0:0:0:
320,192,82522,1,0,0:0:0:0:
192,192,82681,128,0,82841:0:0:0:0:
320,192,82841,128,0,83001:0:0:0:0:
64,192,83001,128,2,83160:0:0:0:0:
192,192,83160,1,8,0:0:0:0:
320,192,83160,128,0,83479:0:0:0:0:
448,192,83320,128,0,83479:0:0:0:0:
64,192,83479,128,2,84756:0:0:0:0:
192,192,83479,1,0,0:0:0:0:
192,192,83639,128,0,83798:0:0:0:0:
320,192,83798,1,8,0:0:0:0:
448,192,83798,1,0,0:0:0:0:
320,192,83958,1,0,0:0:0:0:
192,192,84038,1,0,0:0:0:0:
448,192,84118,1,0,0:0:0:0:
320,192,84197,1,0,0:0:0:0:
448,192,84277,1,2,0:0:0:0:
320,192,84357,1,0,0:0:0:0:
192,192,84437,1,8,0:0:0:0:
448,192,84437,1,0,0:0:0:50:LR_Clap Low 2.wav
320,192,84596,1,0,0:0:0:0:
192,192,84676,1,0,0:0:0:0:
320,192,84756,128,2,84915:0:0:0:0:
448,192,84756,128,0,85394:0:0:0:0:
64,192,85075,128,8,85235:0:0:0:0:
320,192,85075,1,0,0:0:0:0:
192,192,85235,128,0,85394:0:0:0:0:
64,192,85394,128,0,85554:0:0:0:0:
320,192,85394,128,0,86032:0:0:0:0:
448,192,85554,128,2,85713:0:0:0:0:
192,192,85713,1,8,0:0:0:0:
64,192,85873,128,0,86032:0:0:0:0:
192,192,86032,1,2,0:0:0:0:
448,192,86032,128,0,87309:0:0:0:0:
320,192,86192,128,8,86352:0:0:0:0:
64,192,86352,1,2,0:0:0:0:
192,192,86352,1,8,0:0:0:0:
192,192,86511,1,8,0:0:0:0:
320,192,86591,1,8,0:0:0:0:
64,192,86671,1,8,0:0:0:0:
192,192,86751,1,8,0:0:0:20:soft-hitclap.wav
64,192,86830,1,10,0:0:0:0:
192,192,86910,1,8,0:0:0:0:
64,192,86990,1,10,0:0:0:0:
320,192,86990,1,0,0:0:0:50:LR_Clap Low 2.wav
320,192,87149,1,8,0:0:0:0:
64,192,87309,128,4,88426:0:0:0:0:
192,192,87309,128,0,87628:0:0:0:0:
320,192,87309,128,0,87469:0:0:0:0:
448,192,87628,128,0,87947:0:0:0:0:
192,192,87788,128,0,88107:0:0:0:0:
320,192,87947,1,0,0:0:0:0:
320,192,88107,128,0,88426:0:0:0:0:
192,192,88426,128,0,89703:0:0:0:0:
448,192,88426,128,0,88905:0:0:0:0:
64,192,88586,1,0,0:0:0:0:
320,192,88905,128,0,89224:0:0:0:0:
448,192,89064,128,0,89383:0:0:0:0:
64,192,89224,1,0,0:0:0:0:
64,192,89383,128,0,89703:0:0:0:0:
448,192,89543,1,0,0:0:0:0:
320,192,89703,128,0,90979:0:0:0:0:
448,192,89703,128,0,90181:0:0:0:0:
192,192,89862,1,0,0:0:0:0:
64,192,90022,1,0,0:0:0:0:
192,192,90181,128,0,90501:0:0:0:0:
64,192,90341,128,0,90660:0:0:0:0:
448,192,90501,1,0,0:0:0:0:
448,192,90660,128,0,90979:0:0:0:0:
192,192,90820,1,0,0:0:0:0:
64,192,90979,128,0,92096:0:0:0:0:
192,192,90979,128,0,92016:0:0:0:0:
320,192,91139,128,0,91298:0:0:0:0:
448,192,91139,128,0,91298:0:0:0:0:
320,192,91458,128,0,91937:0:0:0:0:
448,192,91458,128,0,91857:0:0:0:0:
320,192,92096,128,0,92415:0:0:0:0:
64,192,92415,128,0,92735:0:0:0:0:
192,192,92415,128,0,92575:0:0:0:0:
448,192,92415,128,0,93532:0:0:0:0:
320,192,92735,128,0,93054:0:0:0:0:
64,192,92894,128,0,93213:0:0:0:0:
192,192,93054,1,0,0:0:0:0:
192,192,93213,128,0,93532:0:0:0:0:
64,192,93532,128,0,94011:0:0:0:0:
320,192,93532,128,0,94649:0:0:0:0:
448,192,93692,1,0,0:0:0:0:
448,192,94011,128,0,94330:0:0:0:0:
64,192,94171,128,0,94490:0:0:0:0:
192,192,94330,1,0,0:0:0:0:
192,192,94490,128,0,94809:0:0:0:0:
448,192,94649,1,0,0:0:0:0:
320,192,94809,128,0,95128:0:0:0:0:
448,192,94809,128,0,94969:0:0:0:0:
64,192,94969,128,0,95607:0:0:0:0:
192,192,94969,128,0,95288:0:0:0:0:
320,192,95288,128,0,95607:0:0:0:0:
192,192,95447,128,0,95766:0:0:0:0:
448,192,95607,128,0,95926:0:0:0:0:
64,192,95766,128,0,95926:0:0:0:0:
320,192,95766,128,0,96086:0:0:0:0:
192,192,95926,1,0,0:0:0:0:
192,192,96086,128,0,96405:0:0:0:0:
448,192,96086,128,0,96963:0:0:0:0:
64,192,96245,128,0,97203:0:0:0:0:
320,192,96245,128,0,96405:0:0:0:0:
192,192,96564,128,0,97123:0:0:0:0:
320,192,96564,128,0,97043:0:0:0:0:
448,192,97203,128,0,97282:0:0:0:0:
320,192,97282,128,0,97362:0:0:0:0:
192,192,97362,128,0,97442:0:0:0:0:
64,192,97442,128,0,97522:0:0:0:0:
192,192,97522,1,2,0:0:0:0:
320,192,97522,1,4,0:0:0:0:
448,192,97522,1,0,0:0:0:0:
64,192,97681,1,0,0:0:0:0:
320,192,97681,1,0,0:0:0:0:
448,192,97681,1,0,0:0:0:0:
64,192,97841,1,8,0:0:0:0:
192,192,97841,1,0,0:0:0:0:
320,192,97841,1,0,0:0:0:0:
192,192,98001,1,0,0:0:0:0:
448,192,98001,1,0,0:0:0:0:
320,192,98080,1,0,0:0:0:0:
64,192,98160,1,0,0:0:0:0:
192,192,98160,1,0,0:0:0:0:
448,192,98240,1,0,0:0:0:0:
64,192,98320,1,2,0:0:0:0:
320,192,98320,1,0,0:0:0:0:
192,192,98479,1,8,0:0:0:0:
320,192,98479,1,0,0:0:0:0:
448,192,98479,1,0,0:0:0:0:
64,192,98639,1,0,0:0:0:0:
448,192,98639,1,0,0:0:0:0:
320,192,98719,1,0,0:0:0:0:
64,192,98798,1,2,0:0:0:0:
192,192,98798,1,0,0:0:0:0:
448,192,98798,1,0,0:0:0:0:
64,192,98958,1,0,0:0:0:0:
192,192,98958,1,0,0:0:0:0:
320,192,98958,1,0,0:0:0:0:
192,192,99118,1,8,0:0:0:0:
320,192,99118,1,0,0:0:0:0:
448,192,99118,1,0,0:0:0:0:
64,192,99277,1,0,0:0:0:0:
320,192,99277,1,0,0:0:0:0:
448,192,99357,1,0,0:0:0:0:
64,192,99437,1,0,0:0:0:0:
192,192,99437,1,0,0:0:0:0:
320,192,99516,1,0,0:0:0:0:
64,192,99596,1,2,0:0:0:0:
448,192,99596,1,0,0:0:0:0:
192,192,99756,1,8,0:0:0:0:
320,192,99756,1,0,0:0:0:0:
448,192,99756,1,0,0:0:0:0:
64,192,99915,1,0,0:0:0:0:
192,192,99915,1,0,0:0:0:0:
320,192,99995,1,0,0:0:0:0:
64,192,100075,1,2,0:0:0:0:
192,192,100075,1,0,0:0:0:0:
448,192,100075,1,0,0:0:0:0:
320,192,100235,1,0,0:0:0:0:
448,192,100235,1,0,0:0:0:0:
64,192,100394,1,8,0:0:0:0:
192,192,100394,1,0,0:0:0:0:
320,192,100394,1,0,0:0:0:0:
64,192,100554,1,0,0:0:0:0:
448,192,100554,1,0,0:0:0:0:
192,192,100633,1,0,0:0:0:0:
320,192,100713,1,0,0:0:0:0:
448,192,100713,1,0,0:0:0:0:
192,192,100793,1,0,0:0:0:0:
64,192,100873,1,2,0:0:0:0:
448,192,100873,1,0,0:0:0:0:
64,192,101032,1,8,0:0:0:0:
192,192,101032,1,0,0:0:0:0:
320,192,101032,1,0,0:0:0:0:
320,192,101192,1,0,0:0:0:0:
448,192,101192,1,0,0:0:0:0:
192,192,101272,1,0,0:0:0:0:
64,192,101352,1,2,0:0:0:0:
320,192,101352,1,0,0:0:0:0:
448,192,101352,1,0,0:0:0:0:
64,192,101511,1,8,0:0:0:0:
192,192,101511,1,0,0:0:0:0:
64,192,101671,1,2,0:0:0:0:
320,192,101671,1,8,0:0:0:0:
448,192,101671,1,0,0:0:0:0:
192,192,101830,1,8,0:0:0:0:
448,192,101830,1,0,0:0:0:0:
320,192,101910,1,8,0:0:0:0:
64,192,101990,1,8,0:0:0:0:
192,192,101990,1,0,0:0:0:0:
448,192,102070,1,8,0:0:0:20:soft-hitclap.wav
64,192,102149,1,8,0:0:0:0:
320,192,102149,1,2,0:0:0:0:
192,192,102229,1,8,0:0:0:0:
64,192,102309,1,2,0:0:0:0:
320,192,102309,1,8,0:0:0:0:
448,192,102309,1,0,0:0:0:0:
192,192,102469,1,8,0:0:0:0:
448,192,102469,1,0,0:0:0:0:
64,192,102548,1,0,0:0:0:0:
192,192,102628,1,2,0:0:0:0:
320,192,102628,1,0,0:0:0:0:
448,192,102628,1,0,0:0:0:0:
64,192,102788,1,0,0:0:0:0:
320,192,102788,1,0,0:0:0:0:
64,192,102947,1,8,0:0:0:0:
192,192,102947,1,0,0:0:0:0:
448,192,102947,1,0,0:0:0:0:
192,192,103107,1,0,0:0:0:0:
448,192,103107,1,0,0:0:0:0:
320,192,103187,1,0,0:0:0:0:
64,192,103266,1,0,0:0:0:0:
448,192,103266,1,0,0:0:0:0:
320,192,103346,1,0,0:0:0:0:
64,192,103426,1,2,0:0:0:0:
192,192,103426,1,0,0:0:0:0:
192,192,103586,1,8,0:0:0:0:
320,192,103586,1,0,0:0:0:0:
448,192,103586,1,0,0:0:0:0:
64,192,103745,1,0,0:0:0:0:
448,192,103745,1,0,0:0:0:0:
192,192,103825,1,0,0:0:0:0:
64,192,103905,1,2,0:0:0:0:
320,192,103905,1,0,0:0:0:0:
448,192,103905,1,0,0:0:0:0:
192,192,104064,1,0,0:0:0:0:
320,192,104064,1,0,0:0:0:0:
64,192,104224,1,8,0:0:0:0:
320,192,104224,1,0,0:0:0:0:
448,192,104224,1,0,0:0:0:0:
192,192,104383,1,0,0:0:0:0:
448,192,104383,1,0,0:0:0:0:
64,192,104463,1,0,0:0:0:0:
192,192,104543,1,0,0:0:0:0:
320,192,104543,1,0,0:0:0:0:
448,192,104623,1,0,0:0:0:0:
64,192,104703,1,2,0:0:0:0:
320,192,104703,1,0,0:0:0:0:
64,192,104862,1,8,0:0:0:0:
192,192,104862,1,0,0:0:0:0:
448,192,104862,1,0,0:0:0:0:
320,192,105022,1,0,0:0:0:0:
448,192,105022,1,0,0:0:0:0:
192,192,105102,1,0,0:0:0:0:
64,192,105181,1,2,0:0:0:0:
320,192,105181,1,0,0:0:0:0:
448,192,105181,1,0,0:0:0:0:
64,192,105341,1,0,0:0:0:0:
192,192,105341,1,0,0:0:0:0:
192,192,105501,1,8,0:0:0:0:
320,192,105501,1,0,0:0:0:0:
448,192,105501,1,0,0:0:0:0:
64,192,105660,1,0,0:0:0:0:
448,192,105660,1,0,0:0:0:0:
192,192,105740,1,0,0:0:0:0:
320,192,105820,1,0,0:0:0:0:
448,192,105820,1,0,0:0:0:0:
192,192,105899,1,0,0:0:0:0:
64,192,105979,1,2,0:0:0:0:
320,192,105979,1,0,0:0:0:0:
192,192,106139,1,8,0:0:0:0:
320,192,106139,1,0,0:0:0:0:
448,192,106139,1,0,0:0:0:0:
64,192,106298,1,0,0:0:0:0:
448,192,106298,1,0,0:0:0:0:
192,192,106378,1,0,0:0:0:0:
64,192,106458,1,2,0:0:0:0:
320,192,106458,1,0,0:0:0:0:
448,192,106458,1,0,0:0:0:0:
192,192,106618,1,8,0:0:0:0:
320,192,106618,1,0,0:0:0:0:
64,192,106777,1,2,0:0:0:0:
192,192,106777,1,8,0:0:0:0:
448,192,106777,1,0,0:0:0:0:
64,192,106937,1,8,0:0:0:0:
320,192,106937,1,0,0:0:0:0:
448,192,107016,1,8,0:0:0:0:
192,192,107096,1,8,0:0:0:0:
320,192,107096,1,0,0:0:0:0:
448,192,107176,1,8,0:0:0:20:soft-hitclap.wav
64,192,107256,1,8,0:0:0:0:
320,192,107256,1,2,0:0:0:0:
192,192,107336,1,8,0:0:0:0:
64,192,107415,1,2,0:0:0:0:
448,192,107415,1,8,0:0:0:0:
320,192,107495,1,0,0:0:0:0:
192,192,107575,1,8,0:0:0:0:
448,192,107575,1,0,0:0:0:0:
64,192,107655,1,0,0:0:0:0:
