osu file format v14

[General]
AudioFilename: audio.ogg
AudioLeadIn: 0
PreviewTime: 26032
Countdown: 0
SampleSet: Soft
StackLeniency: 0.7
Mode: 3
LetterboxInBreaks: 0
SpecialStyle: 0
WidescreenStoryboard: 1

[Editor]
Bookmarks: 9546,14652,36354,56780,59333,65716,66992,69546,72099,74652,77205,87418
DistanceSpacing: 0.8
BeatDivisor: 4
GridSize: 32
TimelineZoom: 1.2

[Metadata]
Title:mint tears
TitleUnicode:mint tears
Artist:ribbon room
ArtistUnicode:ribbon room
Creator:cai_ji_ccc
Version:Insane
Source:太鼓の達人
Tags:[GB]V1do VidoriyaIzuku Taiko no Tatsujin ds: dororon! yokai daikessen!! tnt ナムコオリジナル bandai namco original YuEast 2018 cotoribbon silvercoin breakcore video game instrumental japanese english 太鼓の達人ds ドロロン!ヨーカイ大決戦!!
BeatmapID:3657595
BeatmapSetID:1773264

[Difficulty]
HPDrainRate:8
CircleSize:4
OverallDifficulty:8
ApproachRate:5
SliderMultiplier:1.4
SliderTickRate:1

[Events]
//Background and Video events
0,0,"121ab41fc18d4914b62ae0950a1dce3f.jpg",0,0
//Break Periods
//Storyboard Layer 0 (Background)
//Storyboard Layer 1 (Fail)
//Storyboard Layer 2 (Pass)
//Storyboard Layer 3 (Foreground)
//Storyboard Layer 4 (Overlay)
//Storyboard Sound Samples

[TimingPoints]
501,319.148936170213,4,2,1,45,1,0
26032,-100,4,2,1,45,0,1
46458,-100,4,2,1,45,0,0
56671,-100,4,2,1,45,0,1
65607,-100,4,2,1,45,0,0
97522,-100,4,2,1,45,0,1
107735,-100,4,2,1,45,0,0

[HitObjects]
64,192,501,5,0,0:0:0:0:
192,192,501,1,0,0:0:0:0:
448,192,501,1,0,0:0:0:0:
320,192,660,1,0,0:0:0:0:
64,192,820,1,0,0:0:0:0:
448,192,820,1,0,0:0:0:0:
192,192,979,1,0,0:0:0:0:
448,192,979,1,0,0:0:0:0:
320,192,1139,1,0,0:0:0:0:
448,192,1139,1,0,0:0:0:0:
192,192,1298,1,0,0:0:0:0:
64,192,1458,1,0,0:0:0:0:
320,192,1458,1,0,0:0:0:0:
192,192,1618,1,0,0:0:0:0:
448,192,1618,1,0,0:0:0:0:
320,192,1697,1,0,0:0:0:0:
64,192,1777,1,0,0:0:0:0:
192,192,1777,1,0,0:0:0:0:
448,192,1777,1,0,0:0:0:0:
320,192,1937,1,0,0:0:0:0:
192,192,2096,1,0,0:0:0:0:
64,192,2256,1,0,0:0:0:0:
448,192,2256,1,0,0:0:0:0:
64,192,2415,1,0,0:0:0:0:
192,192,2415,1,0,0:0:0:0:
320,192,2415,1,0,0:0:0:0:
448,192,2575,1,0,0:0:0:0:
320,192,2735,1,0,0:0:0:0:
192,192,2894,1,0,0:0:0:0:
64,192,3054,1,0,0:0:0:0:
320,192,3054,1,0,0:0:0:0:
192,192,3213,1,0,0:0:0:0:
448,192,3213,1,0,0:0:0:0:
320,192,3373,1,0,0:0:0:0:
448,192,3373,1,0,0:0:0:0:
192,192,3532,1,0,0:0:0:0:
320,192,3532,1,0,0:0:0:0:
64,192,3692,1,0,0:0:0:0:
192,192,3692,1,0,0:0:0:0:
320,192,3852,1,0,0:0:0:0:
448,192,3852,1,0,0:0:0:0:
64,192,4011,1,0,0:0:0:0:
320,192,4011,1,0,0:0:0:0:
192,192,4171,1,0,0:0:0:0:
320,192,4251,1,0,0:0:0:0:
64,192,4330,1,8,0:0:0:0:
192,192,4330,1,0,0:0:0:0:
448,192,4330,1,0,0:0:0:0:
192,192,4490,1,2,0:0:0:0:
320,192,4490,1,0,0:0:0:0:
64,192,4649,1,8,0:0:0:0:
320,192,4649,1,0,0:0:0:0:
448,192,4649,1,0,0:0:0:0:
192,192,4809,1,2,0:0:0:0:
320,192,4889,1,0,0:0:0:0:
64,192,4969,1,8,0:0:0:0:
448,192,4969,1,0,0:0:0:0:
320,192,5128,1,8,0:0:0:0:
192,192,5208,1,8,0:0:0:0:
64,192,5288,1,8,0:0:0:0:
448,192,5288,1,2,0:0:0:0:
320,192,5368,1,8,0:0:0:0:
192,192,5447,1,2,0:0:0:0:
64,192,5607,1,4,0:0:0:0:
320,192,5607,1,2,0:0:0:0:
448,192,5607,1,0,0:0:0:0:
64,192,5926,1,8,0:0:0:0:
192,192,5926,1,0,0:0:0:0:
448,192,5926,1,0,0:0:0:0:
64,192,6086,1,0,0:0:0:0:
320,192,6086,1,0,0:0:0:0:
192,192,6245,1,0,0:0:0:0:
448,192,6245,1,0,0:0:0:0:
320,192,6405,1,2,0:0:0:0:
448,192,6405,1,0,0:0:0:0:
64,192,6564,1,8,0:0:0:0:
192,192,6564,1,0,0:0:0:0:
320,192,6564,1,0,0:0:0:0:
192,192,6724,1,0,0:0:0:0:
448,192,6724,1,0,0:0:0:0:
64,192,6883,1,2,0:0:0:0:
448,192,6883,1,0,0:0:0:0:
192,192,7043,1,0,0:0:0:0:
320,192,7043,1,0,0:0:0:0:
64,192,7203,1,8,0:0:0:0:
320,192,7203,1,0,0:0:0:0:
448,192,7203,1,0,0:0:0:0:
64,192,7362,1,0,0:0:0:0:
192,192,7362,1,0,0:0:0:0:
320,192,7522,1,0,0:0:0:0:
448,192,7522,1,0,0:0:0:0:
192,192,7602,1,0,0:0:0:0:
64,192,7681,1,2,0:0:0:0:
448,192,7681,1,0,0:0:0:0:
64,192,7841,1,8,0:0:0:0:
192,192,7841,1,0,0:0:0:0:
320,192,7841,1,0,0:0:0:0:
320,192,8001,1,0,0:0:0:0:
448,192,8001,1,0,0:0:0:0:
64,192,8160,1,2,0:0:0:0:
192,192,8160,1,0,0:0:0:0:
448,192,8160,1,0,0:0:0:0:
192,192,8320,1,0,0:0:0:0:
64,192,8479,1,8,0:0:0:0:
320,192,8479,1,0,0:0:0:0:
448,192,8479,1,0,0:0:0:0:
192,192,8639,1,0,0:0:0:0:
448,192,8639,1,0,0:0:0:0:
64,192,8798,1,0,0:0:0:0:
320,192,8798,1,0,0:0:0:0:
64,192,8958,1,2,0:0:0:0:
192,192,8958,1,0,0:0:0:0:
192,192,9118,1,8,0:0:0:0:
320,192,9118,1,0,0:0:0:0:
448,192,9118,1,0,0:0:0:0:
64,192,9277,1,0,0:0:0:0:
448,192,9277,1,0,0:0:0:0:
192,192,9437,1,2,0:0:0:0:
320,192,9437,1,0,0:0:0:0:
64,192,9596,1,0,0:0:0:0:
320,192,9596,1,0,0:0:0:0:
192,192,9756,1,8,0:0:0:0:
448,192,9756,128,0,9915:0:0:0:0:
64,192,9915,1,0,0:0:0:0:
320,192,9915,128,0,10075:0:0:0:0:
64,192,10075,128,0,10235:0:0:0:0:
192,192,10075,1,0,0:0:0:0:
448,192,10155,1,0,0:0:0:0:
192,192,10235,128,2,10394:0:0:0:0:
320,192,10235,1,0,0:0:0:0:
64,192,10394,1,8,0:0:0:0:
320,192,10394,1,0,0:0:0:0:
64,192,10554,1,0,0:0:0:0:
448,192,10554,128,0,11990:0:0:0:0:
192,192,10713,1,2,0:0:0:0:
320,192,10713,1,0,0:0:0:0:
192,192,10873,1,0,0:0:0:0:
64,192,11032,1,8,0:0:0:0:
320,192,11032,1,0,0:0:0:0:
192,192,11192,1,0,0:0:0:0:
192,192,11352,1,0,0:0:0:0:
64,192,11511,1,2,0:0:0:0:
320,192,11511,1,0,0:0:0:0:
64,192,11671,1,8,0:0:0:0:
192,192,11671,1,0,0:0:0:0:
192,192,11830,1,0,0:0:0:0:
64,192,11990,1,2,0:0:0:0:
320,192,11990,1,0,0:0:0:0:
192,192,12149,1,0,0:0:0:0:
448,192,12149,1,0,0:0:0:0:
64,192,12309,128,8,12469:0:0:0:0:
320,192,12309,1,0,0:0:0:0:
192,192,12469,128,0,12628:0:0:0:0:
448,192,12469,1,0,0:0:0:0:
320,192,12628,1,0,0:0:0:0:
448,192,12628,128,0,12788:0:0:0:0:
64,192,12708,1,0,0:0:0:0:
192,192,12788,1,2,0:0:0:0:
320,192,12788,128,0,12947:0:0:0:0:
64,192,12947,1,8,0:0:0:0:
448,192,12947,1,0,0:0:0:0:
64,192,13107,1,0,0:0:0:0:
192,192,13107,128,0,14543:0:0:0:0:
320,192,13266,1,2,0:0:0:0:
448,192,13266,1,0,0:0:0:0:
320,192,13426,1,0,0:0:0:0:
64,192,13586,1,8,0:0:0:0:
448,192,13586,1,0,0:0:0:0:
320,192,13745,1,0,0:0:0:0:
64,192,13905,1,0,0:0:0:0:
320,192,13905,1,0,0:0:0:0:
64,192,14064,1,2,0:0:0:0:
448,192,14064,1,0,0:0:0:0:
320,192,14224,1,8,0:0:0:0:
448,192,14224,1,0,0:0:0:0:
320,192,14383,1,0,0:0:0:0:
64,192,14543,1,2,0:0:0:0:
448,192,14543,1,0,0:0:0:0:
64,192,14703,1,8,0:0:0:0:
192,192,14782,1,8,0:0:0:0:
320,192,14862,1,2,0:0:0:0:
448,192,14862,1,8,0:0:0:0:
448,192,15022,1,8,0:0:0:0:
320,192,15102,1,8,0:0:0:0:
64,192,15181,1,2,0:0:0:0:
192,192,15181,1,8,0:0:0:0:
320,192,15341,1,8,0:0:0:0:
192,192,15421,1,8,0:0:0:0:
64,192,15501,1,2,0:0:0:0:
448,192,15501,1,8,0:0:0:0:
320,192,15580,1,0,0:0:0:15:soft-hitclap.wav
192,192,15660,1,8,0:0:0:0:
320,192,15740,1,8,0:0:0:0:
64,192,15820,1,4,0:0:0:0:
192,192,15820,128,2,16139:0:0:0:0:
448,192,15820,1,0,0:0:0:0:
64,192,16139,1,8,0:0:0:0:
320,192,16139,1,0,0:0:0:0:
448,192,16139,1,0,0:0:0:0:
192,192,16298,1,0,0:0:0:0:
448,192,16298,1,0,0:0:0:0:
64,192,16458,1,0,0:0:0:0:
320,192,16458,1,0,0:0:0:0:
64,192,16618,1,2,0:0:0:0:
192,192,16618,1,0,0:0:0:0:
192,192,16777,1,8,0:0:0:0:
320,192,16777,1,0,0:0:0:0:
448,192,16777,1,0,0:0:0:0:
64,192,16937,1,0,0:0:0:0:
448,192,16937,1,0,0:0:0:0:
64,192,17096,1,2,0:0:0:0:
192,192,17096,1,0,0:0:0:0:
320,192,17256,1,0,0:0:0:0:
448,192,17256,1,0,0:0:0:0:
192,192,17415,128,8,17575:0:0:0:0:
320,192,17415,1,0,0:0:0:0:
64,192,17575,128,0,17735:0:0:0:0:
448,192,17575,1,0,0:0:0:0:
320,192,17735,1,0,0:0:0:0:
192,192,17814,1,0,0:0:0:0:
64,192,17894,1,2,0:0:0:0:
448,192,17894,128,0,18054:0:0:0:0:
192,192,18054,1,8,0:0:0:0:
320,192,18054,1,0,0:0:0:0:
64,192,18213,128,0,19649:0:0:0:0:
192,192,18213,1,0,0:0:0:0:
320,192,18373,1,2,0:0:0:0:
448,192,18373,1,0,0:0:0:0:
320,192,18532,1,0,0:0:0:0:
192,192,18692,1,8,0:0:0:0:
448,192,18692,1,0,0:0:0:0:
320,192,18852,1,0,0:0:0:0:
320,192,19011,1,0,0:0:0:0:
192,192,19171,1,2,0:0:0:0:
448,192,19171,1,0,0:0:0:0:
192,192,19330,1,8,0:0:0:0:
320,192,19330,1,0,0:0:0:0:
320,192,19490,1,0,0:0:0:0:
192,192,19649,1,2,0:0:0:0:
448,192,19649,1,0,0:0:0:0:
64,192,19809,1,0,0:0:0:0:
320,192,19809,1,0,0:0:0:0:
192,192,19969,1,8,0:0:0:0:
320,192,19969,128,0,20128:0:0:0:0:
64,192,20128,1,0,0:0:0:0:
448,192,20128,128,0,20288:0:0:0:0:
192,192,20288,1,0,0:0:0:0:
320,192,20368,1,0,0:0:0:0:
64,192,20447,128,2,20607:0:0:0:0:
448,192,20447,1,0,0:0:0:0:
192,192,20607,1,8,0:0:0:0:
320,192,20607,1,0,0:0:0:0:
320,192,20766,1,0,0:0:0:0:
448,192,20766,128,0,22203:0:0:0:0:
64,192,20926,1,2,0:0:0:0:
192,192,20926,1,0,0:0:0:0:
192,192,21086,1,0,0:0:0:0:
64,192,21245,1,8,0:0:0:0:
320,192,21245,1,0,0:0:0:0:
192,192,21405,1,0,0:0:0:0:
192,192,21564,1,0,0:0:0:0:
64,192,21724,1,2,0:0:0:0:
320,192,21724,1,0,0:0:0:0:
192,192,21883,1,8,0:0:0:0:
320,192,21883,1,0,0:0:0:0:
192,192,22043,1,0,0:0:0:0:
64,192,22203,1,2,0:0:0:0:
320,192,22203,1,0,0:0:0:0:
192,192,22362,1,0,0:0:0:0:
192,192,22522,1,8,0:0:0:0:
448,192,22522,128,0,22681:0:0:0:0:
64,192,22681,1,0,0:0:0:0:
320,192,22681,128,0,22841:0:0:0:0:
448,192,22841,1,0,0:0:0:0:
320,192,22921,1,0,0:0:0:0:
64,192,23001,128,2,23160:0:0:0:0:
192,192,23001,1,0,0:0:0:0:
320,192,23160,1,8,0:0:0:0:
448,192,23160,1,0,0:0:0:0:
192,192,23320,128,0,23479:0:0:0:0:
448,192,23320,1,0,0:0:0:0:
64,192,23479,1,2,0:0:0:0:
320,192,23479,128,0,23798:0:0:0:0:
192,192,23639,1,0,0:0:0:0:
64,192,23798,128,8,23958:0:0:0:0:
448,192,23798,1,0,0:0:0:0:
192,192,23958,128,0,24756:0:0:0:0:
448,192,23958,1,0,0:0:0:0:
320,192,24118,1,0,0:0:0:0:
64,192,24277,1,2,0:0:0:0:
320,192,24277,1,0,0:0:0:0:
64,192,24437,1,8,0:0:0:0:
448,192,24437,1,0,0:0:0:0:
320,192,24596,1,0,0:0:0:0:
320,192,24756,1,2,0:0:0:0:
448,192,24756,1,0,0:0:0:0:
64,192,24915,1,8,0:0:0:0:
192,192,24995,1,8,0:0:0:0:
448,192,24995,1,0,0:0:0:0:
320,192,25075,1,2,0:0:0:0:
448,192,25235,1,8,0:0:0:0:
64,192,25314,1,8,0:0:0:0:
320,192,25314,1,0,0:0:0:0:
192,192,25394,1,2,0:0:0:0:
448,192,25474,1,2,0:0:0:20:soft-hitwhistle.wav
64,192,25554,1,8,0:0:0:0:
320,192,25554,1,0,0:0:0:0:
192,192,25633,1,8,0:0:0:0:
320,192,25713,1,2,0:0:0:0:
448,192,25713,1,8,0:0:0:0:
64,192,25793,1,8,0:0:0:0:
192,192,25873,1,8,0:0:0:0:
448,192,25873,1,0,0:0:0:0:
320,192,25953,1,8,0:0:0:0:
64,192,26032,1,4,0:0:0:0:
192,192,26032,1,2,0:0:0:0:
448,192,26032,1,0,0:0:0:0:
320,192,26192,1,0,0:0:0:0:
64,192,26352,1,8,0:0:0:0:
320,192,26352,1,0,0:0:0:0:
448,192,26352,1,0,0:0:0:0:
192,192,26511,1,0,0:0:0:0:
448,192,26511,1,0,0:0:0:0:
192,192,26671,1,0,0:0:0:0:
320,192,26671,1,0,0:0:0:0:
64,192,26830,1,2,0:0:0:0:
320,192,26830,1,0,0:0:0:0:
64,192,26990,1,8,0:0:0:0:
192,192,26990,1,0,0:0:0:0:
448,192,26990,1,0,0:0:0:0:
320,192,27149,1,0,0:0:0:0:
448,192,27149,1,0,0:0:0:0:
64,192,27229,1,0,0:0:0:0:
192,192,27309,1,2,0:0:0:0:
320,192,27309,1,0,0:0:0:0:
192,192,27469,1,0,0:0:0:0:
448,192,27469,1,0,0:0:0:0:
64,192,27628,1,8,0:0:0:0:
320,192,27628,1,0,0:0:0:0:
448,192,27628,1,0,0:0:0:0:
192,192,27788,1,0,0:0:0:0:
320,192,27868,1,0,0:0:0:0:
64,192,27947,1,0,0:0:0:0:
448,192,27947,1,0,0:0:0:0:
192,192,28027,1,0,0:0:0:0:
320,192,28107,1,2,0:0:0:0:
64,192,28266,1,8,0:0:0:0:
192,192,28266,1,0,0:0:0:0:
448,192,28266,1,0,0:0:0:0:
192,192,28426,1,0,0:0:0:0:
320,192,28426,1,0,0:0:0:0:
64,192,28586,1,2,0:0:0:0:
320,192,28586,1,0,0:0:0:0:
448,192,28586,1,0,0:0:0:0:
192,192,28745,1,0,0:0:0:0:
64,192,28905,1,8,0:0:0:0:
192,192,28905,1,0,0:0:0:0:
320,192,28905,1,0,0:0:0:0:
320,192,29064,1,0,0:0:0:0:
448,192,29064,1,0,0:0:0:0:
64,192,29224,1,0,0:0:0:0:
192,192,29224,1,0,0:0:0:0:
64,192,29383,1,2,0:0:0:0:
448,192,29383,1,0,0:0:0:0:
192,192,29543,1,8,0:0:0:0:
320,192,29543,1,0,0:0:0:0:
448,192,29543,1,0,0:0:0:0:
64,192,29703,1,0,0:0:0:0:
192,192,29703,1,0,0:0:0:0:
320,192,29782,1,0,0:0:0:0:
64,192,29862,1,2,0:0:0:0:
448,192,29862,1,0,0:0:0:0:
192,192,30022,1,0,0:0:0:0:
320,192,30022,1,0,0:0:0:0:
64,192,30181,1,8,0:0:0:0:
320,192,30181,1,0,0:0:0:0:
448,192,30181,1,0,0:0:0:0:
192,192,30341,1,0,0:0:0:0:
320,192,30421,1,0,0:0:0:0:
64,192,30501,1,0,0:0:0:0:
448,192,30501,1,0,0:0:0:0:
192,192,30580,1,0,0:0:0:0:
320,192,30660,1,2,0:0:0:0:
64,192,30820,1,8,0:0:0:0:
192,192,30820,1,0,0:0:0:0:
448,192,30820,1,0,0:0:0:0:
192,192,30979,1,0,0:0:0:0:
320,192,30979,1,0,0:0:0:0:
64,192,31139,1,2,0:0:0:0:
320,192,31139,1,0,0:0:0:0:
448,192,31139,1,0,0:0:0:0:
192,192,31298,1,0,0:0:0:0:
64,192,31458,1,8,0:0:0:0:
192,192,31458,1,0,0:0:0:0:
448,192,31458,1,0,0:0:0:0:
320,192,31618,1,0,0:0:0:0:
448,192,31618,1,0,0:0:0:0:
192,192,31777,1,0,0:0:0:0:
320,192,31777,1,0,0:0:0:0:
64,192,31937,1,2,0:0:0:0:
192,192,31937,1,0,0:0:0:0:
64,192,32096,1,8,0:0:0:0:
320,192,32096,1,0,0:0:0:0:
448,192,32096,1,0,0:0:0:0:
192,192,32256,1,0,0:0:0:0:
448,192,32256,1,0,0:0:0:0:
320,192,32336,1,0,0:0:0:0:
64,192,32415,1,2,0:0:0:0:
192,192,32415,1,0,0:0:0:0:
320,192,32575,1,0,0:0:0:0:
448,192,32575,1,0,0:0:0:0:
64,192,32735,1,8,0:0:0:0:
192,192,32735,1,0,0:0:0:0:
448,192,32735,1,0,0:0:0:0:
320,192,32894,1,0,0:0:0:0:
192,192,32974,1,0,0:0:0:0:
64,192,33054,1,0,0:0:0:0:
448,192,33054,1,0,0:0:0:0:
320,192,33133,1,0,0:0:0:0:
192,192,33213,1,2,0:0:0:0:
64,192,33373,1,8,0:0:0:0:
320,192,33373,1,0,0:0:0:0:
448,192,33373,1,0,0:0:0:0:
192,192,33532,1,0,0:0:0:0:
320,192,33532,1,0,0:0:0:0:
64,192,33692,1,2,0:0:0:0:
192,192,33692,1,0,0:0:0:0:
448,192,33692,1,0,0:0:0:0:
320,192,33852,1,0,0:0:0:0:
192,192,34011,1,8,0:0:0:0:
320,192,34011,1,0,0:0:0:0:
448,192,34011,1,0,0:0:0:0:
64,192,34171,1,0,0:0:0:0:
192,192,34171,1,0,0:0:0:0:
64,192,34330,1,0,0:0:0:0:
448,192,34330,1,0,0:0:0:0:
320,192,34490,1,2,0:0:0:0:
448,192,34490,1,0,0:0:0:0:
64,192,34649,1,8,0:0:0:0:
192,192,34649,1,0,0:0:0:0:
320,192,34649,1,0,0:0:0:0:
64,192,34809,1,0,0:0:0:0:
448,192,34809,1,0,0:0:0:0:
192,192,34889,1,0,0:0:0:0:
320,192,34969,1,2,0:0:0:0:
448,192,34969,1,0,0:0:0:0:
192,192,35128,1,8,0:0:0:0:
320,192,35208,1,8,0:0:0:0:
64,192,35288,1,2,0:0:0:0:
192,192,35288,1,8,0:0:0:0:
448,192,35288,1,0,0:0:0:0:
320,192,35447,1,8,0:0:0:0:
192,192,35527,1,8,0:0:0:0:
64,192,35607,1,8,0:0:0:0:
448,192,35607,1,0,0:0:0:0:
320,192,35687,1,8,0:0:0:15:soft-hitclap.wav
64,192,35766,1,2,0:0:0:0:
192,192,35766,1,8,0:0:0:0:
64,192,35926,1,2,0:0:0:0:
320,192,35926,1,8,0:0:0:0:
448,192,35926,1,0,0:0:0:0:
192,192,36006,1,8,0:0:0:0:
320,192,36086,1,8,0:0:0:0:
64,192,36245,1,4,0:0:0:0:
192,192,36245,1,2,0:0:0:0:
448,192,36245,1,0,0:0:0:0:
320,192,36405,1,0,0:0:0:0:
64,192,36564,1,8,0:0:0:0:
320,192,36564,1,0,0:0:0:0:
448,192,36564,1,0,0:0:0:0:
64,192,36724,1,0,0:0:0:0:
192,192,36724,1,0,0:0:0:0:
320,192,36883,1,0,0:0:0:0:
448,192,36883,1,0,0:0:0:0:
192,192,37043,1,2,0:0:0:0:
320,192,37043,1,0,0:0:0:0:
64,192,37203,1,8,0:0:0:0:
192,192,37203,1,0,0:0:0:0:
448,192,37203,1,0,0:0:0:0:
320,192,37362,1,0,0:0:0:0:
448,192,37362,1,0,0:0:0:0:
64,192,37442,1,0,0:0:0:0:
192,192,37522,1,2,0:0:0:0:
320,192,37522,1,0,0:0:0:0:
64,192,37681,1,0,0:0:0:0:
192,192,37681,1,0,0:0:0:0:
64,192,37841,1,8,0:0:0:0:
320,192,37841,1,0,0:0:0:0:
448,192,37841,1,0,0:0:0:0:
192,192,38001,1,0,0:0:0:0:
320,192,38080,1,0,0:0:0:0:
64,192,38160,1,0,0:0:0:0:
448,192,38160,1,0,0:0:0:0:
192,192,38240,1,0,0:0:0:0:
320,192,38320,1,2,0:0:0:0:
64,192,38479,1,8,0:0:0:0:
192,192,38479,1,0,0:0:0:0:
448,192,38479,1,0,0:0:0:0:
192,192,38639,1,0,0:0:0:0:
320,192,38639,1,0,0:0:0:0:
64,192,38798,1,2,0:0:0:0:
320,192,38798,1,0,0:0:0:0:
448,192,38798,1,0,0:0:0:0:
192,192,38958,1,0,0:0:0:0:
64,192,39118,1,8,0:0:0:0:
192,192,39118,1,0,0:0:0:0:
320,192,39118,1,0,0:0:0:0:
320,192,39277,1,0,0:0:0:0:
448,192,39277,1,0,0:0:0:0:
64,192,39437,1,0,0:0:0:0:
448,192,39437,1,0,0:0:0:0:
64,192,39596,1,2,0:0:0:0:
192,192,39596,1,0,0:0:0:0:
192,192,39756,1,8,0:0:0:0:
320,192,39756,1,0,0:0:0:0:
448,192,39756,1,0,0:0:0:0:
64,192,39915,1,0,0:0:0:0:
448,192,39915,1,0,0:0:0:0:
320,192,39995,1,0,0:0:0:0:
64,192,40075,1,2,0:0:0:0:
192,192,40075,1,0,0:0:0:0:
320,192,40235,1,0,0:0:0:0:
448,192,40235,1,0,0:0:0:0:
64,192,40394,1,8,0:0:0:0:
192,192,40394,1,0,0:0:0:0:
448,192,40394,1,0,0:0:0:0:
320,192,40554,1,0,0:0:0:0:
192,192,40633,1,0,0:0:0:0:
64,192,40713,1,0,0:0:0:0:
448,192,40713,1,0,0:0:0:0:
320,192,40793,1,0,0:0:0:0:
192,192,40873,1,2,0:0:0:0:
64,192,41032,1,8,0:0:0:0:
320,192,41032,1,0,0:0:0:0:
448,192,41032,1,0,0:0:0:0:
192,192,41192,1,0,0:0:0:0:
320,192,41192,1,0,0:0:0:0:
64,192,41352,1,2,0:0:0:0:
192,192,41352,1,0,0:0:0:0:
448,192,41352,1,0,0:0:0:0:
320,192,41511,1,0,0:0:0:0:
64,192,41671,1,8,0:0:0:0:
320,192,41671,1,0,0:0:0:0:
448,192,41671,1,0,0:0:0:0:
192,192,41830,1,0,0:0:0:0:
448,192,41830,1,0,0:0:0:0:
64,192,41990,1,0,0:0:0:0:
320,192,41990,1,0,0:0:0:0:
64,192,42149,1,2,0:0:0:0:
192,192,42149,1,0,0:0:0:0:
192,192,42309,1,8,0:0:0:0:
320,192,42309,1,0,0:0:0:0:
448,192,42309,1,0,0:0:0:0:
64,192,42469,1,0,0:0:0:0:
448,192,42469,1,0,0:0:0:0:
320,192,42548,1,0,0:0:0:0:
64,192,42628,1,2,0:0:0:0:
192,192,42628,1,0,0:0:0:0:
192,192,42788,1,0,0:0:0:0:
320,192,42788,1,0,0:0:0:0:
64,192,42947,1,8,0:0:0:0:
320,192,42947,1,0,0:0:0:0:
448,192,42947,1,0,0:0:0:0:
192,192,43107,1,0,0:0:0:0:
320,192,43187,1,0,0:0:0:0:
64,192,43266,1,0,0:0:0:0:
448,192,43266,1,0,0:0:0:0:
192,192,43346,1,0,0:0:0:0:
320,192,43426,1,2,0:0:0:0:
64,192,43586,1,8,0:0:0:0:
192,192,43586,1,0,0:0:0:0:
448,192,43586,1,0,0:0:0:0:
192,192,43745,1,0,0:0:0:0:
320,192,43745,1,0,0:0:0:0:
64,192,43905,1,2,0:0:0:0:
320,192,43905,1,0,0:0:0:0:
448,192,43905,1,0,0:0:0:0:
192,192,44064,1,0,0:0:0:0:
64,192,44224,1,8,0:0:0:0:
192,192,44224,1,0,0:0:0:0:
448,192,44224,1,0,0:0:0:0:
320,192,44383,1,0,0:0:0:0:
448,192,44383,1,0,0:0:0:0:
192,192,44543,1,0,0:0:0:0:
320,192,44543,1,0,0:0:0:0:
64,192,44703,1,2,0:0:0:0:
192,192,44703,1,0,0:0:0:0:
64,192,44862,1,8,0:0:0:0:
320,192,44862,1,0,0:0:0:0:
448,192,44862,1,0,0:0:0:0:
192,192,45022,1,0,0:0:0:0:
448,192,45022,1,0,0:0:0:0:
320,192,45102,1,0,0:0:0:0:
64,192,45181,1,2,0:0:0:0:
192,192,45181,1,0,0:0:0:0:
320,192,45341,1,8,0:0:0:0:
192,192,45421,1,8,0:0:0:0:
64,192,45501,1,8,0:0:0:0:
448,192,45501,1,2,0:0:0:0:
320,192,45660,1,8,0:0:0:0:
64,192,45740,1,8,0:0:0:0:
192,192,45740,1,0,0:0:0:0:
448,192,45820,1,2,0:0:0:0:
320,192,45899,1,0,0:0:0:15:soft-hitwhistle.wav
64,192,45979,1,8,0:0:0:0:
192,192,45979,1,2,0:0:0:0:
448,192,46059,1,8,0:0:0:0:
64,192,46139,1,2,0:0:0:0:
320,192,46139,1,8,0:0:0:0:
192,192,46219,1,8,0:0:0:0:
320,192,46298,1,8,0:0:0:0:
448,192,46298,1,0,0:0:0:0:
64,192,46378,1,8,0:0:0:0:
192,192,46458,1,4,0:0:0:0:
448,192,46458,1,0,0:0:0:0:
64,192,46777,1,0,0:0:0:0:
192,192,46777,1,0,0:0:0:0:
320,192,46937,1,0,0:0:0:0:
448,192,46937,1,0,0:0:0:0:
64,192,47096,1,0,0:0:0:0:
448,192,47096,1,0,0:0:0:0:
192,192,47256,1,0,0:0:0:0:
320,192,47256,1,0,0:0:0:0:
192,192,47415,1,0,0:0:0:0:
64,192,47575,1,0,0:0:0:0:
448,192,47575,1,0,0:0:0:0:
192,192,47735,1,0,0:0:0:0:
320,192,47735,1,0,0:0:0:0:
320,192,47894,1,0,0:0:0:0:
448,192,47894,1,0,0:0:0:0:
192,192,48054,1,0,0:0:0:0:
320,192,48213,1,0,0:0:0:0:
64,192,48373,1,0,0:0:0:0:
448,192,48373,1,0,0:0:0:0:
192,192,48532,1,0,0:0:0:0:
320,192,48692,1,0,0:0:0:0:
448,192,48692,1,0,0:0:0:0:
64,192,48852,1,0,0:0:0:0:
192,192,48852,1,0,0:0:0:0:
64,192,49011,1,0,0:0:0:0:
448,192,49011,1,0,0:0:0:0:
320,192,49091,1,0,0:0:0:0:
192,192,49171,1,0,0:0:0:0:
64,192,49330,1,0,0:0:0:0:
448,192,49330,1,0,0:0:0:0:
192,192,49490,1,0,0:0:0:0:
320,192,49490,1,0,0:0:0:0:
64,192,49649,1,0,0:0:0:0:
448,192,49649,1,0,0:0:0:0:
192,192,49809,1,0,0:0:0:0:
448,192,49809,1,0,0:0:0:0:
320,192,49969,1,0,0:0:0:0:
64,192,50128,1,0,0:0:0:0:
192,192,50128,1,0,0:0:0:0:
64,192,50288,1,0,0:0:0:0:
448,192,50288,1,0,0:0:0:0:
64,192,50447,1,0,0:0:0:0:
448,192,50447,1,0,0:0:0:0:
192,192,50607,1,0,0:0:0:0:
320,192,50766,1,0,0:0:0:0:
448,192,50766,1,0,0:0:0:0:
64,192,50926,1,0,0:0:0:0:
192,192,51086,1,0,0:0:0:0:
64,192,51245,1,0,0:0:0:0:
320,192,51245,1,0,0:0:0:0:
448,192,51405,1,0,0:0:0:0:
64,192,51564,1,0,0:0:0:0:
448,192,51564,1,0,0:0:0:0:
320,192,51644,1,0,0:0:0:0:
192,192,51724,1,0,0:0:0:0:
64,192,51883,1,0,0:0:0:0:
448,192,51883,1,0,0:0:0:0:
320,192,52043,1,0,0:0:0:0:
192,192,52203,1,0,0:0:0:0:
448,192,52203,1,0,0:0:0:0:
320,192,52362,1,0,0:0:0:0:
64,192,52522,1,0,0:0:0:0:
192,192,52522,1,0,0:0:0:0:
320,192,52681,1,0,0:0:0:0:
64,192,52841,1,0,0:0:0:0:
448,192,52841,1,0,0:0:0:0:
320,192,52921,1,0,0:0:0:0:
192,192,53001,1,0,0:0:0:0:
320,192,53160,1,0,0:0:0:0:
448,192,53160,1,0,0:0:0:0:
192,192,53320,1,0,0:0:0:0:
64,192,53479,1,0,0:0:0:0:
448,192,53479,1,0,0:0:0:0:
320,192,53639,1,0,0:0:0:0:
64,192,53798,1,0,0:0:0:0:
192,192,53798,1,0,0:0:0:0:
320,192,53958,1,0,0:0:0:0:
64,192,54118,1,0,0:0:0:0:
448,192,54118,1,0,0:0:0:0:
192,192,54277,1,0,0:0:0:0:
320,192,54437,1,0,0:0:0:0:
448,192,54437,1,0,0:0:0:0:
64,192,54596,1,0,0:0:0:0:
448,192,54596,1,0,0:0:0:0:
64,192,54756,1,0,0:0:0:0:
192,192,54756,1,0,0:0:0:0:
320,192,54756,1,0,0:0:0:0:
320,192,54915,1,0,0:0:0:0:
448,192,54915,1,0,0:0:0:0:
192,192,55075,1,0,0:0:0:0:
64,192,55235,1,0,0:0:0:0:
192,192,55394,1,2,0:0:0:0:
320,192,55394,1,0,0:0:0:0:
448,192,55394,1,0,0:0:0:0:
320,192,55554,1,0,0:0:0:0:
64,192,55713,1,2,0:0:0:0:
192,192,55713,1,0,0:0:0:0:
448,192,55713,128,0,55873:0:0:0:0:
192,192,55873,1,0,0:0:0:0:
64,192,56032,128,8,56352:0:0:0:0:
320,192,56032,128,0,56192:0:0:0:0:
448,192,56032,1,0,0:0:0:0:
192,192,56192,128,2,56511:0:0:0:0:
448,192,56352,128,8,56671:0:0:0:0:
320,192,56511,128,2,56671:0:0:0:0:
64,192,56671,128,4,56990:0:0:0:0:
192,192,56671,128,2,56990:0:0:0:0:
320,192,56990,1,8,0:0:0:0:
448,192,56990,1,0,0:0:0:0:
192,192,57149,1,0,0:0:0:0:
320,192,57229,1,0,0:0:0:0:
64,192,57309,1,0,0:0:0:0:
448,192,57309,1,0,0:0:0:0:
192,192,57469,1,2,0:0:0:0:
320,192,57469,1,0,0:0:0:0:
64,192,57628,1,8,0:0:0:0:
192,192,57628,1,0,0:0:0:0:
448,192,57628,1,0,0:0:0:0:
320,192,57788,1,0,0:0:0:0:
192,192,57868,1,0,0:0:0:0:
64,192,57947,1,2,0:0:0:0:
448,192,57947,1,0,0:0:0:0:
192,192,58107,1,0,0:0:0:0:
320,192,58107,1,0,0:0:0:0:
64,192,58266,1,8,0:0:0:0:
320,192,58266,1,0,0:0:0:0:
448,192,58266,1,0,0:0:0:0:
192,192,58426,1,0,0:0:0:0:
320,192,58506,1,0,0:0:0:0:
64,192,58586,1,0,0:0:0:0:
448,192,58586,1,0,0:0:0:0:
192,192,58665,1,0,0:0:0:0:
320,192,58745,1,2,0:0:0:0:
64,192,58905,1,8,0:0:0:0:
192,192,58905,1,0,0:0:0:0:
448,192,58905,1,0,0:0:0:0:
320,192,59064,1,0,0:0:0:0:
192,192,59144,1,0,0:0:0:0:
64,192,59224,1,2,0:0:0:0:
320,192,59224,1,0,0:0:0:0:
448,192,59224,1,0,0:0:0:0:
192,192,59383,1,0,0:0:0:0:
64,192,59543,1,8,0:0:0:0:
192,192,59543,1,0,0:0:0:0:
448,192,59543,1,0,0:0:0:0:
320,192,59703,1,0,0:0:0:0:
192,192,59782,1,0,0:0:0:0:
64,192,59862,1,0,0:0:0:0:
448,192,59862,1,0,0:0:0:0:
64,192,60022,1,2,0:0:0:0:
192,192,60022,1,0,0:0:0:0:
192,192,60181,1,8,0:0:0:0:
320,192,60181,1,0,0:0:0:0:
448,192,60181,1,0,0:0:0:0:
64,192,60341,1,0,0:0:0:0:
192,192,60421,1,0,0:0:0:0:
320,192,60501,1,2,0:0:0:0:
448,192,60501,1,0,0:0:0:0:
64,192,60660,1,0,0:0:0:0:
320,192,60660,1,0,0:0:0:0:
64,192,60820,1,8,0:0:0:0:
192,192,60820,1,0,0:0:0:0:
448,192,60820,1,0,0:0:0:0:
320,192,60979,1,0,0:0:0:0:
192,192,61059,1,0,0:0:0:0:
64,192,61139,1,0,0:0:0:0:
448,192,61139,1,0,0:0:0:0:
320,192,61219,1,0,0:0:0:0:
192,192,61298,1,2,0:0:0:0:
64,192,61458,1,8,0:0:0:0:
320,192,61458,1,0,0:0:0:0:
448,192,61458,1,0,0:0:0:0:
192,192,61618,1,0,0:0:0:0:
320,192,61697,1,0,0:0:0:0:
64,192,61777,1,2,0:0:0:0:
192,192,61777,1,0,0:0:0:0:
448,192,61777,1,0,0:0:0:0:
320,192,61937,1,0,0:0:0:0:
64,192,62096,1,8,0:0:0:0:
192,192,62096,1,0,0:0:0:0:
320,192,62096,1,0,0:0:0:0:
448,192,62256,1,0,0:0:0:0:
320,192,62336,1,0,0:0:0:0:
64,192,62415,1,0,0:0:0:0:
192,192,62415,1,0,0:0:0:0:
64,192,62575,1,2,0:0:0:0:
448,192,62575,1,0,0:0:0:0:
192,192,62735,1,8,0:0:0:0:
448,192,62735,1,0,0:0:0:0:
320,192,62894,1,0,0:0:0:0:
192,192,62974,1,0,0:0:0:0:
64,192,63054,1,2,0:0:0:0:
448,192,63054,1,0,0:0:0:0:
192,192,63213,1,0,0:0:0:0:
320,192,63213,1,0,0:0:0:0:
64,192,63373,1,8,0:0:0:0:
320,192,63373,1,0,0:0:0:0:
448,192,63373,1,0,0:0:0:0:
192,192,63532,1,0,0:0:0:0:
320,192,63612,1,0,0:0:0:0:
64,192,63692,1,0,0:0:0:0:
448,192,63692,1,0,0:0:0:0:
192,192,63772,1,0,0:0:0:0:
320,192,63852,1,2,0:0:0:0:
64,192,64011,1,8,0:0:0:0:
192,192,64011,1,0,0:0:0:0:
448,192,64011,1,0,0:0:0:0:
320,192,64171,1,0,0:0:0:0:
192,192,64251,1,0,0:0:0:0:
64,192,64330,1,2,0:0:0:0:
320,192,64330,1,0,0:0:0:0:
448,192,64330,1,0,0:0:0:0:
192,192,64490,1,0,0:0:0:0:
64,192,64649,1,8,0:0:0:0:
192,192,64649,1,0,0:0:0:0:
448,192,64649,1,0,0:0:0:0:
320,192,64809,1,0,0:0:0:0:
192,192,64889,1,0,0:0:0:0:
64,192,64969,1,0,0:0:0:0:
448,192,64969,1,0,0:0:0:0:
320,192,65048,1,0,0:0:0:0:
192,192,65128,1,2,0:0:0:0:
64,192,65288,1,8,0:0:0:0:
320,192,65288,1,0,0:0:0:0:
448,192,65288,1,0,0:0:0:0:
192,192,65447,1,0,0:0:0:0:
320,192,65527,1,0,0:0:0:0:
64,192,65607,1,2,0:0:0:0:
448,192,65607,1,0,0:0:0:0:
448,192,65926,1,0,0:0:0:0:
320,192,65966,1,0,0:0:0:0:
192,192,66006,1,0,0:0:0:0:
64,192,66046,128,0,66564:0:0:0:0:
320,192,66405,1,0,0:0:0:50:LR_Clap Low 2.wav
448,192,66405,1,0,0:0:0:0:
192,192,66564,128,0,66883:0:0:0:50:LR_Clap Low 2.wav
320,192,66564,1,0,0:0:0:0:
64,192,66883,1,4,0:0:0:0:
320,192,66883,1,2,0:0:0:0:
448,192,66883,1,0,0:0:0:0:
448,192,67043,1,0,0:0:0:0:
64,192,67203,1,8,0:0:0:0:
192,192,67203,1,0,0:0:0:0:
320,192,67203,1,0,0:0:0:0:
320,192,67362,1,0,0:0:0:0:
448,192,67362,1,0,0:0:0:0:
64,192,67442,1,0,0:0:0:0:
192,192,67522,1,0,0:0:0:0:
448,192,67522,1,0,0:0:0:0:
320,192,67602,1,0,0:0:0:0:
64,192,67681,1,2,0:0:0:0:
192,192,67681,1,0,0:0:0:0:
64,192,67841,1,8,0:0:0:0:
320,192,67841,1,0,0:0:0:0:
448,192,67841,1,0,0:0:0:0:
320,192,68001,1,0,0:0:0:0:
192,192,68080,1,0,0:0:0:0:
64,192,68160,1,2,0:0:0:0:
448,192,68160,1,0,0:0:0:0:
192,192,68320,1,0,0:0:0:0:
320,192,68320,1,0,0:0:0:0:
64,192,68479,1,8,0:0:0:0:
320,192,68479,1,0,0:0:0:0:
448,192,68479,1,0,0:0:0:0:
192,192,68639,1,0,0:0:0:0:
448,192,68639,1,0,0:0:0:0:
320,192,68719,1,0,0:0:0:0:
64,192,68798,1,0,0:0:0:0:
192,192,68878,1,0,0:0:0:0:
320,192,68958,1,2,0:0:0:0:
448,192,68958,1,0,0:0:0:50:LR_Clap Low 2.wav
64,192,69118,1,8,0:0:0:0:
192,192,69118,1,0,0:0:0:50:LR_Clap Low 2.wav
448,192,69118,1,0,0:0:0:0:
320,192,69277,1,0,0:0:0:0:
192,192,69357,1,0,0:0:0:0:
64,192,69437,1,2,0:0:0:0:
320,192,69437,1,0,0:0:0:0:
448,192,69437,1,0,0:0:0:0:
64,192,69596,1,0,0:0:0:0:
192,192,69756,1,8,0:0:0:0:
320,192,69756,1,0,0:0:0:0:
448,192,69756,1,0,0:0:0:0:
64,192,69915,1,0,0:0:0:0:
448,192,69915,1,0,0:0:0:0:
320,192,69995,1,0,0:0:0:0:
64,192,70075,1,0,0:0:0:0:
192,192,70075,1,0,0:0:0:0:
448,192,70155,1,0,0:0:0:0:
192,192,70235,1,2,0:0:0:0:
320,192,70235,1,0,0:0:0:0:
64,192,70394,1,8,0:0:0:0:
320,192,70394,1,0,0:0:0:0:
448,192,70394,1,0,0:0:0:0:
192,192,70554,1,0,0:0:0:0:
320,192,70633,1,0,0:0:0:0:
64,192,70713,1,2,0:0:0:0:
448,192,70713,1,0,0:0:0:0:
320,192,70873,1,0,0:0:0:0:
192,192,70953,1,0,0:0:0:0:
64,192,71032,1,8,0:0:0:0:
320,192,71032,1,0,0:0:0:0:
448,192,71032,1,0,0:0:0:0:
64,192,71192,1,0,0:0:0:0:
192,192,71192,1,0,0:0:0:0:
320,192,71272,1,0,0:0:0:0:
448,192,71352,1,0,0:0:0:0:
64,192,71431,1,0,0:0:0:0:
192,192,71511,1,2,0:0:0:0:
320,192,71511,1,0,0:0:0:50:LR_Clap Low 2.wav
64,192,71671,1,8,0:0:0:0:
192,192,71671,1,0,0:0:0:50:LR_Clap Low 2.wav
448,192,71671,1,0,0:0:0:0:
320,192,71830,1,0,0:0:0:0:
192,192,71910,1,0,0:0:0:0:
64,192,71990,1,2,0:0:0:0:
320,192,71990,1,0,0:0:0:0:
448,192,71990,1,0,0:0:0:0:
448,192,72149,1,0,0:0:0:0:
64,192,72309,1,8,0:0:0:0:
192,192,72309,1,0,0:0:0:0:
320,192,72309,1,0,0:0:0:0:
64,192,72469,1,0,0:0:0:0:
448,192,72469,1,0,0:0:0:0:
192,192,72548,1,0,0:0:0:0:
320,192,72628,1,0,0:0:0:0:
448,192,72628,1,0,0:0:0:0:
64,192,72708,1,0,0:0:0:0:
192,192,72788,1,2,0:0:0:0:
320,192,72788,1,0,0:0:0:0:
64,192,72947,1,8,0:0:0:0:
192,192,72947,1,0,0:0:0:0:
448,192,72947,1,0,0:0:0:0:
320,192,73107,1,0,0:0:0:0:
192,192,73187,1,0,0:0:0:0:
64,192,73266,1,2,0:0:0:0:
448,192,73266,1,0,0:0:0:0:
192,192,73426,1,0,0:0:0:0:
320,192,73426,1,0,0:0:0:0:
64,192,73586,1,8,0:0:0:0:
320,192,73586,1,0,0:0:0:0:
448,192,73586,1,0,0:0:0:0:
192,192,73745,1,0,0:0:0:0:
448,192,73745,1,0,0:0:0:0:
320,192,73825,1,0,0:0:0:0:
64,192,73905,1,0,0:0:0:0:
192,192,73985,1,0,0:0:0:0:
320,192,74064,1,2,0:0:0:0:
448,192,74064,1,0,0:0:0:50:LR_Clap Low 2.wav
64,192,74224,1,8,0:0:0:0:
192,192,74224,1,0,0:0:0:50:LR_Clap Low 2.wav
448,192,74224,1,0,0:0:0:0:
320,192,74383,1,0,0:0:0:0:
192,192,74463,1,0,0:0:0:0:
64,192,74543,1,2,0:0:0:0:
320,192,74543,1,0,0:0:0:0:
448,192,74543,1,0,0:0:0:0:
64,192,74703,1,0,0:0:0:0:
192,192,74862,1,8,0:0:0:0:
320,192,74862,1,0,0:0:0:0:
448,192,74862,1,0,0:0:0:0:
64,192,75022,1,0,0:0:0:0:
448,192,75022,1,0,0:0:0:0:
320,192,75102,1,0,0:0:0:0:
64,192,75181,1,0,0:0:0:0:
192,192,75181,1,0,0:0:0:0:
448,192,75261,1,0,0:0:0:0:
192,192,75341,1,2,0:0:0:0:
320,192,75341,1,0,0:0:0:0:
64,192,75501,1,8,0:0:0:0:
320,192,75501,1,0,0:0:0:0:
448,192,75501,1,0,0:0:0:0:
192,192,75660,1,0,0:0:0:0:
320,192,75740,1,0,0:0:0:0:
64,192,75820,1,2,0:0:0:0:
448,192,75820,1,0,0:0:0:0:
320,192,75979,1,8,0:0:0:0:
192,192,76059,1,8,0:0:0:0:
64,192,76139,1,2,0:0:0:0:
320,192,76139,1,8,0:0:0:0:
448,192,76139,1,0,0:0:0:0:
192,192,76298,1,8,0:0:0:0:
448,192,76298,1,0,0:0:0:0:
64,192,76378,1,8,0:0:0:0:
320,192,76458,1,8,0:0:0:0:
192,192,76538,1,0,0:0:0:20:soft-hitclap.wav
64,192,76618,1,10,0:0:0:0:
448,192,76618,1,0,0:0:0:50:LR_Clap Low 2.wav
64,192,76777,1,2,0:0:0:0:
192,192,76777,1,8,0:0:0:0:
320,192,76777,1,0,0:0:0:50:LR_Clap Low 2.wav
192,192,76937,1,8,0:0:0:0:
64,192,77096,1,4,0:0:0:0:
320,192,77096,1,2,0:0:0:0:
448,192,77096,128,0,78054:0:0:0:0:
192,192,77256,1,0,0:0:0:0:
192,192,77415,1,8,0:0:0:0:
320,192,77415,1,0,0:0:0:0:
64,192,77575,1,0,0:0:0:0:
64,192,77735,1,0,0:0:0:0:
192,192,77894,1,2,0:0:0:0:
320,192,77894,1,0,0:0:0:0:
64,192,78054,128,8,78373:0:0:0:0:
320,192,78054,1,0,0:0:0:0:
448,192,78213,1,0,0:0:0:0:
192,192,78373,128,2,79649:0:0:0:0:
448,192,78373,1,0,0:0:0:0:
320,192,78532,1,0,0:0:0:0:
64,192,78692,1,8,0:0:0:0:
320,192,78692,1,0,0:0:0:0:
448,192,78852,1,0,0:0:0:0:
448,192,79011,1,0,0:0:0:0:
64,192,79171,1,2,0:0:0:0:
320,192,79171,1,0,0:0:0:50:LR_Clap Low 2.wav
64,192,79330,1,8,0:0:0:0:
448,192,79330,1,0,0:0:0:50:LR_Clap Low 2.wav
320,192,79490,1,0,0:0:0:0:
64,192,79649,1,2,0:0:0:0:
448,192,79649,128,0,79969:0:0:0:0:
192,192,79809,1,0,0:0:0:0:
64,192,79969,1,8,0:0:0:0:
192,192,79969,128,0,80288:0:0:0:0:
320,192,80128,1,0,0:0:0:0:
320,192,80288,128,0,80607:0:0:0:0:
64,192,80447,1,2,0:0:0:0:
448,192,80447,1,0,0:0:0:0:
64,192,80607,128,8,80926:0:0:0:0:
192,192,80607,1,0,0:0:0:0:
448,192,80766,1,0,0:0:0:0:
320,192,80926,1,2,0:0:0:0:
448,192,80926,128,0,81245:0:0:0:0:
192,192,81086,1,0,0:0:0:0:
192,192,81245,128,8,82203:0:0:0:0:
320,192,81245,1,0,0:0:0:0:
64,192,81405,1,0,0:0:0:0:
64,192,81564,1,0,0:0:0:0:
320,192,81724,1,2,0:0:0:0:
448,192,81724,1,0,0:0:0:50:LR_Clap Low 2.wav
64,192,81883,1,8,0:0:0:0:
448,192,81883,1,0,0:0:0:50:LR_Clap Low 2.wav
320,192,82043,1,0,0:0:0:0:
64,192,82203,1,2,0:0:0:0:
448,192,82203,128,0,83160:0:0:0:0:
320,192,82362,1,0,0:0:0:0:
192,192,82522,1,8,0:0:0:0:
320,192,82522,1,0,0:0:0:0:
64,192,82681,1,0,0:0:0:0:
64,192,82841,1,0,0:0:0:0:
192,192,83001,1,2,0:0:0:0:
320,192,83001,1,0,0:0:0:0:
64,192,83160,128,8,83479:0:0:0:0:
320,192,83160,1,0,0:0:0:0:
448,192,83320,1,0,0:0:0:0:
192,192,83479,128,2,84756:0:0:0:0:
448,192,83479,1,0,0:0:0:0:
320,192,83639,1,0,0:0:0:0:
64,192,83798,1,8,0:0:0:0:
320,192,83798,1,0,0:0:0:0:
448,192,83958,1,0,0:0:0:0:
448,192,84118,1,0,0:0:0:0:
64,192,84277,1,2,0:0:0:0:
320,192,84277,1,0,0:0:0:50:LR_Clap Low 2.wav
64,192,84437,1,8,0:0:0:0:
448,192,84437,1,0,0:0:0:50:LR_Clap Low 2.wav
320,192,84596,1,0,0:0:0:0:
64,192,84756,1,2,0:0:0:0:
448,192,84756,128,0,85394:0:0:0:0:
320,192,84915,1,0,0:0:0:0:
192,192,85075,1,8,0:0:0:0:
320,192,85075,1,0,0:0:0:0:
64,192,85235,1,0,0:0:0:0:
64,192,85394,128,0,86032:0:0:0:0:
320,192,85554,1,2,0:0:0:0:
448,192,85554,1,0,0:0:0:0:
192,192,85713,1,8,0:0:0:0:
448,192,85713,1,0,0:0:0:0:
320,192,85873,1,0,0:0:0:0:
192,192,86032,1,2,0:0:0:0:
448,192,86032,1,0,0:0:0:0:
320,192,86192,1,8,0:0:0:0:
192,192,86272,1,8,0:0:0:0:
64,192,86352,1,2,0:0:0:0:
320,192,86352,1,8,0:0:0:0:
448,192,86352,1,0,0:0:0:0:
192,192,86511,1,8,0:0:0:0:
320,192,86591,1,8,0:0:0:0:
64,192,86671,1,8,0:0:0:0:
448,192,86671,1,0,0:0:0:0:
192,192,86751,1,8,0:0:0:20:soft-hitclap.wav
320,192,86830,1,10,0:0:0:0:
448,192,86830,1,0,0:0:0:50:LR_Clap Low 2.wav
64,192,86990,1,2,0:0:0:0:
192,192,86990,1,8,0:0:0:0:
448,192,86990,1,0,0:0:0:50:LR_Clap Low 2.wav
320,192,87149,1,8,0:0:0:0:
64,192,87309,128,4,87628:0:0:0:0:
448,192,87309,128,0,88426:0:0:0:0:
192,192,87628,128,0,87788:0:0:0:0:
320,192,87788,128,0,88107:0:0:0:0:
64,192,88107,128,0,88426:0:0:0:0:
192,192,88426,128,0,88905:0:0:0:0:
320,192,88426,128,0,89703:0:0:0:0:
64,192,88905,128,0,89064:0:0:0:0:
448,192,89064,128,0,89383:0:0:0:0:
192,192,89383,128,0,89703:0:0:0:0:
64,192,89703,128,0,90341:0:0:0:0:
448,192,89703,128,0,90181:0:0:0:0:
320,192,90181,128,0,90341:0:0:0:0:
192,192,90341,128,0,90979:0:0:0:0:
448,192,90341,128,0,90660:0:0:0:0:
64,192,90660,128,0,90979:0:0:0:0:
320,192,90979,128,0,92016:0:0:0:0:
448,192,90979,128,0,92415:0:0:0:0:
64,192,91139,128,0,91298:0:0:0:0:
192,192,91139,128,0,91298:0:0:0:0:
64,192,91458,128,0,91857:0:0:0:0:
192,192,91458,128,0,91937:0:0:0:0:
64,192,92415,128,0,93532:0:0:0:0:
192,192,92415,128,0,92735:0:0:0:0:
320,192,92735,128,0,92894:0:0:0:0:
192,192,92894,128,0,93213:0:0:0:0:
448,192,93213,128,0,93532:0:0:0:0:
192,192,93532,128,0,94649:0:0:0:0:
320,192,93532,128,0,94011:0:0:0:0:
448,192,94011,128,0,94171:0:0:0:0:
64,192,94171,128,0,94490:0:0:0:0:
320,192,94490,128,0,94809:0:0:0:0:
64,192,94809,128,0,94969:0:0:0:0:
192,192,94969,128,0,95288:0:0:0:0:
448,192,94969,128,0,95607:0:0:0:0:
64,192,95288,128,0,95607:0:0:0:0:
192,192,95447,128,0,95766:0:0:0:0:
320,192,95607,128,0,95926:0:0:0:0:
448,192,95766,128,0,96086:0:0:0:0:
192,192,95926,128,0,96245:0:0:0:0:
320,192,96086,128,0,97043:0:0:0:0:
64,192,96245,128,0,97203:0:0:0:0:
448,192,96245,128,0,96405:0:0:0:0:
192,192,96564,128,0,97123:0:0:0:0:
448,192,96564,128,0,96963:0:0:0:0:
448,192,97203,128,0,97522:0:0:0:0:
64,192,97522,1,2,0:0:0:0:
192,192,97522,1,4,0:0:0:0:
320,192,97522,1,0,0:0:0:0:
320,192,97681,1,0,0:0:0:0:
64,192,97841,1,8,0:0:0:0:
192,192,97841,1,0,0:0:0:0:
448,192,97841,1,0,0:0:0:0:
64,192,98001,1,0,0:0:0:0:
320,192,98001,1,0,0:0:0:0:
192,192,98160,1,0,0:0:0:0:
320,192,98240,1,0,0:0:0:0:
64,192,98320,1,2,0:0:0:0:
448,192,98320,1,0,0:0:0:0:
192,192,98479,1,8,0:0:0:0:
320,192,98479,1,0,0:0:0:0:
448,192,98479,1,0,0:0:0:0:
64,192,98639,1,0,0:0:0:0:
192,192,98639,1,0,0:0:0:0:
64,192,98798,1,2,0:0:0:0:
320,192,98798,1,0,0:0:0:0:
448,192,98798,1,0,0:0:0:0:
192,192,98958,1,0,0:0:0:0:
64,192,99118,1,8,0:0:0:0:
320,192,99118,1,0,0:0:0:0:
448,192,99118,1,0,0:0:0:0:
192,192,99277,1,0,0:0:0:0:
448,192,99277,1,0,0:0:0:0:
320,192,99437,1,0,0:0:0:0:
192,192,99516,1,0,0:0:0:0:
64,192,99596,1,2,0:0:0:0:
448,192,99596,1,0,0:0:0:0:
64,192,99756,1,8,0:0:0:0:
192,192,99756,1,0,0:0:0:0:
320,192,99756,1,0,0:0:0:0:
320,192,99915,1,0,0:0:0:0:
448,192,99915,1,0,0:0:0:0:
64,192,100075,1,2,0:0:0:0:
192,192,100075,1,0,0:0:0:0:
448,192,100075,1,0,0:0:0:0:
320,192,100235,1,0,0:0:0:0:
64,192,100394,1,8,0:0:0:0:
192,192,100394,1,0,0:0:0:0:
448,192,100394,1,0,0:0:0:0:
64,192,100554,1,0,0:0:0:0:
320,192,100554,1,0,0:0:0:0:
192,192,100713,1,0,0:0:0:0:
320,192,100793,1,0,0:0:0:0:
64,192,100873,1,2,0:0:0:0:
448,192,100873,1,0,0:0:0:0:
192,192,101032,1,8,0:0:0:0:
320,192,101032,1,0,0:0:0:0:
448,192,101032,1,0,0:0:0:0:
64,192,101192,1,0,0:0:0:0:
192,192,101192,1,0,0:0:0:0:
64,192,101352,1,2,0:0:0:0:
320,192,101352,1,0,0:0:0:0:
448,192,101352,1,0,0:0:0:0:
192,192,101511,1,8,0:0:0:0:
320,192,101591,1,8,0:0:0:0:
64,192,101671,1,2,0:0:0:0:
192,192,101671,1,8,0:0:0:0:
448,192,101671,1,0,0:0:0:0:
320,192,101830,1,8,0:0:0:0:
192,192,101910,1,8,0:0:0:0:
64,192,101990,1,8,0:0:0:0:
448,192,101990,1,0,0:0:0:0:
320,192,102070,1,8,0:0:0:20:soft-hitclap.wav
64,192,102149,1,8,0:0:0:0:
192,192,102149,1,2,0:0:0:0:
64,192,102309,1,2,0:0:0:0:
320,192,102309,1,8,0:0:0:0:
448,192,102309,1,0,0:0:0:0:
192,192,102469,1,8,0:0:0:0:
64,192,102628,1,2,0:0:0:0:
320,192,102628,1,0,0:0:0:0:
448,192,102628,1,0,0:0:0:0:
320,192,102788,1,0,0:0:0:0:
64,192,102947,1,8,0:0:0:0:
192,192,102947,1,0,0:0:0:0:
448,192,102947,1,0,0:0:0:0:
64,192,103107,1,0,0:0:0:0:
320,192,103107,1,0,0:0:0:0:
448,192,103266,1,0,0:0:0:0:
320,192,103346,1,0,0:0:0:0:
64,192,103426,1,2,0:0:0:0:
192,192,103426,1,0,0:0:0:0:
64,192,103586,1,8,0:0:0:0:
320,192,103586,1,0,0:0:0:0:
448,192,103586,1,0,0:0:0:0:
192,192,103745,1,0,0:0:0:0:
320,192,103745,1,0,0:0:0:0:
64,192,103905,1,2,0:0:0:0:
192,192,103905,1,0,0:0:0:0:
448,192,103905,1,0,0:0:0:0:
320,192,104064,1,0,0:0:0:0:
64,192,104224,1,8,0:0:0:0:
192,192,104224,1,0,0:0:0:0:
448,192,104224,1,0,0:0:0:0:
192,192,104383,1,0,0:0:0:0:
320,192,104383,1,0,0:0:0:0:
64,192,104543,1,0,0:0:0:0:
192,192,104623,1,0,0:0:0:0:
320,192,104703,1,2,0:0:0:0:
448,192,104703,1,0,0:0:0:0:
64,192,104862,1,8,0:0:0:0:
192,192,104862,1,0,0:0:0:0:
448,192,104862,1,0,0:0:0:0:
192,192,105022,1,0,0:0:0:0:
320,192,105022,1,0,0:0:0:0:
64,192,105181,1,2,0:0:0:0:
320,192,105181,1,0,0:0:0:0:
448,192,105181,1,0,0:0:0:0:
192,192,105341,1,0,0:0:0:0:
64,192,105501,1,8,0:0:0:0:
320,192,105501,1,0,0:0:0:0:
448,192,105501,1,0,0:0:0:0:
64,192,105660,1,0,0:0:0:0:
192,192,105660,1,0,0:0:0:0:
448,192,105820,1,0,0:0:0:0:
320,192,105899,1,0,0:0:0:0:
64,192,105979,1,2,0:0:0:0:
192,192,105979,1,0,0:0:0:0:
64,192,106139,1,8,0:0:0:0:
320,192,106139,1,0,0:0:0:0:
448,192,106139,1,0,0:0:0:0:
192,192,106298,1,0,0:0:0:0:
320,192,106298,1,0,0:0:0:0:
64,192,106458,1,2,0:0:0:0:
192,192,106458,1,0,0:0:0:0:
448,192,106458,1,0,0:0:0:0:
320,192,106618,1,8,0:0:0:0:
192,192,106697,1,8,0:0:0:0:
64,192,106777,1,2,0:0:0:0:
320,192,106777,1,8,0:0:0:0:
448,192,106777,1,0,0:0:0:0:
192,192,106937,1,8,0:0:0:0:
320,192,107016,1,8,0:0:0:0:
64,192,107096,1,8,0:0:0:0:
448,192,107096,1,0,0:0:0:0:
192,192,107176,1,8,0:0:0:20:soft-hitclap.wav
320,192,107256,1,8,0:0:0:0:
448,192,107256,1,2,0:0:0:0:
64,192,107415,1,2,0:0:0:0:
192,192,107415,1,8,0:0:0:0:
448,192,107415,1,0,0:0:0:0:
320,192,107575,1,8,0:0:0:0:
