osu file format v14

[General]
AudioFilename: audio.ogg
AudioLeadIn: 0
PreviewTime: 25982
Countdown: 0
SampleSet: Normal
StackLeniency: 0.7
Mode: 1
LetterboxInBreaks: 0
WidescreenStoryboard: 1

[Editor]
DistanceSpacing: 0.8
BeatDivisor: 4
GridSize: 32
TimelineZoom: 1.9

[Metadata]
Title:mint tears
TitleUnicode:mint tears
Artist:ribbon room
ArtistUnicode:ribbon room
Creator:X a v y
Version:oni
Source:太鼓の達人
Tags:ribbonroom cotoribbon silvercoin breakcore video game instrumental japanese english 太鼓の達人ds ドロロン!ヨーカイ大決戦!! taiko no tatsujin ds: dororon! yokai daikessen!! tnt ナムコオリジナル bandai namco original ゆきえ みゆき yukie miyuki mintte apis035 xavy
BeatmapID:3142378
BeatmapSetID:1536880

[Difficulty]
HPDrainRate:5
CircleSize:5
OverallDifficulty:5
ApproachRate:5
SliderMultiplier:1.4
SliderTickRate:1

[Events]
//Background and Video events
0,0,"121ab41fc18d4914b62ae0950a1dce3f.jpg",0,200
//Break Periods
//Storyboard Layer 0 (Background)
//Storyboard Layer 1 (Fail)
//Storyboard Layer 2 (Pass)
//Storyboard Layer 3 (Foreground)
//Storyboard Layer 4 (Overlay)
//Storyboard Sound Samples

[TimingPoints]
610,319.148936170213,4,1,0,40,1,0
729,-100,4,1,0,41,0,0
889,-100,4,1,0,42,0,0
1048,-100,4,1,0,43,0,0
1208,-100,4,1,0,44,0,0
1367,-100,4,1,0,45,0,0
1527,-100,4,1,0,46,0,0
1687,-100,4,1,0,47,0,0
1846,-100,4,1,0,48,0,0
2086,-100,4,1,0,49,0,0
2245,-100,4,1,0,50,0,0
2405,-100,4,1,0,51,0,0
2564,-100,4,1,0,52,0,0
2724,-100,4,1,0,53,0,0
2883,-100,4,1,0,54,0,0
3043,-100,4,1,0,55,0,0
3282,-100,4,1,0,56,0,0
3442,-100,4,1,0,57,0,0
3602,-100,4,1,0,58,0,0
3761,-100,4,1,0,59,0,0
3921,-100,4,1,0,60,0,0
4080,-100,4,1,0,61,0,0
4240,-100,4,1,0,62,0,0
4399,-100,4,1,0,63,0,0
4639,-100,4,1,0,64,0,0
4798,-100,4,1,0,65,0,0
4958,-100,4,1,0,66,0,0
5117,-100,4,1,0,67,0,0
5277,-100,4,1,0,68,0,0
5437,-100,4,1,0,69,0,0
5596,-100,4,1,0,70,0,0
21235,-100,4,1,0,69,0,0
21633,-100,4,1,0,68,0,0
22032,-100,4,1,0,67,0,0
22352,-100,4,1,0,66,0,0
22750,-100,4,1,0,65,0,0
23149,-100,4,1,0,64,0,0
23548,-100,4,1,0,63,0,0
23947,-100,4,1,0,62,0,0
24266,-100,4,1,0,61,0,0
24665,-100,4,1,0,60,0,0
24905,-100,4,1,0,61,0,0
24985,-100,4,1,0,63,0,0
25064,-100,4,1,0,64,0,0
25144,-100,4,1,0,65,0,0
25224,-100,4,1,0,66,0,0
25304,-100,4,1,0,68,0,0
25383,-100,4,1,0,69,0,0
25463,-100,4,1,0,70,0,0
25543,-100,4,1,0,71,0,0
25623,-100,4,1,0,73,0,0
25703,-100,4,1,0,74,0,0
25782,-100,4,1,0,75,0,0
25862,-100,4,1,0,76,0,0
25942,-100,4,1,0,78,0,0
26022,-100,4,1,0,79,0,0
26102,-100,4,1,0,80,0,0
26141,-100,4,1,0,80,0,1
41580,-100,4,1,0,79,0,1
41820,-100,4,1,0,78,0,1
42139,-100,4,1,0,77,0,1
42378,-100,4,1,0,76,0,1
42617,-100,4,1,0,75,0,1
42857,-100,4,1,0,74,0,1
43096,-100,4,1,0,73,0,1
43415,-100,4,1,0,72,0,1
43655,-100,4,1,0,71,0,1
43894,-100,4,1,0,70,0,1
44133,-100,4,1,0,69,0,1
44373,-100,4,1,0,68,0,1
44692,-100,4,1,0,67,0,1
44931,-100,4,1,0,66,0,1
45171,-100,4,1,0,65,0,1
45410,-100,4,1,0,64,0,1
45649,-100,4,1,0,63,0,1
45969,-100,4,1,0,62,0,1
46208,-100,4,1,0,61,0,1
46447,-100,4,1,0,60,0,1
46567,-100,4,1,0,60,0,0
46846,-100,4,1,0,61,0,0
47325,-100,4,1,0,62,0,0
47804,-100,4,1,0,63,0,0
48442,-100,4,1,0,64,0,0
48921,-100,4,1,0,65,0,0
49399,-100,4,1,0,66,0,0
49878,-100,4,1,0,67,0,0
50357,-100,4,1,0,68,0,0
50995,-100,4,1,0,69,0,0
51474,-100,4,1,0,70,0,0
51953,-100,4,1,0,71,0,0
52431,-100,4,1,0,72,0,0
52910,-100,4,1,0,73,0,0
53548,-100,4,1,0,74,0,0
54027,-100,4,1,0,75,0,0
54506,-100,4,1,0,76,0,0
54985,-100,4,1,0,77,0,0
55463,-100,4,1,0,78,0,0
56102,-100,4,1,0,79,0,0
56580,-100,4,1,0,80,0,0
65676,-100,4,1,0,60,0,0
67511,-100,4,1,0,61,0,0
68548,-100,4,1,0,62,0,0
69506,-100,4,1,0,63,0,0
70543,-100,4,1,0,64,0,0
71580,-100,4,1,0,65,0,0
72617,-100,4,1,0,66,0,0
73655,-100,4,1,0,67,0,0
74612,-100,4,1,0,68,0,0
75649,-100,4,1,0,69,0,0
76687,-100,4,1,0,70,0,0
77724,-100,4,1,0,71,0,0
78761,-100,4,1,0,72,0,0
79719,-100,4,1,0,73,0,0
80756,-100,4,1,0,74,0,0
81793,-100,4,1,0,75,0,0
82830,-100,4,1,0,76,0,0
83867,-100,4,1,0,77,0,0
84825,-100,4,1,0,78,0,0
85862,-100,4,1,0,79,0,0
86899,-100,4,1,0,80,0,0
87538,-100,4,1,0,60,0,0
97272,-100,4,1,0,65,0,0
97352,-100,4,1,0,68,0,0
97431,-100,4,1,0,71,0,0
97511,-100,4,1,0,75,0,0
97591,-100,4,1,0,80,0,0
97631,-100,4,1,0,80,0,1
107844,-100,4,1,0,80,0,0

[HitObjects]
256,192,610,5,8,0:0:0:0:
256,192,929,1,0,0:0:0:0:
256,192,1088,1,8,0:0:0:0:
256,192,1248,1,0,0:0:0:0:
256,192,1567,1,0,0:0:0:0:
256,192,1727,1,0,0:0:0:0:
256,192,1886,1,8,0:0:0:0:
256,192,2365,1,8,0:0:0:0:
256,192,2524,1,0,0:0:0:0:
256,192,3163,1,8,0:0:0:0:
256,192,3322,1,8,0:0:0:0:
256,192,3482,1,0,0:0:0:0:
256,192,3641,1,8,0:0:0:0:
256,192,3801,1,0,0:0:0:0:
256,192,3961,1,0,0:0:0:0:
256,192,4120,1,8,0:0:0:0:
256,192,4280,1,0,0:0:0:0:
256,192,4439,1,8,0:0:0:0:
256,192,4758,1,8,0:0:0:0:
256,192,5078,1,8,0:0:0:0:
256,192,5397,1,8,0:0:0:0:
256,192,5716,1,0,0:0:0:0:
256,192,6035,1,8,0:0:0:0:
256,192,6195,1,0,0:0:0:0:
256,192,6274,1,0,0:0:0:0:
256,192,6354,1,0,0:0:0:0:
256,192,6514,1,0,0:0:0:0:
256,192,6673,1,8,0:0:0:0:
256,192,6833,1,8,0:0:0:0:
256,192,7152,1,0,0:0:0:0:
256,192,7232,1,0,0:0:0:0:
256,192,7312,1,8,0:0:0:0:
256,192,7471,1,0,0:0:0:0:
256,192,7631,1,8,0:0:0:0:
256,192,7790,1,0,0:0:0:0:
256,192,7870,1,0,0:0:0:0:
256,192,7950,1,8,0:0:0:0:
256,192,8110,1,0,0:0:0:0:
256,192,8269,1,8,0:0:0:0:
256,192,8588,1,8,0:0:0:0:
256,192,8748,1,0,0:0:0:0:
256,192,8907,1,8,0:0:0:0:
256,192,9067,1,8,0:0:0:0:
256,192,9227,1,0,0:0:0:0:
256,192,9306,1,0,0:0:0:0:
256,192,9386,1,8,0:0:0:0:
256,192,9546,1,0,0:0:0:0:
256,192,9705,1,0,0:0:0:0:
256,192,9865,1,8,0:0:0:0:
256,192,10024,1,0,0:0:0:0:
256,192,10104,1,8,0:0:0:0:
256,192,10264,1,8,0:0:0:0:
256,192,10344,1,0,0:0:0:0:
256,192,10503,1,8,0:0:0:0:
256,192,10663,1,8,0:0:0:0:
256,192,10822,1,0,0:0:0:0:
256,192,11141,1,8,0:0:0:0:
256,192,11301,1,0,0:0:0:0:
256,192,11381,1,0,0:0:0:0:
256,192,11461,1,0,0:0:0:0:
256,192,11620,1,0,0:0:0:0:
256,192,11780,1,8,0:0:0:0:
256,192,11939,1,8,0:0:0:0:
256,192,12099,1,0,0:0:0:0:
256,192,12418,1,8,0:0:0:0:
256,192,12578,1,0,0:0:0:0:
256,192,12657,1,0,0:0:0:0:
256,192,12817,1,8,0:0:0:0:
256,192,12897,1,0,0:0:0:0:
256,192,13056,1,8,0:0:0:0:
256,192,13216,1,0,0:0:0:0:
256,192,13375,1,8,0:0:0:0:
256,192,13535,1,0,0:0:0:0:
256,192,13615,1,0,0:0:0:0:
256,192,13695,1,8,0:0:0:0:
256,192,13854,1,8,0:0:0:0:
256,192,14014,1,0,0:0:0:0:
256,192,14173,1,8,0:0:0:0:
256,192,14253,1,0,0:0:0:0:
256,192,14333,1,8,0:0:0:0:
256,192,14492,1,8,0:0:0:0:
256,192,14652,1,0,0:0:0:0:
256,192,14812,1,8,0:0:0:0:
256,192,14891,1,8,0:0:0:0:
256,192,14971,1,8,0:0:0:0:
256,192,15131,1,8,0:0:0:0:
256,192,15290,1,0,0:0:0:0:
256,192,15610,1,0,0:0:0:0:
256,192,15929,1,8,0:0:0:0:
256,192,16248,1,8,0:0:0:0:
256,192,16407,1,0,0:0:0:0:
256,192,16487,1,0,0:0:0:0:
256,192,16567,1,8,0:0:0:0:
256,192,16727,1,0,0:0:0:0:
256,192,16886,1,8,0:0:0:0:
256,192,17046,1,8,0:0:0:0:
256,192,17205,1,0,0:0:0:0:
256,192,17365,1,0,0:0:0:0:
256,192,17524,1,8,0:0:0:0:
256,192,17684,1,0,0:0:0:0:
256,192,18003,1,0,0:0:0:0:
256,192,18083,1,0,0:0:0:0:
256,192,18163,1,8,0:0:0:0:
256,192,18322,1,0,0:0:0:0:
256,192,18482,1,8,0:0:0:0:
256,192,18641,1,0,0:0:0:0:
256,192,18721,1,0,0:0:0:0:
256,192,18801,1,8,0:0:0:0:
256,192,18961,1,8,0:0:0:0:
256,192,19120,1,0,0:0:0:0:
256,192,19280,1,8,0:0:0:0:
256,192,19360,1,0,0:0:0:0:
256,192,19439,1,8,0:0:0:0:
256,192,19599,1,8,0:0:0:0:
256,192,19758,1,0,0:0:0:0:
256,192,19918,1,8,0:0:0:0:
256,192,19998,1,8,0:0:0:0:
256,192,20078,1,8,0:0:0:0:
256,192,20237,1,0,0:0:0:0:
256,192,20556,1,0,0:0:0:0:
256,192,20636,1,0,0:0:0:0:
256,192,20716,1,8,0:0:0:0:
256,192,20875,1,0,0:0:0:0:
256,192,21035,1,8,0:0:0:0:
256,192,21354,1,8,0:0:0:0:
256,192,21514,1,8,0:0:0:0:
256,192,21673,1,0,0:0:0:0:
256,192,21753,1,0,0:0:0:0:
256,192,21833,1,8,0:0:0:0:
256,192,21992,1,0,0:0:0:0:
256,192,22152,1,8,0:0:0:0:
256,192,22312,1,0,0:0:0:0:
256,192,22471,1,0,0:0:0:0:
256,192,22551,1,0,0:0:0:0:
256,192,22631,1,8,0:0:0:0:
256,192,22790,1,0,0:0:0:0:
256,192,22950,1,8,0:0:0:0:
256,192,23030,1,8,0:0:0:0:
256,192,23110,1,0,0:0:0:0:
256,192,23269,1,8,0:0:0:0:
256,192,23429,1,0,0:0:0:0:
256,192,23588,1,8,0:0:0:0:
256,192,23748,1,0,0:0:0:0:
256,192,23828,1,0,0:0:0:0:
256,192,23907,1,8,0:0:0:0:
256,192,24067,1,0,0:0:0:0:
256,192,24386,1,8,0:0:0:0:
256,192,24466,1,0,0:0:0:0:
256,192,24546,1,8,0:0:0:0:
256,192,24705,1,8,0:0:0:0:
256,192,24865,1,0,0:0:0:0:
256,192,25024,1,8,0:0:0:0:
256,192,25104,1,8,0:0:0:0:
256,192,25344,1,8,0:0:0:0:
256,192,25423,1,8,0:0:0:0:
256,192,25663,1,8,0:0:0:0:
256,192,25742,1,8,0:0:0:0:
256,192,25822,1,8,0:0:0:0:
256,192,25902,1,8,0:0:0:0:
256,192,25982,1,8,0:0:0:0:
256,192,26141,1,0,0:0:0:0:
256,192,26461,1,8,0:0:0:0:
256,192,26620,1,0,0:0:0:0:
256,192,26700,1,0,0:0:0:0:
256,192,26780,1,8,0:0:0:0:
256,192,26939,1,0,0:0:0:0:
256,192,27099,1,8,0:0:0:0:
256,192,27258,1,8,0:0:0:0:
256,192,27338,1,8,0:0:0:0:
256,192,27418,1,0,0:0:0:0:
256,192,27578,1,0,0:0:0:0:
256,192,27737,1,8,0:0:0:0:
256,192,27897,1,0,0:0:0:0:
256,192,27977,1,0,0:0:0:0:
256,192,28056,1,8,0:0:0:0:
256,192,28136,1,0,0:0:0:0:
256,192,28216,1,0,0:0:0:0:
256,192,28375,1,8,0:0:0:0:
256,192,28535,1,0,0:0:0:0:
256,192,28695,1,8,0:0:0:0:
256,192,28854,1,0,0:0:0:0:
256,192,28934,1,0,0:0:0:0:
256,192,29014,1,8,0:0:0:0:
256,192,29173,1,0,0:0:0:0:
256,192,29333,1,8,0:0:0:0:
256,192,29413,1,8,0:0:0:0:
256,192,29492,1,0,0:0:0:0:
256,192,29652,1,8,0:0:0:0:
256,192,29812,1,8,0:0:0:0:
256,192,29971,1,0,0:0:0:0:
256,192,30131,1,0,0:0:0:0:
256,192,30290,1,8,0:0:0:0:
256,192,30450,1,0,0:0:0:0:
256,192,30530,1,0,0:0:0:0:
256,192,30610,1,0,0:0:0:0:
256,192,30769,1,0,0:0:0:0:
256,192,30929,1,8,0:0:0:0:
256,192,31088,1,0,0:0:0:0:
256,192,31248,1,8,0:0:0:0:
256,192,31567,1,8,0:0:0:0:
256,192,31727,1,0,0:0:0:0:
256,192,31886,1,8,0:0:0:0:
256,192,31966,1,8,0:0:0:0:
256,192,32046,1,0,0:0:0:0:
256,192,32205,1,8,0:0:0:0:
256,192,32365,1,8,0:0:0:0:
256,192,32524,1,0,0:0:0:0:
256,192,32684,1,8,0:0:0:0:
256,192,32764,1,0,0:0:0:0:
256,192,32844,1,8,0:0:0:0:
256,192,33003,1,8,0:0:0:0:
256,192,33163,1,0,0:0:0:0:
256,192,33322,1,0,0:0:0:0:
256,192,33402,1,0,0:0:0:0:
256,192,33482,1,8,0:0:0:0:
256,192,33641,1,0,0:0:0:0:
256,192,33801,1,8,0:0:0:0:
256,192,33881,1,8,0:0:0:0:
256,192,33961,1,0,0:0:0:0:
256,192,34040,1,0,0:0:0:0:
256,192,34120,1,8,0:0:0:0:
256,192,34280,1,0,0:0:0:0:
256,192,34439,1,8,0:0:0:0:
256,192,34519,1,8,0:0:0:0:
256,192,34599,1,0,0:0:0:0:
256,192,34758,1,8,0:0:0:0:
256,192,34918,1,8,0:0:0:0:
256,192,35078,1,0,0:0:0:0:
256,192,35237,1,0,0:0:0:0:
256,192,35317,1,0,0:0:0:0:
256,192,35397,1,8,0:0:0:0:
256,192,35556,1,0,0:0:0:0:
256,192,35716,1,8,0:0:0:0:
256,192,35875,1,0,0:0:0:0:
256,192,35955,1,0,0:0:0:0:
256,192,36035,1,8,0:0:0:0:
256,192,36354,1,0,0:0:0:0:
256,192,36514,1,8,0:0:0:0:
256,192,36594,1,0,0:0:0:0:
256,192,36673,1,8,0:0:0:0:
256,192,36833,1,8,0:0:0:0:
256,192,36992,1,0,0:0:0:0:
256,192,37152,1,0,0:0:0:0:
256,192,37232,1,0,0:0:0:0:
256,192,37312,1,8,0:0:0:0:
256,192,37471,1,8,0:0:0:0:
256,192,37631,1,0,0:0:0:0:
256,192,37790,1,0,0:0:0:0:
256,192,37950,1,8,0:0:0:0:
256,192,38110,1,0,0:0:0:0:
256,192,38269,1,8,0:0:0:0:
256,192,38349,1,8,0:0:0:0:
256,192,38429,1,0,0:0:0:0:
256,192,38588,1,8,0:0:0:0:
256,192,38748,1,0,0:0:0:0:
256,192,38907,1,8,0:0:0:0:
256,192,39067,1,0,0:0:0:0:
256,192,39147,1,0,0:0:0:0:
256,192,39227,1,8,0:0:0:0:
256,192,39386,1,0,0:0:0:0:
256,192,39546,1,8,0:0:0:0:
256,192,39625,1,8,0:0:0:0:
256,192,39705,1,0,0:0:0:0:
256,192,39785,1,0,0:0:0:0:
256,192,39865,1,8,0:0:0:0:
256,192,40024,1,8,0:0:0:0:
256,192,40184,1,0,0:0:0:0:
256,192,40344,1,0,0:0:0:0:
256,192,40503,1,8,0:0:0:0:
256,192,40663,1,0,0:0:0:0:
256,192,40742,1,0,0:0:0:0:
256,192,40822,1,8,0:0:0:0:
256,192,40982,1,0,0:0:0:0:
256,192,41141,1,8,0:0:0:0:
256,192,41461,1,8,0:0:0:0:
256,192,41620,1,0,0:0:0:0:
256,192,41700,1,0,0:0:0:0:
256,192,41780,1,8,0:0:0:0:
256,192,41939,1,0,0:0:0:0:
256,192,42099,1,8,0:0:0:0:
256,192,42258,1,8,0:0:0:0:
256,192,42338,1,0,0:0:0:0:
256,192,42418,1,8,0:0:0:0:
256,192,42578,1,8,0:0:0:0:
256,192,42737,1,0,0:0:0:0:
256,192,42897,1,0,0:0:0:0:
256,192,42977,1,0,0:0:0:0:
256,192,43056,1,8,0:0:0:0:
256,192,43216,1,0,0:0:0:0:
256,192,43296,1,0,0:0:0:0:
256,192,43375,1,8,0:0:0:0:
256,192,43455,1,8,0:0:0:0:
256,192,43535,1,0,0:0:0:0:
256,192,43695,1,8,0:0:0:0:
256,192,43854,1,0,0:0:0:0:
256,192,44014,1,8,0:0:0:0:
256,192,44173,1,0,0:0:0:0:
256,192,44253,1,0,0:0:0:0:
256,192,44333,1,8,0:0:0:0:
256,192,44492,1,0,0:0:0:0:
256,192,44652,1,8,0:0:0:0:
256,192,44732,1,8,0:0:0:0:
256,192,44812,1,0,0:0:0:0:
256,192,44971,1,8,0:0:0:0:
256,192,45131,1,0,0:0:0:0:
256,192,45450,1,8,0:0:0:0:
256,192,45530,1,8,0:0:0:0:
256,192,45610,1,8,0:0:0:0:
256,192,45769,1,8,0:0:0:0:
256,192,45849,1,8,0:0:0:0:
256,192,45929,1,8,0:0:0:0:
256,192,46088,1,8,0:0:0:0:
256,192,46168,1,8,0:0:0:0:
256,192,46248,1,8,0:0:0:0:
256,192,46328,1,8,0:0:0:0:
256,192,46407,1,8,0:0:0:0:
256,192,46567,1,0,0:0:0:0:
256,192,46886,1,8,0:0:0:0:
256,192,47205,1,0,0:0:0:0:
256,192,47365,1,0,0:0:0:0:
256,192,47684,1,8,0:0:0:0:
256,192,48003,1,8,0:0:0:0:
256,192,48163,1,8,0:0:0:0:
256,192,48482,1,0,0:0:0:0:
256,192,48801,1,8,0:0:0:0:
256,192,49120,1,0,0:0:0:0:
256,192,49439,1,8,0:0:0:0:
256,192,49758,1,0,0:0:0:0:
256,192,49918,1,0,0:0:0:0:
256,192,50237,1,8,0:0:0:0:
256,192,50556,1,8,0:0:0:0:
256,192,50875,1,0,0:0:0:0:
256,192,51035,1,8,0:0:0:0:
256,192,51354,1,0,0:0:0:0:
256,192,51673,1,8,0:0:0:0:
256,192,51992,1,8,0:0:0:0:
256,192,52312,1,0,0:0:0:0:
256,192,52471,1,8,0:0:0:0:
256,192,52631,1,0,0:0:0:0:
256,192,52950,1,8,0:0:0:0:
256,192,53269,1,0,0:0:0:0:
256,192,53429,1,0,0:0:0:0:
256,192,53588,1,8,0:0:0:0:
256,192,53907,1,8,0:0:0:0:
256,192,54227,1,0,0:0:0:0:
256,192,54546,1,8,0:0:0:0:
256,192,54705,1,8,0:0:0:0:
256,192,55024,1,0,0:0:0:0:
256,192,55344,1,0,0:0:0:0:
256,192,55503,1,8,0:0:0:0:
256,192,55822,1,8,0:0:0:0:
256,192,56141,1,8,0:0:0:0:
256,192,56301,1,0,0:0:0:0:
256,192,56461,1,8,0:0:0:0:
256,192,56540,1,8,0:0:0:0:
256,192,56620,1,8,0:0:0:0:
256,192,56700,1,8,0:0:0:0:
256,192,56780,1,0,0:0:0:0:
256,192,57099,1,8,0:0:0:0:
256,192,57258,1,0,0:0:0:0:
256,192,57338,1,0,0:0:0:0:
256,192,57418,1,8,0:0:0:0:
256,192,57578,1,0,0:0:0:0:
256,192,57737,1,8,0:0:0:0:
256,192,57897,1,8,0:0:0:0:
256,192,58056,1,0,0:0:0:0:
256,192,58216,1,8,0:0:0:0:
256,192,58296,1,0,0:0:0:0:
256,192,58375,1,8,0:0:0:0:
256,192,58535,1,0,0:0:0:0:
256,192,58695,1,8,0:0:0:0:
256,192,58774,1,8,0:0:0:0:
256,192,58854,1,0,0:0:0:0:
256,192,59014,1,8,0:0:0:0:
256,192,59173,1,0,0:0:0:0:
256,192,59333,1,8,0:0:0:0:
256,192,59652,1,0,0:0:0:0:
256,192,59812,1,8,0:0:0:0:
256,192,59891,1,8,0:0:0:0:
256,192,59971,1,0,0:0:0:0:
256,192,60131,1,8,0:0:0:0:
256,192,60211,1,0,0:0:0:0:
256,192,60290,1,8,0:0:0:0:
256,192,60450,1,8,0:0:0:0:
256,192,60610,1,0,0:0:0:0:
256,192,60769,1,8,0:0:0:0:
256,192,60849,1,8,0:0:0:0:
256,192,60929,1,8,0:0:0:0:
256,192,61088,1,8,0:0:0:0:
256,192,61248,1,0,0:0:0:0:
256,192,61407,1,0,0:0:0:0:
256,192,61487,1,0,0:0:0:0:
256,192,61567,1,8,0:0:0:0:
256,192,61727,1,0,0:0:0:0:
256,192,61886,1,8,0:0:0:0:
256,192,62205,1,8,0:0:0:0:
256,192,62365,1,0,0:0:0:0:
256,192,62524,1,8,0:0:0:0:
256,192,62604,1,0,0:0:0:0:
256,192,62684,1,8,0:0:0:0:
256,192,62844,1,0,0:0:0:0:
256,192,63003,1,8,0:0:0:0:
256,192,63163,1,0,0:0:0:0:
256,192,63322,1,0,0:0:0:0:
256,192,63402,1,0,0:0:0:0:
256,192,63482,1,8,0:0:0:0:
256,192,63641,1,0,0:0:0:0:
256,192,63801,1,8,0:0:0:0:
256,192,63881,1,8,0:0:0:0:
256,192,63961,1,0,0:0:0:0:
256,192,64120,1,8,0:0:0:0:
256,192,64280,1,0,0:0:0:0:
256,192,64439,1,8,0:0:0:0:
256,192,64599,1,0,0:0:0:0:
256,192,64679,1,0,0:0:0:0:
256,192,64758,1,8,0:0:0:0:
256,192,64918,1,8,0:0:0:0:
256,192,65078,1,0,0:0:0:0:
256,192,65237,1,0,0:0:0:0:
256,192,65317,1,0,0:0:0:0:
256,192,65397,1,8,0:0:0:0:
256,192,65556,1,0,0:0:0:0:
256,192,65716,1,8,0:0:0:0:
256,192,66035,1,8,0:0:0:0:
256,192,66514,1,8,0:0:0:0:
256,192,66673,1,8,0:0:0:0:
256,192,66992,1,0,0:0:0:0:
256,192,67312,1,8,0:0:0:0:
256,192,67471,1,0,0:0:0:0:
256,192,67551,1,0,0:0:0:0:
256,192,67711,1,0,0:0:0:0:
256,192,67790,1,0,0:0:0:0:
256,192,67950,1,8,0:0:0:0:
256,192,68110,1,8,0:0:0:0:
256,192,68189,1,8,0:0:0:0:
256,192,68269,1,0,0:0:0:0:
256,192,68429,1,8,0:0:0:0:
256,192,68508,1,0,0:0:0:0:
256,192,68588,1,8,0:0:0:0:
256,192,68748,1,8,0:0:0:0:
256,192,69067,1,0,0:0:0:0:
256,192,69147,1,0,0:0:0:0:
256,192,69227,1,8,0:0:0:0:
256,192,69386,1,0,0:0:0:0:
256,192,69546,1,8,0:0:0:0:
256,192,69705,1,0,0:0:0:0:
256,192,69785,1,0,0:0:0:0:
256,192,69865,1,8,0:0:0:0:
256,192,70024,1,0,0:0:0:0:
256,192,70104,1,8,0:0:0:0:
256,192,70264,1,8,0:0:0:0:
256,192,70344,1,0,0:0:0:0:
256,192,70503,1,8,0:0:0:0:
256,192,70663,1,0,0:0:0:0:
256,192,70822,1,8,0:0:0:0:
256,192,70982,1,0,0:0:0:0:
256,192,71062,1,0,0:0:0:0:
256,192,71141,1,8,0:0:0:0:
256,192,71301,1,8,0:0:0:0:
256,192,71381,1,0,0:0:0:0:
256,192,71540,1,8,0:0:0:0:
256,192,71620,1,0,0:0:0:0:
256,192,71780,1,8,0:0:0:0:
256,192,72099,1,0,0:0:0:0:
256,192,72418,1,8,0:0:0:0:
256,192,72578,1,0,0:0:0:0:
256,192,72657,1,8,0:0:0:0:
256,192,72737,1,0,0:0:0:0:
256,192,72897,1,0,0:0:0:0:
256,192,72977,1,0,0:0:0:0:
256,192,73056,1,8,0:0:0:0:
256,192,73216,1,8,0:0:0:0:
256,192,73375,1,0,0:0:0:0:
256,192,73455,1,0,0:0:0:0:
256,192,73615,1,0,0:0:0:0:
256,192,73695,1,8,0:0:0:0:
256,192,73854,1,8,0:0:0:0:
256,192,74014,1,0,0:0:0:0:
256,192,74173,1,8,0:0:0:0:
256,192,74253,1,0,0:0:0:0:
256,192,74333,1,8,0:0:0:0:
256,192,74652,1,0,0:0:0:0:
256,192,74812,1,0,0:0:0:0:
256,192,74891,1,0,0:0:0:0:
256,192,74971,1,8,0:0:0:0:
256,192,75131,1,0,0:0:0:0:
256,192,75211,1,8,0:0:0:0:
256,192,75370,1,8,0:0:0:0:
256,192,75450,1,0,0:0:0:0:
256,192,75610,1,8,0:0:0:0:
256,192,75769,1,8,0:0:0:0:
256,192,75929,1,0,0:0:0:0:
256,192,76088,1,0,0:0:0:0:
256,192,76168,1,0,0:0:0:0:
256,192,76248,1,8,0:0:0:0:
256,192,76407,1,0,0:0:0:0:
256,192,76487,1,0,0:0:0:0:
256,192,76647,1,8,0:0:0:0:
256,192,76727,1,0,0:0:0:0:
256,192,76886,1,8,0:0:0:0:
256,192,77046,1,8,0:0:0:0:
256,192,77125,1,8,0:0:0:0:
256,192,77205,1,0,0:0:0:0:
256,192,77524,1,8,0:0:0:0:
256,192,77684,1,0,0:0:0:0:
256,192,77764,1,8,0:0:0:0:
256,192,77923,1,8,0:0:0:0:
256,192,78003,1,0,0:0:0:0:
256,192,78163,1,8,0:0:0:0:
256,192,78322,1,0,0:0:0:0:
256,192,78482,1,8,0:0:0:0:
256,192,78641,1,0,0:0:0:0:
256,192,78721,1,0,0:0:0:0:
256,192,78801,1,8,0:0:0:0:
256,192,78961,1,0,0:0:0:0:
256,192,79040,1,8,0:0:0:0:
256,192,79200,1,8,0:0:0:0:
256,192,79280,1,0,0:0:0:0:
256,192,79439,1,8,0:0:0:0:
256,192,79599,1,0,0:0:0:0:
256,192,79758,1,8,0:0:0:0:
256,192,80078,1,8,0:0:0:0:
256,192,80237,1,0,0:0:0:0:
256,192,80317,1,0,0:0:0:0:
256,192,80397,1,8,0:0:0:0:
256,192,80556,1,8,0:0:0:0:
256,192,80716,1,0,0:0:0:0:
256,192,80875,1,8,0:0:0:0:
256,192,81035,1,0,0:0:0:0:
256,192,81195,1,0,0:0:0:0:
256,192,81354,1,8,0:0:0:0:
256,192,81514,1,8,0:0:0:0:
256,192,81594,1,8,0:0:0:0:
256,192,81673,1,0,0:0:0:0:
256,192,81833,1,0,0:0:0:0:
256,192,81913,1,0,0:0:0:0:
256,192,81992,1,8,0:0:0:0:
256,192,82152,1,0,0:0:0:0:
256,192,82312,1,8,0:0:0:0:
256,192,82631,1,8,0:0:0:0:
256,192,82790,1,0,0:0:0:0:
256,192,82870,1,8,0:0:0:0:
256,192,83030,1,8,0:0:0:0:
256,192,83110,1,0,0:0:0:0:
256,192,83269,1,8,0:0:0:0:
256,192,83429,1,0,0:0:0:0:
256,192,83588,1,8,0:0:0:0:
256,192,83748,1,0,0:0:0:0:
256,192,83828,1,0,0:0:0:0:
256,192,83907,1,8,0:0:0:0:
256,192,84067,1,0,0:0:0:0:
256,192,84147,1,0,0:0:0:0:
256,192,84306,1,8,0:0:0:0:
256,192,84386,1,0,0:0:0:0:
256,192,84546,1,8,0:0:0:0:
256,192,84705,1,0,0:0:0:0:
256,192,84865,1,8,0:0:0:0:
256,192,85184,1,8,0:0:0:0:
256,192,85344,1,8,0:0:0:0:
256,192,85423,1,8,0:0:0:0:
256,192,85503,1,0,0:0:0:0:
256,192,85663,1,8,0:0:0:0:
256,192,85742,1,0,0:0:0:0:
256,192,85822,1,8,0:0:0:0:
256,192,85982,1,8,0:0:0:0:
256,192,86141,1,0,0:0:0:0:
256,192,86301,1,8,0:0:0:0:
256,192,86381,1,0,0:0:0:0:
256,192,86461,1,8,0:0:0:0:
256,192,86620,1,0,0:0:0:0:
256,192,86700,1,8,0:0:0:0:
256,192,86860,1,8,0:0:0:0:
256,192,86939,1,0,0:0:0:0:
256,192,87099,1,8,0:0:0:0:
256,192,87418,1,0,0:0:0:0:
256,192,87737,1,0,0:0:0:0:
256,192,87897,1,8,0:0:0:0:
256,192,88216,1,8,0:0:0:0:
256,192,88535,1,0,0:0:0:0:
256,192,89014,1,0,0:0:0:0:
256,192,89173,1,8,0:0:0:0:
256,192,89492,1,8,0:0:0:0:
256,192,89812,1,8,0:0:0:0:
256,192,90290,1,0,0:0:0:0:
256,192,90450,1,8,0:0:0:0:
256,192,90769,1,8,0:0:0:0:
256,192,91088,1,0,0:0:0:0:
256,192,92524,1,0,0:0:0:0:
256,192,92844,1,0,0:0:0:0:
256,192,93003,1,8,0:0:0:0:
256,192,93322,1,8,0:0:0:0:
256,192,93641,1,8,0:0:0:0:
256,192,94120,1,8,0:0:0:0:
256,192,94280,1,0,0:0:0:0:
256,192,94599,1,8,0:0:0:0:
256,192,94918,1,0,0:0:0:0:
256,192,95397,1,0,0:0:0:0:
256,192,95556,1,8,0:0:0:0:
256,192,95875,1,8,0:0:0:0:
256,192,96195,1,0,0:0:0:0:
256,192,97631,1,8,0:0:0:0:
256,192,97790,1,0,0:0:0:0:
256,192,97870,1,0,0:0:0:0:
256,192,97950,1,8,0:0:0:0:
256,192,98110,1,0,0:0:0:0:
256,192,98189,1,8,0:0:0:0:
256,192,98349,1,8,0:0:0:0:
256,192,98429,1,0,0:0:0:0:
256,192,98588,1,8,0:0:0:0:
256,192,98748,1,0,0:0:0:0:
256,192,98907,1,0,0:0:0:0:
256,192,99067,1,0,0:0:0:0:
256,192,99147,1,0,0:0:0:0:
256,192,99227,1,8,0:0:0:0:
256,192,99386,1,0,0:0:0:0:
256,192,99466,1,0,0:0:0:0:
256,192,99625,1,8,0:0:0:0:
256,192,99705,1,0,0:0:0:0:
256,192,99865,1,8,0:0:0:0:
256,192,100024,1,0,0:0:0:0:
256,192,100184,1,8,0:0:0:0:
256,192,100344,1,8,0:0:0:0:
256,192,100423,1,0,0:0:0:0:
256,192,100503,1,8,0:0:0:0:
256,192,100663,1,8,0:0:0:0:
256,192,100742,1,0,0:0:0:0:
256,192,100902,1,8,0:0:0:0:
256,192,100982,1,0,0:0:0:0:
256,192,101141,1,8,0:0:0:0:
256,192,101301,1,0,0:0:0:0:
256,192,101461,1,8,0:0:0:0:
256,192,101620,1,0,0:0:0:0:
256,192,101700,1,0,0:0:0:0:
256,192,101780,1,8,0:0:0:0:
256,192,101939,1,8,0:0:0:0:
256,192,102099,1,0,0:0:0:0:
256,192,102179,1,0,0:0:0:0:
256,192,102258,1,0,0:0:0:0:
256,192,102338,1,0,0:0:0:0:
256,192,102418,1,8,0:0:0:0:
256,192,102578,1,0,0:0:0:0:
256,192,102737,1,8,0:0:0:0:
256,192,103056,1,8,0:0:0:0:
256,192,103216,1,0,0:0:0:0:
256,192,103296,1,8,0:0:0:0:
256,192,103455,1,8,0:0:0:0:
256,192,103535,1,0,0:0:0:0:
256,192,103695,1,8,0:0:0:0:
256,192,103854,1,8,0:0:0:0:
256,192,104014,1,0,0:0:0:0:
256,192,104173,1,8,0:0:0:0:
256,192,104253,1,0,0:0:0:0:
256,192,104333,1,8,0:0:0:0:
256,192,104492,1,0,0:0:0:0:
256,192,104572,1,8,0:0:0:0:
256,192,104732,1,8,0:0:0:0:
256,192,104812,1,0,0:0:0:0:
256,192,104971,1,8,0:0:0:0:
256,192,105131,1,8,0:0:0:0:
256,192,105290,1,0,0:0:0:0:
256,192,105450,1,0,0:0:0:0:
256,192,105530,1,0,0:0:0:0:
256,192,105610,1,8,0:0:0:0:
256,192,105769,1,0,0:0:0:0:
256,192,105849,1,8,0:0:0:0:
256,192,106008,1,8,0:0:0:0:
256,192,106088,1,0,0:0:0:0:
256,192,106248,1,8,0:0:0:0:
256,192,106407,1,8,0:0:0:0:
256,192,106567,1,0,0:0:0:0:
256,192,106727,1,0,0:0:0:0:
256,192,106806,1,0,0:0:0:0:
256,192,106886,1,8,0:0:0:0:
256,192,107046,1,0,0:0:0:0:
256,192,107205,1,8,0:0:0:0:
256,192,107365,1,0,0:0:0:0:
256,192,107445,1,0,0:0:0:0:
256,192,107524,1,8,0:0:0:0:
256,192,107684,1,8,0:0:0:0:
256,192,107764,1,8,0:0:0:0:
