osu file format v14

[General]
AudioFilename: audio.ogg
AudioLeadIn: 0
PreviewTime: 25982
Countdown: 0
SampleSet: Normal
StackLeniency: 0.7
Mode: 1
LetterboxInBreaks: 0
WidescreenStoryboard: 1

[Editor]
DistanceSpacing: 0.8
BeatDivisor: 1
GridSize: 4
TimelineZoom: 0.2999998

[Metadata]
Title:mint tears
TitleUnicode:mint tears
Artist:ribbon room
ArtistUnicode:ribbon room
Creator:X a v y
Version:kantan
Source:太鼓の達人
Tags:ribbonroom cotoribbon silvercoin breakcore video game instrumental japanese english 太鼓の達人ds ドロロン!ヨーカイ大決戦!! taiko no tatsujin ds: dororon! yokai daikessen!! tnt ナムコオリジナル bandai namco original ゆきえ みゆき yukie miyuki mintte apis035 xavy
BeatmapID:3142376
BeatmapSetID:1536880

[Difficulty]
HPDrainRate:7.5
CircleSize:5
OverallDifficulty:2.5
ApproachRate:5
SliderMultiplier:1.4
SliderTickRate:1

[Events]
//Background and Video events
0,0,"121ab41fc18d4914b62ae0950a1dce3f.jpg",0,200
//Break Periods
//Storyboard Layer 0 (Background)
//Storyboard Layer 1 (Fail)
//Storyboard Layer 2 (Pass)
//Storyboard Layer 3 (Foreground)
//Storyboard Layer 4 (Overlay)
//Storyboard Sound Samples

[TimingPoints]
610,319.148936170213,4,1,0,40,1,0
729,-100,4,1,0,41,0,0
889,-100,4,1,0,42,0,0
1048,-100,4,1,0,43,0,0
1208,-100,4,1,0,44,0,0
1367,-100,4,1,0,45,0,0
1527,-100,4,1,0,46,0,0
1687,-100,4,1,0,47,0,0
1846,-100,4,1,0,48,0,0
2086,-100,4,1,0,49,0,0
2245,-100,4,1,0,50,0,0
2405,-100,4,1,0,51,0,0
2564,-100,4,1,0,52,0,0
2724,-100,4,1,0,53,0,0
2883,-100,4,1,0,54,0,0
3043,-100,4,1,0,55,0,0
3282,-100,4,1,0,56,0,0
3442,-100,4,1,0,57,0,0
3602,-100,4,1,0,58,0,0
3761,-100,4,1,0,59,0,0
3921,-100,4,1,0,60,0,0
4080,-100,4,1,0,61,0,0
4240,-100,4,1,0,62,0,0
4399,-100,4,1,0,63,0,0
4639,-100,4,1,0,64,0,0
4798,-100,4,1,0,65,0,0
4958,-100,4,1,0,66,0,0
5117,-100,4,1,0,67,0,0
5277,-100,4,1,0,68,0,0
5437,-100,4,1,0,69,0,0
5596,-100,4,1,0,70,0,0
21235,-100,4,1,0,69,0,0
21633,-100,4,1,0,68,0,0
22032,-100,4,1,0,67,0,0
22352,-100,4,1,0,66,0,0
22750,-100,4,1,0,65,0,0
23149,-100,4,1,0,64,0,0
23548,-100,4,1,0,63,0,0
23947,-100,4,1,0,62,0,0
24266,-100,4,1,0,61,0,0
24665,-100,4,1,0,60,0,0
24905,-100,4,1,0,61,0,0
24985,-100,4,1,0,63,0,0
25064,-100,4,1,0,64,0,0
25144,-100,4,1,0,65,0,0
25224,-100,4,1,0,66,0,0
25304,-100,4,1,0,68,0,0
25383,-100,4,1,0,69,0,0
25463,-100,4,1,0,70,0,0
25543,-100,4,1,0,71,0,0
25623,-100,4,1,0,73,0,0
25703,-100,4,1,0,74,0,0
25782,-100,4,1,0,75,0,0
25862,-100,4,1,0,76,0,0
25942,-100,4,1,0,78,0,0
26022,-100,4,1,0,79,0,0
26102,-100,4,1,0,80,0,0
26141,-100,4,1,0,80,0,1
41580,-100,4,1,0,79,0,1
41820,-100,4,1,0,78,0,1
42139,-100,4,1,0,77,0,1
42378,-100,4,1,0,76,0,1
42617,-100,4,1,0,75,0,1
42857,-100,4,1,0,74,0,1
43096,-100,4,1,0,73,0,1
43415,-100,4,1,0,72,0,1
43655,-100,4,1,0,71,0,1
43894,-100,4,1,0,70,0,1
44133,-100,4,1,0,69,0,1
44373,-100,4,1,0,68,0,1
44692,-100,4,1,0,67,0,1
44931,-100,4,1,0,66,0,1
45171,-100,4,1,0,65,0,1
45410,-100,4,1,0,64,0,1
45649,-100,4,1,0,63,0,1
45969,-100,4,1,0,62,0,1
46208,-100,4,1,0,61,0,1
46447,-100,4,1,0,60,0,1
46567,-100,4,1,0,60,0,0
46846,-100,4,1,0,61,0,0
47325,-100,4,1,0,62,0,0
47804,-100,4,1,0,63,0,0
48442,-100,4,1,0,64,0,0
48921,-100,4,1,0,65,0,0
49399,-100,4,1,0,66,0,0
49878,-100,4,1,0,67,0,0
50357,-100,4,1,0,68,0,0
50995,-100,4,1,0,69,0,0
51474,-100,4,1,0,70,0,0
51953,-100,4,1,0,71,0,0
52431,-100,4,1,0,72,0,0
52910,-100,4,1,0,73,0,0
53548,-100,4,1,0,74,0,0
54027,-100,4,1,0,75,0,0
54506,-100,4,1,0,76,0,0
54985,-100,4,1,0,77,0,0
55463,-100,4,1,0,78,0,0
56102,-100,4,1,0,79,0,0
56580,-100,4,1,0,80,0,0
65676,-100,4,1,0,60,0,0
67511,-100,4,1,0,61,0,0
68548,-100,4,1,0,62,0,0
69506,-100,4,1,0,63,0,0
70543,-100,4,1,0,64,0,0
71580,-100,4,1,0,65,0,0
72617,-100,4,1,0,66,0,0
73655,-100,4,1,0,67,0,0
74612,-100,4,1,0,68,0,0
75649,-100,4,1,0,69,0,0
76687,-100,4,1,0,70,0,0
77724,-100,4,1,0,71,0,0
78761,-100,4,1,0,72,0,0
79719,-100,4,1,0,73,0,0
80756,-100,4,1,0,74,0,0
81793,-100,4,1,0,75,0,0
82830,-100,4,1,0,76,0,0
83867,-100,4,1,0,77,0,0
84825,-100,4,1,0,78,0,0
85862,-100,4,1,0,79,0,0
86899,-100,4,1,0,80,0,0
87538,-100,4,1,0,60,0,0
97272,-100,4,1,0,65,0,0
97352,-100,4,1,0,68,0,0
97431,-100,4,1,0,71,0,0
97511,-100,4,1,0,75,0,0
97591,-100,4,1,0,80,0,0
97631,-100,4,1,0,80,0,1
107844,-100,4,1,0,80,0,0

[HitObjects]
256,192,610,5,8,0:0:0:0:
256,192,1248,1,0,0:0:0:0:
256,192,1567,1,0,0:0:0:0:
256,192,1886,1,8,0:0:0:0:
256,192,2524,1,0,0:0:0:0:
256,192,3163,1,8,0:0:0:0:
256,192,3801,1,0,0:0:0:0:
256,192,4439,1,8,0:0:0:0:
256,192,4758,1,8,0:0:0:0:
256,192,5078,1,8,0:0:0:0:
256,192,5397,1,8,0:0:0:0:
256,192,5716,1,0,0:0:0:0:
256,192,6673,1,8,0:0:0:0:
256,192,6992,1,0,0:0:0:0:
256,192,7631,1,0,0:0:0:0:
256,192,7950,1,0,0:0:0:0:
256,192,8269,1,8,0:0:0:0:
256,192,8907,1,0,0:0:0:0:
256,192,9546,1,8,0:0:0:0:
256,192,10503,1,0,0:0:0:0:
256,192,10822,1,8,0:0:0:0:
256,192,11780,1,8,0:0:0:0:
256,192,12099,1,0,0:0:0:0:
256,192,12737,1,8,0:0:0:0:
256,192,13056,1,0,0:0:0:0:
256,192,13375,1,8,0:0:0:0:
256,192,14014,1,8,0:0:0:0:
256,192,14652,1,0,0:0:0:0:
256,192,15290,1,0,0:0:0:0:
256,192,15610,1,0,0:0:0:0:
256,192,15929,1,8,0:0:0:0:
256,192,16886,1,8,0:0:0:0:
256,192,17205,1,0,0:0:0:0:
256,192,17844,1,8,0:0:0:0:
256,192,18163,1,0,0:0:0:0:
256,192,18482,1,8,0:0:0:0:
256,192,19120,1,0,0:0:0:0:
256,192,19439,1,0,0:0:0:0:
256,192,19758,1,8,0:0:0:0:
256,192,20397,1,0,0:0:0:0:
256,192,21035,1,8,0:0:0:0:
256,192,21673,1,8,0:0:0:0:
256,192,21992,1,8,0:0:0:0:
256,192,22312,1,0,0:0:0:0:
256,192,22950,1,0,0:0:0:0:
256,192,23588,1,8,0:0:0:0:
256,192,24865,1,0,0:0:0:0:
256,192,26141,1,0,0:0:0:0:
256,192,26780,1,8,0:0:0:0:
256,192,27099,1,0,0:0:0:0:
256,192,27418,1,8,0:0:0:0:
256,192,28056,1,8,0:0:0:0:
256,192,28695,1,0,0:0:0:0:
256,192,29014,1,0,0:0:0:0:
256,192,29333,1,8,0:0:0:0:
256,192,29652,1,8,0:0:0:0:
256,192,29971,1,0,0:0:0:0:
256,192,30610,1,8,0:0:0:0:
256,192,31248,1,0,0:0:0:0:
256,192,31886,1,8,0:0:0:0:
256,192,32205,1,0,0:0:0:0:
256,192,32524,1,8,0:0:0:0:
256,192,33163,1,8,0:0:0:0:
256,192,33801,1,0,0:0:0:0:
256,192,34120,1,0,0:0:0:0:
256,192,34439,1,8,0:0:0:0:
256,192,34758,1,0,0:0:0:0:
256,192,35078,1,8,0:0:0:0:
256,192,36354,1,0,0:0:0:0:
256,192,36992,1,8,0:0:0:0:
256,192,37312,1,8,0:0:0:0:
256,192,37631,1,0,0:0:0:0:
256,192,38269,1,8,0:0:0:0:
256,192,38907,1,0,0:0:0:0:
256,192,39227,1,0,0:0:0:0:
256,192,39546,1,8,0:0:0:0:
256,192,39865,1,8,0:0:0:0:
256,192,40184,1,0,0:0:0:0:
256,192,40822,1,8,0:0:0:0:
256,192,41461,1,0,0:0:0:0:
256,192,42099,1,8,0:0:0:0:
256,192,42418,1,0,0:0:0:0:
256,192,42737,1,8,0:0:0:0:
256,192,43375,1,8,0:0:0:0:
256,192,44014,1,0,0:0:0:0:
256,192,44333,1,0,0:0:0:0:
256,192,44652,1,8,0:0:0:0:
256,192,44971,1,8,0:0:0:0:
256,192,45290,1,0,0:0:0:0:
256,192,45929,1,8,0:0:0:0:
256,192,46248,1,8,0:0:0:0:
256,192,46567,1,0,0:0:0:0:
256,192,47844,1,8,0:0:0:0:
256,192,48482,1,8,0:0:0:0:
256,192,49120,1,0,0:0:0:0:
256,192,49758,1,0,0:0:0:0:
256,192,50397,1,8,0:0:0:0:
256,192,51354,1,0,0:0:0:0:
256,192,51673,1,8,0:0:0:0:
256,192,52631,1,8,0:0:0:0:
256,192,52950,1,0,0:0:0:0:
256,192,53588,1,0,0:0:0:0:
256,192,54227,1,8,0:0:0:0:
256,192,55503,1,8,0:0:0:0:
256,192,55822,1,8,0:0:0:0:
256,192,56141,1,8,0:0:0:0:
256,192,56461,1,8,0:0:0:0:
256,192,56780,1,0,0:0:0:0:
256,192,57418,1,0,0:0:0:0:
256,192,58056,1,8,0:0:0:0:
256,192,58695,1,0,0:0:0:0:
256,192,59014,1,0,0:0:0:0:
256,192,59333,1,8,0:0:0:0:
256,192,59971,1,8,0:0:0:0:
256,192,60290,1,0,0:0:0:0:
256,192,60610,1,8,0:0:0:0:
256,192,61567,1,0,0:0:0:0:
256,192,61886,1,8,0:0:0:0:
256,192,62524,1,8,0:0:0:0:
256,192,62844,1,8,0:0:0:0:
256,192,63163,1,0,0:0:0:0:
256,192,63801,1,0,0:0:0:0:
256,192,64439,1,8,0:0:0:0:
256,192,65078,1,8,0:0:0:0:
256,192,65397,1,8,0:0:0:0:
256,192,65716,1,0,0:0:0:0:
256,192,66992,1,0,0:0:0:0:
256,192,67631,1,0,0:0:0:0:
256,192,67950,1,8,0:0:0:0:
256,192,68269,1,0,0:0:0:0:
256,192,68907,1,8,0:0:0:0:
256,192,69546,1,0,0:0:0:0:
256,192,70184,1,8,0:0:0:0:
256,192,70503,1,8,0:0:0:0:
256,192,70822,1,0,0:0:0:0:
256,192,72099,1,0,0:0:0:0:
256,192,72737,1,8,0:0:0:0:
256,192,73056,1,8,0:0:0:0:
256,192,73375,1,0,0:0:0:0:
256,192,74014,1,8,0:0:0:0:
256,192,74652,1,0,0:0:0:0:
256,192,75290,1,0,0:0:0:0:
256,192,75610,1,0,0:0:0:0:
256,192,75929,1,0,0:0:0:0:
256,192,77205,1,0,0:0:0:0:
256,192,77844,1,0,0:0:0:0:
256,192,78163,1,8,0:0:0:0:
256,192,78482,1,0,0:0:0:0:
256,192,79120,1,8,0:0:0:0:
256,192,79758,1,0,0:0:0:0:
256,192,80397,1,8,0:0:0:0:
256,192,80716,1,8,0:0:0:0:
256,192,81035,1,0,0:0:0:0:
256,192,82312,1,0,0:0:0:0:
256,192,82950,1,0,0:0:0:0:
256,192,83269,1,8,0:0:0:0:
256,192,83588,1,0,0:0:0:0:
256,192,84227,1,8,0:0:0:0:
256,192,84865,1,0,0:0:0:0:
256,192,85184,1,0,0:0:0:0:
256,192,85503,1,0,0:0:0:0:
256,192,86141,1,8,0:0:0:0:
256,192,87418,1,8,0:0:0:0:
256,192,88695,1,8,0:0:0:0:
256,192,89971,1,0,0:0:0:0:
256,192,91248,1,8,0:0:0:0:
256,192,92524,1,8,0:0:0:0:
256,192,93801,1,8,0:0:0:0:
256,192,95078,1,0,0:0:0:0:
256,192,96354,1,0,0:0:0:0:
256,192,97631,1,0,0:0:0:0:
256,192,97950,1,8,0:0:0:0:
256,192,98588,1,8,0:0:0:0:
256,192,98907,1,0,0:0:0:0:
256,192,99227,1,8,0:0:0:0:
256,192,99865,1,8,0:0:0:0:
256,192,100184,1,0,0:0:0:0:
256,192,100503,1,8,0:0:0:0:
256,192,101141,1,8,0:0:0:0:
256,192,101461,1,0,0:0:0:0:
256,192,102737,1,0,0:0:0:0:
256,192,103056,1,8,0:0:0:0:
256,192,103695,1,8,0:0:0:0:
256,192,104014,1,0,0:0:0:0:
256,192,104333,1,8,0:0:0:0:
256,192,104971,1,8,0:0:0:0:
256,192,105290,1,0,0:0:0:0:
256,192,105610,1,8,0:0:0:0:
256,192,106248,1,8,0:0:0:0:
256,192,106567,1,0,0:0:0:0:
256,192,107205,1,8,0:0:0:0:
256,192,107524,1,8,0:0:0:0:
