osu file format v14

[General]
AudioFilename: audio.mp3
AudioLeadIn: 0
PreviewTime: 92364
Countdown: 0
SampleSet: Normal
StackLeniency: 0.7
Mode: 1
LetterboxInBreaks: 0
WidescreenStoryboard: 0

[Editor]
DistanceSpacing: 0.4
BeatDivisor: 4
GridSize: 4
TimelineZoom: 2.2

[Metadata]
Title:OLAY (RIBB0N ILLEGAL BOOTLEG)
TitleUnicode:OLAY (RIBB0N ILLEGAL BOOTLEG)
Artist:ribb0n
ArtistUnicode:ribb0n
Creator:HiroK
Version:Oni
Source:
Tags:ribbon remix swaghollywood everyone nose all the girls standing in the line for the bathroom nerd electronic breakcore english
BeatmapID:2298571
BeatmapSetID:1098702

[Difficulty]
HPDrainRate:5.5
CircleSize:5
OverallDifficulty:5.5
ApproachRate:5
SliderMultiplier:1.4
SliderTickRate:1

[Events]
//Background and Video events
0,0,"bg.png",0,-10
//Break Periods
//Storyboard Layer 0 (Background)
//Storyboard Layer 1 (Fail)
//Storyboard Layer 2 (Pass)
//Storyboard Layer 3 (Foreground)
//Storyboard Layer 4 (Overlay)
//Storyboard Sound Samples

[TimingPoints]
-7,350.058343057176,4,1,0,45,1,0
-7,-111.111111111111,4,1,0,45,0,0
11107,-100,4,1,0,50,0,0
16708,-90.9090909090909,4,1,0,60,0,0
19158,-90.9090909090909,4,1,0,30,0,0
19552,-90.9090909090909,4,1,0,60,0,0
24759,-90.9090909090909,4,1,0,30,0,0
25153,-90.9090909090909,4,1,0,60,0,0
28085,-93.0232558139535,4,1,0,50,0,0
28260,-95.2380952380952,4,1,0,50,0,0
28610,-99.9999999999999,4,1,0,50,0,0
30054,-98.0392156862745,4,1,0,50,0,0
30229,-96.1538461538461,4,1,0,50,0,0
30404,-94.3396226415094,4,1,0,50,0,0
30579,-92.5925925925926,4,1,0,50,0,0
30666,-91.743119266055,4,1,0,50,0,0
30754,-90.9090909090909,4,1,0,60,0,0
50488,-100,4,1,0,50,0,0
61209,-101.010101010101,4,1,0,50,0,0
61296,-102.040816326531,4,1,0,50,0,0
61384,-103.092783505155,4,1,0,50,0,0
61471,-104.166666666667,4,1,0,50,0,0
61559,-105.263157894737,4,1,0,40,0,0
61690,-104.166666666667,4,1,0,42,0,0
61865,-102.040816326531,4,1,0,45,0,0
62084,-100,4,1,0,45,0,0
62172,-99.009900990099,4,1,0,45,0,0
62259,-98.0392156862745,4,1,0,45,0,0
62347,-97.0873786407767,4,1,0,45,0,0
62434,-96.1538461538461,4,1,0,45,0,0
62595,-94.3396226415094,4,1,0,45,0,0
62959,-90.9090909090909,4,1,0,60,0,0
72236,-92.5925925925926,4,1,0,55,0,0
72323,-93.4579439252336,4,1,0,55,0,0
72411,-94.3396226415094,4,1,0,55,0,0
72586,-96.1538461538461,4,1,0,50,0,0
72673,-97.0873786407767,4,1,0,50,0,0
72761,-98.0392156862745,4,1,0,50,0,0
72848,-100,4,1,0,55,0,0
83919,-95.2380952380952,4,1,0,50,0,0
89739,-94.3396226415094,4,1,0,55,0,0
89826,-93.8967136150235,4,1,0,55,0,0
89914,-93.4579439252336,4,1,0,55,0,0
90001,-93.0232558139535,4,1,0,55,0,0
90089,-92.5925925925926,4,1,0,55,0,0
90264,-91.743119266055,4,1,0,55,0,0
90351,-91.324200913242,4,1,0,55,0,0
90439,-90.9090909090909,4,1,0,55,0,0
90614,-90.0900900900901,4,1,0,55,0,0
90789,-89.2857142857143,4,1,0,55,0,0
90964,-88.8888888888889,4,1,0,55,0,0
91139,-88.4955752212389,4,1,0,55,0,0
91226,-88.1057268722467,4,1,0,55,0,0
91314,-87.719298245614,4,1,0,55,0,0
91401,-87.3362445414847,4,1,0,55,0,0
91489,-86.9565217391304,4,1,0,55,0,0
91664,-86.2068965517241,4,1,0,55,0,0
91752,-85.8369098712446,4,1,0,55,0,0
91839,-85.4700854700855,4,1,0,55,0,0
92014,-84.7457627118644,4,1,0,55,0,0
92408,350.058343057176,8,1,0,15,1,8
92408,-181.818181818182,8,1,0,15,0,0
95121,-90.9090909090909,4,1,0,60,0,0
95208,350.058343057176,4,1,0,60,1,0
95208,-90.9090909090909,4,1,0,60,0,0
97045,-68.9655172413793,4,1,0,60,0,0
97658,-83.3333333333333,4,1,0,60,0,0
97921,-90.9090909090909,4,1,0,60,0,0
99846,-68.9655172413793,4,1,0,60,0,0
100546,-83.3333333333333,4,1,0,60,0,0
100721,-90.9090909090909,4,1,0,60,0,0
105622,-93.0232558139535,4,1,0,15,0,0
106322,-95.2380952380952,4,1,0,60,0,0
108247,-68.9655172413793,4,1,0,60,0,0
109122,-90.9090909090909,4,1,0,60,0,0
110873,-83.3333333333333,4,1,0,60,0,0
111048,-68.9655172413793,4,1,0,60,0,0
111923,-90.9090909090909,4,1,0,60,0,0
113848,-68.9655172413793,4,1,0,60,0,0
114723,-90.9090909090909,4,1,0,60,0,0
116474,-83.3333333333333,4,1,0,60,0,0
116649,-68.9655172413793,4,1,0,60,0,0
117524,-86.9565217391304,4,1,0,60,0,0
117611,-86.9565217391304,4,1,0,60,0,1
128507,-86.9565217391304,4,1,0,40,0,1
128594,-86.9565217391304,4,1,0,60,0,1
128682,-86.9565217391304,4,1,0,40,0,1
128769,-86.9565217391304,4,1,0,60,0,1
139986,-86.9565217391304,4,1,0,30,0,1
140015,-86.9565217391304,4,1,0,30,0,0

[HitObjects]
254,185,5593,5,0,0:0:0:0:
254,185,5943,5,8,0:0:0:0:
254,185,6119,1,0,0:0:0:0:
254,185,6469,1,8,0:0:0:0:
254,185,6644,1,0,0:0:0:0:
254,185,6994,1,0,0:0:0:0:
254,185,7344,1,8,0:0:0:0:
254,185,7519,1,0,0:0:0:0:
254,185,7869,1,8,0:0:0:0:
254,185,8044,1,0,0:0:0:0:
254,185,8131,1,8,0:0:0:0:
254,185,8306,1,8,0:0:0:0:
254,185,8394,1,0,0:0:0:0:
254,185,8744,1,8,0:0:0:0:
254,185,8919,1,0,0:0:0:0:
254,185,9269,1,8,0:0:0:0:
254,185,9444,1,0,0:0:0:0:
254,185,9794,1,0,0:0:0:0:
254,185,10144,1,8,0:0:0:0:
254,185,10319,1,0,0:0:0:0:
301,168,10669,1,8,0:0:0:0:
254,185,10844,1,0,0:0:0:0:
254,185,11194,1,0,0:0:0:0:
254,185,11369,1,0,0:0:0:0:
254,185,11544,1,8,0:0:0:0:
254,185,11719,1,0,0:0:0:0:
254,185,11807,1,8,0:0:0:0:
254,185,11894,1,0,0:0:0:0:
254,185,12070,1,8,0:0:0:0:
254,185,12245,1,0,0:0:0:0:
241,178,12332,1,0,0:0:0:0:
254,185,12420,1,8,0:0:0:0:
254,185,12595,1,0,0:0:0:0:
254,185,12770,1,0,0:0:0:0:
254,185,12945,1,8,0:0:0:0:
254,185,13120,1,0,0:0:0:0:
254,185,13207,1,8,0:0:0:0:
254,185,13295,1,0,0:0:0:0:
254,185,13470,1,8,0:0:0:0:
254,185,13645,1,8,0:0:0:0:
254,185,13732,1,8,0:0:0:0:
254,185,13820,1,8,0:0:0:0:
267,181,13907,1,8,0:0:0:0:
254,185,13995,1,0,0:0:0:0:
254,185,14345,1,8,0:0:0:0:
254,185,14520,1,0,0:0:0:0:
254,185,14607,1,8,0:0:0:0:
254,185,14695,1,0,0:0:0:0:
254,185,14870,1,8,0:0:0:0:
254,185,15045,1,0,0:0:0:0:
254,185,15133,1,0,0:0:0:0:
254,185,15220,1,8,0:0:0:0:
277,180,15395,1,0,0:0:0:0:
277,180,15483,1,0,0:0:0:0:
277,180,15570,1,0,0:0:0:0:
277,180,15745,1,8,0:0:0:0:
269,170,15920,1,0,0:0:0:0:
269,170,16008,1,0,0:0:0:0:
269,170,16183,1,0,0:0:0:0:
279,164,16270,1,8,0:0:0:0:
269,170,16445,1,0,0:0:0:0:
269,170,16795,1,4,0:0:0:0:
269,170,17145,1,8,0:0:0:0:
269,170,17320,1,0,0:0:0:0:
269,170,17670,1,8,0:0:0:0:
269,170,17845,1,0,0:0:0:0:
269,170,18196,1,0,0:0:0:0:
269,170,18546,1,8,0:0:0:0:
269,170,18721,1,0,0:0:0:0:
260,159,19071,1,8,0:0:0:0:
269,170,19246,1,0,0:0:0:0:
283,163,19333,1,8,0:0:0:0:
269,170,19508,1,8,0:0:0:0:
269,170,19596,1,0,0:0:0:0:
260,159,19946,1,8,0:0:0:0:
269,170,20121,1,0,0:0:0:0:
269,170,20471,1,8,0:0:0:0:
260,159,20646,1,0,0:0:0:0:
269,170,20996,1,0,0:0:0:0:
269,170,21346,1,8,0:0:0:0:
260,159,21521,1,0,0:0:0:0:
269,170,21871,1,8,0:0:0:0:
269,170,22046,1,0,0:0:0:0:
260,159,22396,1,4,0:0:0:0:
269,170,22746,1,8,0:0:0:0:
269,170,22921,1,0,0:0:0:0:
269,170,23271,1,8,0:0:0:0:
269,170,23446,1,0,0:0:0:0:
269,170,23796,1,0,0:0:0:0:
269,170,24147,1,8,0:0:0:0:
269,170,24322,1,0,0:0:0:0:
269,170,24672,1,8,0:0:0:0:
269,170,24847,1,0,0:0:0:0:
269,170,24934,1,8,0:0:0:0:
254,164,25109,1,0,0:0:0:0:
242,174,25197,1,0,0:0:0:0:
269,170,25547,1,8,0:0:0:0:
269,170,25722,1,0,0:0:0:0:
254,164,26072,1,8,0:0:0:0:
269,170,26247,1,0,0:0:0:0:
269,170,26597,1,0,0:0:0:0:
269,170,26684,1,8,0:0:0:0:
269,170,26772,1,0,0:0:0:0:
254,164,26947,1,8,0:0:0:0:
269,170,27122,1,0,0:0:0:0:
269,170,27210,1,8,0:0:0:0:
269,170,27297,1,0,0:0:0:0:
269,170,27472,1,8,0:0:0:0:
238,168,27647,1,0,0:0:0:0:
254,164,27822,1,8,0:0:0:0:
238,168,27910,1,8,0:0:0:0:
254,164,27997,1,0,0:0:0:0:
238,168,28172,1,0,0:0:0:0:
254,164,28697,1,8,0:0:0:0:
254,164,29222,1,8,0:0:0:0:
254,164,29397,1,0,0:0:0:0:
254,164,29572,1,8,0:0:0:0:
254,164,29747,1,0,0:0:0:0:
254,164,30098,1,8,0:0:0:0:
254,164,30273,1,0,0:0:0:0:
254,164,30448,1,0,0:0:0:0:
265,173,30623,1,8,0:0:0:0:
254,164,30710,1,8,0:0:0:0:
265,173,30798,1,0,0:0:0:0:
254,164,31148,1,8,0:0:0:0:
254,164,31323,1,0,0:0:0:0:
265,173,31498,1,0,0:0:0:0:
265,173,31673,1,8,0:0:0:0:
254,164,31848,1,0,0:0:0:0:
263,176,31935,1,0,0:0:0:0:
254,164,32023,1,8,0:0:0:0:
254,164,32198,1,0,0:0:0:0:
254,164,32373,1,0,0:0:0:0:
265,173,32548,1,8,0:0:0:0:
254,164,32723,1,0,0:0:0:0:
265,173,32810,1,0,0:0:0:0:
254,164,32898,1,0,0:0:0:0:
254,164,33073,1,8,0:0:0:0:
254,164,33248,1,0,0:0:0:0:
254,164,33598,1,4,0:0:0:0:
254,164,33948,1,8,0:0:0:0:
254,164,34123,1,0,0:0:0:0:
254,164,34211,1,8,0:0:0:0:
265,173,34298,1,0,0:0:0:0:
254,164,34473,1,8,0:0:0:0:
254,164,34648,1,0,0:0:0:0:
254,164,34736,1,0,0:0:0:0:
265,173,34823,1,8,0:0:0:0:
254,164,34998,1,0,0:0:0:0:
254,164,35173,1,0,0:0:0:0:
254,164,35348,1,8,0:0:0:0:
254,164,35523,1,0,0:0:0:0:
254,164,35611,1,8,0:0:0:0:
254,164,35698,1,0,0:0:0:0:
254,164,35873,1,8,0:0:0:0:
254,164,36049,1,0,0:0:0:0:
238,162,36136,1,8,0:0:0:0:
254,159,36224,1,8,0:0:0:0:
254,164,36399,1,0,0:0:0:0:
254,164,36749,1,8,0:0:0:0:
254,164,36924,1,0,0:0:0:0:
254,164,37011,1,0,0:0:0:0:
254,164,37099,1,8,0:0:0:0:
254,164,37274,1,8,0:0:0:0:
254,164,37449,1,0,0:0:0:0:
254,164,37624,1,0,0:0:0:0:
254,164,37799,1,8,0:0:0:0:
254,164,37886,1,8,0:0:0:0:
254,164,37974,1,0,0:0:0:0:
254,164,38149,1,8,0:0:0:0:
254,164,38236,1,8,0:0:0:0:
254,164,38324,1,0,0:0:0:0:
254,164,38411,1,0,0:0:0:0:
254,164,38499,1,8,0:0:0:0:
254,164,38674,1,8,0:0:0:0:
254,164,38849,1,0,0:0:0:0:
254,164,39024,1,8,0:0:0:0:
258,154,39199,1,4,0:0:0:0:
254,164,39549,1,8,0:0:0:0:
254,164,39724,1,0,0:0:0:0:
254,164,39812,1,0,0:0:0:0:
254,164,39899,1,8,0:0:0:0:
258,154,40074,1,8,0:0:0:0:
254,164,40249,1,0,0:0:0:0:
254,164,40424,1,8,0:0:0:0:
254,164,40599,1,0,0:0:0:0:
254,164,40774,1,0,0:0:0:0:
254,164,40949,1,8,0:0:0:0:
254,164,41124,1,0,0:0:0:0:
254,164,41212,1,0,0:0:0:0:
254,164,41299,1,0,0:0:0:0:
254,164,41474,1,8,0:0:0:0:
254,164,41649,1,0,0:0:0:0:
254,164,41737,1,8,0:0:0:0:
254,164,41824,1,8,0:0:0:0:
254,164,42000,1,0,0:0:0:0:
254,164,42350,1,8,0:0:0:0:
254,164,42525,1,0,0:0:0:0:
254,164,42612,1,8,0:0:0:0:
254,164,42700,1,0,0:0:0:0:
254,164,42875,1,8,0:0:0:0:
254,164,43050,1,0,0:0:0:0:
254,164,43137,1,0,0:0:0:0:
254,164,43225,1,8,0:0:0:0:
254,164,43400,1,0,0:0:0:0:
254,164,43575,1,0,0:0:0:0:
254,164,43750,1,8,0:0:0:0:
254,164,43925,1,0,0:0:0:0:
254,164,44012,1,0,0:0:0:0:
269,160,44100,1,0,0:0:0:0:
254,164,44275,1,0,0:0:0:0:
254,164,44450,1,8,0:0:0:0:
254,164,44800,1,4,0:0:0:0:
254,164,45150,1,8,0:0:0:0:
254,164,45325,1,0,0:0:0:0:
254,164,45413,1,0,0:0:0:0:
254,164,45500,1,8,0:0:0:0:
238,162,45675,1,0,0:0:0:0:
254,164,45850,1,0,0:0:0:0:
281,153,45938,1,8,0:0:0:0:
254,164,46025,1,8,0:0:0:0:
263,160,46200,1,0,0:0:0:0:
254,164,46375,1,0,0:0:0:0:
254,164,46550,1,8,0:0:0:0:
254,164,46725,1,0,0:0:0:0:
254,164,46813,1,8,0:0:0:0:
263,160,46900,1,0,0:0:0:0:
263,160,47075,1,0,0:0:0:0:
254,164,47250,1,8,0:0:0:0:
254,164,47338,1,8,0:0:0:0:
254,164,47425,1,8,0:0:0:0:
254,164,47513,1,8,0:0:0:0:
254,164,47600,1,0,0:0:0:0:
263,160,47950,1,8,0:0:0:0:
254,164,48126,1,0,0:0:0:0:
254,164,48213,1,8,0:0:0:0:
223,159,48301,1,0,0:0:0:0:
254,164,48476,1,8,0:0:0:0:
254,164,48651,1,0,0:0:0:0:
263,160,48826,1,0,0:0:0:0:
254,164,49001,1,8,0:0:0:0:
263,160,49088,1,8,0:0:0:0:
263,160,49176,1,0,0:0:0:0:
263,160,49351,5,8,0:0:0:0:
263,160,49438,1,8,0:0:0:0:
263,160,49526,1,8,0:0:0:0:
254,164,49701,1,0,0:0:0:0:
254,164,49876,1,8,0:0:0:0:
254,164,49963,1,8,0:0:0:0:
254,164,50051,1,8,0:0:0:0:
254,164,50226,1,8,0:0:0:0:
254,164,50401,1,0,0:0:0:0:
254,164,50751,1,8,0:0:0:0:
228,149,50926,1,8,0:0:0:0:
254,164,51101,1,0,0:0:0:0:
254,164,51276,1,8,0:0:0:0:
254,164,51364,1,0,0:0:0:0:
254,164,51451,1,8,0:0:0:0:
228,149,51626,1,0,0:0:0:0:
255,158,51801,1,8,0:0:0:0:
240,113,52151,1,8,0:0:0:0:
228,149,52326,1,0,0:0:0:0:
248,147,52414,1,8,0:0:0:0:
269,166,52501,1,0,0:0:0:0:
248,147,52676,1,8,0:0:0:0:
248,147,52851,1,8,0:0:0:0:
269,166,53026,1,0,0:0:0:0:
254,164,53201,1,8,0:0:0:0:
254,164,53551,1,0,0:0:0:0:
269,166,53726,1,8,0:0:0:0:
269,166,53814,1,8,0:0:0:0:
269,166,53901,1,0,0:0:0:0:
254,164,54077,1,8,0:0:0:0:
254,164,54252,1,0,0:0:0:0:
254,164,54427,1,0,0:0:0:0:
254,164,54602,1,8,0:0:0:0:
254,164,54952,1,8,0:0:0:0:
245,144,55127,1,0,0:0:0:0:
254,164,55214,1,0,0:0:0:0:
254,164,55302,1,8,0:0:0:0:
254,164,55477,1,0,0:0:0:0:
241,156,55652,1,8,0:0:0:0:
254,164,55827,1,8,0:0:0:0:
255,150,56002,1,0,0:0:0:0:
254,164,56352,1,8,0:0:0:0:
254,164,56527,1,0,0:0:0:0:
254,164,56614,1,0,0:0:0:0:
254,164,56702,1,8,0:0:0:0:
254,164,56877,1,8,0:0:0:0:
254,164,57052,1,0,0:0:0:0:
254,164,57402,1,8,0:0:0:0:
254,164,57752,1,0,0:0:0:0:
254,164,57927,1,8,0:0:0:0:
254,164,58015,1,8,0:0:0:0:
254,164,58102,1,0,0:0:0:0:
254,164,58277,1,8,0:0:0:0:
254,164,58452,1,8,0:0:0:0:
254,164,58627,1,0,0:0:0:0:
254,164,58802,1,0,0:0:0:0:
254,164,59152,1,8,0:0:0:0:
254,164,59327,1,8,0:0:0:0:
254,164,59502,1,0,0:0:0:0:
260,152,59590,1,8,0:0:0:0:
270,160,59677,1,0,0:0:0:0:
291,177,59852,1,8,0:0:0:0:
254,164,60028,1,8,0:0:0:0:
254,164,60203,1,0,0:0:0:0:
260,152,60553,1,8,0:0:0:0:
254,164,60728,1,0,0:0:0:0:
267,166,60815,1,0,0:0:0:0:
254,164,60903,1,8,0:0:0:0:
254,164,61078,1,0,0:0:0:0:
254,164,61253,1,8,0:0:0:0:
252,154,61340,1,8,0:0:0:0:
250,134,61428,1,8,0:0:0:0:
254,164,61515,1,8,0:0:0:0:
250,134,61603,1,0,0:0:0:0:
254,164,61778,1,0,0:0:0:0:
254,164,61953,1,8,0:0:0:0:
254,164,62128,1,0,0:0:0:0:
254,164,62215,1,0,0:0:0:0:
252,154,62303,1,0,0:0:0:0:
254,164,62478,1,8,0:0:0:0:
226,167,62653,1,8,0:0:0:0:
226,167,63003,1,0,0:0:0:0:
249,151,63178,1,0,0:0:0:0:
254,164,63353,1,8,0:0:0:0:
254,164,63528,1,8,0:0:0:0:
254,164,63616,1,0,0:0:0:0:
254,164,63703,1,0,0:0:0:0:
254,164,63878,1,8,0:0:0:0:
254,164,64053,1,0,0:0:0:0:
254,164,64141,1,8,0:0:0:0:
254,164,64228,1,0,0:0:0:0:
254,164,64316,1,8,0:0:0:0:
254,164,64403,1,0,0:0:0:0:
254,164,64753,1,8,0:0:0:0:
254,164,64928,1,0,0:0:0:0:
254,164,65016,1,8,0:0:0:0:
254,164,65103,1,0,0:0:0:0:
259,133,65278,1,8,0:0:0:0:
254,164,65453,1,0,0:0:0:0:
254,164,65541,1,0,0:0:0:0:
254,164,65628,1,8,0:0:0:0:
254,164,65803,1,0,0:0:0:0:
254,164,65978,1,0,0:0:0:0:
254,164,66154,1,8,0:0:0:0:
254,164,66329,1,0,0:0:0:0:
254,164,66416,1,8,0:0:0:0:
254,164,66504,1,0,0:0:0:0:
254,164,66679,1,8,0:0:0:0:
254,164,66854,1,0,0:0:0:0:
254,164,67204,1,4,0:0:0:0:
254,164,67554,1,8,0:0:0:0:
254,164,67729,1,0,0:0:0:0:
254,164,67816,1,8,0:0:0:0:
254,164,67904,1,8,0:0:0:0:
254,164,68079,1,8,0:0:0:0:
254,164,68254,1,0,0:0:0:0:
254,164,68429,1,8,0:0:0:0:
238,161,68516,1,8,0:0:0:0:
254,164,68604,1,0,0:0:0:0:
254,164,68779,1,0,0:0:0:0:
254,164,68954,1,8,0:0:0:0:
254,164,69129,1,0,0:0:0:0:
254,164,69217,1,0,0:0:0:0:
254,164,69304,1,8,0:0:0:0:
254,164,69479,1,0,0:0:0:0:
254,164,69654,1,8,0:0:0:0:
254,164,69742,1,8,0:0:0:0:
254,164,69829,1,8,0:0:0:0:
240,156,69917,1,8,0:0:0:0:
240,156,70004,1,0,0:0:0:0:
254,164,70354,1,8,0:0:0:0:
254,164,70529,1,0,0:0:0:0:
254,164,70617,1,0,0:0:0:0:
254,164,70704,1,0,0:0:0:0:
254,164,70879,1,8,0:0:0:0:
254,164,71054,1,0,0:0:0:0:
266,167,71142,1,0,0:0:0:0:
254,164,71404,1,8,0:0:0:0:
254,164,71579,1,0,0:0:0:0:
254,164,71754,1,8,0:0:0:0:
254,164,71842,1,8,0:0:0:0:
254,164,71929,1,8,0:0:0:0:
254,164,72105,1,0,0:0:0:0:
254,164,72280,1,8,0:0:0:0:
254,164,72367,1,8,0:0:0:0:
254,164,72455,1,0,0:0:0:0:
254,164,72630,1,8,0:0:0:0:
254,164,72717,1,0,0:0:0:0:
254,164,72805,1,0,0:0:0:0:
254,164,73155,1,8,0:0:0:0:
254,164,73330,1,0,0:0:0:0:
254,164,73417,1,0,0:0:0:0:
254,164,73505,1,8,0:0:0:0:
254,164,73680,1,0,0:0:0:0:
254,164,73855,1,8,0:0:0:0:
286,144,74205,1,8,0:0:0:0:
286,144,74380,1,0,0:0:0:0:
273,151,74555,1,8,0:0:0:0:
259,154,74642,1,0,0:0:0:0:
254,164,74817,1,0,0:0:0:0:
246,164,74905,1,8,0:0:0:0:
254,164,75080,1,0,0:0:0:0:
254,164,75255,1,8,0:0:0:0:
254,164,75605,1,0,0:0:0:0:
254,164,75955,1,8,0:0:0:0:
254,164,76130,1,0,0:0:0:0:
254,164,76218,1,0,0:0:0:0:
254,164,76305,1,0,0:0:0:0:
254,164,76480,1,0,0:0:0:0:
254,164,76655,1,8,0:0:0:0:
254,164,77005,1,0,0:0:0:0:
254,164,77355,1,0,0:0:0:0:
254,164,77530,1,8,0:0:0:0:
254,164,77618,1,8,0:0:0:0:
254,164,77705,1,0,0:0:0:0:
254,164,77880,1,8,0:0:0:0:
254,164,78056,1,0,0:0:0:0:
254,164,78318,1,8,0:0:0:0:
254,164,78406,1,0,0:0:0:0:
254,164,78756,1,8,0:0:0:0:
254,164,78931,1,0,0:0:0:0:
254,164,79018,1,0,0:0:0:0:
254,164,79106,1,8,0:0:0:0:
254,164,79281,1,0,0:0:0:0:
254,164,79456,1,8,0:0:0:0:
254,164,79806,1,8,0:0:0:0:
254,164,79981,1,0,0:0:0:0:
254,164,80156,1,0,0:0:0:0:
254,164,80331,1,0,0:0:0:0:
254,164,80418,1,8,0:0:0:0:
254,164,80506,1,0,0:0:0:0:
254,164,80681,1,0,0:0:0:0:
254,164,80856,1,8,0:0:0:0:
254,164,81206,1,0,0:0:0:0:
254,164,81556,1,8,0:0:0:0:
254,164,81731,1,0,0:0:0:0:
254,164,81819,1,0,0:0:0:0:
254,164,81906,1,8,0:0:0:0:
254,164,82081,1,0,0:0:0:0:
254,164,82256,1,8,0:0:0:0:
254,164,82606,1,8,0:0:0:0:
254,164,82781,1,8,0:0:0:0:
254,164,82956,1,0,0:0:0:0:
254,164,83131,1,8,0:0:0:0:
254,164,83306,1,0,0:0:0:0:
254,164,83481,1,0,0:0:0:0:
254,164,83656,1,8,0:0:0:0:
254,164,84007,1,4,0:0:0:0:
254,164,84269,1,0,0:0:0:0:
254,164,84444,1,0,0:0:0:0:
254,164,84532,1,0,0:0:0:0:
254,164,84707,1,8,0:0:0:0:
254,164,85057,1,8,0:0:0:0:
254,164,85232,1,0,0:0:0:0:
254,164,85407,1,8,0:0:0:0:
254,164,85669,1,0,0:0:0:0:
254,164,85844,1,8,0:0:0:0:
254,164,85932,1,0,0:0:0:0:
254,164,86107,1,8,0:0:0:0:
254,164,86457,1,0,0:0:0:0:
254,164,86632,1,0,0:0:0:0:
254,164,86807,1,8,0:0:0:0:
254,164,87070,1,8,0:0:0:0:
254,164,87245,1,0,0:0:0:0:
254,164,87332,1,0,0:0:0:0:
284,162,87507,1,8,0:0:0:0:
266,154,87857,1,8,0:0:0:0:
254,164,87945,1,8,0:0:0:0:
266,154,88032,1,0,0:0:0:0:
266,154,88207,1,8,0:0:0:0:
266,154,88470,1,8,0:0:0:0:
266,154,88645,1,8,0:0:0:0:
266,154,88732,1,0,0:0:0:0:
266,154,88907,1,8,0:0:0:0:
266,154,89257,1,0,0:0:0:0:
266,154,89432,1,8,0:0:0:0:
266,154,89607,1,0,0:0:0:0:
266,154,89782,1,0,0:0:0:0:
266,154,89870,1,0,0:0:0:0:
266,154,89957,1,8,0:0:0:0:
259,167,90045,1,0,0:0:0:0:
266,154,90133,1,8,0:0:0:0:
266,154,90308,1,0,0:0:0:0:
266,154,90395,1,0,0:0:0:0:
266,154,90483,1,8,0:0:0:0:
266,154,90658,1,0,0:0:0:0:
266,154,90833,1,8,0:0:0:0:
266,154,91008,1,0,0:0:0:0:
266,154,91183,1,8,0:0:0:0:
266,154,91270,1,0,0:0:0:0:
254,164,91358,1,8,0:0:0:0:
254,164,91445,1,8,0:0:0:0:
254,164,91533,1,0,0:0:0:0:
266,154,91708,1,0,0:0:0:0:
266,154,91795,1,0,0:0:0:0:
266,154,91883,1,8,0:0:0:0:
254,164,92058,5,4,0:0:0:0:
271,188,94508,5,0,0:0:0:0:
271,188,94683,1,8,0:0:0:0:
271,188,94858,1,0,0:0:0:0:
271,188,95033,1,8,0:0:0:0:
271,188,95208,5,4,0:0:0:0:
271,188,95470,1,0,0:0:0:0:
271,188,95645,1,8,0:0:0:0:
271,188,95733,1,0,0:0:0:0:
271,188,95908,1,8,0:0:0:0:
271,188,96083,1,0,0:0:0:0:
271,188,96170,1,8,0:0:0:0:
271,188,96258,1,0,0:0:0:0:
271,188,96433,1,8,0:0:0:0:
271,188,96608,1,0,0:0:0:0:
271,188,96958,1,8,0:0:0:0:
271,188,97133,1,4,0:0:0:0:
271,188,97308,1,4,0:0:0:0:
271,188,97570,1,4,0:0:0:0:
271,188,97833,1,12,0:0:0:0:
271,188,98008,1,0,0:0:0:0:
271,188,98271,1,0,0:0:0:0:
271,188,98446,1,8,0:0:0:0:
271,188,98533,1,0,0:0:0:0:
271,188,98708,1,8,0:0:0:0:
271,188,98883,1,0,0:0:0:0:
271,188,98971,1,8,0:0:0:0:
271,188,99058,1,0,0:0:0:0:
271,188,99233,1,0,0:0:0:0:
271,188,99408,1,8,0:0:0:0:
284,180,99758,1,8,0:0:0:0:
271,188,99933,1,4,0:0:0:0:
271,188,100108,1,4,0:0:0:0:
271,188,100371,1,4,0:0:0:0:
271,188,100633,1,12,0:0:0:0:
271,188,100808,1,0,0:0:0:0:
271,188,101071,1,0,0:0:0:0:
271,188,101246,1,8,0:0:0:0:
271,188,101334,1,0,0:0:0:0:
271,188,101509,1,8,0:0:0:0:
271,188,101684,1,0,0:0:0:0:
271,188,101771,1,8,0:0:0:0:
271,188,101859,1,0,0:0:0:0:
271,188,102034,1,8,0:0:0:0:
271,188,102209,1,0,0:0:0:0:
261,175,102384,1,0,0:0:0:0:
272,172,102559,1,8,0:0:0:0:
271,188,102909,1,8,0:0:0:0:
271,188,103084,1,8,0:0:0:0:
264,173,103171,1,0,0:0:0:0:
261,175,103259,1,8,0:0:0:0:
271,188,103609,1,0,0:0:0:0:
271,188,103871,1,0,0:0:0:0:
271,188,104046,1,8,0:0:0:0:
264,173,104134,1,0,0:0:0:0:
261,175,104309,1,8,0:0:0:0:
271,188,104484,1,0,0:0:0:0:
271,188,104572,1,8,0:0:0:0:
271,188,104659,1,0,0:0:0:0:
271,159,104834,1,8,0:0:0:0:
278,145,105009,1,0,0:0:0:0:
261,175,105272,1,0,0:0:0:0:
264,173,105359,1,8,0:0:0:0:
264,173,105534,1,8,0:0:0:0:
264,173,105709,1,0,0:0:0:0:
271,159,105884,1,8,0:0:0:0:
264,173,106059,1,0,0:0:0:0:
264,173,106234,1,8,0:0:0:0:
264,173,106409,1,0,0:0:0:0:
264,173,106672,1,8,0:0:0:0:
271,159,106847,1,8,0:0:0:0:
264,173,106934,1,8,0:0:0:0:
264,173,107109,1,0,0:0:0:0:
236,182,107285,1,0,0:0:0:0:
264,173,107372,1,8,0:0:0:0:
264,173,107460,1,0,0:0:0:0:
264,173,107635,1,8,0:0:0:0:
271,159,107810,1,0,0:0:0:0:
264,173,107985,1,0,0:0:0:0:
264,173,108072,1,0,0:0:0:0:
242,151,108160,1,8,0:0:0:0:
210,141,108335,1,4,0:0:0:0:
264,173,108510,1,4,0:0:0:0:
264,173,108772,1,4,0:0:0:0:
264,173,109210,1,0,0:0:0:0:
264,173,109472,1,8,0:0:0:0:
264,173,109647,1,8,0:0:0:0:
264,173,109735,1,8,0:0:0:0:
264,173,109910,1,0,0:0:0:0:
294,169,110085,1,0,0:0:0:0:
264,173,110172,1,8,0:0:0:0:
264,173,110260,1,0,0:0:0:0:
264,173,110435,1,0,0:0:0:0:
264,173,110610,1,0,0:0:0:0:
264,173,110698,1,0,0:0:0:0:
264,173,110785,1,0,0:0:0:0:
264,173,110960,1,12,0:0:0:0:
264,173,111135,1,4,0:0:0:0:
264,173,111310,1,4,0:0:0:0:
264,173,111573,1,4,0:0:0:0:
264,173,112010,1,0,0:0:0:0:
264,173,112273,1,8,0:0:0:0:
264,173,112448,1,8,0:0:0:0:
264,173,112535,1,8,0:0:0:0:
264,173,112710,1,0,0:0:0:0:
294,167,112885,1,0,0:0:0:0:
264,173,112973,1,8,0:0:0:0:
264,173,113060,1,0,0:0:0:0:
264,173,113236,1,8,0:0:0:0:
264,173,113411,1,0,0:0:0:0:
264,173,113586,1,0,0:0:0:0:
264,173,113673,1,0,0:0:0:0:
264,173,113761,1,8,0:0:0:0:
264,173,113936,1,4,0:0:0:0:
264,173,114111,1,4,0:0:0:0:
264,173,114373,1,4,0:0:0:0:
264,173,114811,1,0,0:0:0:0:
264,173,115073,1,8,0:0:0:0:
264,173,115248,1,8,0:0:0:0:
264,173,115336,1,8,0:0:0:0:
264,173,115511,1,0,0:0:0:0:
294,167,115686,1,0,0:0:0:0:
264,173,115773,1,8,0:0:0:0:
264,173,115861,1,0,0:0:0:0:
264,173,116036,1,8,0:0:0:0:
264,173,116211,1,0,0:0:0:0:
264,173,116299,1,0,0:0:0:0:
264,173,116386,1,0,0:0:0:0:
264,173,116561,1,12,0:0:0:0:
264,173,116736,1,4,0:0:0:0:
264,173,116911,1,4,0:0:0:0:
264,173,117174,1,4,0:0:0:0:
235,160,117611,1,12,0:0:0:0:
235,160,117786,1,0,0:0:0:0:
235,160,117961,1,8,0:0:0:0:
235,160,118136,1,0,0:0:0:0:
235,160,118224,1,8,0:0:0:0:
235,160,118311,1,0,0:0:0:0:
235,160,118486,1,8,0:0:0:0:
235,160,118661,1,0,0:0:0:0:
249,168,118836,1,8,0:0:0:0:
249,168,119011,1,0,0:0:0:0:
249,168,119186,1,0,0:0:0:0:
235,160,119274,1,0,0:0:0:0:
235,160,119362,1,8,0:0:0:0:
235,160,119537,1,8,0:0:0:0:
235,160,119624,1,8,0:0:0:0:
249,168,119712,1,0,0:0:0:0:
249,168,119887,1,8,0:0:0:0:
249,168,120062,1,0,0:0:0:0:
257,160,120149,1,0,0:0:0:0:
249,168,120237,1,8,0:0:0:0:
249,168,120324,1,8,0:0:0:0:
249,168,120412,1,0,0:0:0:0:
254,164,120762,1,8,0:0:0:0:
254,164,120937,1,0,0:0:0:0:
265,173,121112,1,0,0:0:0:0:
265,173,121287,1,8,0:0:0:0:
254,164,121462,1,0,0:0:0:0:
263,176,121549,1,0,0:0:0:0:
254,164,121637,1,8,0:0:0:0:
254,164,121812,1,0,0:0:0:0:
254,164,121987,1,0,0:0:0:0:
265,173,122162,1,8,0:0:0:0:
254,164,122337,1,0,0:0:0:0:
265,173,122425,1,0,0:0:0:0:
254,164,122512,1,0,0:0:0:0:
254,164,122687,1,8,0:0:0:0:
254,164,122862,1,0,0:0:0:0:
254,164,123212,1,4,0:0:0:0:
254,164,123562,1,8,0:0:0:0:
254,164,123737,1,0,0:0:0:0:
254,164,123825,1,8,0:0:0:0:
265,173,123912,1,0,0:0:0:0:
254,164,124087,1,8,0:0:0:0:
254,164,124262,1,0,0:0:0:0:
254,164,124350,1,0,0:0:0:0:
265,173,124437,1,8,0:0:0:0:
254,164,124612,1,0,0:0:0:0:
254,164,124787,1,0,0:0:0:0:
254,164,124962,1,8,0:0:0:0:
254,164,125137,1,0,0:0:0:0:
254,164,125225,1,8,0:0:0:0:
254,164,125313,1,0,0:0:0:0:
254,164,125488,1,8,0:0:0:0:
254,164,125663,1,0,0:0:0:0:
238,162,125750,1,8,0:0:0:0:
254,159,125838,1,8,0:0:0:0:
254,164,126013,1,0,0:0:0:0:
254,164,126363,1,8,0:0:0:0:
254,164,126538,1,0,0:0:0:0:
254,164,126625,1,0,0:0:0:0:
254,164,126713,1,8,0:0:0:0:
254,164,126888,1,8,0:0:0:0:
254,164,127063,1,0,0:0:0:0:
254,164,127238,1,0,0:0:0:0:
254,164,127413,1,8,0:0:0:0:
254,164,127500,1,8,0:0:0:0:
254,164,127588,1,0,0:0:0:0:
254,164,127763,1,8,0:0:0:0:
254,164,127850,1,8,0:0:0:0:
254,164,127938,1,0,0:0:0:0:
254,164,128025,1,0,0:0:0:0:
254,164,128113,1,8,0:0:0:0:
254,164,128288,1,8,0:0:0:0:
254,164,128463,1,0,0:0:0:0:
254,164,128551,1,8,0:0:0:0:
254,164,128638,1,0,0:0:0:0:
258,154,128813,1,4,0:0:0:0:
254,164,129163,1,8,0:0:0:0:
254,164,129338,1,0,0:0:0:0:
254,164,129426,1,0,0:0:0:0:
254,164,129513,1,8,0:0:0:0:
258,154,129688,1,8,0:0:0:0:
254,164,129863,1,0,0:0:0:0:
254,164,130038,1,8,0:0:0:0:
254,164,130213,1,0,0:0:0:0:
254,164,130388,1,0,0:0:0:0:
254,164,130563,1,8,0:0:0:0:
254,164,130738,1,0,0:0:0:0:
254,164,130826,1,0,0:0:0:0:
254,164,130913,1,0,0:0:0:0:
254,164,131088,1,8,0:0:0:0:
254,164,131264,1,0,0:0:0:0:
254,164,131351,1,8,0:0:0:0:
254,164,131439,1,8,0:0:0:0:
254,164,131614,1,0,0:0:0:0:
254,164,131964,1,8,0:0:0:0:
254,164,132139,1,0,0:0:0:0:
254,164,132226,1,8,0:0:0:0:
254,164,132314,1,0,0:0:0:0:
254,164,132489,1,8,0:0:0:0:
254,164,132664,1,0,0:0:0:0:
254,164,132751,1,0,0:0:0:0:
254,164,132839,1,8,0:0:0:0:
254,164,133014,1,0,0:0:0:0:
254,164,133189,1,0,0:0:0:0:
254,164,133364,1,8,0:0:0:0:
254,164,133539,1,0,0:0:0:0:
254,164,133626,1,0,0:0:0:0:
269,160,133714,1,0,0:0:0:0:
254,164,133889,1,0,0:0:0:0:
254,164,134064,1,8,0:0:0:0:
254,164,134414,1,4,0:0:0:0:
254,164,134764,1,8,0:0:0:0:
254,164,134939,1,0,0:0:0:0:
254,164,135027,1,0,0:0:0:0:
254,164,135114,1,8,0:0:0:0:
238,162,135289,1,0,0:0:0:0:
254,164,135464,1,0,0:0:0:0:
281,153,135552,1,8,0:0:0:0:
254,164,135639,1,8,0:0:0:0:
263,160,135814,1,0,0:0:0:0:
254,164,135989,1,0,0:0:0:0:
254,164,136164,1,8,0:0:0:0:
254,164,136339,1,0,0:0:0:0:
254,164,136427,1,8,0:0:0:0:
263,160,136514,1,0,0:0:0:0:
263,160,136689,1,0,0:0:0:0:
254,164,136864,1,8,0:0:0:0:
254,164,136952,1,8,0:0:0:0:
254,164,137039,1,8,0:0:0:0:
254,164,137127,1,8,0:0:0:0:
254,164,137215,1,0,0:0:0:0:
263,160,137565,1,8,0:0:0:0:
254,164,137740,1,0,0:0:0:0:
254,164,137827,1,8,0:0:0:0:
223,159,137915,1,0,0:0:0:0:
254,164,138090,1,8,0:0:0:0:
254,164,138265,1,0,0:0:0:0:
263,160,138440,1,0,0:0:0:0:
254,164,138615,1,8,0:0:0:0:
263,160,138702,1,8,0:0:0:0:
263,160,138790,1,0,0:0:0:0:
263,160,138965,5,8,0:0:0:0:
263,160,139052,1,8,0:0:0:0:
263,160,139140,1,8,0:0:0:0:
254,164,139315,1,0,0:0:0:0:
254,164,139490,1,8,0:0:0:0:
254,164,139577,1,8,0:0:0:0:
254,164,139665,1,8,0:0:0:0:
254,164,139840,1,0,0:0:0:0:
267,163,140015,1,12,0:0:0:0:
