osu file format v14

[General]
AudioFilename: audio.mp3
AudioLeadIn: 0
PreviewTime: 49974
Countdown: 0
SampleSet: Normal
StackLeniency: 0.7
Mode: 3
LetterboxInBreaks: 0
SpecialStyle: 1
WidescreenStoryboard: 0

[Editor]
DistanceSpacing: 0.8
BeatDivisor: 8
GridSize: 4
TimelineZoom: 2.3

[Metadata]
Title:Currant
TitleUnicode:Currant
Artist:rian
ArtistUnicode:リアン
Creator:wIntEr7z
Version:Drizzle
Source:
Tags:春野 haruno xupxq_ mits mits_flw filia 狩廼しゃる Karino Sharu shqru_mix nairdrns_ 歌ってみた Utattemita Japanese Vocal utaite Female pop jpop j-pop Cover
BeatmapID:4058158
BeatmapSetID:1958706

[Difficulty]
HPDrainRate:8.3
CircleSize:4
OverallDifficulty:7.7
ApproachRate:9.9
SliderMultiplier:1.4
SliderTickRate:1

[Events]
//Background and Video events
0,0,"currantbg.jpg",0,0
//Break Periods
//Storyboard Layer 0 (Background)
//Storyboard Layer 1 (Fail)
//Storyboard Layer 2 (Pass)
//Storyboard Layer 3 (Foreground)
//Storyboard Layer 4 (Overlay)
//Storyboard Sound Samples

[TimingPoints]
1968,600,4,1,1,45,1,0
52368,-100,4,1,1,45,0,1
69168,-100,4,1,1,45,0,0
93168,-100,4,1,1,45,0,1
109968,-100,4,1,1,45,0,0
155568,-100,4,1,1,45,0,1
172368,-100,4,1,1,45,0,0

[HitObjects]
64,192,1968,128,0,2118:0:0:0:0:
448,192,2605,1,0,0:0:0:0:
320,192,2643,1,0,0:0:0:0:
448,192,2868,1,0,0:0:0:0:
192,192,3168,1,0,0:0:0:0:
320,192,3468,128,0,3618:0:0:0:0:
448,192,3468,1,0,0:0:0:0:
192,192,4068,128,0,4218:0:0:0:0:
64,192,4068,1,0,0:0:0:0:
448,192,6768,128,0,6918:0:0:0:0:
320,192,7368,1,0,0:0:0:0:
192,192,7418,1,0,0:0:0:0:
64,192,7668,1,0,0:0:0:0:
320,192,7968,1,0,0:0:0:0:
448,192,8018,1,0,0:0:0:0:
320,192,8268,128,0,8418:0:0:0:0:
192,192,8268,1,0,0:0:0:0:
64,192,8568,1,0,0:0:0:0:
320,192,8868,1,0,0:0:0:0:
448,192,8868,128,0,9018:0:0:0:0:
192,192,10068,128,0,10218:0:0:0:0:
64,192,10968,128,0,11568:0:0:0:0:
320,192,11568,128,0,12168:0:0:0:0:
448,192,11568,128,0,11868:0:0:0:0:
64,192,12468,128,0,12768:0:0:0:0:
448,192,12768,128,0,13368:0:0:0:0:
320,192,12768,1,0,0:0:0:0:
64,192,13068,128,0,13368:0:0:0:0:
192,192,13068,1,0,0:0:0:0:
64,192,13668,128,0,13968:0:0:0:0:
448,192,13668,128,0,13968:0:0:0:0:
320,192,13968,128,0,14568:0:0:0:0:
448,192,14268,1,0,0:0:0:0:
64,192,14568,1,0,0:0:0:0:
192,192,14568,1,0,0:0:0:0:
448,192,14868,128,0,15168:0:0:0:0:
192,192,14868,128,0,15468:0:0:0:0:
320,192,15468,1,0,0:0:0:0:
448,192,15768,1,0,0:0:0:0:
64,192,15768,128,0,16368:0:0:0:0:
192,192,16068,128,0,16368:0:0:0:0:
448,192,16368,128,0,16668:0:0:0:0:
320,192,16368,1,0,0:0:0:0:
192,192,16668,128,0,16968:0:0:0:0:
64,192,16968,128,0,17268:0:0:0:0:
448,192,17268,128,0,17568:0:0:0:0:
64,192,17568,1,0,0:0:0:0:
320,192,17568,128,0,17868:0:0:0:0:
448,192,17868,128,0,18168:0:0:0:0:
192,192,17868,1,0,0:0:0:0:
64,192,18018,128,0,18318:0:0:0:0:
448,192,18468,128,0,18768:0:0:0:0:
192,192,18468,128,0,19068:0:0:0:0:
320,192,19068,1,0,0:0:0:0:
64,192,19368,1,0,0:0:0:0:
448,192,19368,1,0,0:0:0:0:
320,192,19668,128,0,19968:0:0:0:0:
192,192,19668,128,0,19968:0:0:0:0:
64,192,20268,128,0,20343:0:0:0:0:
448,192,20305,128,0,20380:0:0:0:0:
192,192,20418,128,0,20493:0:0:0:0:
448,192,20568,128,0,20643:0:0:0:0:
320,192,20568,128,0,21168:0:0:0:0:
64,192,20718,128,0,20793:0:0:0:0:
192,192,20718,1,0,0:0:0:0:
448,192,20868,128,0,21168:0:0:0:0:
192,192,21168,128,0,21468:0:0:0:0:
64,192,21168,128,0,21468:0:0:0:0:
192,192,22068,128,0,22218:0:0:0:0:
192,192,22368,128,0,22668:0:0:0:0:
448,192,22368,1,0,0:0:0:0:
448,192,22668,128,0,22968:0:0:0:0:
320,192,22668,1,0,0:0:0:0:
448,192,23268,128,0,23568:0:0:0:0:
64,192,23268,128,0,23418:0:0:0:0:
64,192,23568,128,0,24168:0:0:0:0:
320,192,23868,1,0,0:0:0:0:
192,192,24168,1,0,0:0:0:0:
448,192,24168,1,0,0:0:0:0:
448,192,24468,128,0,24768:0:0:0:0:
192,192,24468,128,0,24618:0:0:0:0:
192,192,24768,128,0,25068:0:0:0:0:
64,192,25068,1,0,0:0:0:0:
448,192,25368,128,0,25518:0:0:0:0:
320,192,25368,1,0,0:0:0:0:
448,192,25668,128,0,25968:0:0:0:0:
64,192,25968,128,0,26268:0:0:0:0:
192,192,25968,128,0,26268:0:0:0:0:
320,192,26268,128,0,26568:0:0:0:0:
64,192,26568,128,0,26868:0:0:0:0:
320,192,26868,128,0,27168:0:0:0:0:
64,192,27168,128,0,27468:0:0:0:0:
448,192,27168,1,0,0:0:0:0:
320,192,27468,1,0,0:0:0:0:
448,192,27468,128,0,27768:0:0:0:0:
192,192,27618,128,0,27918:0:0:0:0:
192,192,28068,128,0,28668:0:0:0:0:
64,192,28068,1,0,0:0:0:0:
320,192,28368,128,0,28668:0:0:0:0:
448,192,28668,1,0,0:0:0:0:
64,192,28968,1,0,0:0:0:0:
192,192,28968,1,0,0:0:0:0:
320,192,29268,128,0,29568:0:0:0:0:
448,192,29268,128,0,29768:0:0:0:0:
64,192,29568,128,0,29968:0:0:0:0:
192,192,29768,128,0,29968:0:0:0:0:
64,192,30168,128,0,30768:0:0:0:0:
192,192,30168,128,0,30468:0:0:0:0:
448,192,30768,128,0,35568:0:0:0:0:
320,192,30768,1,0,0:0:0:0:
192,192,30768,1,0,0:0:0:0:
64,192,31368,128,0,31668:0:0:0:0:
320,192,31668,128,0,31968:0:0:0:0:
192,192,31968,128,0,32268:0:0:0:0:
64,192,31968,1,0,0:0:0:0:
64,192,32268,128,0,32568:0:0:0:0:
320,192,32568,128,0,32868:0:0:0:0:
64,192,32868,128,0,33168:0:0:0:0:
192,192,33168,1,0,0:0:0:0:
64,192,33468,128,0,33768:0:0:0:0:
320,192,33468,128,0,33543:0:0:0:0:
192,192,33768,128,0,34068:0:0:0:0:
320,192,33768,128,0,33843:0:0:0:0:
64,192,34068,128,0,34143:0:0:0:0:
192,192,34368,1,0,0:0:0:0:
320,192,34368,1,0,0:0:0:0:
64,192,34668,1,0,0:0:0:0:
320,192,34968,128,0,35043:0:0:0:0:
64,192,35268,128,0,35568:0:0:0:0:
192,192,35268,128,0,35343:0:0:0:0:
192,192,35568,128,0,35868:0:0:0:0:
320,192,35568,128,0,40368:0:0:0:0:
448,192,35868,128,0,36168:0:0:0:0:
192,192,36168,128,0,36468:0:0:0:0:
448,192,36468,128,0,36768:0:0:0:0:
192,192,36768,128,0,37068:0:0:0:0:
64,192,36768,1,0,0:0:0:0:
448,192,37068,1,0,0:0:0:0:
64,192,37368,128,0,37668:0:0:0:0:
448,192,37668,128,0,37968:0:0:0:0:
64,192,37968,1,0,0:0:0:0:
192,192,38268,128,0,38343:0:0:0:0:
448,192,38568,128,0,38643:0:0:0:0:
64,192,38868,128,0,38943:0:0:0:0:
192,192,39168,1,0,0:0:0:0:
448,192,39168,1,0,0:0:0:0:
64,192,39468,128,0,39543:0:0:0:0:
64,192,39768,128,0,40068:0:0:0:0:
448,192,39768,128,0,39843:0:0:0:0:
448,192,40068,128,0,40368:0:0:0:0:
192,192,40068,128,0,40143:0:0:0:0:
192,192,40368,128,0,40668:0:0:0:0:
64,192,40368,128,0,45168:0:0:0:0:
320,192,40668,1,0,0:0:0:0:
448,192,40968,128,0,41118:0:0:0:0:
448,192,41268,128,0,42168:0:0:0:0:
192,192,41568,1,0,0:0:0:0:
320,192,41568,1,0,0:0:0:0:
320,192,41868,1,0,0:0:0:0:
192,192,42168,128,0,42243:0:0:0:0:
320,192,42468,1,0,0:0:0:0:
192,192,42768,1,0,0:0:0:0:
448,192,43068,128,0,43143:0:0:0:0:
192,192,43368,128,0,43443:0:0:0:0:
320,192,43668,128,0,43743:0:0:0:0:
192,192,43968,1,0,0:0:0:0:
448,192,43968,1,0,0:0:0:0:
320,192,44268,1,0,0:0:0:0:
192,192,44568,128,0,44868:0:0:0:0:
448,192,44568,128,0,44643:0:0:0:0:
320,192,44868,128,0,45168:0:0:0:0:
448,192,44868,128,0,44943:0:0:0:0:
448,192,45168,128,0,45468:0:0:0:0:
192,192,45168,128,0,46968:0:0:0:0:
64,192,45468,128,0,45768:0:0:0:0:
320,192,45768,128,0,46068:0:0:0:0:
64,192,46068,128,0,46368:0:0:0:0:
320,192,46368,1,0,0:0:0:0:
448,192,46368,1,0,0:0:0:0:
320,192,46668,1,0,0:0:0:0:
64,192,46668,128,0,46968:0:0:0:0:
320,192,46968,128,0,47268:0:0:0:0:
448,192,47268,128,0,47568:0:0:0:0:
192,192,47268,128,0,47868:0:0:0:0:
64,192,47268,128,0,47868:0:0:0:0:
320,192,48768,1,0,0:0:0:0:
448,192,48768,1,0,0:0:0:0:
64,192,49068,1,0,0:0:0:0:
192,192,49068,1,0,0:0:0:0:
320,192,49368,5,0,0:0:0:0:
448,192,49368,1,0,0:0:0:0:
320,192,49518,1,0,0:0:0:0:
448,192,49518,1,0,0:0:0:0:
64,192,49668,1,0,0:0:0:0:
192,192,49668,1,0,0:0:0:0:
64,192,49818,1,0,0:0:0:0:
192,192,49818,1,0,0:0:0:0:
320,192,49968,1,0,0:0:0:0:
448,192,49968,1,0,0:0:0:0:
64,192,49968,1,0,0:0:0:0:
448,192,50268,128,0,50568:0:0:0:0:
192,192,50305,1,0,0:0:0:0:
320,192,50418,1,0,0:0:0:0:
64,192,50568,128,0,50868:0:0:0:0:
320,192,50718,128,0,50868:0:0:0:0:
448,192,50868,128,0,51168:0:0:0:0:
320,192,51018,128,0,51168:0:0:0:0:
192,192,51018,128,0,51318:0:0:0:0:
320,192,51468,128,0,51768:0:0:0:0:
448,192,51618,128,0,51768:0:0:0:0:
64,192,51768,128,0,52068:0:0:0:0:
192,192,51768,128,0,51918:0:0:0:0:
320,192,52068,128,0,52218:0:0:0:0:
192,192,52068,128,0,52518:0:0:0:0:
64,192,52368,128,0,52518:0:0:0:0:
448,192,52368,1,0,0:0:0:0:
448,192,52668,128,0,52968:0:0:0:0:
320,192,52668,128,0,52818:0:0:0:0:
192,192,52968,1,0,0:0:0:0:
64,192,52968,128,0,53418:0:0:0:0:
320,192,52968,128,0,53118:0:0:0:0:
192,192,53118,128,0,53268:0:0:0:0:
448,192,53268,128,0,53718:0:0:0:0:
192,192,53418,128,0,53568:0:0:0:0:
320,192,53568,128,0,53718:0:0:0:0:
64,192,53568,1,0,0:0:0:0:
192,192,53868,1,0,0:0:0:0:
64,192,54168,128,0,54468:0:0:0:0:
320,192,54168,1,0,0:0:0:0:
448,192,54168,128,0,54318:0:0:0:0:
192,192,54468,128,0,54768:0:0:0:0:
320,192,54468,128,0,54618:0:0:0:0:
448,192,54768,128,0,54918:0:0:0:0:
64,192,54768,1,0,0:0:0:0:
192,192,55068,128,0,55368:0:0:0:0:
64,192,55068,128,0,55218:0:0:0:0:
320,192,55368,128,0,55518:0:0:0:0:
64,192,55368,1,0,0:0:0:0:
448,192,55368,128,0,55518:0:0:0:0:
192,192,55518,1,0,0:0:0:0:
448,192,55668,128,0,55743:0:0:0:0:
448,192,55818,128,0,56268:0:0:0:0:
192,192,55818,128,0,55968:0:0:0:0:
320,192,55968,128,0,56118:0:0:0:0:
64,192,55968,1,0,0:0:0:0:
320,192,56268,128,0,56568:0:0:0:0:
192,192,56268,128,0,56418:0:0:0:0:
64,192,56568,128,0,56868:0:0:0:0:
448,192,56568,1,0,0:0:0:0:
192,192,56568,128,0,56718:0:0:0:0:
192,192,56868,128,0,57018:0:0:0:0:
64,192,57168,128,0,57468:0:0:0:0:
448,192,57168,128,0,57318:0:0:0:0:
192,192,57468,1,0,0:0:0:0:
320,192,57568,128,0,57668:0:0:0:0:
320,192,57768,128,0,58068:0:0:0:0:
64,192,57768,1,0,0:0:0:0:
192,192,57768,128,0,57918:0:0:0:0:
448,192,57918,128,0,58068:0:0:0:0:
192,192,58068,1,0,0:0:0:0:
64,192,58168,128,0,58368:0:0:0:0:
448,192,58168,128,0,58368:0:0:0:0:
320,192,58368,128,0,58668:0:0:0:0:
192,192,58368,128,0,58968:0:0:0:0:
64,192,58668,1,0,0:0:0:0:
448,192,58668,128,0,58818:0:0:0:0:
320,192,58968,128,0,59268:0:0:0:0:
64,192,58968,128,0,59118:0:0:0:0:
448,192,58968,1,0,0:0:0:0:
192,192,59268,1,0,0:0:0:0:
64,192,59568,128,0,59868:0:0:0:0:
448,192,59568,128,0,59718:0:0:0:0:
448,192,59868,128,0,60168:0:0:0:0:
320,192,59868,128,0,60018:0:0:0:0:
320,192,60168,128,0,60468:0:0:0:0:
64,192,60168,1,0,0:0:0:0:
192,192,60168,128,0,60318:0:0:0:0:
64,192,60318,128,0,60468:0:0:0:0:
192,192,60468,128,0,60768:0:0:0:0:
448,192,60468,128,0,60618:0:0:0:0:
64,192,60618,128,0,60768:0:0:0:0:
448,192,60768,128,0,60918:0:0:0:0:
320,192,60768,1,0,0:0:0:0:
64,192,61068,128,0,61368:0:0:0:0:
192,192,61068,128,0,61218:0:0:0:0:
192,192,61368,128,0,61668:0:0:0:0:
320,192,61368,128,0,61518:0:0:0:0:
448,192,61368,1,0,0:0:0:0:
448,192,61668,128,0,61968:0:0:0:0:
64,192,61668,128,0,61818:0:0:0:0:
320,192,61968,128,0,62118:0:0:0:0:
64,192,61968,128,0,62118:0:0:0:0:
192,192,62268,128,0,62568:0:0:0:0:
320,192,62268,128,0,62418:0:0:0:0:
320,192,62568,128,0,62868:0:0:0:0:
64,192,62568,1,0,0:0:0:0:
448,192,62568,128,0,62718:0:0:0:0:
64,192,62718,128,0,62868:0:0:0:0:
448,192,62868,128,0,63168:0:0:0:0:
192,192,62868,128,0,63018:0:0:0:0:
64,192,63018,128,0,63168:0:0:0:0:
192,192,63168,128,0,63318:0:0:0:0:
320,192,63168,1,0,0:0:0:0:
64,192,63468,1,0,0:0:0:0:
192,192,63768,128,0,63918:0:0:0:0:
320,192,63768,128,0,63918:0:0:0:0:
448,192,63768,1,0,0:0:0:0:
64,192,64068,128,0,64368:0:0:0:0:
192,192,64068,128,0,64218:0:0:0:0:
320,192,64368,1,0,0:0:0:0:
448,192,64368,128,0,64518:0:0:0:0:
192,192,64668,128,0,64968:0:0:0:0:
320,192,64968,128,0,65118:0:0:0:0:
64,192,64968,1,0,0:0:0:0:
448,192,64968,1,0,0:0:0:0:
448,192,65118,128,0,65268:0:0:0:0:
192,192,65268,128,0,65343:0:0:0:0:
192,192,65418,128,0,65568:0:0:0:0:
448,192,65418,128,0,65568:0:0:0:0:
320,192,65568,128,0,65718:0:0:0:0:
64,192,65568,1,0,0:0:0:0:
448,192,65868,128,0,66168:0:0:0:0:
64,192,66168,128,0,66768:0:0:0:0:
320,192,66168,1,0,0:0:0:0:
192,192,66168,1,0,0:0:0:0:
192,192,66468,128,0,66768:0:0:0:0:
448,192,66768,128,0,67068:0:0:0:0:
320,192,66768,128,0,66918:0:0:0:0:
64,192,67068,128,0,67368:0:0:0:0:
448,192,67368,128,0,67668:0:0:0:0:
192,192,67518,128,0,67668:0:0:0:0:
64,192,67668,128,0,67968:0:0:0:0:
320,192,67818,128,0,67968:0:0:0:0:
448,192,67968,128,0,68418:0:0:0:0:
192,192,68118,128,0,68268:0:0:0:0:
64,192,68268,128,0,68868:0:0:0:0:
192,192,68568,128,0,68868:0:0:0:0:
320,192,68568,1,0,0:0:0:0:
448,192,68568,128,0,69168:0:0:0:0:
320,192,68868,128,0,69168:0:0:0:0:
192,192,69168,128,0,69618:0:0:0:0:
64,192,69168,128,0,69318:0:0:0:0:
192,192,69768,128,0,70068:0:0:0:0:
192,192,70368,128,0,70518:0:0:0:0:
192,192,70968,128,0,71043:0:0:0:0:
64,192,70968,128,0,71043:0:0:0:0:
448,192,71568,128,0,72168:0:0:0:0:
320,192,71568,128,0,71718:0:0:0:0:
192,192,72468,128,0,72618:0:0:0:0:
448,192,72768,1,0,0:0:0:0:
192,192,72768,128,0,73068:0:0:0:0:
320,192,73068,128,0,73368:0:0:0:0:
448,192,73068,128,0,73368:0:0:0:0:
448,192,73668,128,0,73968:0:0:0:0:
320,192,73668,128,0,73968:0:0:0:0:
64,192,73968,128,0,74568:0:0:0:0:
192,192,74268,1,0,0:0:0:0:
320,192,74568,1,0,0:0:0:0:
448,192,74568,1,0,0:0:0:0:
192,192,74868,128,0,75168:0:0:0:0:
64,192,74868,128,0,75168:0:0:0:0:
192,192,75468,1,0,0:0:0:0:
320,192,75768,128,0,76068:0:0:0:0:
448,192,75768,1,0,0:0:0:0:
64,192,75918,1,0,0:0:0:0:
192,192,75918,128,0,76218:0:0:0:0:
448,192,76068,128,0,76368:0:0:0:0:
64,192,76368,1,0,0:0:0:0:
320,192,76368,128,0,76668:0:0:0:0:
64,192,76668,128,0,76968:0:0:0:0:
448,192,76968,128,0,77268:0:0:0:0:
320,192,77268,128,0,77568:0:0:0:0:
192,192,77568,128,0,78018:0:0:0:0:
64,192,77568,1,0,0:0:0:0:
64,192,77868,128,0,78168:0:0:0:0:
448,192,77868,1,0,0:0:0:0:
320,192,78018,128,0,78318:0:0:0:0:
192,192,78468,128,0,79068:0:0:0:0:
320,192,78468,128,0,78768:0:0:0:0:
448,192,79068,1,0,0:0:0:0:
64,192,79368,1,0,0:0:0:0:
192,192,79368,1,0,0:0:0:0:
448,192,79668,128,0,79968:0:0:0:0:
320,192,79668,128,0,79968:0:0:0:0:
64,192,80268,1,0,0:0:0:0:
64,192,80568,1,0,0:0:0:0:
192,192,80568,1,0,0:0:0:0:
64,192,81168,128,0,82368:0:0:0:0:
448,192,81168,1,0,0:0:0:0:
448,192,81768,128,0,82018:0:0:0:0:
320,192,81768,1,0,0:0:0:0:
192,192,82068,1,0,0:0:0:0:
448,192,82168,128,0,82518:0:0:0:0:
192,192,82368,1,0,0:0:0:0:
320,192,82368,1,0,0:0:0:0:
320,192,82668,128,0,82818:0:0:0:0:
448,192,82668,1,0,0:0:0:0:
64,192,82968,128,0,83218:0:0:0:0:
192,192,82968,1,0,0:0:0:0:
448,192,83268,128,0,84168:0:0:0:0:
320,192,83268,1,0,0:0:0:0:
64,192,83368,128,0,83718:0:0:0:0:
320,192,83868,1,0,0:0:0:0:
64,192,84168,1,0,0:0:0:0:
192,192,84168,128,0,84468:0:0:0:0:
448,192,84468,128,0,85968:0:0:0:0:
320,192,84468,128,0,84768:0:0:0:0:
64,192,84918,128,0,85068:0:0:0:0:
192,192,85068,128,0,85368:0:0:0:0:
64,192,85368,128,0,85668:0:0:0:0:
320,192,85368,1,0,0:0:0:0:
192,192,85518,1,0,0:0:0:0:
320,192,85668,128,0,85968:0:0:0:0:
64,192,85968,128,0,86118:0:0:0:0:
192,192,85968,1,0,0:0:0:0:
320,192,86268,128,0,86418:0:0:0:0:
192,192,86568,128,0,86868:0:0:0:0:
448,192,86868,128,0,87018:0:0:0:0:
64,192,87168,128,0,87468:0:0:0:0:
192,192,87168,1,0,0:0:0:0:
448,192,87468,128,0,87618:0:0:0:0:
192,192,87468,128,0,87618:0:0:0:0:
320,192,87768,128,0,88068:0:0:0:0:
64,192,88068,128,0,88218:0:0:0:0:
448,192,88068,128,0,88218:0:0:0:0:
192,192,88068,128,0,88368:0:0:0:0:
64,192,89268,128,0,89568:0:0:0:0:
448,192,89268,128,0,89568:0:0:0:0:
192,192,90168,128,0,90768:0:0:0:0:
64,192,90768,128,0,90918:0:0:0:0:
448,192,90768,128,0,91068:0:0:0:0:
64,192,91068,128,0,91368:0:0:0:0:
320,192,91105,1,0,0:0:0:0:
192,192,91218,1,0,0:0:0:0:
448,192,91368,128,0,91668:0:0:0:0:
320,192,91368,128,0,91518:0:0:0:0:
192,192,91668,128,0,91968:0:0:0:0:
320,192,91818,128,0,92118:0:0:0:0:
64,192,91968,128,0,92118:0:0:0:0:
448,192,91968,128,0,92118:0:0:0:0:
192,192,92268,128,0,92568:0:0:0:0:
448,192,92568,128,0,92868:0:0:0:0:
320,192,92568,1,0,0:0:0:0:
64,192,92568,128,0,92718:0:0:0:0:
320,192,92868,128,0,93168:0:0:0:0:
192,192,92868,128,0,93018:0:0:0:0:
64,192,93168,128,0,93318:0:0:0:0:
448,192,93168,1,0,0:0:0:0:
192,192,93468,128,0,93768:0:0:0:0:
320,192,93468,128,0,93618:0:0:0:0:
320,192,93768,128,0,94068:0:0:0:0:
448,192,93768,128,0,93918:0:0:0:0:
64,192,93768,1,0,0:0:0:0:
192,192,93918,128,0,94068:0:0:0:0:
448,192,94068,128,0,94368:0:0:0:0:
64,192,94068,128,0,94218:0:0:0:0:
192,192,94218,128,0,94368:0:0:0:0:
64,192,94368,128,0,94518:0:0:0:0:
320,192,94368,1,0,0:0:0:0:
448,192,94668,128,0,94968:0:0:0:0:
64,192,94968,128,0,95268:0:0:0:0:
192,192,94968,128,0,95118:0:0:0:0:
320,192,94968,1,0,0:0:0:0:
320,192,95268,128,0,95568:0:0:0:0:
448,192,95268,128,0,95418:0:0:0:0:
64,192,95568,128,0,95718:0:0:0:0:
192,192,95568,1,0,0:0:0:0:
320,192,95868,128,0,96168:0:0:0:0:
192,192,95868,128,0,96018:0:0:0:0:
64,192,96168,128,0,96318:0:0:0:0:
192,192,96168,128,0,96318:0:0:0:0:
448,192,96168,1,0,0:0:0:0:
320,192,96318,1,0,0:0:0:0:
192,192,96468,128,0,96618:0:0:0:0:
448,192,96618,128,0,97068:0:0:0:0:
320,192,96618,128,0,96768:0:0:0:0:
64,192,96768,128,0,96918:0:0:0:0:
192,192,96768,1,0,0:0:0:0:
192,192,97068,128,0,97368:0:0:0:0:
64,192,97068,128,0,97218:0:0:0:0:
64,192,97368,128,0,97668:0:0:0:0:
448,192,97368,128,0,97518:0:0:0:0:
320,192,97368,1,0,0:0:0:0:
448,192,97668,128,0,97968:0:0:0:0:
320,192,97668,128,0,97818:0:0:0:0:
192,192,97968,128,0,98118:0:0:0:0:
64,192,97968,128,0,98368:0:0:0:0:
448,192,98268,1,0,0:0:0:0:
192,192,98368,128,0,98718:0:0:0:0:
320,192,98368,128,0,98568:0:0:0:0:
448,192,98568,128,0,98868:0:0:0:0:
64,192,98568,128,0,98718:0:0:0:0:
320,192,98718,128,0,98868:0:0:0:0:
64,192,98868,1,0,0:0:0:0:
320,192,99018,128,0,99168:0:0:0:0:
448,192,99018,128,0,99318:0:0:0:0:
192,192,99168,128,0,99318:0:0:0:0:
64,192,99168,128,0,99618:0:0:0:0:
192,192,99468,128,0,99768:0:0:0:0:
448,192,99768,128,0,100068:0:0:0:0:
320,192,99768,128,0,99918:0:0:0:0:
64,192,99768,1,0,0:0:0:0:
192,192,100068,1,0,0:0:0:0:
448,192,100368,128,0,100668:0:0:0:0:
320,192,100368,128,0,100518:0:0:0:0:
64,192,100668,128,0,100968:0:0:0:0:
192,192,100668,128,0,100818:0:0:0:0:
192,192,100968,128,0,101268:0:0:0:0:
320,192,100968,128,0,101118:0:0:0:0:
448,192,100968,1,0,0:0:0:0:
64,192,101118,128,0,101268:0:0:0:0:
320,192,101268,128,0,101568:0:0:0:0:
448,192,101268,128,0,101418:0:0:0:0:
64,192,101418,128,0,101568:0:0:0:0:
192,192,101568,128,0,101718:0:0:0:0:
448,192,101568,1,0,0:0:0:0:
320,192,101868,128,0,102168:0:0:0:0:
448,192,101868,128,0,102018:0:0:0:0:
192,192,102168,128,0,102468:0:0:0:0:
64,192,102168,128,0,102318:0:0:0:0:
448,192,102168,1,0,0:0:0:0:
448,192,102468,128,0,102618:0:0:0:0:
320,192,102468,128,0,102618:0:0:0:0:
64,192,102768,128,0,102918:0:0:0:0:
320,192,102768,128,0,102918:0:0:0:0:
448,192,103068,128,0,103368:0:0:0:0:
320,192,103068,128,0,103218:0:0:0:0:
320,192,103368,128,0,103518:0:0:0:0:
192,192,103368,128,0,103518:0:0:0:0:
64,192,103368,1,0,0:0:0:0:
448,192,103518,1,0,0:0:0:0:
64,192,103668,128,0,103818:0:0:0:0:
320,192,103668,128,0,103818:0:0:0:0:
192,192,103818,128,0,104118:0:0:0:0:
448,192,103818,128,0,103968:0:0:0:0:
64,192,103968,128,0,104118:0:0:0:0:
320,192,103968,1,0,0:0:0:0:
64,192,104268,128,0,104568:0:0:0:0:
192,192,104268,128,0,104418:0:0:0:0:
320,192,104568,128,0,104868:0:0:0:0:
448,192,104568,128,0,104718:0:0:0:0:
192,192,104568,1,0,0:0:0:0:
448,192,104868,128,0,105018:0:0:0:0:
320,192,105018,128,0,105318:0:0:0:0:
192,192,105018,128,0,105168:0:0:0:0:
64,192,105168,128,0,105318:0:0:0:0:
448,192,105168,1,0,0:0:0:0:
64,192,105468,128,0,105918:0:0:0:0:
192,192,105468,128,0,105618:0:0:0:0:
448,192,105768,128,0,106218:0:0:0:0:
320,192,105768,128,0,105918:0:0:0:0:
192,192,105768,1,0,0:0:0:0:
192,192,105918,128,0,106068:0:0:0:0:
64,192,106068,128,0,106218:0:0:0:0:
320,192,106218,128,0,106518:0:0:0:0:
192,192,106218,128,0,106368:0:0:0:0:
448,192,106368,128,0,106518:0:0:0:0:
64,192,106368,1,0,0:0:0:0:
64,192,106668,128,0,107118:0:0:0:0:
192,192,106668,128,0,106818:0:0:0:0:
320,192,106968,128,0,107418:0:0:0:0:
448,192,106968,128,0,107118:0:0:0:0:
192,192,106968,1,0,0:0:0:0:
192,192,107268,128,0,107718:0:0:0:0:
64,192,107268,128,0,107418:0:0:0:0:
448,192,107568,128,0,107868:0:0:0:0:
320,192,107568,128,0,107718:0:0:0:0:
64,192,107868,128,0,108168:0:0:0:0:
448,192,108168,128,0,108468:0:0:0:0:
192,192,108318,128,0,108468:0:0:0:0:
64,192,108468,128,0,108768:0:0:0:0:
320,192,108618,128,0,108768:0:0:0:0:
448,192,108768,128,0,109218:0:0:0:0:
192,192,108918,128,0,109068:0:0:0:0:
64,192,109068,128,0,109818:0:0:0:0:
448,192,109368,128,0,109818:0:0:0:0:
64,192,109968,128,0,110118:0:0:0:0:
448,192,109968,128,0,110268:0:0:0:0:
320,192,111468,128,0,111543:0:0:0:0:
192,192,112068,128,0,112143:0:0:0:0:
192,192,114768,128,0,114918:0:0:0:0:
320,192,116268,128,0,116418:0:0:0:0:
64,192,116868,128,0,116943:0:0:0:0:
64,192,118068,128,0,118143:0:0:0:0:
192,192,119568,128,0,119718:0:0:0:0:
320,192,120205,1,0,0:0:0:0:
448,192,120243,1,0,0:0:0:0:
320,192,120468,1,0,0:0:0:0:
64,192,120768,1,0,0:0:0:0:
192,192,121068,1,0,0:0:0:0:
320,192,121068,128,0,121218:0:0:0:0:
64,192,121668,128,0,121818:0:0:0:0:
192,192,121668,1,0,0:0:0:0:
192,192,122868,128,0,123018:0:0:0:0:
448,192,124368,128,0,124518:0:0:0:0:
192,192,124968,1,0,0:0:0:0:
64,192,125018,1,0,0:0:0:0:
320,192,125268,1,0,0:0:0:0:
448,192,125568,1,0,0:0:0:0:
320,192,125618,1,0,0:0:0:0:
64,192,125868,128,0,126018:0:0:0:0:
192,192,125868,1,0,0:0:0:0:
448,192,126168,1,0,0:0:0:0:
320,192,126468,128,0,126618:0:0:0:0:
192,192,126468,1,0,0:0:0:0:
192,192,127668,128,0,127818:0:0:0:0:
64,192,128118,128,0,128268:0:0:0:0:
192,192,128268,128,0,128418:0:0:0:0:
320,192,128418,128,0,128568:0:0:0:0:
448,192,128568,128,0,128718:0:0:0:0:
64,192,128718,128,0,128868:0:0:0:0:
192,192,128868,128,0,129018:0:0:0:0:
320,192,129018,128,0,129168:0:0:0:0:
64,192,129168,1,0,0:0:0:0:
448,192,129168,128,0,133968:0:0:0:0:
192,192,129168,1,0,0:0:0:0:
64,192,129468,1,0,0:0:0:0:
192,192,129768,128,0,130068:0:0:0:0:
320,192,129768,1,0,0:0:0:0:
64,192,130068,128,0,130368:0:0:0:0:
192,192,130368,128,0,130668:0:0:0:0:
320,192,130668,1,0,0:0:0:0:
64,192,130968,128,0,131268:0:0:0:0:
192,192,130968,1,0,0:0:0:0:
192,192,131268,128,0,131868:0:0:0:0:
320,192,131568,1,0,0:0:0:0:
320,192,131868,128,0,132168:0:0:0:0:
64,192,131868,128,0,131943:0:0:0:0:
64,192,132168,128,0,133068:0:0:0:0:
192,192,132168,128,0,132243:0:0:0:0:
320,192,132468,128,0,132543:0:0:0:0:
192,192,132768,1,0,0:0:0:0:
320,192,133068,1,0,0:0:0:0:
64,192,133368,128,0,133443:0:0:0:0:
192,192,133368,1,0,0:0:0:0:
64,192,133668,1,0,0:0:0:0:
192,192,133668,128,0,133743:0:0:0:0:
64,192,133968,128,0,138768:0:0:0:0:
192,192,133968,1,0,0:0:0:0:
320,192,134268,128,0,134418:0:0:0:0:
320,192,134568,128,0,134868:0:0:0:0:
448,192,134568,1,0,0:0:0:0:
192,192,134868,128,0,135168:0:0:0:0:
320,192,135168,128,0,135468:0:0:0:0:
448,192,135468,128,0,135768:0:0:0:0:
192,192,135768,128,0,136068:0:0:0:0:
320,192,135768,1,0,0:0:0:0:
320,192,136068,128,0,136368:0:0:0:0:
192,192,136368,1,0,0:0:0:0:
448,192,136468,128,0,136668:0:0:0:0:
320,192,136668,128,0,136968:0:0:0:0:
192,192,136668,128,0,136743:0:0:0:0:
192,192,136968,1,0,0:0:0:0:
448,192,136968,128,0,137043:0:0:0:0:
320,192,137268,128,0,137343:0:0:0:0:
448,192,137568,1,0,0:0:0:0:
192,192,137868,128,0,137943:0:0:0:0:
448,192,138168,128,0,138768:0:0:0:0:
320,192,138168,128,0,138243:0:0:0:0:
192,192,138468,128,0,138543:0:0:0:0:
320,192,138468,1,0,0:0:0:0:
320,192,138768,128,0,143568:0:0:0:0:
192,192,138768,128,0,139368:0:0:0:0:
64,192,139068,1,0,0:0:0:0:
64,192,139368,128,0,139818:0:0:0:0:
448,192,139368,1,0,0:0:0:0:
448,192,139668,1,0,0:0:0:0:
64,192,139968,128,0,140268:0:0:0:0:
448,192,140268,1,0,0:0:0:0:
448,192,140568,128,0,141168:0:0:0:0:
192,192,140568,1,0,0:0:0:0:
64,192,140868,1,0,0:0:0:0:
64,192,141168,128,0,141468:0:0:0:0:
448,192,141468,128,0,141543:0:0:0:0:
192,192,141768,128,0,141918:0:0:0:0:
64,192,141768,128,0,141843:0:0:0:0:
192,192,142068,128,0,142668:0:0:0:0:
448,192,142068,128,0,142143:0:0:0:0:
448,192,142368,1,0,0:0:0:0:
64,192,142668,1,0,0:0:0:0:
64,192,142968,128,0,143043:0:0:0:0:
192,192,142968,1,0,0:0:0:0:
448,192,143268,128,0,143568:0:0:0:0:
192,192,143268,128,0,143343:0:0:0:0:
192,192,143568,128,0,148368:0:0:0:0:
64,192,143568,128,0,143868:0:0:0:0:
448,192,144168,128,0,144468:0:0:0:0:
64,192,144168,1,0,0:0:0:0:
320,192,144468,128,0,144618:0:0:0:0:
320,192,144768,128,0,145068:0:0:0:0:
64,192,145068,1,0,0:0:0:0:
448,192,145368,128,0,145668:0:0:0:0:
320,192,145368,1,0,0:0:0:0:
64,192,145668,1,0,0:0:0:0:
448,192,145968,128,0,146268:0:0:0:0:
64,192,145968,128,0,146268:0:0:0:0:
320,192,146268,128,0,146343:0:0:0:0:
448,192,146568,128,0,146868:0:0:0:0:
64,192,146568,128,0,146868:0:0:0:0:
320,192,146868,128,0,147168:0:0:0:0:
448,192,147168,128,0,147618:0:0:0:0:
64,192,147168,128,0,147468:0:0:0:0:
320,192,147468,128,0,147543:0:0:0:0:
448,192,147768,128,0,148218:0:0:0:0:
320,192,147768,128,0,148068:0:0:0:0:
64,192,148068,128,0,148143:0:0:0:0:
320,192,148368,128,0,148668:0:0:0:0:
64,192,148368,1,0,0:0:0:0:
448,192,148518,128,0,148818:0:0:0:0:
320,192,153168,128,0,153468:0:0:0:0:
448,192,153468,128,0,153768:0:0:0:0:
192,192,153505,1,0,0:0:0:0:
320,192,153618,1,0,0:0:0:0:
64,192,153768,128,0,154218:0:0:0:0:
448,192,153918,128,0,154068:0:0:0:0:
192,192,154068,128,0,154218:0:0:0:0:
320,192,154218,128,0,154668:0:0:0:0:
448,192,154218,128,0,154368:0:0:0:0:
64,192,154668,128,0,154968:0:0:0:0:
192,192,154818,128,0,154968:0:0:0:0:
448,192,154968,128,0,155118:0:0:0:0:
320,192,154968,1,0,0:0:0:0:
192,192,155268,128,0,155568:0:0:0:0:
320,192,155418,128,0,155718:0:0:0:0:
448,192,155568,1,0,0:0:0:0:
64,192,155568,128,0,155718:0:0:0:0:
192,192,155868,128,0,156168:0:0:0:0:
320,192,155868,128,0,156018:0:0:0:0:
320,192,156168,128,0,156468:0:0:0:0:
448,192,156168,128,0,156318:0:0:0:0:
64,192,156168,1,0,0:0:0:0:
192,192,156318,128,0,156468:0:0:0:0:
448,192,156468,128,0,156618:0:0:0:0:
64,192,156468,128,0,156918:0:0:0:0:
192,192,156618,128,0,156768:0:0:0:0:
448,192,156768,128,0,156918:0:0:0:0:
320,192,156768,1,0,0:0:0:0:
192,192,157068,1,0,0:0:0:0:
320,192,157068,1,0,0:0:0:0:
64,192,157368,128,0,157668:0:0:0:0:
192,192,157368,128,0,157518:0:0:0:0:
448,192,157368,1,0,0:0:0:0:
320,192,157668,128,0,157818:0:0:0:0:
448,192,157668,128,0,157968:0:0:0:0:
64,192,157968,128,0,158118:0:0:0:0:
192,192,157968,128,0,158118:0:0:0:0:
192,192,158268,128,0,158418:0:0:0:0:
448,192,158268,128,0,158418:0:0:0:0:
448,192,158568,128,0,158868:0:0:0:0:
192,192,158568,128,0,158718:0:0:0:0:
64,192,158568,1,0,0:0:0:0:
320,192,158718,128,0,158868:0:0:0:0:
64,192,158868,128,0,159168:0:0:0:0:
192,192,158868,1,0,0:0:0:0:
320,192,159018,128,0,159168:0:0:0:0:
192,192,159018,128,0,159618:0:0:0:0:
448,192,159168,128,0,159318:0:0:0:0:
320,192,159468,128,0,159618:0:0:0:0:
448,192,159468,128,0,159918:0:0:0:0:
192,192,159768,128,0,159918:0:0:0:0:
320,192,159768,128,0,160068:0:0:0:0:
64,192,159768,1,0,0:0:0:0:
64,192,160068,128,0,160218:0:0:0:0:
192,192,160068,128,0,160218:0:0:0:0:
448,192,160368,128,0,160518:0:0:0:0:
320,192,160368,128,0,160868:0:0:0:0:
64,192,160668,1,0,0:0:0:0:
448,192,160668,1,0,0:0:0:0:
192,192,160768,128,0,160868:0:0:0:0:
192,192,160968,128,0,161418:0:0:0:0:
64,192,160968,128,0,161118:0:0:0:0:
448,192,160968,1,0,0:0:0:0:
320,192,161118,128,0,161268:0:0:0:0:
64,192,161268,1,0,0:0:0:0:
448,192,161268,1,0,0:0:0:0:
448,192,161418,128,0,161718:0:0:0:0:
64,192,161568,128,0,162018:0:0:0:0:
192,192,161568,128,0,161718:0:0:0:0:
192,192,161868,128,0,162318:0:0:0:0:
448,192,161868,128,0,162018:0:0:0:0:
320,192,162168,128,0,162468:0:0:0:0:
64,192,162168,128,0,162318:0:0:0:0:
448,192,162168,1,0,0:0:0:0:
64,192,162468,1,0,0:0:0:0:
192,192,162468,1,0,0:0:0:0:
192,192,162768,1,0,0:0:0:0:
64,192,162768,128,0,163218:0:0:0:0:
448,192,163068,128,0,163518:0:0:0:0:
320,192,163068,128,0,163218:0:0:0:0:
320,192,163368,128,0,163818:0:0:0:0:
192,192,163368,128,0,163518:0:0:0:0:
64,192,163368,1,0,0:0:0:0:
64,192,163518,128,0,163668:0:0:0:0:
192,192,163668,128,0,163968:0:0:0:0:
448,192,163668,128,0,163818:0:0:0:0:
64,192,163818,128,0,163968:0:0:0:0:
320,192,163968,128,0,164118:0:0:0:0:
448,192,163968,1,0,0:0:0:0:
448,192,164268,128,0,164418:0:0:0:0:
64,192,164268,128,0,164418:0:0:0:0:
320,192,164418,128,0,164718:0:0:0:0:
192,192,164568,128,0,165018:0:0:0:0:
64,192,164568,128,0,164718:0:0:0:0:
448,192,164568,1,0,0:0:0:0:
320,192,164868,128,0,165318:0:0:0:0:
64,192,164868,128,0,165018:0:0:0:0:
192,192,165168,128,0,165318:0:0:0:0:
448,192,165168,128,0,165318:0:0:0:0:
320,192,165468,128,0,165918:0:0:0:0:
448,192,165468,128,0,165618:0:0:0:0:
192,192,165768,128,0,166218:0:0:0:0:
448,192,165768,128,0,165918:0:0:0:0:
64,192,165768,1,0,0:0:0:0:
64,192,165918,128,0,166068:0:0:0:0:
448,192,166068,128,0,166368:0:0:0:0:
320,192,166068,128,0,166218:0:0:0:0:
64,192,166218,128,0,166368:0:0:0:0:
320,192,166368,128,0,166518:0:0:0:0:
192,192,166368,1,0,0:0:0:0:
64,192,166668,1,0,0:0:0:0:
192,192,166668,1,0,0:0:0:0:
64,192,166968,128,0,167118:0:0:0:0:
192,192,166968,128,0,167118:0:0:0:0:
448,192,166968,1,0,0:0:0:0:
192,192,167268,128,0,167568:0:0:0:0:
320,192,167268,128,0,167418:0:0:0:0:
64,192,167568,128,0,167718:0:0:0:0:
448,192,167568,1,0,0:0:0:0:
192,192,167868,128,0,168018:0:0:0:0:
320,192,167868,128,0,168018:0:0:0:0:
320,192,168168,128,0,168318:0:0:0:0:
448,192,168168,128,0,168318:0:0:0:0:
64,192,168168,1,0,0:0:0:0:
192,192,168318,1,0,0:0:0:0:
64,192,168468,128,0,168618:0:0:0:0:
448,192,168468,128,0,168618:0:0:0:0:
320,192,168618,128,0,168918:0:0:0:0:
192,192,168618,128,0,168768:0:0:0:0:
448,192,168768,128,0,168918:0:0:0:0:
64,192,168768,1,0,0:0:0:0:
192,192,169068,128,0,169368:0:0:0:0:
64,192,169068,128,0,169218:0:0:0:0:
448,192,169368,128,0,169668:0:0:0:0:
320,192,169368,128,0,169518:0:0:0:0:
64,192,169368,1,0,0:0:0:0:
320,192,169668,128,0,169968:0:0:0:0:
64,192,169668,128,0,169818:0:0:0:0:
192,192,169968,128,0,170118:0:0:0:0:
448,192,169968,1,0,0:0:0:0:
320,192,170268,128,0,170568:0:0:0:0:
64,192,170268,1,0,0:0:0:0:
192,192,170568,128,0,170718:0:0:0:0:
64,192,170568,1,0,0:0:0:0:
448,192,170568,1,0,0:0:0:0:
64,192,170718,128,0,170868:0:0:0:0:
320,192,170868,128,0,171168:0:0:0:0:
448,192,170868,1,0,0:0:0:0:
64,192,171018,128,0,171168:0:0:0:0:
448,192,171168,128,0,171318:0:0:0:0:
192,192,171168,1,0,0:0:0:0:
64,192,171468,128,0,171768:0:0:0:0:
192,192,171468,1,0,0:0:0:0:
448,192,171768,128,0,172068:0:0:0:0:
320,192,171768,128,0,171918:0:0:0:0:
192,192,171768,1,0,0:0:0:0:
192,192,172068,128,0,172218:0:0:0:0:
64,192,172068,1,0,0:0:0:0:
320,192,172368,128,0,172668:0:0:0:0:
448,192,172368,128,0,172518:0:0:0:0:
192,192,172668,128,0,172743:0:0:0:0:
64,192,172718,128,0,172793:0:0:0:0:
320,192,172818,128,0,172893:0:0:0:0:
64,192,172968,1,0,0:0:0:0:
448,192,172968,1,0,0:0:0:0:
192,192,172968,1,0,0:0:0:0:
320,192,173118,128,0,173268:0:0:0:0:
64,192,173268,1,0,0:0:0:0:
192,192,173418,128,0,173568:0:0:0:0:
64,192,173568,128,0,174018:0:0:0:0:
448,192,173568,128,0,174018:0:0:0:0:
320,192,173868,1,0,0:0:0:0:
192,192,174018,128,0,174168:0:0:0:0:
320,192,174168,1,0,0:0:0:0:
64,192,174168,128,0,174468:0:0:0:0:
448,192,174168,128,0,174468:0:0:0:0:
192,192,174468,128,0,174618:0:0:0:0:
320,192,174618,128,0,174768:0:0:0:0:
64,192,174768,128,0,174918:0:0:0:0:
448,192,174768,128,0,174918:0:0:0:0:
320,192,175068,128,0,175143:0:0:0:0:
64,192,175118,128,0,175193:0:0:0:0:
192,192,175218,128,0,175293:0:0:0:0:
64,192,175368,1,0,0:0:0:0:
320,192,175368,1,0,0:0:0:0:
448,192,175368,1,0,0:0:0:0:
192,192,175518,128,0,175668:0:0:0:0:
448,192,175668,1,0,0:0:0:0:
192,192,175818,128,0,175968:0:0:0:0:
448,192,175968,128,0,176418:0:0:0:0:
64,192,175968,128,0,176418:0:0:0:0:
192,192,176268,1,0,0:0:0:0:
320,192,176418,128,0,176568:0:0:0:0:
448,192,176568,128,0,176718:0:0:0:0:
64,192,176568,128,0,176868:0:0:0:0:
192,192,176568,1,0,0:0:0:0:
320,192,176718,128,0,176868:0:0:0:0:
448,192,176868,128,0,177018:0:0:0:0:
64,192,177018,128,0,177168:0:0:0:0:
448,192,177168,128,0,177468:0:0:0:0:
192,192,177168,128,0,177468:0:0:0:0:
64,192,177468,128,0,177543:0:0:0:0:
320,192,177518,128,0,177593:0:0:0:0:
192,192,177618,128,0,177693:0:0:0:0:
320,192,177768,1,0,0:0:0:0:
448,192,177768,1,0,0:0:0:0:
64,192,177768,1,0,0:0:0:0:
192,192,177918,128,0,178068:0:0:0:0:
448,192,178068,1,0,0:0:0:0:
192,192,178218,128,0,178368:0:0:0:0:
64,192,178368,128,0,178818:0:0:0:0:
448,192,178368,128,0,178818:0:0:0:0:
320,192,178668,1,0,0:0:0:0:
192,192,178818,128,0,178968:0:0:0:0:
64,192,178968,128,0,179118:0:0:0:0:
448,192,178968,128,0,179268:0:0:0:0:
320,192,178968,1,0,0:0:0:0:
192,192,179118,128,0,179268:0:0:0:0:
64,192,179268,128,0,179418:0:0:0:0:
448,192,179418,128,0,179568:0:0:0:0:
192,192,179568,128,0,179643:0:0:0:0:
64,192,179568,128,0,179868:0:0:0:0:
320,192,179718,128,0,179793:0:0:0:0:
448,192,179868,128,0,179943:0:0:0:0:
320,192,180018,128,0,180093:0:0:0:0:
64,192,180168,1,0,0:0:0:0:
192,192,180168,1,0,0:0:0:0:
448,192,180168,1,0,0:0:0:0:
320,192,180318,128,0,180393:0:0:0:0:
64,192,180468,1,0,0:0:0:0:
320,192,180618,128,0,180693:0:0:0:0:
64,192,180768,128,0,181068:0:0:0:0:
192,192,180768,1,0,0:0:0:0:
448,192,181068,128,0,181143:0:0:0:0:
192,192,181218,128,0,181293:0:0:0:0:
448,192,181368,128,0,181443:0:0:0:0:
64,192,181368,128,0,181668:0:0:0:0:
320,192,181368,1,0,0:0:0:0:
192,192,181518,128,0,181593:0:0:0:0:
448,192,181668,128,0,181743:0:0:0:0:
320,192,181818,128,0,181893:0:0:0:0:
64,192,181968,128,0,182268:0:0:0:0:
448,192,181968,128,0,182268:0:0:0:0:
320,192,182268,128,0,182343:0:0:0:0:
192,192,182318,128,0,182393:0:0:0:0:
448,192,182418,128,0,182493:0:0:0:0:
64,192,182568,1,0,0:0:0:0:
192,192,182568,1,0,0:0:0:0:
320,192,182568,1,0,0:0:0:0:
448,192,182718,128,0,182868:0:0:0:0:
64,192,182868,1,0,0:0:0:0:
320,192,183018,128,0,183168:0:0:0:0:
448,192,183168,128,0,183618:0:0:0:0:
64,192,183168,128,0,183618:0:0:0:0:
320,192,183468,1,0,0:0:0:0:
192,192,183618,128,0,183768:0:0:0:0:
320,192,183768,128,0,183918:0:0:0:0:
64,192,183768,128,0,184068:0:0:0:0:
448,192,183768,1,0,0:0:0:0:
448,192,183918,128,0,184068:0:0:0:0:
192,192,184068,128,0,184218:0:0:0:0:
64,192,184218,128,0,184368:0:0:0:0:
192,192,184368,128,0,184518:0:0:0:0:
320,192,184368,128,0,184518:0:0:0:0:
320,192,184668,128,0,184743:0:0:0:0:
192,192,184718,128,0,184793:0:0:0:0:
448,192,184818,128,0,184893:0:0:0:0:
64,192,184968,1,0,0:0:0:0:
320,192,184968,1,0,0:0:0:0:
192,192,184968,1,0,0:0:0:0:
448,192,185118,128,0,185268:0:0:0:0:
64,192,185268,1,0,0:0:0:0:
448,192,185418,128,0,185568:0:0:0:0:
192,192,185568,128,0,186018:0:0:0:0:
320,192,185568,128,0,186018:0:0:0:0:
64,192,185868,1,0,0:0:0:0:
448,192,186018,128,0,186168:0:0:0:0:
64,192,186168,128,0,186318:0:0:0:0:
320,192,186168,128,0,186468:0:0:0:0:
192,192,186168,1,0,0:0:0:0:
192,192,186318,128,0,186468:0:0:0:0:
448,192,186468,128,0,186618:0:0:0:0:
192,192,186618,128,0,186768:0:0:0:0:
64,192,186768,128,0,187068:0:0:0:0:
448,192,186768,128,0,187068:0:0:0:0:
320,192,187068,128,0,187143:0:0:0:0:
192,192,187118,128,0,187193:0:0:0:0:
320,192,187218,128,0,187293:0:0:0:0:
64,192,187368,1,0,0:0:0:0:
448,192,187368,1,0,0:0:0:0:
192,192,187368,128,0,187518:0:0:0:0:
320,192,187518,128,0,187668:0:0:0:0:
64,192,187668,1,0,0:0:0:0:
320,192,187818,128,0,187968:0:0:0:0:
64,192,187968,128,0,188418:0:0:0:0:
448,192,187968,128,0,188418:0:0:0:0:
192,192,188268,1,0,0:0:0:0:
320,192,188418,128,0,188568:0:0:0:0:
448,192,188568,128,0,188868:0:0:0:0:
192,192,188568,128,0,188718:0:0:0:0:
64,192,188568,1,0,0:0:0:0:
64,192,188718,128,0,188868:0:0:0:0:
320,192,188868,128,0,189018:0:0:0:0:
448,192,189018,128,0,189168:0:0:0:0:
64,192,189168,128,0,189468:0:0:0:0:
192,192,189468,128,0,189618:0:0:0:0:
320,192,189618,128,0,189768:0:0:0:0:
64,192,189768,128,0,190068:0:0:0:0:
448,192,189918,128,0,190068:0:0:0:0:
192,192,190068,128,0,190218:0:0:0:0:
448,192,190218,128,0,190368:0:0:0:0:
64,192,190368,128,0,190818:0:0:0:0:
320,192,190518,128,0,190668:0:0:0:0:
192,192,190668,128,0,190818:0:0:0:0:
448,192,190818,128,0,190968:0:0:0:0:
64,192,190968,128,0,191418:0:0:0:0:
192,192,191118,128,0,191268:0:0:0:0:
320,192,191268,128,0,191418:0:0:0:0:
192,192,191418,128,0,191568:0:0:0:0:
448,192,191568,128,0,196368:0:0:0:0:
320,192,191568,1,0,0:0:0:0:
64,192,192834,128,0,199968:0:0:0:0:
320,192,193282,128,0,197568:0:0:0:0:
192,192,194993,128,0,198768:0:0:0:0:
