osu file format v14

[General]
AudioFilename: audio.mp3
AudioLeadIn: 0
PreviewTime: 22288
Countdown: 0
SampleSet: Normal
StackLeniency: 0.7
Mode: 1
LetterboxInBreaks: 0
WidescreenStoryboard: 1

[Editor]
DistanceSpacing: 0.3
BeatDivisor: 16
GridSize: 32
TimelineZoom: 1.8

[Metadata]
Title:kageokuri feat. MuryokuP
TitleUnicode:kageokuri feat. 無力P
Artist:rest or stay?
ArtistUnicode:rest or stay?
Creator:op45667
Version:world's end
Source:
Tags:rock vocaloid gumi japanese powerless sounds megpoid jrock g.k hwaken music have a nice day records HNDR HNDRecords j-rock muryoku-p HNDC-00001 1st first album worlds
BeatmapID:3540229
BeatmapSetID:1729989

[Difficulty]
HPDrainRate:6
CircleSize:5
OverallDifficulty:6.5
ApproachRate:5
SliderMultiplier:1.4
SliderTickRate:1

[Events]
//Background and Video events
0,0,"BG5.jpg",0,90
//Break Periods
//Storyboard Layer 0 (Background)
//Storyboard Layer 1 (Fail)
//Storyboard Layer 2 (Pass)
//Storyboard Layer 3 (Foreground)
//Storyboard Layer 4 (Overlay)
//Storyboard Sound Samples

[TimingPoints]
495,333.333333333333,4,1,0,60,1,8
1161,-111.111111111111,4,1,0,60,0,0
1828,-95.2380952380952,4,1,0,60,0,0
2161,-96.7687932254103,4,1,0,60,0,0
2328,-97.5526955273065,4,1,0,60,0,0
2661,-99.1593272237967,4,1,0,60,0,0
2828,-99.9827029923823,4,1,0,60,0,0
2994,-100.819765513389,4,1,0,60,0,0
3161,-101.671065634773,4,1,0,60,0,0
3494,-103.417428939299,4,1,0,60,0,0
3661,-104.313248512754,4,1,0,60,0,0
3828,-105.2248339026,4,1,0,60,0,0
18828,-105.263157894737,4,1,0,60,0,0
18994,-106.194652674459,4,1,0,60,0,0
19161,-107.142895408177,4,1,0,60,0,0
19328,-108.108108108108,4,1,0,60,0,0
19494,-109.090869421502,4,1,0,60,0,0
19661,-110.091783519921,4,1,0,60,0,0
19744,-110.599037567175,4,1,0,60,0,0
19828,-111.111111111111,4,1,0,60,0,0
20161,-113.207589889657,4,1,0,60,0,0
20328,-114.285714285714,4,1,0,60,0,0
20494,-115.384571005934,4,1,0,60,0,0
20661,-116.504899613553,4,1,0,60,0,0
20828,-117.647058823529,4,1,0,60,0,0
22494,-80,4,1,0,90,0,0
23161,-90.9090909090909,4,1,0,90,0,1
30828,-90.9090909090909,4,1,0,90,0,1
30911,-90.5660103951667,4,1,0,90,0,1
30994,-90.2255910452905,4,1,0,90,0,1
31078,-89.8876404494382,4,1,0,90,0,1
31161,-89.5522120739665,4,1,0,90,0,1
31328,-88.8888888888889,4,1,0,90,0,1
31494,-88.2353200692118,4,1,0,90,0,1
31578,-87.9120879120879,4,1,0,90,0,1
31661,-87.591215301835,4,1,0,90,0,1
31744,-87.2727526611644,4,1,0,90,0,1
31828,-86.9565217391304,4,1,0,90,0,1
31911,-86.6425742548522,4,1,0,90,0,1
31994,-86.3309600952403,4,1,0,90,0,1
32078,-86.0215053763441,4,1,0,90,0,1
32161,-85.7142612244968,4,1,0,90,0,1
32328,-85.1063829787234,4,1,0,90,0,1
32661,-83.91606044306,4,1,0,90,0,1
32744,-83.6237166895378,4,1,0,90,0,1
32828,-83.3333333333333,4,1,0,90,0,1
32911,-83.0449597107378,4,1,0,90,0,1
32994,-82.7586435196258,4,1,0,90,0,1
33078,-82.4742268041237,4,1,0,90,0,1
33161,-82.1917583036279,4,1,0,90,0,1
33328,-81.6326530612245,4,1,0,90,0,1
33494,-81.0811029948927,4,1,0,90,0,1
33578,-80.8080808080808,4,1,0,90,0,1
33661,-80.5368911310359,4,1,0,90,0,1
33744,-80.2675800047037,4,1,0,90,0,1
33828,-80,4,1,0,90,0,1
33994,-90.9090909090909,4,1,0,90,0,1
40661,-90.9090909090909,4,1,0,90,0,1
40828,-90.4522249438292,4,1,0,90,0,1
40911,-90.2255910452905,4,1,0,90,0,1
40994,-90.0000090000009,4,1,0,90,0,1
41078,-89.7755521420896,4,1,0,90,0,1
41161,-89.5522120739665,4,1,0,90,0,1
41328,-89.1089285364215,4,1,0,90,0,1
41411,-88.8888888888889,4,1,0,90,0,1
41494,-88.6699332670082,4,1,0,90,0,1
41578,-88.4520536797824,4,1,0,90,0,1
41661,-88.2353200692118,4,1,0,90,0,1
41828,-87.8048694824518,4,1,0,90,0,1
41911,-87.591215301835,4,1,0,90,0,1
41994,-87.3786747101649,4,1,0,90,0,1
42161,-86.9565217391304,4,1,0,90,0,1
42328,-86.5384282544507,4,1,0,90,0,1
42411,-86.3309600952403,4,1,0,90,0,1
42494,-86.1244101554459,4,1,0,90,0,1
42578,-85.918846212998,4,1,0,90,0,1
42661,-85.7142612244968,4,1,0,90,0,1
42744,-85.5107213342409,4,1,0,90,0,1
42828,-85.3080730441845,4,1,0,90,0,1
42911,-85.1063829787234,4,1,0,90,0,1
42994,-84.9056443574256,4,1,0,90,0,1
43161,-84.5070660583285,4,1,0,90,0,1
43328,-84.1121416717625,4,1,0,90,0,1
43411,-83.91606044306,4,1,0,90,0,1
43494,-83.7209613845438,4,1,0,90,0,1
43578,-83.5266976383661,4,1,0,90,0,1
43661,-83.3333333333333,4,1,0,90,0,1
43744,-83.3333333333333,4,1,0,90,0,1
43828,-83.3333333333333,4,1,0,80,0,0
43939,-84.7457627118644,4,1,0,80,0,0
44050,-86.2068965517241,4,1,0,80,0,0
44161,-87.719298245614,4,1,0,80,0,0
44272,-89.2857142857143,4,1,0,80,0,0
44383,-90.9090909090909,4,1,0,80,0,0
44494,-92.5925925925926,4,1,0,80,0,0
44578,-95.2380952380952,4,1,0,80,0,0
44661,-100,4,1,0,80,0,0
44828,-105.263157894737,4,1,0,60,0,0
61994,-105.263157894737,4,1,0,60,0,0
62161,-105.989464647214,4,1,0,60,0,0
62244,-106.356389625998,4,1,0,60,0,0
62328,-106.725863945869,4,1,0,60,0,0
62494,-106.951871657754,4,1,0,60,0,0
62578,-107.472567627113,4,1,0,60,0,0
62661,-107.816711590296,4,1,0,60,0,0
62828,-108.108108108108,4,1,0,60,0,0
62911,-108.997765545806,4,1,0,60,0,0
62994,-109.776714163392,4,1,0,60,0,0
63161,-110.566876375176,4,1,0,60,0,0
63328,-111.368496079829,4,1,0,60,0,0
63411,-111.773680651417,4,1,0,60,0,0
63494,-112.181824300827,4,1,0,60,0,0
63661,-113.006991742579,4,1,0,60,0,0
63828,-113.844517988003,4,1,0,60,0,0
63911,-114.267953780898,4,1,0,60,0,0
63994,-114.694551205956,4,1,0,60,0,0
64161,-115.557373658234,4,1,0,60,0,0
64328,-115.606936416185,4,1,0,60,0,0
64494,-115.942028985507,4,1,0,60,0,0
64578,-115.942028985507,4,1,0,60,0,0
64661,-117.647058823529,4,1,0,60,0,0
64828,-119.142507544699,4,1,0,60,0,0
64994,-120.073821385388,4,1,0,60,0,0
65078,-120.544959653602,4,1,0,60,0,0
65161,-121.019809732655,4,1,0,60,0,0
65328,-121.980822175138,4,1,0,60,0,0
65494,-122.957219494621,4,1,0,60,0,0
65661,-123.949374117635,4,1,0,60,0,0
65828,-124.957670589088,4,1,0,60,0,0
76494,-125,4,1,0,70,0,0
76828,-123.712462546052,4,1,0,70,0,0
76994,-123.078589371671,4,1,0,70,0,0
77078,-122.764007066296,4,1,0,70,0,0
77161,-122.451178715046,4,1,0,70,0,0
77328,-121.830132246609,4,1,0,70,0,0
77494,-121.215353621551,4,1,0,70,0,0
77661,-120.606748430002,4,1,0,70,0,0
77828,-120.00422414869,4,1,0,70,0,0
78161,-118.816916201994,4,1,0,70,0,0
78328,-118.23209906904,4,1,0,70,0,0
78411,-117.941913607548,4,1,0,70,0,0
78494,-117.653010681717,4,1,0,70,0,0
78661,-117.079567273919,4,1,0,70,0,0
78828,-116.511686704735,4,1,0,70,0,0
78994,-115.949288419217,4,1,0,70,0,0
79161,-115.392293410292,4,1,0,70,0,0
79244,-115.115864117234,4,1,0,70,0,0
79328,-114.840624181761,4,1,0,70,0,0
79494,-114.29420471235,4,1,0,70,0,0
79661,-113.752960420795,4,1,0,70,0,0
79828,-113.2168181319,4,1,0,70,0,0
79911,-112.950573958342,4,1,0,70,0,0
79994,-112.68570604356,4,1,0,70,0,0
80161,-112.159553694704,4,1,0,70,0,0
80494,-111.121852890224,4,1,0,70,0,0
80578,-110.865359564077,4,1,0,70,0,0
80661,-110.610169941465,4,1,0,70,0,0
80828,-110.103177687811,4,1,0,70,0,0
80994,-109.600811922815,4,1,0,70,0,0
81161,-109.10300960652,4,1,0,70,0,0
81244,-108.855741106214,4,1,0,70,0,0
81328,-108.609590878532,4,1,0,70,0,0
81494,-108.120731934107,4,1,0,70,0,0
81661,-107.636254043087,4,1,0,70,0,0
81828,-107.156098575038,4,1,0,70,0,0
82161,-106.208525570765,4,1,0,70,0,0
82244,-105.974301231951,4,1,0,70,0,0
82328,-105.740995889847,4,1,0,70,0,0
82494,-105.277564298272,4,1,0,70,0,0
82661,-104.818177149008,4,1,0,70,0,0
82828,-104.362781727329,4,1,0,70,0,0
82911,-104.136510468843,4,1,0,70,0,0
82994,-103.911326230648,4,1,0,70,0,0
83161,-103.463759748873,4,1,0,70,0,0
83328,-103.02003224527,4,1,0,70,0,0
83494,-102.580094537815,4,1,0,70,0,0
83578,-102.361479328099,4,1,0,70,0,0
83661,-102.14389828102,4,1,0,70,0,0
83828,-101.711395948225,4,1,0,70,0,0
84161,-100.857286938981,4,1,0,70,0,0
84328,-100.435589150144,4,1,0,70,0,0
84494,-100.017302993418,4,1,0,70,0,0
85161,-105.263157894737,4,1,0,70,0,0
85828,-111.111111111111,4,1,0,70,0,0
86328,-117.647058823529,4,1,0,70,0,0
86494,-80,4,1,0,90,0,0
87161,-90.9090909090909,4,1,0,90,0,1
94828,-90.9090909090909,4,1,0,90,0,1
94911,-90.566830622819,4,1,0,90,0,1
94994,-90.2271377966894,4,1,0,90,0,1
95078,-89.889983649012,4,1,0,90,0,1
95161,-89.5553398266925,4,1,0,90,0,1
95328,-88.8934718412149,4,1,0,90,0,1
95494,-88.2413152897492,4,1,0,90,0,1
95578,-87.918812252014,4,1,0,90,0,1
95661,-87.5986579885596,4,1,0,90,0,1
95744,-87.2808269334667,4,1,0,90,0,1
95828,-86.9652182609565,4,1,0,90,0,1
95911,-86.6519589408358,4,1,0,90,0,1
95994,-86.3409483171718,4,1,0,90,0,1
96161,-85.7255769974274,4,1,0,90,0,1
96328,-85.1189153807326,4,1,0,90,0,1
96661,-83.9309919384282,4,1,0,90,0,1
96828,-83.3493780886154,4,1,0,90,0,1
96911,-83.0615835192528,4,1,0,90,0,1
96994,-82.7757695456355,4,1,0,90,0,1
97078,-82.4919157922524,4,1,0,90,0,1
97161,-82.2100021621231,4,1,0,90,0,1
97328,-81.6519162479965,4,1,0,90,0,1
97411,-81.3757051204849,4,1,0,90,0,1
97494,-81.1013564201861,4,1,0,90,0,1
97661,-80.558171458401,4,1,0,90,0,1
97744,-80.2892339363322,4,1,0,90,0,1
97828,-80.0221501311563,4,1,0,90,0,1
97994,-90.9090909090909,4,1,0,90,0,1
105328,-90.9090909090909,4,1,0,90,0,1
105411,-90.9090909090909,4,1,0,90,0,1
105494,-90.3442749284699,4,1,0,90,0,1
105578,-89.7864339881159,4,1,0,90,0,1
105661,-89.2355193061046,4,1,0,90,0,1
105744,-88.6912453758602,4,1,0,90,0,1
105828,-88.1535705722224,4,1,0,90,0,1
105994,-87.0975440234536,4,1,0,90,0,1
106161,-86.0665931657961,4,1,0,90,0,1
106328,-85.0596906379051,4,1,0,90,0,1
106411,-84.5650944042431,4,1,0,90,0,1
106494,-84.0761460839854,4,1,0,90,0,1
106578,-83.5928193768155,4,1,0,90,0,1
106661,-83.1150178863519,4,1,0,90,0,1
106828,-82.175683393527,4,1,0,90,0,1
106994,-81.2572776049255,4,1,0,90,0,1
107078,-80.8057300959326,4,1,0,90,0,1
107161,-80.3591733612555,4,1,0,90,0,1
107244,-79.9175889822415,4,1,0,90,0,1
107328,-79.4807680385577,4,1,0,90,0,1
107494,-78.6212969369143,4,1,0,90,0,1
107661,-77.780275388843,4,1,0,90,0,1
107828,-76.9569971995349,4,1,0,70,0,0
108494,-71.4285714285714,4,1,0,90,0,1
108606,-72.463768115942,4,1,0,90,0,1
108717,-73.6079449471458,4,1,0,90,0,1
108828,-74.7482479010692,4,1,0,90,0,1
108939,-75.9244946086016,4,1,0,90,0,1
109050,-77.138292759877,4,1,0,90,0,1
109161,-78.3915312061008,4,1,0,90,0,1
109272,-79.6862275105544,4,1,0,90,0,1
109383,-81.0243421431101,4,1,0,90,0,1
109494,-82.4081643416577,4,1,0,90,0,1
109661,-84.5749642882213,4,1,0,90,0,1
109828,-86.8587112773008,4,1,0,90,0,1
111328,-86.9565217391304,4,1,0,90,0,1
111411,-86.6666782222238,4,1,0,90,0,1
111494,-86.3787604993383,4,1,0,90,0,1
111606,-85.9977588984031,4,1,0,90,0,1
111717,-85.6201769084095,4,1,0,90,0,1
111828,-85.2458960494494,4,1,0,90,0,1
111939,-84.8748732181581,4,1,0,90,0,1
112050,-84.5070660583285,4,1,0,90,0,1
112161,-84.142362145361,4,1,0,90,0,1
112272,-83.7808627753249,4,1,0,90,0,1
112383,-83.422456324173,4,1,0,90,0,1
112494,-83.0671032673614,4,1,0,90,0,1
112606,-82.7147647509376,4,1,0,90,0,1
112717,-82.3653347368386,4,1,0,90,0,1
112828,-82.0189119207107,4,1,0,90,0,1
112939,-81.6753909596777,4,1,0,90,0,1
113050,-81.3347355441741,4,1,0,90,0,1
113161,-80.9969099678847,4,1,0,90,0,1
113328,-80.4953361002264,4,1,0,90,0,1
113411,-80.2469036732218,4,1,0,90,0,1
113494,-80,4,1,0,90,0,1
113661,-71.4285714285714,4,1,0,90,0,1
113744,-71.8870568073089,4,1,0,90,0,1
113828,-72.3514137104482,4,1,0,90,0,1
113939,-72.9800224486549,4,1,0,90,0,1
114050,-73.6196499680123,4,1,0,90,0,1
114161,-74.2705333886896,4,1,0,90,0,1
114272,-74.9330847553135,4,1,0,90,0,1
114383,-75.6075634782201,4,1,0,90,0,1
114494,-76.2942945600642,4,1,0,90,0,1
114606,-76.993555639393,4,1,0,90,0,1
114717,-77.7058135604415,4,1,0,90,0,1
114828,-78.4313725490196,4,1,0,90,0,1
114939,-79.170608703225,4,1,0,90,0,1
115050,-79.9239124353615,4,1,0,90,0,1
115161,-80.6916240480406,4,1,0,90,0,1
115328,-81.8713163024621,4,1,0,90,0,1
115411,-82.4742268041237,4,1,0,90,0,1
115494,-83.0860829980117,4,1,0,90,0,1
115578,-83.7070154012538,4,1,0,90,0,1
115661,-84.3373697198481,4,1,0,90,0,1
115744,-84.9772176079593,4,1,0,90,0,1
115828,-85.6269217892259,4,1,0,90,0,1
115911,-86.2865628524267,4,1,0,90,0,1
115994,-86.9565217391304,4,1,0,90,0,1
116494,-86.9565217391304,4,1,0,90,0,1
116578,-86.6044557992509,4,1,0,90,0,1
116661,-86.2551548236901,4,1,0,90,0,1
116744,-85.9087339973506,4,1,0,90,0,1
116828,-85.5650846538165,4,1,0,90,0,1
116911,-85.2241010348763,4,1,0,90,0,1
116994,-84.8858963780886,4,1,0,90,0,1
117078,-84.550365384404,4,1,0,90,0,1
117161,-84.2174055480742,4,1,0,90,0,1
117244,-83.8871281912761,4,1,0,90,0,1
117328,-83.5594312276635,4,1,0,90,0,1
117411,-83.2342152553334,4,1,0,90,0,1
117494,-82.9115897136565,4,1,0,90,0,1
117578,-82.5914555835541,4,1,0,90,0,1
117661,-82.2737164271816,4,1,0,90,0,1
117744,-81.958479834116,4,1,0,90,0,1
117828,-81.645649715669,4,1,0,90,0,1
117911,-81.3351324664635,4,1,0,90,0,1
117994,-81.0270338595769,4,1,0,90,0,1
118078,-80.7212606077827,4,1,0,90,0,1
118161,-80.4177864843435,4,1,0,90,0,1
118244,-80.1165214688243,4,1,0,90,0,1
118328,-79.817568964375,4,1,0,90,0,1
118411,-79.5208392311289,4,1,0,90,0,1
118494,-79.2262448027583,4,1,0,90,0,1
118578,-78.9338873439773,4,1,0,90,0,1
118661,-78.6436796433981,4,1,0,90,0,1
118744,-78.3555366805774,4,1,0,90,0,1
118828,-78.0695584151567,4,1,0,90,0,1
118911,-77.785660057997,4,1,0,90,0,1
118994,-77.5037589323082,4,1,0,90,0,1
119078,-77.2239533258426,4,1,0,90,0,1
119161,-76.9461607713083,4,1,0,90,0,1
119328,-86.9565217391304,4,1,0,90,0,1
120328,-71.4285714285714,4,1,0,90,0,1
120411,-72.3514137104482,4,1,0,90,0,1
120494,-73.2984139689185,4,1,0,90,0,1
120578,-74.2705333886896,4,1,0,90,0,1
120661,-75.2688414845725,4,1,0,90,0,1
120744,-76.2942945600642,4,1,0,90,0,1
120828,-77.3480748450911,4,1,0,90,0,1
120911,-78.4313725490196,4,1,0,90,0,1
120994,-79.5454455061994,4,1,0,90,0,1
121078,-80.6916240480406,4,1,0,90,0,1
121161,-81.8713163024621,4,1,0,90,0,1
121244,-83.0860829980117,4,1,0,90,0,1
121328,-84.3373697198481,4,1,0,90,0,1
121411,-85.6269217892259,4,1,0,90,0,1
121494,-86.9565217391304,4,1,0,90,0,1
121578,-86.7214688535509,4,1,0,90,0,1
121661,-86.4876832890228,4,1,0,90,0,1
121744,-86.2551548236901,4,1,0,90,0,1
121828,-86.0238733453308,4,1,0,90,0,1
121911,-85.7939024557647,4,1,0,90,0,1
121994,-85.5650846538165,4,1,0,90,0,1
122078,-85.3374841485623,4,1,0,90,0,1
122161,-85.1110912518565,4,1,0,90,0,1
122244,-84.8858963780886,4,1,0,90,0,1
122328,-84.6618900428305,4,1,0,90,0,1
122411,-84.4390628615047,4,1,0,90,0,1
122494,-84.2174055480742,4,1,0,90,0,1
122578,-83.9969794686183,4,1,0,90,0,1
122661,-83.7776340525922,4,1,0,90,0,1
122828,-83.3423620892263,4,1,0,90,0,1
122994,-82.9115897136565,4,1,0,90,0,1
123078,-82.6978691240063,4,1,0,90,0,1
123244,-82.2737164271816,4,1,0,90,0,1
123328,-82.0633348405632,4,1,0,90,0,1
123494,-81.645649715669,4,1,0,90,0,1
123578,-81.438397552939,4,1,0,90,0,1
123661,-81.2321949182763,4,1,0,90,0,1
123744,-81.0270338595769,4,1,0,90,0,1
123828,-80.82290650487,4,1,0,90,0,1
123994,-80.4177864843435,4,1,0,90,0,1
124078,-80.216713473119,4,1,0,90,0,1
124161,-80.0166434618401,4,1,0,90,0,1
124494,-71.4285714285714,4,1,0,90,0,1
124606,-72.1417961431553,4,1,0,90,0,1
124717,-72.8694078194704,4,1,0,90,0,1
124828,-73.6117920201873,4,1,0,90,0,1
124939,-74.3695138539249,4,1,0,90,0,1
125050,-75.1429971235261,4,1,0,90,0,1
125161,-75.9327387799887,4,1,0,90,0,1
125272,-76.739256887732,4,1,0,90,0,1
125383,-77.5630917579132,4,1,0,90,0,1
125494,-78.4047456824467,4,1,0,90,0,1
125606,-79.264928756682,4,1,0,90,0,1
125717,-80.1441954364292,4,1,0,90,0,1
125828,-81.0431879148398,4,1,0,90,0,1
125994,-82.4301054528339,4,1,0,90,0,1
126078,-83.1415534832985,4,1,0,90,0,1
126161,-83.8653190069004,4,1,0,90,0,1
126328,-85.3514688134268,4,1,0,90,0,1
126411,-86.1143978106276,4,1,0,90,0,1
126494,-86.8911644719407,4,1,0,90,0,1
126994,-86.9565217391304,4,1,0,90,0,1
127078,-86.6250115860953,4,1,0,90,0,1
127161,-86.2960195098041,4,1,0,90,0,1
127328,-85.6454756921011,4,1,0,90,0,1
127494,-85.0046667562049,4,1,0,90,0,1
127578,-84.6878448383182,4,1,0,90,0,1
127661,-84.3733758125156,4,1,0,90,0,1
127744,-84.0612335649781,4,1,0,90,0,1
127828,-83.7513923668981,4,1,0,90,0,1
127911,-83.4438268674103,4,1,0,90,0,1
127994,-83.1385120866769,4,1,0,90,0,1
128078,-82.835423409125,4,1,0,90,0,1
128161,-82.5345365768306,4,1,0,90,0,1
128244,-82.2358276830467,4,1,0,90,0,1
128328,-81.9392731658713,4,1,0,90,0,1
128411,-81.6448498020521,4,1,0,90,0,1
128494,-81.3525347009237,4,1,0,90,0,1
128578,-81.0623052984755,4,1,0,90,0,1
128661,-80.7741393515452,4,1,0,90,0,1
128717,-80.5831642429937,4,1,0,90,0,1
128772,-80.3930900531237,4,1,0,90,0,1
128828,-80.2039104218565,4,1,0,90,0,1
128939,-79.8282734182227,4,1,0,90,0,1
129050,-79.4560754896282,4,1,0,90,0,1
129161,-79.087332186567,4,1,0,90,0,1
129272,-78.7219956340781,4,1,0,90,0,1
129383,-78.3600188377485,4,1,0,90,0,1
129494,-78.0013556635614,4,1,0,90,0,1
129578,-77.7345055696773,4,1,0,90,0,1
129661,-77.4694750900776,4,1,0,90,0,1
129744,-77.2062456764503,4,1,0,90,0,1
129828,-76.9230769230769,4,1,0,90,0,0
130161,-95.2380952380952,4,1,0,90,0,0
136661,-95.2380952380952,4,1,0,90,0,0
136744,-95.4003667190097,4,1,0,90,0,0
136828,-95.5631007932693,4,1,0,90,0,0
136911,-95.7264826356947,4,1,0,90,0,0
136994,-95.8904240945786,4,1,0,90,0,0
137161,-96.2199048192702,4,1,0,90,0,0
137244,-96.3855421686747,4,1,0,90,0,0
137328,-96.5517507728968,4,1,0,90,0,0
137494,-96.8857997389896,4,1,0,90,0,0
137661,-97.2222627314984,4,1,0,90,0,0
137744,-97.3912772476446,4,1,0,90,0,0
137828,-97.5609756097561,4,1,0,90,0,0
137994,-97.9020568243118,4,1,0,90,0,0
138078,-98.0735414257735,4,1,0,90,0,0
138161,-98.2456278239478,4,1,0,90,0,0
138328,-98.5915215235151,4,1,0,90,0,0
138411,-98.7654320987654,4,1,0,90,0,0
138494,-98.9399572975144,4,1,0,90,0,0
138578,-99.1150021458398,4,1,0,90,0,0
138661,-99.2907660580474,4,1,0,90,0,0
138828,-99.6441706665498,4,1,0,90,0,0
138994,-100,4,1,0,90,0,0
139328,-100,4,1,0,90,0,0
139411,-99.3788819875776,4,1,0,90,0,0
139494,-98.7654320987654,4,1,0,90,0,0
139578,-98.159509202454,4,1,0,90,0,0
139661,-97.5609756097561,4,1,0,90,0,0
139828,-96.3855421686747,4,1,0,90,0,0
139911,-95.8083832335329,4,1,0,90,0,0
139994,-95.2380952380952,4,1,0,90,0,0
140161,-94.1176470588235,4,1,0,90,0,0
140244,-93.5672514619883,4,1,0,90,0,0
140328,-93.0232558139535,4,1,0,90,0,0
140411,-92.485549132948,4,1,0,90,0,0
140494,-91.9540229885058,4,1,0,90,0,0
140661,-90.9090909090909,4,1,0,90,0,0
140994,-95.2380952380952,4,1,0,90,0,0
148661,-95.2380952380952,4,1,0,90,0,0
148744,-95.5405493199424,4,1,0,90,0,0
148828,-95.8449305699323,4,1,0,90,0,0
148994,-96.4595487236472,4,1,0,90,0,0
149078,-96.7698232983027,4,1,0,90,0,0
149161,-97.082194640092,4,1,0,90,0,0
149328,-97.7128356558046,4,1,0,90,0,0
149494,-98.3517234664262,4,1,0,90,0,0
149578,-98.6743106365973,4,1,0,90,0,0
149661,-98.9990208996833,4,1,0,90,0,0
149828,-99.6548950982747,4,1,0,90,0,0
149911,-99.9861019318315,4,1,0,90,0,0
149994,-100.319618303916,4,1,0,90,0,0
150078,-100.655265780229,4,1,0,90,0,0
150161,-100.993166802334,4,1,0,90,0,0
150328,-101.67582087974,4,1,0,90,0,0
150411,-102.020620407797,4,1,0,90,0,0
150494,-102.367766437704,4,1,0,90,0,0
150661,-103.069194473018,4,1,0,90,0,0
150828,-103.78040895708,4,1,0,90,0,0
150911,-104.139655443536,4,1,0,90,0,0
150994,-104.501397706194,4,1,0,90,0,0
151078,-104.865661843895,4,1,0,90,0,0
151161,-105.232474320645,4,1,0,70,0,0
162161,-100,4,1,0,80,0,0
162327,-99.6749599555848,4,1,0,80,0,0
162411,-99.5132805448551,4,1,0,80,0,0
162494,-99.352026085868,4,1,0,80,0,0
162661,-99.0311779857653,4,1,0,80,0,0
162827,-98.7124929543958,4,1,0,80,0,0
162994,-98.3957556006864,4,1,0,80,0,0
163161,-98.0810443669604,4,1,0,80,0,0
163328,-97.7683398740353,4,1,0,80,0,0
163494,-97.4576229890838,4,1,0,80,0,0
163578,-97.3030513263866,4,1,0,80,0,0
163661,-97.1488748217318,4,1,0,80,0,0
163744,-97.1488748217318,4,1,0,80,0,0
163828,-96.84207672023,4,1,0,80,0,0
163994,-96.5372102676977,4,1,0,80,0,0
164161,-96.2343498888493,4,1,0,80,0,0
164327,-95.9332918261957,4,1,0,80,0,0
164494,-95.634111539977,4,1,0,80,0,0
164661,-95.3367915165509,4,1,0,80,0,0
164827,-95.0413144593955,4,1,0,80,0,0
164994,-94.7476632857542,4,1,0,80,0,0
165078,-94.6015618717865,4,1,0,80,0,0
165161,-94.4558211233442,4,1,0,80,0,0
165327,-94.1657713071245,4,1,0,80,0,0
165494,-93.8775855060518,4,1,0,80,0,0
165661,-93.5910706631302,4,1,0,80,0,0
165827,-93.3062993881906,4,1,0,80,0,0
165911,-93.1645192244985,4,1,0,80,0,0
165994,-93.0232558139535,4,1,0,80,0,0
166161,-92.7419242650898,4,1,0,80,0,0
166327,-92.4622892553272,4,1,0,80,0,0
166494,-92.1843354846084,4,1,0,80,0,0
166578,-92.0460266951887,4,1,0,80,0,0
166661,-91.9081323072709,4,1,0,80,0,0
166827,-91.6334953413531,4,1,0,80,0,0
166994,-91.3604948084399,4,1,0,80,0,0
167161,-91.0891161258706,4,1,0,90,0,0
167328,-90.8193448837376,4,1,0,90,0,0
167494,-90.5511668423359,4,1,0,90,0,0
167578,-90.4177117447183,4,1,0,90,0,0
167661,-90.2845679296575,4,1,0,90,0,0
167744,-90.1518969311393,4,1,0,90,0,0
167827,-90.0195342389299,4,1,0,90,0,0
167994,-89.7561325877591,4,1,0,90,0,0
168161,-89.4941877999733,4,1,0,90,0,0
168327,-89.2337674853567,4,1,0,90,0,0
168494,-88.9748583742692,4,1,0,90,0,0
168578,-88.8460058833825,4,1,0,90,0,0
168661,-88.7174473506309,4,1,0,90,0,0
168827,-88.4615214497074,4,1,0,90,0,0
168994,-88.2070678559332,4,1,0,90,0,0
169078,-88.0804280004157,4,1,0,90,0,0
169161,-87.954073900772,4,1,0,90,0,0
169244,-87.8281589373495,4,1,0,90,0,0
169328,-87.7026039780147,4,1,0,90,0,0
169494,-87.4524914340285,4,1,0,90,0,0
169661,-87.2038013881101,4,1,0,90,0,0
169744,-87.0799481003509,4,1,0,90,0,0
169827,-86.9565217391304,4,1,0,90,0,0
170161,-90.9090909090909,4,1,0,90,0,0
170328,-92.7152686285836,4,1,0,90,0,0
170494,-94.594581811543,4,1,0,90,0,0
170661,-96.5517507728968,4,1,0,90,0,0
170828,-98.5915215235151,4,1,0,90,0,0
170994,-100.719438952437,4,1,0,90,0,0
171161,-102.941131055383,4,1,0,90,0,0
171328,-105.263157894737,4,1,0,90,0,0
171494,-107.692357396473,4,1,0,90,0,0
171661,-110.236203112409,4,1,0,90,0,0
171827,-112.903262226859,4,1,0,90,0,0
171994,-115.702441090102,4,1,0,90,0,0
172161,-118.644087905778,4,1,0,90,0,0
172328,-121.739066918748,4,1,0,90,0,0
172494,-125,4,1,0,60,0,0
182661,-117.647058823529,4,1,0,60,0,0
193161,-80,4,1,0,90,0,0
193828,-90.9090909090909,4,1,0,90,0,1
201161,-90.9090909090909,4,1,0,90,0,1
201244,-90.6002265005663,4,1,0,90,0,1
201328,-90.293453724605,4,1,0,90,0,1
201411,-89.9887514060742,4,1,0,90,0,1
201494,-89.6860986547085,4,1,0,90,0,1
201578,-89.3854748603352,4,1,0,90,0,1
201661,-89.086859688196,4,1,0,90,0,1
201828,-88.495575221239,4,1,0,90,0,1
201911,-88.2028665931643,4,1,0,90,0,1
201994,-87.9120879120879,4,1,0,90,0,1
202161,-87.3362445414847,4,1,0,90,0,1
202328,-86.7678958785249,4,1,0,90,0,1
202411,-86.4864864864865,4,1,0,90,0,1
202494,-86.2068965517241,4,1,0,90,0,1
202578,-85.9291084854995,4,1,0,90,0,1
202661,-85.6531049250535,4,1,0,90,0,1
202828,-85.1063829787234,4,1,0,90,0,1
202911,-84.8356309650053,4,1,0,90,0,1
202994,-84.5665961945032,4,1,0,90,0,1
203161,-84.0336134453782,4,1,0,90,0,1
203244,-83.7696335078534,4,1,0,90,0,1
203328,-83.5073068893528,4,1,0,90,0,1
203411,-83.2466181061394,4,1,0,90,0,1
203494,-82.9875518672199,4,1,0,90,0,1
203661,-82.4742268041237,4,1,0,90,0,1
203744,-82.2199383350463,4,1,0,90,0,1
203828,-81.9672131147541,4,1,0,90,0,1
203994,-81.4663951120163,4,1,0,90,0,1
204161,-80.9716599190283,4,1,0,90,0,1
204244,-80.7265388496468,4,1,0,90,0,1
204328,-80.4828973843058,4,1,0,90,0,1
204411,-80.2407221664995,4,1,0,90,0,1
204494,-80,4,1,0,90,0,1
204661,-86.9565217391304,4,1,0,90,0,1
208661,-86.9565217391304,4,1,0,90,0,1
208828,-86.5265974107781,4,1,0,90,0,1
208911,-86.3132255166062,4,1,0,90,0,1
208994,-86.1008292370864,4,1,0,90,0,1
209078,-85.8895494749572,4,1,0,90,0,1
209161,-85.6793040784206,4,1,0,90,0,1
209328,-85.261886146393,4,1,0,90,0,1
209411,-85.054698676719,4,1,0,90,0,1
209494,-84.8485157024906,4,1,0,90,0,1
209578,-84.643258291442,4,1,0,90,0,1
209661,-84.4390628615047,4,1,0,90,0,1
209744,-84.2358502724609,4,1,0,90,0,1
209828,-84.0336134453782,4,1,0,90,0,1
209994,-83.6320390996509,4,1,0,90,0,1
210161,-83.2342152553334,4,1,0,90,0,1
210328,-82.8402268828134,4,1,0,90,0,1
210411,-82.6446280991736,4,1,0,90,0,1
210494,-82.4499508186043,4,1,0,90,0,1
210578,-82.2561885443451,4,1,0,90,0,1
210661,-82.0633348405632,4,1,0,90,0,1
210828,-81.6802609847699,4,1,0,90,0,1
210994,-81.3008130081301,4,1,0,90,0,1
211078,-81.1124080083903,4,1,0,90,0,1
211161,-80.9248742022831,4,1,0,90,0,1
211328,-80.5523312247418,4,1,0,90,0,1
211494,-80.183266874769,4,1,0,90,0,1
211661,-79.817568964375,4,1,0,90,0,1
211828,-79.4551916419495,4,1,0,90,0,1
211994,-79.0960273229317,4,1,0,90,0,1
212161,-78.740157480315,4,1,0,90,0,1
212244,-78.5634207141886,4,1,0,90,0,1
212328,-78.3874755627045,4,1,0,90,0,1
212411,-78.2123167192123,4,1,0,90,0,1
212494,-78.0378780252359,4,1,0,90,0,1
212661,-77.6914453172647,4,1,0,90,0,1
212828,-77.3480748450911,4,1,0,90,0,1
212994,-77.0077261851682,4,1,0,90,0,1
213078,-76.8386135547925,4,1,0,90,0,1
213161,-76.6703008389264,4,1,0,90,0,1
213328,-76.3358778625954,4,1,0,90,0,1
213411,-76.1697580162958,4,1,0,90,0,1
213494,-76.0043596100672,4,1,0,90,0,1
213578,-75.8396779543915,4,1,0,90,0,1
213661,-75.6756511322213,4,1,0,90,0,1
213828,-75.3498304252066,4,1,0,90,0,1
213994,-75.026803325488,4,1,0,90,0,1
214078,-74.8663261746152,4,1,0,90,0,1
214161,-74.7065340575883,4,1,0,90,0,1
214244,-74.5473670242704,4,1,0,90,0,1
214328,-74.3889321171239,4,1,0,90,0,1
214494,-74.0740740740741,4,1,0,90,0,0
215161,-80,4,1,0,90,0,1
222828,-80,4,1,0,90,0,1
222911,-79.8230482666026,4,1,0,90,0,1
222994,-79.6468141672567,4,1,0,90,0,1
223078,-79.4714196933357,4,1,0,90,0,1
223161,-79.2967960129571,4,1,0,90,0,1
223328,-78.9497784669216,4,1,0,90,0,1
223494,-78.605784914135,4,1,0,90,0,1
223578,-78.4349405698455,4,1,0,90,0,1
223661,-78.2647759983846,4,1,0,90,0,1
223828,-77.9267737692245,4,1,0,90,0,1
223911,-77.7588046294482,4,1,0,90,0,1
223994,-77.5916182430309,4,1,0,90,0,1
224078,-77.4251492369751,4,1,0,90,0,1
224161,-77.259333313761,4,1,0,90,0,1
224328,-76.9298822588152,4,1,0,90,0,1
224411,-76.6283524904215,4,1,0,90,0,1
224494,-76.6032876598998,4,1,0,90,0,1
224578,-76.4409696078349,4,1,0,90,0,1
224661,-76.2793961722999,4,1,0,90,0,1
224828,-75.9582320873398,4,1,0,90,0,1
224911,-75.7986908050124,4,1,0,90,0,1
224994,-75.6398183131564,4,1,0,90,0,1
225078,-75.4815534405624,4,1,0,90,0,1
225161,-75.324006212724,4,1,0,90,0,1
225328,-75.0108203108298,4,1,0,90,0,1
225494,-74.7002279850958,4,1,0,90,0,1
225578,-74.5459221516935,4,1,0,90,0,1
225661,-74.3922524932564,4,1,0,90,0,1
225744,-74.2391599690571,4,1,0,90,0,1
225828,-74.0867511403803,4,1,0,90,0,1
225994,-80,4,1,0,90,0,1
230994,-80,4,1,0,90,0,1
231078,-79.8860505375133,4,1,0,90,0,1
231161,-79.7724252253172,4,1,0,90,0,1
231244,-79.6591226822183,4,1,0,90,0,1
231328,-79.5461415348587,4,1,0,90,0,1
231494,-79.3211379727738,4,1,0,90,0,1
231661,-79.0974037068207,4,1,0,90,0,1
231744,-78.9859468203417,4,1,0,90,0,1
231828,-78.8748658141345,4,1,0,90,0,1
231911,-78.7640968042255,4,1,0,90,0,1
231994,-78.6536384779892,4,1,0,90,0,1
232161,-78.4336486627455,4,1,0,90,0,1
232244,-78.3241145850467,4,1,0,90,0,1
232328,-78.2148860135359,4,1,0,90,0,1
232411,-78.1059616718425,4,1,0,90,0,1
232494,-77.9973402906961,4,1,0,90,0,1
232578,-77.8890206078771,4,1,0,90,0,1
232661,-77.7810013681678,4,1,0,90,0,1
232828,-77.5658592319273,4,1,0,90,0,1
232911,-77.4587338595363,4,1,0,90,0,1
232994,-77.3519039784405,4,1,0,90,0,1
233078,-77.2453086992894,4,1,0,90,0,1
233161,-77.1390663087414,4,1,0,90,0,1
233328,-76.9274558705649,4,1,0,90,0,1
233411,-76.8220854276954,4,1,0,90,0,1
233494,-76.7170032497323,4,1,0,90,0,1
233661,-76.5076989697473,4,1,0,90,0,1
233744,-76.4034745244075,4,1,0,90,0,1
233828,-76.2995336572503,4,1,0,90,0,1
233911,-76.1958752124912,4,1,0,90,0,1
233994,-76.0924980406182,4,1,0,90,0,1
234078,-75.9894009983487,4,1,0,90,0,1
234161,-75.8865829485884,4,1,0,90,0,1
234328,-75.6817793089043,4,1,0,90,0,1
234411,-75.5797914753553,4,1,0,90,0,1
234494,-75.4780211776232,4,1,0,90,0,1
234661,-75.2754139206823,4,1,0,90,0,1
234744,-75.1745176427075,4,1,0,90,0,1
234828,-75.0738914776869,4,1,0,90,0,1
234911,-74.9735343423771,4,1,0,90,0,1
234994,-74.8734451593195,4,1,0,90,0,1
235161,-74.6740663688167,4,1,0,90,0,1
235328,-74.4757466007407,4,1,0,90,0,1
235494,-74.0740740740741,4,1,0,90,0,1
235578,-74.0740740740741,4,1,0,90,0,1
235661,-74.0740740740741,4,1,0,90,0,1
235744,-74.0740740740741,4,1,0,90,0,1
235828,-74.0740740740741,4,1,0,80,0,0
235939,-75.187969924812,4,1,0,80,0,0
236050,-76.3358778625954,4,1,0,80,0,0
236161,-77.5193798449612,4,1,0,80,0,0
236272,-78.7401574803149,4,1,0,80,0,0
236383,-80,4,1,0,80,0,0
236494,-81.3008130081301,4,1,0,80,0,0
236828,-100,4,1,0,60,0,0

[HitObjects]
123,91,1161,5,0,0:0:0:0:
434,315,1828,1,8,0:0:0:0:
266,184,2161,1,0,0:0:0:0:
266,184,2328,1,8,0:0:0:0:
181,171,2661,1,0,0:0:0:0:
334,282,2828,1,8,0:0:0:0:
197,137,2994,1,8,0:0:0:0:
197,137,3161,1,0,0:0:0:0:
334,282,3494,1,8,0:0:0:0:
334,282,3661,1,0,0:0:0:0:
334,282,3828,1,8,0:0:0:0:
161,298,4161,1,0,0:0:0:0:
161,298,4328,1,8,0:0:0:0:
161,298,4494,1,8,0:0:0:0:
195,144,4828,1,8,0:0:0:0:
195,144,4994,1,0,0:0:0:0:
195,144,5328,1,0,0:0:0:0:
195,144,5494,1,8,0:0:0:0:
379,324,5828,1,8,0:0:0:0:
197,137,5911,1,0,0:0:0:0:
463,295,5994,1,8,0:0:0:0:
197,137,6161,1,0,0:0:0:0:
463,295,6328,1,0,0:0:0:0:
226,276,6494,1,8,0:0:0:0:
319,271,6661,1,8,0:0:0:0:
226,276,6828,1,0,0:0:0:0:
387,196,7161,1,8,0:0:0:0:
319,271,7494,1,8,0:0:0:0:
319,271,7661,1,8,0:0:0:0:
171,208,7828,1,0,0:0:0:0:
171,208,8161,1,8,0:0:0:0:
171,208,8328,1,8,0:0:0:0:
319,271,8494,1,8,0:0:0:0:
171,208,8828,1,0,0:0:0:0:
171,208,9161,1,8,0:0:0:0:
294,222,9328,1,8,0:0:0:0:
171,208,9494,1,0,0:0:0:0:
171,208,9661,1,8,0:0:0:0:
171,208,9828,1,8,0:0:0:0:
171,208,9994,1,8,0:0:0:0:
171,208,10161,1,0,0:0:0:0:
85,182,10328,1,0,0:0:0:0:
85,182,10661,1,0,0:0:0:0:
85,182,10828,1,8,0:0:0:0:
85,182,11161,1,8,0:0:0:0:
266,184,11244,1,0,0:0:0:0:
85,182,11328,1,8,0:0:0:0:
85,182,11495,1,0,0:0:0:0:
192,172,11828,1,8,0:0:0:0:
254,171,11994,1,0,0:0:0:0:
254,171,12161,1,8,0:0:0:0:
254,171,12328,1,0,0:0:0:0:
190,121,12494,1,8,0:0:0:0:
156,246,12661,1,8,0:0:0:0:
270,306,12828,1,0,0:0:0:0:
270,306,13161,1,8,0:0:0:0:
254,171,13244,1,8,0:0:0:0:
254,171,13328,1,8,0:0:0:0:
170,194,13494,1,0,0:0:0:0:
270,306,13661,1,0,0:0:0:0:
170,194,13828,1,8,0:0:0:0:
170,194,13994,1,8,0:0:0:0:
170,194,14161,1,0,0:0:0:0:
254,171,14328,1,0,0:0:0:0:
429,287,14411,1,0,0:0:0:0:
170,194,14494,1,8,0:0:0:0:
431,274,14828,1,8,0:0:0:0:
431,274,14911,1,8,0:0:0:0:
170,194,14994,1,8,0:0:0:0:
170,194,15161,1,0,0:0:0:0:
397,240,15328,1,8,0:0:0:0:
170,194,15494,1,0,0:0:0:0:
170,194,15661,1,0,0:0:0:0:
170,194,15828,1,8,0:0:0:0:
142,146,15994,1,8,0:0:0:0:
142,146,16161,1,0,0:0:0:0:
174,148,16494,1,8,0:0:0:0:
397,240,16578,1,0,0:0:0:0:
174,148,16661,1,8,0:0:0:0:
174,148,16828,1,0,0:0:0:0:
397,240,16994,1,0,0:0:0:0:
202,140,17161,1,8,0:0:0:0:
145,117,17328,1,0,0:0:0:0:
145,117,17494,1,8,0:0:0:0:
145,117,17661,1,8,0:0:0:0:
145,117,17828,1,0,0:0:0:0:
219,142,18161,1,8,0:0:0:0:
219,142,18328,1,0,0:0:0:0:
397,240,18411,1,0,0:0:0:0:
397,240,18494,1,8,0:0:0:0:
228,284,18828,1,8,0:0:0:0:
228,284,18994,1,8,0:0:0:0:
228,284,19161,1,0,0:0:0:0:
228,284,19328,1,8,0:0:0:0:
228,284,19494,1,0,0:0:0:0:
190,200,19661,1,0,0:0:0:0:
397,240,19744,1,0,0:0:0:0:
190,200,19828,1,8,0:0:0:0:
190,200,20161,1,8,0:0:0:0:
190,200,20328,1,8,0:0:0:0:
190,200,20494,1,0,0:0:0:0:
190,200,20661,1,0,0:0:0:0:
193,277,20828,1,8,0:0:0:0:
256,192,20994,12,0,22161,0:0:0:0:
277,134,22494,5,8,0:0:0:0:
277,134,23161,1,4,0:0:0:0:
159,222,23328,1,0,0:0:0:0:
159,222,23494,1,8,0:0:0:0:
159,222,23578,1,8,0:0:0:0:
159,222,23661,1,0,0:0:0:0:
175,184,23744,1,0,0:0:0:0:
175,184,23828,1,8,0:0:0:0:
175,184,23994,1,0,0:0:0:0:
250,128,24078,1,0,0:0:0:0:
250,128,24161,1,8,0:0:0:0:
211,234,24328,1,0,0:0:0:0:
211,234,24661,1,0,0:0:0:0:
211,234,24828,1,8,0:0:0:0:
211,234,24994,1,0,0:0:0:0:
211,234,25078,1,0,0:0:0:0:
211,234,25161,1,8,0:0:0:0:
221,188,25328,1,0,0:0:0:0:
221,188,25411,1,0,0:0:0:0:
229,175,25494,1,8,0:0:0:0:
229,175,25661,1,8,0:0:0:0:
132,130,25828,1,0,0:0:0:0:
228,137,25911,1,8,0:0:0:0:
288,158,25994,1,0,0:0:0:0:
265,100,26078,1,0,0:0:0:0:
256,215,26161,1,8,0:0:0:0:
256,215,26328,1,0,0:0:0:0:
256,215,26411,1,0,0:0:0:0:
241,204,26494,1,8,0:0:0:0:
244,126,26661,1,0,0:0:0:0:
214,117,26828,1,8,0:0:0:0:
214,117,26994,1,0,0:0:0:0:
186,70,27328,1,0,0:0:0:0:
186,70,27494,1,8,0:0:0:0:
239,138,27578,1,8,0:0:0:0:
157,62,27661,1,0,0:0:0:0:
209,62,27828,1,8,0:0:0:0:
186,30,27911,1,0,0:0:0:0:
209,62,27994,1,0,0:0:0:0:
186,109,28078,1,0,0:0:0:0:
186,109,28161,1,8,0:0:0:0:
209,62,28328,1,8,0:0:0:0:
209,62,28494,1,0,0:0:0:0:
226,82,28578,1,0,0:0:0:0:
229,138,28661,1,0,0:0:0:0:
226,82,28744,1,0,0:0:0:0:
297,283,28828,1,8,0:0:0:0:
297,283,28994,1,0,0:0:0:0:
297,283,29161,1,8,0:0:0:0:
297,283,29328,1,0,0:0:0:0:
176,77,29411,1,0,0:0:0:0:
228,97,29494,1,8,0:0:0:0:
166,230,29578,1,8,0:0:0:0:
228,97,29661,1,0,0:0:0:0:
214,80,29994,1,0,0:0:0:0:
214,80,30161,1,8,0:0:0:0:
214,80,30328,1,0,0:0:0:0:
214,80,30411,1,0,0:0:0:0:
214,80,30494,1,8,0:0:0:0:
176,77,30578,1,0,0:0:0:0:
214,80,30661,1,0,0:0:0:0:
461,228,30828,1,8,0:0:0:0:
368,213,30911,1,0,0:0:0:0:
368,213,30994,1,8,0:0:0:0:
368,213,31078,1,8,0:0:0:0:
368,213,31161,1,0,0:0:0:0:
292,253,31328,1,0,0:0:0:0:
350,244,31494,1,8,0:0:0:0:
117,193,31578,1,8,0:0:0:0:
117,193,31661,1,0,0:0:0:0:
259,99,31744,1,0,0:0:0:0:
117,193,31828,1,8,0:0:0:0:
117,193,31994,1,0,0:0:0:0:
199,203,32078,1,0,0:0:0:0:
173,164,32161,1,8,0:0:0:0:
173,164,32328,1,0,0:0:0:0:
170,153,32661,1,0,0:0:0:0:
501,302,32744,1,0,0:0:0:0:
207,219,32828,1,8,0:0:0:0:
202,186,32911,1,8,0:0:0:0:
183,157,32994,1,0,0:0:0:0:
202,186,33078,1,0,0:0:0:0:
183,157,33161,1,8,0:0:0:0:
183,157,33328,1,0,0:0:0:0:
183,157,33494,1,8,0:0:0:0:
183,157,33578,1,8,0:0:0:0:
181,162,33661,1,8,0:0:0:0:
181,162,33744,1,8,0:0:0:0:
277,134,33828,1,4,0:0:0:0:
159,222,34161,1,8,0:0:0:0:
159,222,34328,1,0,0:0:0:0:
175,184,34411,1,0,0:0:0:0:
175,184,34495,1,8,0:0:0:0:
207,70,34661,1,0,0:0:0:0:
175,184,34828,1,8,0:0:0:0:
222,171,34911,1,8,0:0:0:0:
211,234,34995,1,0,0:0:0:0:
261,82,35328,1,0,0:0:0:0:
211,234,35495,1,8,0:0:0:0:
211,234,35661,1,0,0:0:0:0:
211,234,35745,1,0,0:0:0:0:
211,234,35828,1,8,0:0:0:0:
340,170,35911,1,8,0:0:0:0:
221,188,35995,1,0,0:0:0:0:
229,175,36161,1,8,0:0:0:0:
261,82,36328,1,0,0:0:0:0:
132,130,36495,1,0,0:0:0:0:
217,74,36578,1,8,0:0:0:0:
288,158,36661,1,0,0:0:0:0:
256,215,36828,1,8,0:0:0:0:
256,215,36911,1,8,0:0:0:0:
256,215,36995,1,0,0:0:0:0:
241,204,37161,1,8,0:0:0:0:
244,126,37328,1,0,0:0:0:0:
244,126,37411,1,0,0:0:0:0:
214,117,37495,1,8,0:0:0:0:
214,117,37661,1,0,0:0:0:0:
383,268,37994,1,0,0:0:0:0:
260,82,38078,1,0,0:0:0:0:
383,268,38161,1,8,0:0:0:0:
383,268,38328,1,0,0:0:0:0:
291,201,38494,1,8,0:0:0:0:
291,201,38661,1,0,0:0:0:0:
291,201,38744,1,0,0:0:0:0:
291,201,38828,1,8,0:0:0:0:
291,201,38994,1,8,0:0:0:0:
291,201,39161,1,0,0:0:0:0:
291,201,39244,1,8,0:0:0:0:
291,201,39328,1,0,0:0:0:0:
291,201,39494,1,8,0:0:0:0:
237,174,39661,1,0,0:0:0:0:
415,264,39744,1,0,0:0:0:0:
237,174,39828,1,8,0:0:0:0:
254,117,39994,1,8,0:0:0:0:
203,106,40078,1,0,0:0:0:0:
254,117,40161,1,8,0:0:0:0:
175,90,40328,1,0,0:0:0:0:
243,69,40661,1,0,0:0:0:0:
210,60,40828,1,8,0:0:0:0:
190,39,40911,1,8,0:0:0:0:
155,55,40994,1,0,0:0:0:0:
415,264,41078,1,0,0:0:0:0:
190,39,41161,1,8,0:0:0:0:
190,39,41328,1,0,0:0:0:0:
189,53,41411,1,0,0:0:0:0:
189,53,41494,1,8,0:0:0:0:
415,264,41578,1,0,0:0:0:0:
189,53,41661,1,8,0:0:0:0:
166,46,41828,1,0,0:0:0:0:
202,48,41911,1,8,0:0:0:0:
201,55,41994,1,0,0:0:0:0:
199,61,42161,1,8,0:0:0:0:
199,61,42328,1,8,0:0:0:0:
199,61,42411,1,0,0:0:0:0:
199,61,42494,1,8,0:0:0:0:
415,264,42578,1,8,0:0:0:0:
188,61,42661,1,0,0:0:0:0:
188,60,42744,1,0,0:0:0:0:
188,61,42828,1,8,0:0:0:0:
188,61,42994,1,0,0:0:0:0:
415,87,43161,1,8,0:0:0:0:
415,87,43328,1,8,0:0:0:0:
468,272,43411,1,0,0:0:0:0:
415,87,43494,1,0,0:0:0:0:
268,60,43578,1,8,0:0:0:0:
415,87,43661,1,0,0:0:0:0:
236,237,43744,1,0,0:0:0:0:
415,87,43828,1,8,0:0:0:0:
386,146,43939,1,8,0:0:0:0:
386,146,44050,1,0,0:0:0:0:
386,146,44161,1,0,0:0:0:0:
386,146,44272,1,8,0:0:0:0:
386,146,44383,1,8,0:0:0:0:
386,146,44494,1,4,0:0:0:0:
384,220,44828,1,8,0:0:0:0:
239,158,44994,1,0,0:0:0:0:
239,158,45161,1,8,0:0:0:0:
239,127,45494,1,0,0:0:0:0:
239,127,45661,1,8,0:0:0:0:
239,127,45994,1,8,0:0:0:0:
291,192,46161,1,0,0:0:0:0:
231,285,46328,1,0,0:0:0:0:
291,192,46494,1,8,0:0:0:0:
215,246,46578,1,8,0:0:0:0:
215,246,46661,1,0,0:0:0:0:
291,192,46828,1,8,0:0:0:0:
299,269,46911,1,8,0:0:0:0:
291,192,46994,1,8,0:0:0:0:
199,152,47161,1,0,0:0:0:0:
203,238,47328,1,8,0:0:0:0:
199,152,47494,1,0,0:0:0:0:
503,251,47661,1,8,0:0:0:0:
199,152,47828,1,8,0:0:0:0:
210,145,47994,1,0,0:0:0:0:
210,145,48161,1,0,0:0:0:0:
210,145,48494,1,8,0:0:0:0:
202,233,48578,1,0,0:0:0:0:
152,93,48661,1,8,0:0:0:0:
152,93,48828,1,0,0:0:0:0:
152,93,48994,1,0,0:0:0:0:
152,93,49161,1,8,0:0:0:0:
231,285,49328,1,8,0:0:0:0:
152,93,49494,1,0,0:0:0:0:
152,93,49661,1,8,0:0:0:0:
171,68,49828,1,8,0:0:0:0:
171,68,50161,1,0,0:0:0:0:
171,68,50328,1,8,0:0:0:0:
171,68,50494,1,0,0:0:0:0:
139,58,50661,1,0,0:0:0:0:
139,58,50828,1,8,0:0:0:0:
139,58,50994,1,8,0:0:0:0:
221,44,51328,1,8,0:0:0:0:
221,44,51494,1,0,0:0:0:0:
221,44,51661,1,0,0:0:0:0:
221,44,51828,1,8,0:0:0:0:
215,246,51911,1,8,0:0:0:0:
214,282,51994,1,0,0:0:0:0:
215,246,52161,1,8,0:0:0:0:
215,246,52244,1,8,0:0:0:0:
185,46,52328,1,8,0:0:0:0:
214,282,52494,1,0,0:0:0:0:
230,169,52661,1,0,0:0:0:0:
261,169,52828,1,8,0:0:0:0:
189,185,52994,1,0,0:0:0:0:
189,185,53161,1,8,0:0:0:0:
165,85,53494,1,0,0:0:0:0:
329,189,53661,1,8,0:0:0:0:
165,85,53828,1,8,0:0:0:0:
205,238,53911,1,0,0:0:0:0:
165,85,53994,1,8,0:0:0:0:
165,85,54161,1,0,0:0:0:0:
220,49,54328,1,0,0:0:0:0:
185,58,54494,1,8,0:0:0:0:
188,51,54828,1,8,0:0:0:0:
188,51,54994,1,0,0:0:0:0:
188,51,55161,1,8,0:0:0:0:
338,284,55328,1,8,0:0:0:0:
188,51,55494,1,8,0:0:0:0:
188,51,55661,1,0,0:0:0:0:
188,51,55828,1,8,0:0:0:0:
188,51,55994,1,8,0:0:0:0:
188,51,56161,1,0,0:0:0:0:
205,238,56328,1,0,0:0:0:0:
136,51,56494,1,8,0:0:0:0:
136,51,56828,1,0,0:0:0:0:
136,51,56994,1,0,0:0:0:0:
136,51,57161,1,8,0:0:0:0:
322,284,57244,1,8,0:0:0:0:
322,284,57328,1,0,0:0:0:0:
136,51,57494,1,8,0:0:0:0:
136,51,57578,1,8,0:0:0:0:
336,185,57661,1,8,0:0:0:0:
136,51,57828,1,0,0:0:0:0:
336,185,57994,1,8,0:0:0:0:
136,51,58161,1,0,0:0:0:0:
182,42,58328,1,8,0:0:0:0:
182,42,58494,1,8,0:0:0:0:
182,42,58828,1,8,0:0:0:0:
182,42,58994,1,0,0:0:0:0:
182,42,59161,1,8,0:0:0:0:
321,243,59244,1,0,0:0:0:0:
182,42,59328,1,8,0:0:0:0:
182,42,59494,1,0,0:0:0:0:
182,42,59661,1,0,0:0:0:0:
182,42,59828,1,8,0:0:0:0:
182,42,59994,1,0,0:0:0:0:
182,42,60161,1,8,0:0:0:0:
182,42,60494,1,0,0:0:0:0:
160,23,60661,1,0,0:0:0:0:
160,23,60828,1,8,0:0:0:0:
321,243,60994,1,0,0:0:0:0:
321,243,61161,1,8,0:0:0:0:
160,23,61328,1,0,0:0:0:0:
160,23,61494,1,0,0:0:0:0:
160,23,61661,1,8,0:0:0:0:
160,23,61994,1,8,0:0:0:0:
160,23,62161,1,8,0:0:0:0:
160,23,62328,1,0,0:0:0:0:
188,55,62494,1,8,0:0:0:0:
263,164,62578,1,8,0:0:0:0:
188,55,62661,1,0,0:0:0:0:
187,46,62828,1,8,0:0:0:0:
253,136,62911,1,8,0:0:0:0:
187,46,62994,1,8,0:0:0:0:
187,46,63161,1,0,0:0:0:0:
316,242,63328,1,0,0:0:0:0:
215,174,63494,1,0,0:0:0:0:
190,140,63661,1,8,0:0:0:0:
317,246,63828,1,8,0:0:0:0:
308,213,63911,1,8,0:0:0:0:
190,140,63994,1,0,0:0:0:0:
190,140,64161,1,8,0:0:0:0:
190,140,64328,1,0,0:0:0:0:
186,117,64494,1,8,0:0:0:0:
308,213,64578,1,0,0:0:0:0:
186,117,64661,1,8,0:0:0:0:
186,117,64828,1,0,0:0:0:0:
186,117,64994,1,0,0:0:0:0:
186,117,65161,1,8,0:0:0:0:
186,117,65328,1,8,0:0:0:0:
186,117,65494,1,0,0:0:0:0:
186,117,65661,1,8,0:0:0:0:
183,98,65828,1,4,0:0:0:0:
236,268,66494,1,8,0:0:0:0:
150,181,67161,1,8,0:0:0:0:
150,188,67661,1,0,0:0:0:0:
151,188,67828,1,8,0:0:0:0:
151,189,68161,1,0,0:0:0:0:
150,188,68328,1,0,0:0:0:0:
150,188,68494,1,8,0:0:0:0:
151,188,68994,1,8,0:0:0:0:
151,189,69161,1,0,0:0:0:0:
151,188,69661,1,8,0:0:0:0:
151,188,69828,1,0,0:0:0:0:
151,189,71161,1,8,0:0:0:0:
151,189,71828,1,8,0:0:0:0:
273,250,72161,1,0,0:0:0:0:
134,167,72494,1,8,0:0:0:0:
164,138,73161,1,8,0:0:0:0:
164,138,73494,1,0,0:0:0:0:
164,138,73828,1,8,0:0:0:0:
164,138,74161,1,0,0:0:0:0:
164,138,74494,1,8,0:0:0:0:
164,138,74828,1,8,0:0:0:0:
164,138,74994,1,8,0:0:0:0:
273,250,75161,1,0,0:0:0:0:
170,108,76494,1,4,0:0:0:0:
166,138,76828,1,8,0:0:0:0:
165,180,76994,1,0,0:0:0:0:
165,180,77161,1,8,0:0:0:0:
103,166,77328,1,8,0:0:0:0:
165,180,77494,1,8,0:0:0:0:
165,180,77661,1,0,0:0:0:0:
145,153,77828,1,8,0:0:0:0:
245,250,78161,1,0,0:0:0:0:
245,250,78328,1,0,0:0:0:0:
245,250,78494,1,8,0:0:0:0:
143,211,78661,1,8,0:0:0:0:
143,211,78828,1,0,0:0:0:0:
156,258,78994,1,8,0:0:0:0:
323,224,79161,1,0,0:0:0:0:
323,224,79244,1,0,0:0:0:0:
156,258,79328,1,0,0:0:0:0:
156,258,79494,1,8,0:0:0:0:
156,258,79661,1,0,0:0:0:0:
156,258,79828,1,8,0:0:0:0:
323,224,79911,1,8,0:0:0:0:
156,258,79994,1,8,0:0:0:0:
156,258,80161,1,0,0:0:0:0:
156,258,80494,1,8,0:0:0:0:
323,224,80578,1,8,0:0:0:0:
156,258,80661,1,0,0:0:0:0:
156,258,80828,1,8,0:0:0:0:
156,258,80994,1,0,0:0:0:0:
156,258,81161,1,8,0:0:0:0:
323,224,81244,1,8,0:0:0:0:
156,258,81328,1,0,0:0:0:0:
156,258,81494,1,0,0:0:0:0:
294,239,81661,1,8,0:0:0:0:
294,239,81828,1,8,0:0:0:0:
185,163,82161,1,0,0:0:0:0:
323,224,82244,1,0,0:0:0:0:
185,163,82328,1,8,0:0:0:0:
185,163,82494,1,8,0:0:0:0:
323,224,82661,1,0,0:0:0:0:
185,163,82828,1,8,0:0:0:0:
323,224,82911,1,8,0:0:0:0:
185,163,82994,1,0,0:0:0:0:
185,163,83161,1,8,0:0:0:0:
185,163,83328,1,8,0:0:0:0:
185,163,83494,1,0,0:0:0:0:
323,224,83578,1,0,0:0:0:0:
350,311,83661,1,0,0:0:0:0:
185,163,83828,1,8,0:0:0:0:
336,274,84161,1,8,0:0:0:0:
320,271,84328,1,0,0:0:0:0:
320,271,84494,1,8,0:0:0:0:
197,81,85161,1,8,0:0:0:0:
197,81,85828,1,8,0:0:0:0:
193,186,86328,1,0,0:0:0:0:
197,81,86494,1,8,0:0:0:0:
398,258,87161,1,4,0:0:0:0:
230,210,87328,1,0,0:0:0:0:
250,198,87494,1,8,0:0:0:0:
216,288,87578,1,8,0:0:0:0:
230,210,87661,1,0,0:0:0:0:
279,178,87744,1,0,0:0:0:0:
230,210,87828,1,8,0:0:0:0:
302,271,87994,1,0,0:0:0:0:
221,114,88078,1,0,0:0:0:0:
310,269,88161,1,8,0:0:0:0:
302,271,88328,1,0,0:0:0:0:
221,114,88494,1,0,0:0:0:0:
221,114,88578,1,8,0:0:0:0:
302,271,88661,1,0,0:0:0:0:
170,228,88828,1,8,0:0:0:0:
302,271,88994,1,0,0:0:0:0:
310,269,89078,1,0,0:0:0:0:
302,271,89161,1,8,0:0:0:0:
302,271,89328,1,0,0:0:0:0:
302,271,89494,1,8,0:0:0:0:
175,180,89578,1,0,0:0:0:0:
302,271,89661,1,8,0:0:0:0:
302,271,89744,1,8,0:0:0:0:
302,271,89828,1,0,0:0:0:0:
270,151,89994,1,0,0:0:0:0:
152,138,90161,1,8,0:0:0:0:
270,151,90244,1,8,0:0:0:0:
302,271,90328,1,0,0:0:0:0:
221,114,90411,1,0,0:0:0:0:
302,271,90494,1,8,0:0:0:0:
166,182,90661,1,0,0:0:0:0:
166,182,90744,1,0,0:0:0:0:
152,138,90828,1,8,0:0:0:0:
302,271,90994,1,0,0:0:0:0:
302,271,91328,1,0,0:0:0:0:
152,138,91494,1,8,0:0:0:0:
196,155,91578,1,8,0:0:0:0:
302,271,91661,1,0,0:0:0:0:
152,138,91744,1,0,0:0:0:0:
240,237,91828,1,8,0:0:0:0:
240,237,91994,1,0,0:0:0:0:
240,237,92161,1,8,0:0:0:0:
196,155,92244,1,8,0:0:0:0:
293,216,92328,1,8,0:0:0:0:
293,216,92411,1,8,0:0:0:0:
293,216,92494,1,0,0:0:0:0:
293,216,92661,1,0,0:0:0:0:
199,128,92828,1,8,0:0:0:0:
293,216,92994,1,0,0:0:0:0:
199,128,93078,1,0,0:0:0:0:
199,128,93161,1,8,0:0:0:0:
255,114,93244,1,8,0:0:0:0:
239,175,93328,1,0,0:0:0:0:
242,110,93494,1,8,0:0:0:0:
239,175,93661,1,0,0:0:0:0:
242,121,93744,1,0,0:0:0:0:
242,121,93828,1,8,0:0:0:0:
239,175,93994,1,0,0:0:0:0:
239,175,94328,1,0,0:0:0:0:
232,71,94411,1,0,0:0:0:0:
239,175,94494,1,8,0:0:0:0:
232,71,94661,1,0,0:0:0:0:
239,175,94828,1,8,0:0:0:0:
239,112,94911,1,0,0:0:0:0:
239,175,94994,1,8,0:0:0:0:
239,175,95078,1,8,0:0:0:0:
239,175,95161,1,0,0:0:0:0:
239,175,95328,1,0,0:0:0:0:
212,133,95494,1,8,0:0:0:0:
212,133,95578,1,8,0:0:0:0:
239,175,95661,1,0,0:0:0:0:
234,117,95744,1,0,0:0:0:0:
239,175,95828,1,8,0:0:0:0:
234,117,95911,1,0,0:0:0:0:
181,105,95994,1,0,0:0:0:0:
232,71,96161,1,8,0:0:0:0:
239,175,96328,1,0,0:0:0:0:
239,175,96661,1,0,0:0:0:0:
232,71,96828,1,8,0:0:0:0:
232,71,96911,1,8,0:0:0:0:
197,105,96994,1,0,0:0:0:0:
197,105,97078,1,0,0:0:0:0:
239,175,97161,1,8,0:0:0:0:
239,175,97328,1,0,0:0:0:0:
197,105,97411,1,0,0:0:0:0:
239,175,97494,1,8,0:0:0:0:
239,175,97661,1,8,0:0:0:0:
239,175,97744,1,8,0:0:0:0:
233,153,97828,1,4,0:0:0:0:
210,98,98161,1,8,0:0:0:0:
210,98,98244,1,8,0:0:0:0:
233,153,98328,1,0,0:0:0:0:
233,153,98494,1,8,0:0:0:0:
239,175,98661,1,0,0:0:0:0:
210,98,98744,1,0,0:0:0:0:
210,98,98828,1,8,0:0:0:0:
210,98,98911,1,8,0:0:0:0:
239,172,98994,1,0,0:0:0:0:
163,82,99161,1,8,0:0:0:0:
205,51,99244,1,8,0:0:0:0:
239,172,99328,1,0,0:0:0:0:
215,112,99494,1,8,0:0:0:0:
239,175,99661,1,0,0:0:0:0:
239,172,99828,1,8,0:0:0:0:
215,112,99911,1,8,0:0:0:0:
239,172,99994,1,0,0:0:0:0:
239,172,100161,1,8,0:0:0:0:
210,98,100244,1,0,0:0:0:0:
239,172,100328,1,8,0:0:0:0:
239,175,100411,1,8,0:0:0:0:
239,175,100494,1,0,0:0:0:0:
239,175,100661,1,0,0:0:0:0:
221,124,100828,1,8,0:0:0:0:
181,105,100911,1,8,0:0:0:0:
239,175,100994,1,0,0:0:0:0:
239,175,101161,1,8,0:0:0:0:
221,124,101494,1,8,0:0:0:0:
239,175,101661,1,0,0:0:0:0:
171,75,101828,1,8,0:0:0:0:
210,98,101911,1,8,0:0:0:0:
146,88,101994,1,0,0:0:0:0:
185,83,102161,1,8,0:0:0:0:
210,98,102244,1,0,0:0:0:0:
239,175,102327,1,0,0:0:0:0:
185,83,102411,1,0,0:0:0:0:
239,175,102494,1,8,0:0:0:0:
239,175,102661,1,0,0:0:0:0:
239,175,102827,1,8,0:0:0:0:
171,75,102911,1,0,0:0:0:0:
239,175,102994,1,8,0:0:0:0:
239,175,103077,1,8,0:0:0:0:
233,153,103161,1,0,0:0:0:0:
233,153,103327,1,0,0:0:0:0:
185,83,103494,1,8,0:0:0:0:
185,83,103578,1,8,0:0:0:0:
233,153,103661,1,0,0:0:0:0:
233,153,103827,1,8,0:0:0:0:
239,175,103994,1,0,0:0:0:0:
185,83,104078,1,0,0:0:0:0:
207,99,104161,1,8,0:0:0:0:
239,172,104327,1,0,0:0:0:0:
237,304,104411,1,0,0:0:0:0:
184,73,104494,1,8,0:0:0:0:
184,73,104578,1,8,0:0:0:0:
239,172,104661,1,0,0:0:0:0:
214,146,104828,1,8,0:0:0:0:
239,175,104994,1,0,0:0:0:0:
239,172,105161,1,8,0:0:0:0:
239,172,105327,1,0,0:0:0:0:
196,113,105411,1,0,0:0:0:0:
239,172,105494,1,8,0:0:0:0:
214,146,105578,1,0,0:0:0:0:
239,172,105661,1,8,0:0:0:0:
385,208,105744,1,8,0:0:0:0:
236,58,105828,1,0,0:0:0:0:
332,216,105994,1,0,0:0:0:0:
332,216,106161,1,8,0:0:0:0:
206,131,106328,1,0,0:0:0:0:
209,141,106411,1,8,0:0:0:0:
359,213,106494,1,8,0:0:0:0:
359,213,106578,1,8,0:0:0:0:
206,131,106661,1,0,0:0:0:0:
206,131,106828,1,8,0:0:0:0:
359,213,106994,1,0,0:0:0:0:
359,213,107078,1,0,0:0:0:0:
206,131,107161,1,8,0:0:0:0:
206,131,107244,1,8,0:0:0:0:
206,131,107328,1,0,0:0:0:0:
206,131,107494,1,8,0:0:0:0:
206,131,107661,1,0,0:0:0:0:
206,131,107828,1,8,0:0:0:0:
406,124,108494,1,12,0:0:0:0:
245,208,108606,1,0,0:0:0:0:
406,124,108717,1,0,0:0:0:0:
317,228,108828,1,8,0:0:0:0:
250,188,108939,1,8,0:0:0:0:
317,228,109050,1,0,0:0:0:0:
277,198,109161,1,8,0:0:0:0:
248,203,109272,1,0,0:0:0:0:
248,203,109383,1,0,0:0:0:0:
372,302,109494,1,8,0:0:0:0:
275,135,109661,1,0,0:0:0:0:
269,206,109994,1,0,0:0:0:0:
269,206,110078,1,0,0:0:0:0:
363,189,110161,1,8,0:0:0:0:
269,206,110328,1,0,0:0:0:0:
255,133,110494,1,8,0:0:0:0:
363,189,110578,1,8,0:0:0:0:
260,138,110661,1,0,0:0:0:0:
159,12,110744,1,0,0:0:0:0:
194,102,110828,1,8,0:0:0:0:
194,102,110994,1,8,0:0:0:0:
194,102,111078,1,8,0:0:0:0:
194,102,111161,1,0,0:0:0:0:
339,115,111328,1,0,0:0:0:0:
273,76,111411,1,0,0:0:0:0:
249,139,111494,1,8,0:0:0:0:
249,139,111606,1,0,0:0:0:0:
249,139,111717,1,0,0:0:0:0:
226,104,111828,1,8,0:0:0:0:
226,104,111939,1,8,0:0:0:0:
226,104,112050,1,0,0:0:0:0:
226,104,112161,1,8,0:0:0:0:
226,104,112272,1,0,0:0:0:0:
226,104,112383,1,0,0:0:0:0:
226,104,112494,1,8,0:0:0:0:
334,116,112606,1,0,0:0:0:0:
334,116,112717,1,8,0:0:0:0:
357,169,112828,1,8,0:0:0:0:
357,169,112939,1,8,0:0:0:0:
357,169,113050,1,0,0:0:0:0:
357,169,113161,1,8,0:0:0:0:
212,31,113328,1,0,0:0:0:0:
357,169,113411,1,8,0:0:0:0:
357,169,113494,1,8,0:0:0:0:
304,151,113661,1,8,0:0:0:0:
304,151,113744,1,8,0:0:0:0:
304,151,113828,1,0,0:0:0:0:
333,109,113939,1,8,0:0:0:0:
333,109,114050,1,0,0:0:0:0:
222,218,114161,1,8,0:0:0:0:
214,211,114272,1,0,0:0:0:0:
222,218,114383,1,0,0:0:0:0:
214,211,114494,1,8,0:0:0:0:
197,200,114606,1,0,0:0:0:0:
197,200,114717,1,0,0:0:0:0:
197,200,114828,1,8,0:0:0:0:
197,200,114939,1,8,0:0:0:0:
197,200,115050,1,0,0:0:0:0:
197,200,115161,1,8,0:0:0:0:
278,155,115328,1,0,0:0:0:0:
259,171,115411,1,8,0:0:0:0:
259,171,115494,1,0,0:0:0:0:
217,182,115661,1,0,0:0:0:0:
217,182,115744,1,0,0:0:0:0:
217,182,115828,1,8,0:0:0:0:
328,186,115911,1,8,0:0:0:0:
217,182,115994,1,0,0:0:0:0:
273,220,116161,1,8,0:0:0:0:
380,90,116244,1,8,0:0:0:0:
273,220,116328,1,8,0:0:0:0:
273,220,116494,1,0,0:0:0:0:
344,120,116578,1,8,0:0:0:0:
247,71,116661,1,0,0:0:0:0:
344,120,116744,1,8,0:0:0:0:
232,201,116828,1,8,0:0:0:0:
232,201,116911,1,0,0:0:0:0:
232,201,116994,1,8,0:0:0:0:
51,210,117078,1,0,0:0:0:0:
51,210,117161,1,0,0:0:0:0:
242,64,117244,1,8,0:0:0:0:
142,190,117328,1,0,0:0:0:0:
242,64,117411,1,0,0:0:0:0:
142,190,117494,1,8,0:0:0:0:
242,64,117578,1,8,0:0:0:0:
214,102,117661,1,0,0:0:0:0:
252,50,117744,1,8,0:0:0:0:
312,131,117828,1,8,0:0:0:0:
252,50,117911,1,0,0:0:0:0:
388,121,117994,1,0,0:0:0:0:
221,58,118078,1,8,0:0:0:0:
132,222,118161,1,8,0:0:0:0:
132,222,118244,1,8,0:0:0:0:
132,222,118328,1,0,0:0:0:0:
132,222,118411,1,0,0:0:0:0:
132,222,118494,1,8,0:0:0:0:
221,58,118578,1,8,0:0:0:0:
194,206,118661,1,0,0:0:0:0:
170,193,118744,1,0,0:0:0:0:
170,193,118828,1,8,0:0:0:0:
221,58,118911,1,0,0:0:0:0:
170,193,118994,1,8,0:0:0:0:
509,253,119078,1,8,0:0:0:0:
253,176,119161,1,0,0:0:0:0:
304,210,119328,1,0,0:0:0:0:
328,186,119411,1,0,0:0:0:0:
304,210,119494,1,8,0:0:0:0:
439,220,119661,1,0,0:0:0:0:
394,215,119828,1,8,0:0:0:0:
394,215,119911,1,8,0:0:0:0:
394,215,119994,1,0,0:0:0:0:
290,191,120078,1,0,0:0:0:0:
394,215,120161,1,8,0:0:0:0:
199,126,120328,1,0,0:0:0:0:
441,273,120411,1,0,0:0:0:0:
441,273,120494,1,8,0:0:0:0:
317,173,120578,1,8,0:0:0:0:
218,115,120661,1,0,0:0:0:0:
359,268,120744,1,8,0:0:0:0:
218,115,120828,1,0,0:0:0:0:
359,268,120911,1,0,0:0:0:0:
377,100,120994,1,8,0:0:0:0:
252,90,121078,1,0,0:0:0:0:
252,90,121161,1,8,0:0:0:0:
359,268,121244,1,8,0:0:0:0:
308,140,121328,1,0,0:0:0:0:
306,211,121411,1,0,0:0:0:0:
232,117,121494,1,8,0:0:0:0:
306,211,121578,1,8,0:0:0:0:
306,211,121661,1,0,0:0:0:0:
306,211,121744,1,0,0:0:0:0:
336,229,121828,1,0,0:0:0:0:
243,195,121911,1,8,0:0:0:0:
336,229,121994,1,0,0:0:0:0:
288,209,122078,1,8,0:0:0:0:
288,209,122161,1,0,0:0:0:0:
288,209,122244,1,8,0:0:0:0:
175,151,122328,1,0,0:0:0:0:
292,193,122411,1,0,0:0:0:0:
175,151,122494,1,8,0:0:0:0:
175,151,122578,1,8,0:0:0:0:
175,151,122661,1,0,0:0:0:0:
230,158,122828,1,8,0:0:0:0:
230,158,122994,1,0,0:0:0:0:
224,109,123078,1,8,0:0:0:0:
224,109,123244,1,8,0:0:0:0:
224,109,123328,1,0,0:0:0:0:
388,178,123494,1,0,0:0:0:0:
388,178,123578,1,8,0:0:0:0:
405,297,123661,1,0,0:0:0:0:
294,195,123744,1,0,0:0:0:0:
276,185,123828,1,8,0:0:0:0:
276,185,123994,1,0,0:0:0:0:
382,286,124078,1,0,0:0:0:0:
235,183,124161,1,8,0:0:0:0:
404,302,124328,1,8,0:0:0:0:
215,136,124494,1,0,0:0:0:0:
352,223,124606,1,8,0:0:0:0:
352,223,124717,1,0,0:0:0:0:
352,223,124828,1,8,0:0:0:0:
352,223,124939,1,0,0:0:0:0:
352,223,125050,1,8,0:0:0:0:
266,122,125161,1,8,0:0:0:0:
274,116,125272,1,0,0:0:0:0:
237,128,125383,1,0,0:0:0:0:
237,128,125494,1,8,0:0:0:0:
183,83,125606,1,0,0:0:0:0:
183,83,125717,1,8,0:0:0:0:
342,156,125828,1,8,0:0:0:0:
342,156,125994,1,0,0:0:0:0:
348,277,126078,1,0,0:0:0:0:
245,99,126161,1,8,0:0:0:0:
322,236,126328,1,8,0:0:0:0:
322,236,126411,1,8,0:0:0:0:
322,236,126494,1,0,0:0:0:0:
258,202,126661,1,8,0:0:0:0:
258,202,126828,1,8,0:0:0:0:
244,176,126994,1,0,0:0:0:0:
254,177,127078,1,8,0:0:0:0:
185,166,127161,1,0,0:0:0:0:
373,266,127328,1,0,0:0:0:0:
232,33,127494,1,8,0:0:0:0:
226,56,127578,1,8,0:0:0:0:
293,132,127661,1,0,0:0:0:0:
293,132,127744,1,0,0:0:0:0:
293,132,127828,1,8,0:0:0:0:
374,333,127911,1,8,0:0:0:0:
293,132,127994,1,0,0:0:0:0:
226,56,128078,1,0,0:0:0:0:
374,333,128161,1,8,0:0:0:0:
246,59,128244,1,8,0:0:0:0:
246,59,128328,1,8,0:0:0:0:
246,59,128411,1,0,0:0:0:0:
246,59,128494,1,8,0:0:0:0:
246,59,128578,1,8,0:0:0:0:
374,333,128661,1,0,0:0:0:0:
359,134,128717,1,0,0:0:0:0:
246,59,128772,1,8,0:0:0:0:
374,333,128828,1,8,0:0:0:0:
246,59,128939,1,0,0:0:0:0:
283,73,129050,1,8,0:0:0:0:
374,333,129161,1,8,0:0:0:0:
374,333,129272,1,0,0:0:0:0:
374,333,129383,1,0,0:0:0:0:
374,333,129494,1,8,0:0:0:0:
374,333,129578,1,8,0:0:0:0:
374,333,129661,1,8,0:0:0:0:
374,333,129744,1,8,0:0:0:0:
374,333,129828,1,4,0:0:0:0:
260,175,130161,1,8,0:0:0:0:
370,320,130244,1,0,0:0:0:0:
260,175,130328,1,8,0:0:0:0:
190,102,130411,1,8,0:0:0:0:
260,175,130494,1,0,0:0:0:0:
260,175,130661,1,0,0:0:0:0:
321,180,130828,1,8,0:0:0:0:
190,102,130911,1,0,0:0:0:0:
321,180,130994,1,8,0:0:0:0:
321,180,131328,1,0,0:0:0:0:
321,180,131411,1,0,0:0:0:0:
321,180,131494,1,8,0:0:0:0:
190,102,131661,1,0,0:0:0:0:
190,102,131828,1,0,0:0:0:0:
190,102,131911,1,8,0:0:0:0:
190,102,131994,1,0,0:0:0:0:
205,118,132078,1,0,0:0:0:0:
205,118,132161,1,8,0:0:0:0:
205,118,132328,1,8,0:0:0:0:
370,320,132411,1,8,0:0:0:0:
205,118,132494,1,4,0:0:0:0:
205,118,132828,1,8,0:0:0:0:
205,118,132911,1,8,0:0:0:0:
205,118,132994,1,0,0:0:0:0:
205,118,133161,1,8,0:0:0:0:
205,118,133328,1,0,0:0:0:0:
370,320,133494,1,8,0:0:0:0:
370,320,133578,1,0,0:0:0:0:
205,118,133661,1,8,0:0:0:0:
174,122,133828,1,8,0:0:0:0:
174,122,133994,1,0,0:0:0:0:
174,122,134078,1,0,0:0:0:0:
174,122,134161,1,8,0:0:0:0:
174,122,134328,1,0,0:0:0:0:
174,122,134411,1,0,0:0:0:0:
174,122,134494,1,8,0:0:0:0:
143,53,134661,1,0,0:0:0:0:
143,53,134828,1,8,0:0:0:0:
143,53,134994,1,8,0:0:0:0:
143,53,135078,1,8,0:0:0:0:
143,53,135161,1,4,0:0:0:0:
249,151,135494,1,8,0:0:0:0:
227,88,135578,1,8,0:0:0:0:
249,151,135661,1,0,0:0:0:0:
249,151,135828,1,0,0:0:0:0:
249,151,135911,1,8,0:0:0:0:
370,320,135994,1,0,0:0:0:0:
199,82,136161,1,8,0:0:0:0:
249,151,136328,1,8,0:0:0:0:
199,82,136661,1,0,0:0:0:0:
199,82,136828,1,8,0:0:0:0:
199,82,136911,1,8,0:0:0:0:
199,82,136994,1,0,0:0:0:0:
199,82,137161,1,0,0:0:0:0:
199,82,137244,1,8,0:0:0:0:
199,82,137328,1,0,0:0:0:0:
177,77,137494,1,8,0:0:0:0:
370,320,137661,1,8,0:0:0:0:
370,320,137744,1,8,0:0:0:0:
216,211,137828,1,4,0:0:0:0:
370,320,137994,1,8,0:0:0:0:
216,211,138078,1,0,0:0:0:0:
370,320,138161,1,8,0:0:0:0:
216,211,138328,1,0,0:0:0:0:
216,211,138411,1,0,0:0:0:0:
216,211,138494,1,8,0:0:0:0:
216,211,138578,1,8,0:0:0:0:
216,211,138661,1,0,0:0:0:0:
216,211,138828,1,8,0:0:0:0:
216,211,138994,1,4,0:0:0:0:
216,211,139328,1,0,0:0:0:0:
216,211,139411,1,0,0:0:0:0:
216,211,139494,1,8,0:0:0:0:
216,211,139578,1,0,0:0:0:0:
272,186,139661,1,0,0:0:0:0:
272,186,139828,1,8,0:0:0:0:
475,324,139911,1,8,0:0:0:0:
272,186,139994,1,0,0:0:0:0:
257,177,140161,1,8,0:0:0:0:
257,177,140244,1,0,0:0:0:0:
257,177,140328,1,8,0:0:0:0:
257,177,140411,1,8,0:0:0:0:
257,177,140494,1,4,0:0:0:0:
312,129,140661,1,0,0:0:0:0:
309,213,140994,1,0,0:0:0:0:
309,213,141161,1,8,0:0:0:0:
312,129,141328,1,0,0:0:0:0:
383,270,141411,1,0,0:0:0:0:
312,129,141494,1,8,0:0:0:0:
312,129,141578,1,8,0:0:0:0:
312,129,141661,1,0,0:0:0:0:
383,270,141828,1,8,0:0:0:0:
383,270,141911,1,8,0:0:0:0:
312,129,141994,1,0,0:0:0:0:
206,100,142161,1,0,0:0:0:0:
237,111,142328,1,0,0:0:0:0:
237,111,142411,1,0,0:0:0:0:
237,111,142494,1,8,0:0:0:0:
237,111,142661,1,0,0:0:0:0:
237,111,142828,1,8,0:0:0:0:
195,53,142911,1,8,0:0:0:0:
195,53,142994,1,0,0:0:0:0:
195,53,143161,1,4,0:0:0:0:
195,53,143328,1,0,0:0:0:0:
305,244,143661,1,0,0:0:0:0:
305,244,143744,1,0,0:0:0:0:
415,257,143828,1,8,0:0:0:0:
305,244,143994,1,0,0:0:0:0:
276,215,144161,1,8,0:0:0:0:
266,198,144244,1,8,0:0:0:0:
266,198,144328,1,0,0:0:0:0:
251,129,144411,1,0,0:0:0:0:
251,209,144494,1,8,0:0:0:0:
251,209,144661,1,0,0:0:0:0:
251,209,144744,1,0,0:0:0:0:
251,209,144828,1,8,0:0:0:0:
190,186,144911,1,8,0:0:0:0:
190,186,144994,1,0,0:0:0:0:
190,186,145161,1,8,0:0:0:0:
196,171,145328,1,0,0:0:0:0:
196,171,145494,1,8,0:0:0:0:
196,171,145578,1,0,0:0:0:0:
196,171,145661,1,8,0:0:0:0:
196,171,145744,1,8,0:0:0:0:
196,171,145828,1,4,0:0:0:0:
226,158,145994,1,0,0:0:0:0:
226,158,146328,1,0,0:0:0:0:
220,145,146494,1,8,0:0:0:0:
220,145,146661,1,0,0:0:0:0:
166,114,146744,1,8,0:0:0:0:
166,114,146828,1,0,0:0:0:0:
166,114,146994,1,0,0:0:0:0:
279,200,147328,1,0,0:0:0:0:
279,200,147494,1,8,0:0:0:0:
279,200,147578,1,8,0:0:0:0:
279,200,147661,1,0,0:0:0:0:
279,200,147744,1,0,0:0:0:0:
279,200,147828,1,8,0:0:0:0:
279,200,147994,1,0,0:0:0:0:
279,200,148161,1,8,0:0:0:0:
279,200,148244,1,0,0:0:0:0:
203,174,148328,1,8,0:0:0:0:
251,129,148411,1,8,0:0:0:0:
203,174,148494,1,4,0:0:0:0:
251,129,148661,1,8,0:0:0:0:
203,174,148744,1,0,0:0:0:0:
251,129,148828,1,8,0:0:0:0:
188,142,148994,1,0,0:0:0:0:
188,142,149078,1,0,0:0:0:0:
188,142,149161,1,8,0:0:0:0:
292,248,149328,1,0,0:0:0:0:
261,189,149494,1,8,0:0:0:0:
261,189,149578,1,8,0:0:0:0:
261,189,149661,1,4,0:0:0:0:
244,193,149994,1,0,0:0:0:0:
244,193,150078,1,0,0:0:0:0:
244,193,150161,1,8,0:0:0:0:
244,193,150328,1,0,0:0:0:0:
244,193,150411,1,0,0:0:0:0:
244,193,150494,1,8,0:0:0:0:
244,193,150661,1,0,0:0:0:0:
192,173,150828,1,8,0:0:0:0:
192,173,150911,1,0,0:0:0:0:
192,173,150994,1,8,0:0:0:0:
177,146,151078,1,8,0:0:0:0:
183,98,151161,1,0,0:0:0:0:
236,268,151827,1,8,0:0:0:0:
150,181,152494,1,8,0:0:0:0:
150,188,152994,1,0,0:0:0:0:
151,188,153161,1,8,0:0:0:0:
151,189,153494,1,0,0:0:0:0:
150,188,153661,1,0,0:0:0:0:
150,188,153827,1,8,0:0:0:0:
151,188,154327,1,8,0:0:0:0:
151,189,154494,1,0,0:0:0:0:
151,188,154994,1,8,0:0:0:0:
151,188,155161,1,0,0:0:0:0:
151,189,156494,1,8,0:0:0:0:
151,189,157161,1,8,0:0:0:0:
134,167,157494,1,0,0:0:0:0:
134,167,157661,1,0,0:0:0:0:
134,167,157827,1,8,0:0:0:0:
164,138,158161,1,0,0:0:0:0:
164,138,158494,1,8,0:0:0:0:
164,138,158661,1,0,0:0:0:0:
164,138,158827,1,8,0:0:0:0:
164,138,159161,1,8,0:0:0:0:
164,138,159494,1,0,0:0:0:0:
164,138,159827,1,8,0:0:0:0:
164,138,160161,1,8,0:0:0:0:
164,138,160327,1,8,0:0:0:0:
170,108,160494,1,0,0:0:0:0:
170,108,160827,1,0,0:0:0:0:
170,108,161161,1,8,0:0:0:0:
170,108,161327,1,0,0:0:0:0:
170,108,161494,1,8,0:0:0:0:
170,108,161827,1,4,0:0:0:0:
342,209,162161,1,0,0:0:0:0:
165,180,162327,1,0,0:0:0:0:
165,180,162494,1,8,0:0:0:0:
395,300,162661,1,0,0:0:0:0:
165,180,162827,1,8,0:0:0:0:
165,180,162994,1,0,0:0:0:0:
145,153,163161,1,8,0:0:0:0:
342,209,163328,1,0,0:0:0:0:
245,250,163494,1,0,0:0:0:0:
237,141,163661,1,8,0:0:0:0:
326,214,163744,1,8,0:0:0:0:
208,139,163828,1,0,0:0:0:0:
143,211,164161,1,0,0:0:0:0:
156,258,164327,1,8,0:0:0:0:
156,258,164494,1,0,0:0:0:0:
156,258,164661,1,0,0:0:0:0:
156,258,164827,1,8,0:0:0:0:
156,258,164994,1,0,0:0:0:0:
326,214,165078,1,0,0:0:0:0:
156,258,165161,1,8,0:0:0:0:
156,258,165494,1,0,0:0:0:0:
326,214,165661,1,8,0:0:0:0:
156,258,165827,1,8,0:0:0:0:
326,214,165911,1,8,0:0:0:0:
156,258,165994,1,0,0:0:0:0:
453,248,166161,1,0,0:0:0:0:
156,258,166327,1,8,0:0:0:0:
156,258,166494,1,8,0:0:0:0:
324,194,166578,1,8,0:0:0:0:
156,258,166661,1,0,0:0:0:0:
156,258,166827,1,0,0:0:0:0:
294,239,166994,1,8,0:0:0:0:
365,284,167161,1,4,0:0:0:0:
179,122,167328,1,0,0:0:0:0:
179,122,167494,1,8,0:0:0:0:
321,226,167578,1,8,0:0:0:0:
321,226,167661,1,0,0:0:0:0:
321,226,167744,1,0,0:0:0:0:
185,163,167827,1,8,0:0:0:0:
402,280,167994,1,0,0:0:0:0:
185,163,168161,1,8,0:0:0:0:
185,163,168327,1,0,0:0:0:0:
378,217,168494,1,0,0:0:0:0:
378,217,168578,1,8,0:0:0:0:
341,202,168661,1,0,0:0:0:0:
185,163,168827,1,8,0:0:0:0:
350,311,168994,1,0,0:0:0:0:
266,198,169078,1,0,0:0:0:0:
185,163,169161,1,8,0:0:0:0:
302,158,169244,1,0,0:0:0:0:
302,158,169328,1,8,0:0:0:0:
231,115,169494,1,0,0:0:0:0:
231,115,169661,1,8,0:0:0:0:
231,115,169744,1,8,0:0:0:0:
320,271,169827,1,0,0:0:0:0:
436,268,170161,1,0,0:0:0:0:
436,268,170328,1,0,0:0:0:0:
197,81,170494,1,8,0:0:0:0:
436,268,170661,1,0,0:0:0:0:
436,268,170828,1,0,0:0:0:0:
436,268,170994,1,0,0:0:0:0:
197,81,171161,1,8,0:0:0:0:
408,248,171328,1,0,0:0:0:0:
436,268,171494,1,0,0:0:0:0:
211,220,171661,1,0,0:0:0:0:
197,81,171827,1,8,0:0:0:0:
211,220,171994,1,0,0:0:0:0:
211,220,172161,1,8,0:0:0:0:
211,220,172328,1,8,0:0:0:0:
398,258,172494,1,0,0:0:0:0:
190,202,172828,1,0,0:0:0:0:
458,248,173161,1,8,0:0:0:0:
458,248,173494,1,8,0:0:0:0:
324,178,173828,1,8,0:0:0:0:
324,178,174161,1,8,0:0:0:0:
191,145,174494,1,0,0:0:0:0:
172,116,174828,1,8,0:0:0:0:
172,116,175161,1,8,0:0:0:0:
172,116,175494,1,8,0:0:0:0:
172,116,175828,1,0,0:0:0:0:
195,78,176161,1,0,0:0:0:0:
448,234,176328,1,8,0:0:0:0:
235,97,176494,1,0,0:0:0:0:
190,202,176828,1,8,0:0:0:0:
190,202,177494,1,0,0:0:0:0:
186,83,177828,1,8,0:0:0:0:
186,83,178161,1,8,0:0:0:0:
186,83,178494,1,8,0:0:0:0:
181,97,179161,1,8,0:0:0:0:
181,97,179828,1,8,0:0:0:0:
182,76,180328,1,0,0:0:0:0:
182,76,180494,1,8,0:0:0:0:
298,229,181161,1,0,0:0:0:0:
298,229,181494,1,8,0:0:0:0:
298,229,182161,1,8,0:0:0:0:
298,229,182661,1,8,0:0:0:0:
292,198,182828,1,0,0:0:0:0:
292,198,182994,1,8,0:0:0:0:
292,198,183161,1,8,0:0:0:0:
292,198,183494,1,0,0:0:0:0:
292,198,183828,1,8,0:0:0:0:
292,198,184161,1,8,0:0:0:0:
238,124,184328,1,0,0:0:0:0:
292,198,184494,1,8,0:0:0:0:
164,343,184828,1,0,0:0:0:0:
292,198,184994,1,0,0:0:0:0:
292,198,185161,1,8,0:0:0:0:
96,86,185244,1,8,0:0:0:0:
96,86,185328,1,0,0:0:0:0:
292,198,185494,1,8,0:0:0:0:
292,198,185661,1,8,0:0:0:0:
232,137,185828,1,0,0:0:0:0:
263,151,185994,1,8,0:0:0:0:
232,137,186161,1,0,0:0:0:0:
232,137,186328,1,0,0:0:0:0:
232,137,186494,1,8,0:0:0:0:
232,137,186828,1,8,0:0:0:0:
241,109,186994,1,0,0:0:0:0:
232,137,187161,1,8,0:0:0:0:
282,144,187244,1,0,0:0:0:0:
232,137,187328,1,8,0:0:0:0:
282,144,187494,1,0,0:0:0:0:
232,137,187661,1,0,0:0:0:0:
232,137,187828,1,8,0:0:0:0:
232,137,188161,1,8,0:0:0:0:
232,137,188328,1,8,0:0:0:0:
232,137,188494,1,0,0:0:0:0:
232,137,188828,1,8,0:0:0:0:
232,137,189161,1,8,0:0:0:0:
232,137,189494,1,8,0:0:0:0:
232,137,189661,1,0,0:0:0:0:
296,104,189828,1,8,0:0:0:0:
190,44,189994,1,8,0:0:0:0:
190,44,190161,1,0,0:0:0:0:
190,44,190328,1,0,0:0:0:0:
190,44,190494,1,8,0:0:0:0:
296,110,190578,1,8,0:0:0:0:
296,110,190661,1,0,0:0:0:0:
358,204,190828,1,8,0:0:0:0:
292,217,190994,1,8,0:0:0:0:
292,217,191161,1,0,0:0:0:0:
256,192,191494,12,0,192494,0:0:0:0:
180,110,193161,5,8,0:0:0:0:
180,110,193828,1,4,0:0:0:0:
437,300,193994,1,8,0:0:0:0:
282,203,194161,1,0,0:0:0:0:
282,203,194494,1,0,0:0:0:0:
437,300,194661,1,8,0:0:0:0:
437,300,194744,1,8,0:0:0:0:
357,137,194828,1,0,0:0:0:0:
357,137,194994,1,8,0:0:0:0:
357,137,195161,1,0,0:0:0:0:
350,269,195244,1,0,0:0:0:0:
348,262,195328,1,8,0:0:0:0:
362,298,195494,1,0,0:0:0:0:
362,298,195828,1,0,0:0:0:0:
327,341,195911,1,0,0:0:0:0:
362,298,195994,1,8,0:0:0:0:
327,341,196078,1,8,0:0:0:0:
362,298,196161,1,0,0:0:0:0:
362,298,196328,1,8,0:0:0:0:
362,298,196494,1,0,0:0:0:0:
327,341,196661,1,8,0:0:0:0:
274,272,196828,1,8,0:0:0:0:
327,341,196911,1,8,0:0:0:0:
274,272,196994,1,0,0:0:0:0:
274,272,197161,1,8,0:0:0:0:
175,209,197328,1,0,0:0:0:0:
326,153,197494,1,0,0:0:0:0:
327,341,197578,1,0,0:0:0:0:
175,209,197661,1,8,0:0:0:0:
365,73,197744,1,8,0:0:0:0:
365,73,197828,1,0,0:0:0:0:
341,247,197994,1,8,0:0:0:0:
368,263,198161,1,0,0:0:0:0:
296,262,198244,1,8,0:0:0:0:
327,341,198328,1,8,0:0:0:0:
286,257,198411,1,8,0:0:0:0:
253,268,198494,1,0,0:0:0:0:
253,268,198661,1,8,0:0:0:0:
253,268,198744,1,0,0:0:0:0:
253,268,198828,1,8,0:0:0:0:
253,268,198994,1,0,0:0:0:0:
194,187,199078,1,8,0:0:0:0:
194,187,199161,1,0,0:0:0:0:
219,195,199494,1,8,0:0:0:0:
219,195,199661,1,8,0:0:0:0:
296,262,199744,1,8,0:0:0:0:
219,195,199828,1,0,0:0:0:0:
219,195,199994,1,0,0:0:0:0:
219,195,200161,1,8,0:0:0:0:
219,195,200328,1,0,0:0:0:0:
204,125,200411,1,8,0:0:0:0:
204,125,200494,1,0,0:0:0:0:
204,125,200661,1,8,0:0:0:0:
204,125,200828,1,0,0:0:0:0:
296,262,200994,1,0,0:0:0:0:
204,125,201161,1,8,0:0:0:0:
160,88,201244,1,8,0:0:0:0:
204,125,201328,1,0,0:0:0:0:
204,125,201411,1,0,0:0:0:0:
204,125,201494,1,8,0:0:0:0:
296,262,201578,1,8,0:0:0:0:
160,88,201661,1,0,0:0:0:0:
160,88,201828,1,8,0:0:0:0:
160,88,201911,1,8,0:0:0:0:
160,88,201994,1,0,0:0:0:0:
186,257,202161,1,0,0:0:0:0:
212,137,202328,1,8,0:0:0:0:
212,137,202411,1,8,0:0:0:0:
183,128,202494,1,8,0:0:0:0:
329,207,202578,1,8,0:0:0:0:
183,128,202661,1,0,0:0:0:0:
183,128,202828,1,8,0:0:0:0:
195,98,202911,1,8,0:0:0:0:
195,98,202994,1,0,0:0:0:0:
195,98,203161,1,8,0:0:0:0:
195,98,203328,1,0,0:0:0:0:
195,98,203411,1,0,0:0:0:0:
195,98,203494,1,8,0:0:0:0:
195,98,203661,1,0,0:0:0:0:
195,98,203744,1,0,0:0:0:0:
195,98,203828,1,8,0:0:0:0:
341,247,203994,1,0,0:0:0:0:
201,107,204161,1,8,0:0:0:0:
201,107,204244,1,8,0:0:0:0:
201,107,204328,1,0,0:0:0:0:
201,107,204411,1,8,0:0:0:0:
190,102,204494,1,4,0:0:0:0:
190,102,204828,1,8,0:0:0:0:
226,178,204911,1,8,0:0:0:0:
190,102,204994,1,0,0:0:0:0:
190,102,205161,1,8,0:0:0:0:
148,99,205328,1,0,0:0:0:0:
341,247,205411,1,0,0:0:0:0:
326,229,205494,1,8,0:0:0:0:
326,229,205661,1,0,0:0:0:0:
297,172,205828,1,8,0:0:0:0:
326,229,205911,1,8,0:0:0:0:
297,172,205994,1,0,0:0:0:0:
253,153,206161,1,8,0:0:0:0:
243,150,206244,1,0,0:0:0:0:
297,172,206328,1,0,0:0:0:0:
297,172,206494,1,8,0:0:0:0:
297,172,206661,1,0,0:0:0:0:
297,172,206828,1,8,0:0:0:0:
265,196,206911,1,8,0:0:0:0:
208,104,206994,1,8,0:0:0:0:
208,104,207078,1,8,0:0:0:0:
208,104,207161,1,0,0:0:0:0:
189,95,207328,1,0,0:0:0:0:
265,196,207411,1,0,0:0:0:0:
260,81,207494,1,8,0:0:0:0:
260,81,207661,1,0,0:0:0:0:
260,81,207828,1,8,0:0:0:0:
260,81,207911,1,8,0:0:0:0:
260,81,207994,1,0,0:0:0:0:
265,196,208078,1,0,0:0:0:0:
260,81,208161,1,8,0:0:0:0:
260,81,208328,1,0,0:0:0:0:
260,81,208661,1,0,0:0:0:0:
260,81,208828,1,8,0:0:0:0:
260,81,208911,1,8,0:0:0:0:
260,81,208994,1,0,0:0:0:0:
260,81,209078,1,0,0:0:0:0:
260,81,209161,1,8,0:0:0:0:
220,72,209328,1,0,0:0:0:0:
220,72,209411,1,0,0:0:0:0:
220,72,209494,1,8,0:0:0:0:
181,213,209578,1,8,0:0:0:0:
220,72,209661,1,8,0:0:0:0:
220,72,209744,1,8,0:0:0:0:
220,72,209828,1,0,0:0:0:0:
204,98,209994,1,8,0:0:0:0:
204,98,210161,1,0,0:0:0:0:
204,98,210328,1,8,0:0:0:0:
204,98,210411,1,8,0:0:0:0:
204,98,210494,1,8,0:0:0:0:
181,213,210578,1,8,0:0:0:0:
204,98,210661,1,0,0:0:0:0:
204,98,210828,1,8,0:0:0:0:
204,98,210994,1,8,0:0:0:0:
204,98,211078,1,8,0:0:0:0:
204,98,211161,1,0,0:0:0:0:
250,122,211328,1,8,0:0:0:0:
128,232,211494,1,8,0:0:0:0:
250,122,211661,1,0,0:0:0:0:
221,72,211828,1,8,0:0:0:0:
215,78,211994,1,0,0:0:0:0:
215,78,212161,1,8,0:0:0:0:
201,61,212244,1,8,0:0:0:0:
201,63,212328,1,8,0:0:0:0:
201,63,212411,1,8,0:0:0:0:
201,63,212494,1,0,0:0:0:0:
201,63,212661,1,0,0:0:0:0:
201,63,212828,1,8,0:0:0:0:
201,63,212994,1,0,0:0:0:0:
201,63,213078,1,0,0:0:0:0:
201,63,213161,1,8,0:0:0:0:
201,63,213328,1,0,0:0:0:0:
201,63,213411,1,0,0:0:0:0:
201,63,213494,1,8,0:0:0:0:
192,55,213578,1,8,0:0:0:0:
192,55,213661,1,0,0:0:0:0:
337,295,213828,1,8,0:0:0:0:
182,60,213994,1,0,0:0:0:0:
128,254,214078,1,8,0:0:0:0:
181,63,214161,1,8,0:0:0:0:
181,63,214244,1,8,0:0:0:0:
183,63,214328,1,0,0:0:0:0:
183,63,214494,1,8,0:0:0:0:
277,134,215161,1,4,0:0:0:0:
159,222,215328,1,0,0:0:0:0:
159,222,215494,1,8,0:0:0:0:
159,222,215578,1,8,0:0:0:0:
159,222,215661,1,0,0:0:0:0:
175,184,215744,1,0,0:0:0:0:
175,184,215828,1,8,0:0:0:0:
175,184,215994,1,0,0:0:0:0:
175,184,216161,1,8,0:0:0:0:
306,216,216244,1,8,0:0:0:0:
211,234,216328,1,0,0:0:0:0:
306,216,216494,1,8,0:0:0:0:
211,234,216661,1,0,0:0:0:0:
306,216,216744,1,0,0:0:0:0:
211,234,216828,1,8,0:0:0:0:
306,216,216911,1,8,0:0:0:0:
211,234,216994,1,0,0:0:0:0:
211,234,217078,1,0,0:0:0:0:
211,234,217161,1,8,0:0:0:0:
221,188,217328,1,0,0:0:0:0:
221,188,217411,1,0,0:0:0:0:
229,175,217494,1,8,0:0:0:0:
305,175,217578,1,8,0:0:0:0:
229,175,217661,1,8,0:0:0:0:
359,247,217744,1,8,0:0:0:0:
132,130,217828,1,0,0:0:0:0:
288,158,217994,1,0,0:0:0:0:
256,215,218161,1,8,0:0:0:0:
256,215,218244,1,8,0:0:0:0:
256,215,218328,1,0,0:0:0:0:
305,175,218411,1,0,0:0:0:0:
241,204,218494,1,8,0:0:0:0:
244,126,218661,1,0,0:0:0:0:
244,126,218744,1,0,0:0:0:0:
214,117,218828,1,8,0:0:0:0:
214,117,218994,1,0,0:0:0:0:
305,175,219161,1,8,0:0:0:0:
186,70,219328,1,0,0:0:0:0:
249,193,219411,1,0,0:0:0:0:
186,70,219494,1,8,0:0:0:0:
157,62,219661,1,0,0:0:0:0:
209,62,219828,1,8,0:0:0:0:
286,129,219911,1,8,0:0:0:0:
265,105,219994,1,0,0:0:0:0:
265,105,220078,1,0,0:0:0:0:
209,62,220161,1,8,0:0:0:0:
349,280,220244,1,0,0:0:0:0:
209,62,220328,1,8,0:0:0:0:
209,62,220411,1,8,0:0:0:0:
209,62,220494,1,0,0:0:0:0:
229,138,220661,1,0,0:0:0:0:
297,283,220828,1,8,0:0:0:0:
297,283,220911,1,8,0:0:0:0:
297,283,220994,1,0,0:0:0:0:
297,283,221078,1,0,0:0:0:0:
297,283,221161,1,8,0:0:0:0:
297,283,221328,1,0,0:0:0:0:
228,97,221494,1,8,0:0:0:0:
166,230,221578,1,8,0:0:0:0:
228,97,221661,1,0,0:0:0:0:
301,107,221828,1,8,0:0:0:0:
214,80,221994,1,0,0:0:0:0:
301,107,222078,1,0,0:0:0:0:
214,80,222161,1,8,0:0:0:0:
214,80,222328,1,0,0:0:0:0:
214,80,222411,1,0,0:0:0:0:
214,80,222494,1,8,0:0:0:0:
214,80,222661,1,0,0:0:0:0:
461,228,222828,1,8,0:0:0:0:
368,213,222911,1,0,0:0:0:0:
368,213,222994,1,8,0:0:0:0:
368,213,223078,1,8,0:0:0:0:
368,213,223161,1,0,0:0:0:0:
292,253,223328,1,0,0:0:0:0:
350,244,223494,1,8,0:0:0:0:
117,193,223578,1,8,0:0:0:0:
117,193,223661,1,0,0:0:0:0:
117,193,223828,1,8,0:0:0:0:
117,193,223911,1,8,0:0:0:0:
117,193,223994,1,0,0:0:0:0:
199,203,224078,1,0,0:0:0:0:
173,164,224161,1,8,0:0:0:0:
173,164,224328,1,0,0:0:0:0:
355,162,224411,1,8,0:0:0:0:
425,278,224494,1,0,0:0:0:0:
425,278,224578,1,8,0:0:0:0:
170,153,224661,1,0,0:0:0:0:
207,219,224828,1,8,0:0:0:0:
202,186,224911,1,8,0:0:0:0:
183,157,224994,1,0,0:0:0:0:
202,186,225078,1,0,0:0:0:0:
183,157,225161,1,8,0:0:0:0:
183,157,225328,1,0,0:0:0:0:
183,157,225494,1,8,0:0:0:0:
183,157,225578,1,8,0:0:0:0:
181,162,225661,1,8,0:0:0:0:
181,162,225744,1,8,0:0:0:0:
277,134,225828,1,4,0:0:0:0:
267,262,225994,1,0,0:0:0:0:
159,222,226161,1,8,0:0:0:0:
159,222,226245,1,8,0:0:0:0:
159,222,226328,1,0,0:0:0:0:
175,184,226411,1,0,0:0:0:0:
175,184,226495,1,8,0:0:0:0:
175,184,226661,1,0,0:0:0:0:
175,184,226828,1,8,0:0:0:0:
282,146,226911,1,8,0:0:0:0:
211,234,226995,1,0,0:0:0:0:
297,110,227078,1,8,0:0:0:0:
297,110,227161,1,0,0:0:0:0:
297,110,227244,1,8,0:0:0:0:
211,234,227328,1,0,0:0:0:0:
211,234,227495,1,8,0:0:0:0:
211,234,227661,1,0,0:0:0:0:
211,234,227745,1,0,0:0:0:0:
211,234,227828,1,8,0:0:0:0:
221,188,227995,1,0,0:0:0:0:
229,175,228161,1,8,0:0:0:0:
229,175,228328,1,8,0:0:0:0:
282,146,228411,1,8,0:0:0:0:
132,130,228495,1,0,0:0:0:0:
217,74,228578,1,8,0:0:0:0:
288,158,228661,1,0,0:0:0:0:
256,215,228828,1,8,0:0:0:0:
256,215,228911,1,8,0:0:0:0:
256,215,228995,1,0,0:0:0:0:
241,204,229161,1,8,0:0:0:0:
244,126,229328,1,0,0:0:0:0:
244,126,229411,1,0,0:0:0:0:
214,117,229495,1,8,0:0:0:0:
214,117,229661,1,0,0:0:0:0:
261,91,229828,1,8,0:0:0:0:
383,268,229994,1,0,0:0:0:0:
261,91,230078,1,0,0:0:0:0:
383,268,230161,1,8,0:0:0:0:
383,268,230244,1,8,0:0:0:0:
383,268,230328,1,0,0:0:0:0:
291,201,230494,1,8,0:0:0:0:
291,201,230661,1,0,0:0:0:0:
291,201,230744,1,0,0:0:0:0:
291,201,230828,1,8,0:0:0:0:
291,201,230994,1,8,0:0:0:0:
205,162,231078,1,8,0:0:0:0:
291,201,231161,1,0,0:0:0:0:
291,201,231244,1,8,0:0:0:0:
291,201,231328,1,0,0:0:0:0:
291,201,231494,1,8,0:0:0:0:
237,174,231661,1,0,0:0:0:0:
250,53,231744,1,0,0:0:0:0:
237,174,231828,1,8,0:0:0:0:
292,229,231911,1,8,0:0:0:0:
254,117,231994,1,0,0:0:0:0:
254,117,232161,1,8,0:0:0:0:
175,90,232244,1,8,0:0:0:0:
175,90,232328,1,0,0:0:0:0:
292,229,232411,1,8,0:0:0:0:
340,121,232494,1,0,0:0:0:0:
243,69,232661,1,0,0:0:0:0:
210,60,232828,1,8,0:0:0:0:
190,39,232911,1,8,0:0:0:0:
155,55,232994,1,0,0:0:0:0:
340,121,233078,1,0,0:0:0:0:
190,39,233161,1,8,0:0:0:0:
190,39,233328,1,0,0:0:0:0:
189,53,233411,1,0,0:0:0:0:
189,53,233494,1,8,0:0:0:0:
189,53,233661,1,8,0:0:0:0:
271,80,233744,1,8,0:0:0:0:
166,46,233828,1,0,0:0:0:0:
202,48,233911,1,8,0:0:0:0:
201,55,233994,1,0,0:0:0:0:
346,131,234078,1,0,0:0:0:0:
199,61,234161,1,8,0:0:0:0:
199,61,234328,1,0,0:0:0:0:
199,61,234411,1,0,0:0:0:0:
199,61,234494,1,8,0:0:0:0:
188,61,234661,1,0,0:0:0:0:
188,60,234744,1,0,0:0:0:0:
188,61,234828,1,8,0:0:0:0:
188,61,234911,1,8,0:0:0:0:
188,61,234994,1,0,0:0:0:0:
346,131,235161,1,8,0:0:0:0:
415,87,235328,1,0,0:0:0:0:
415,87,235494,1,8,0:0:0:0:
268,60,235578,1,8,0:0:0:0:
415,87,235661,1,0,0:0:0:0:
238,252,235744,1,0,0:0:0:0:
415,87,235828,1,8,0:0:0:0:
386,146,235939,1,8,0:0:0:0:
386,146,236050,1,0,0:0:0:0:
386,146,236161,1,0,0:0:0:0:
386,146,236272,1,8,0:0:0:0:
386,146,236383,1,8,0:0:0:0:
386,146,236494,1,4,0:0:0:0:
256,192,236828,12,0,241161,0:0:0:0:
