osu file format v14

[General]
AudioFilename: audio.mp3
AudioLeadIn: 0
PreviewTime: 22288
Countdown: 0
SampleSet: Normal
StackLeniency: 0.7
Mode: 1
LetterboxInBreaks: 0
WidescreenStoryboard: 0

[Editor]
Bookmarks: 23121,87121,151121,204454,215121
DistanceSpacing: 0.3
BeatDivisor: 16
GridSize: 32
TimelineZoom: 1.8

[Metadata]
Title:kageokuri feat. MuryokuP
TitleUnicode:kageokuri feat. 無力P
Artist:rest or stay?
ArtistUnicode:rest or stay?
Creator:op45667
Version:oni
Source:
Tags:rock vocaloid gumi japanese powerless sounds megpoid jrock g.k hwaken music have a nice day records HNDR HNDRecords j-rock muryoku-p HNDC-00001 1st first album worlds
BeatmapID:3535572
BeatmapSetID:1729989

[Difficulty]
HPDrainRate:5
CircleSize:5
OverallDifficulty:6
ApproachRate:5
SliderMultiplier:1.4
SliderTickRate:1

[Events]
//Background and Video events
0,0,"BG5.jpg",0,90
//Break Periods
//Storyboard Layer 0 (Background)
//Storyboard Layer 1 (Fail)
//Storyboard Layer 2 (Pass)
//Storyboard Layer 3 (Foreground)
//Storyboard Layer 4 (Overlay)
//Storyboard Sound Samples

[TimingPoints]
495,333.333333333333,4,1,0,60,1,8
1161,-105.263157894737,4,1,0,60,0,0
11828,-104.166666666667,4,1,0,60,0,0
11994,-103.092783505155,4,1,0,60,0,0
12161,-102.040816326531,4,1,0,60,0,0
12328,-101.010101010101,4,1,0,60,0,0
12494,-100,4,1,0,60,0,0
22494,-95.2380952380952,4,1,0,90,0,0
23161,-90.9090909090909,4,1,0,90,0,1
31494,-90.9090909090909,4,1,0,90,0,1
31578,-90.6125407756433,4,1,0,90,0,1
31661,-90.3260771384699,4,1,0,90,0,1
31828,-89.7504936277149,4,1,0,90,0,1
31911,-89.6860986547085,4,1,0,90,0,1
31994,-89.1742464776172,4,1,0,90,0,1
32078,-88.8888888888889,4,1,0,90,0,1
32161,-88.6132033673017,4,1,0,90,0,1
32328,-88.0591757661148,4,1,0,90,0,1
32661,-86.9640838333768,4,1,0,90,0,1
32828,-86.4304235090752,4,1,0,90,0,1
32911,-86.4304235090752,4,1,0,90,0,1
32994,-85.903272914698,4,1,0,90,0,1
33078,-85.8369098712446,4,1,0,90,0,1
33161,-85.3825136612022,4,1,0,90,0,1
33328,-84.8680302130187,4,1,0,90,0,1
33494,-84.3525938422606,4,1,0,90,0,1
33578,-84.1042893187552,4,1,0,90,0,1
33661,-83.8504108670132,4,1,0,90,0,1
33744,-83.6820083682008,4,1,0,90,0,1
33828,-83.3541718763024,4,1,0,90,0,1
34040,-90.9090909090909,4,1,0,90,0,1
43828,-83.3333333333333,4,1,0,80,0,0
43939,-86.3309600952403,4,1,0,80,0,0
44050,-89.5522120739665,4,1,0,80,0,0
44161,-93.0232558139535,4,1,0,80,0,0
44272,-96.774224765879,4,1,0,80,0,0
44383,-100.840302238554,4,1,0,80,0,0
44494,-105.263157894737,4,1,0,60,0,0
65161,-106.382978723404,4,1,0,60,0,0
65328,-107.52688172043,4,1,0,60,0,0
65494,-108.695652173913,4,1,0,60,0,0
65661,-109.89010989011,4,1,0,60,0,0
65828,-111.111111111111,4,1,0,60,0,0
76494,-105.263157894737,4,1,0,70,0,0
82161,-102.040816326531,4,1,0,70,0,0
82328,-101.010101010101,4,1,0,70,0,0
82494,-100,4,1,0,80,0,0
87161,-90.9090909090909,4,1,0,90,0,1
104994,-90.9090909090909,4,1,0,90,0,1
105161,-90.4240889773035,4,1,0,90,0,1
105327,-89.9523252676082,4,1,0,90,0,1
105411,-89.6860986547085,4,1,0,90,0,1
105494,-89.4774516821761,4,1,0,90,0,1
105661,-89.0075656430796,4,1,0,90,0,1
105744,-88.7784090909091,4,1,0,90,0,1
105828,-88.5504294695829,4,1,0,90,0,1
105994,-88.0902043692741,4,1,0,90,0,1
106161,-87.6347384103058,4,1,0,90,0,1
106328,-87.1915598570058,4,1,0,90,0,1
106494,-86.7453157529493,4,1,0,90,0,1
106578,-86.5800865800866,4,1,0,90,0,1
106661,-86.3036161215155,4,1,0,90,0,1
106828,-85.87376556462,4,1,0,90,0,1
106994,-85.4408749145591,4,1,0,90,0,1
107078,-85.2878464818763,4,1,0,90,0,1
107161,-85.1063829787234,4,1,0,90,0,1
107244,-85.1063829787234,4,1,0,90,0,1
107328,-84.5880561664693,4,1,0,90,0,1
107494,-84.1750841750842,4,1,0,90,0,1
107661,-83.7591088030823,4,1,0,90,0,1
107828,-83.3333333333333,4,1,0,70,0,0
108494,-86.9565217391304,4,1,0,90,0,1
124494,-86.9565217391304,4,1,0,90,0,1
124606,-87.2719148505381,4,1,0,90,0,1
124717,-87.5896041650608,4,1,0,90,0,1
124828,-87.9096148503954,4,1,0,90,0,1
124939,-88.2318945946494,4,1,0,90,0,1
125050,-88.5566244340125,4,1,0,90,0,1
125161,-88.8837533831379,4,1,0,90,0,1
125272,-89.2133081276,4,1,0,90,0,1
125383,-89.5453157502151,4,1,0,90,0,1
125494,-89.8798037384606,4,1,0,90,0,1
125606,-90.2167186014243,4,1,0,90,0,1
125717,-90.5562508263258,4,1,0,90,0,1
125828,-90.89834837701,4,1,0,90,0,1
125994,-91.4163686493049,4,1,0,90,0,1
126161,-91.9403270501314,4,1,0,90,0,1
126328,-92.4702407647659,4,1,0,90,0,1
126411,-92.737537929653,4,1,0,90,0,1
126494,-93.0063848883226,4,1,0,90,0,1
126661,-93.5487824158225,4,1,0,90,0,1
126828,-94.0975433954346,4,1,0,90,0,1
126994,-94.6526908813491,4,1,0,90,0,1
127078,-94.9327733565476,4,1,0,90,0,1
127161,-95.2145183097519,4,1,0,90,0,1
127494,-86.9565217391304,4,1,0,90,0,1
127661,-87.3362445414847,4,1,0,90,0,1
127744,-87.527352297593,4,1,0,90,0,1
127828,-88.0436696601514,4,1,0,90,0,1
127911,-88.1057268722467,4,1,0,90,0,1
127994,-88.6053517632465,4,1,0,90,0,1
128078,-88.8809883565905,4,1,0,90,0,1
128161,-89.1662951404369,4,1,0,90,0,1
128328,-89.6860986547085,4,1,0,90,0,1
128411,-89.8876404494382,4,1,0,90,0,1
128494,-90.3097624853247,4,1,0,90,0,1
128661,-90.9090909090909,4,1,0,90,0,1
128828,-91.4913083257091,4,1,0,90,0,1
128994,-92.0895110046966,4,1,0,90,0,1
129078,-92.1658986175115,4,1,0,90,0,1
129161,-92.695587690026,4,1,0,90,0,1
129244,-92.9886553840431,4,1,0,90,0,1
129328,-93.3096948772977,4,1,0,90,0,1
129494,-93.9408172851104,4,1,0,90,0,1
129578,-94.2507068803016,4,1,0,90,0,1
129661,-94.5715906941555,4,1,0,90,0,1
129744,-94.7867298578199,4,1,0,90,0,1
129828,-95.2380952380952,4,1,0,90,0,0
136661,-95.2380952380952,4,1,0,90,0,0
136744,-95.4003667190097,4,1,0,90,0,0
136828,-95.5631007932693,4,1,0,90,0,0
136911,-95.7264826356947,4,1,0,90,0,0
136994,-95.8904240945786,4,1,0,90,0,0
137161,-96.2199048192702,4,1,0,90,0,0
137244,-96.3855421686747,4,1,0,90,0,0
137328,-96.5517507728968,4,1,0,90,0,0
137494,-96.8857997389896,4,1,0,90,0,0
137661,-97.2222627314984,4,1,0,90,0,0
137828,-97.5609756097561,4,1,0,90,0,0
138078,-98.0735414257735,4,1,0,90,0,0
138328,-98.5915215235151,4,1,0,90,0,0
138411,-98.7654320987654,4,1,0,90,0,0
138494,-98.9399572975144,4,1,0,90,0,0
138578,-99.1150021458398,4,1,0,90,0,0
138661,-99.2907660580474,4,1,0,90,0,0
138828,-99.6441706665498,4,1,0,90,0,0
138994,-100,4,1,0,90,0,0
139328,-100,4,1,0,90,0,0
139411,-99.6884735202492,4,1,0,90,0,0
139494,-99.3788819875776,4,1,0,90,0,0
139578,-99.0712074303406,4,1,0,90,0,0
139661,-98.7654320987654,4,1,0,90,0,0
139828,-98.159509202454,4,1,0,90,0,0
139994,-97.5609756097561,4,1,0,90,0,0
140161,-96.969696969697,4,1,0,90,0,0
140244,-96.6767371601208,4,1,0,90,0,0
140328,-96.3855421686747,4,1,0,90,0,0
140411,-96.0960960960961,4,1,0,90,0,0
140494,-95.8083832335329,4,1,0,90,0,0
140661,-95.2380952380952,4,1,0,90,0,0
149994,-96.1538461538461,4,1,0,90,0,0
150078,-97.0873786407767,4,1,0,90,0,0
150161,-98.0392156862745,4,1,0,90,0,0
150328,-99.009900990099,4,1,0,90,0,0
150411,-100,4,1,0,90,0,0
150494,-101.010101010101,4,1,0,90,0,0
150661,-102.040816326531,4,1,0,90,0,0
150828,-103.092783505155,4,1,0,90,0,0
150911,-104.166666666667,4,1,0,90,0,0
150994,-104.712041884817,4,1,0,90,0,0
151078,-104.98687664042,4,1,0,90,0,0
151161,-105.263157894737,4,1,0,70,0,0
160494,-105.263157894737,4,1,0,70,0,0
160827,-104.166666666667,4,1,0,70,0,0
160994,-104.166666666667,4,1,0,70,0,0
161161,-103.092783505155,4,1,0,70,0,0
161327,-102.040816326531,4,1,0,70,0,0
161494,-101.010101010101,4,1,0,70,0,0
161827,-100,4,1,0,80,0,0
165828,-100,4,1,0,80,0,0
165994,-100,4,1,0,80,0,0
166161,-99.2950054612253,4,1,0,80,0,0
166327,-98.599881680142,4,1,0,80,0,0
166494,-97.9144227944776,4,1,0,80,0,0
166661,-97.2384286269934,4,1,0,80,0,0
166827,-96.5717044905843,4,1,0,80,0,0
166994,-95.9140610013428,4,1,0,80,0,0
167161,-95.2653138992093,4,1,0,80,0,0
170161,-96.1538461538461,4,1,0,80,0,0
170328,-97.0873786407767,4,1,0,80,0,0
170494,-98.0392156862745,4,1,0,90,0,0
170661,-99.009900990099,4,1,0,90,0,0
170827,-100,4,1,0,90,0,0
170994,-101.010101010101,4,1,0,90,0,0
171161,-102.040816326531,4,1,0,90,0,0
171328,-103.092783505155,4,1,0,90,0,0
171494,-104.166666666667,4,1,0,90,0,0
171661,-105.263157894737,4,1,0,90,0,0
171827,-106.382978723404,4,1,0,90,0,0
171994,-107.52688172043,4,1,0,90,0,0
172161,-108.695652173913,4,1,0,90,0,0
172328,-109.89010989011,4,1,0,90,0,0
172494,-111.111111111111,4,1,0,60,0,0
193161,-100,4,1,0,90,0,0
193828,-95.2380952380952,4,1,0,90,0,1
201161,-95.2380952380952,4,1,0,90,0,1
201244,-95.1112801978314,4,1,0,90,0,1
201328,-94.9848024316109,4,1,0,90,0,1
201411,-94.9848024316109,4,1,0,90,0,1
201494,-94.7418285172904,4,1,0,90,0,1
201661,-94.4911650760654,4,1,0,90,0,1
201828,-94.2418245217227,4,1,0,90,0,1
201911,-94.2418245217227,4,1,0,90,0,1
201994,-93.993796409437,4,1,0,90,0,1
202161,-93.7558597412338,4,1,0,90,0,1
202328,-93.5103796521414,4,1,0,90,0,1
202411,-93.5103796521414,4,1,0,90,0,1
202494,-93.5103796521414,4,1,0,90,0,1
202661,-93.0319099451112,4,1,0,90,0,1
202828,-92.7902013547369,4,1,0,90,0,1
202911,-92.7902013547369,4,1,0,90,0,1
202994,-92.5497454881999,4,1,0,90,0,1
203161,-92.3105326317733,4,1,0,90,0,1
203244,-92.3105326317733,4,1,0,90,0,1
203328,-92.0810313075506,4,1,0,90,0,1
203411,-92.0810313075506,4,1,0,90,0,1
203494,-91.844232182219,4,1,0,90,0,1
203578,-91.726288754357,4,1,0,90,0,1
203661,-91.6086478563576,4,1,0,90,0,1
203744,-91.6086478563576,4,1,0,90,0,1
203828,-91.3826190258613,4,1,0,90,0,1
204161,-90.9090909090909,4,1,0,90,0,1
214494,-90.9090909090909,4,1,0,90,0,0
215161,-86.9565217391304,4,1,0,90,0,1
222828,-86.9565217391304,4,1,0,90,0,1
222911,-86.5800865800866,4,1,0,90,0,1
222994,-86.2068965517241,4,1,0,90,0,1
223078,-85.4700854700855,4,1,0,90,0,1
223161,-84.7457627118644,4,1,0,90,0,1
223328,-84.0336134453781,4,1,0,90,0,1
223494,-83.3333333333333,4,1,0,90,0,1
223578,-83.0840810900631,4,1,0,90,0,1
223661,-82.8431778643029,4,1,0,90,0,1
223828,-82.3587547356284,4,1,0,90,0,1
223911,-82.3045267489712,4,1,0,90,0,1
223994,-81.8732601932209,4,1,0,90,0,1
224078,-81.6326530612245,4,1,0,90,0,1
224161,-81.4000814000814,4,1,0,90,0,1
224328,-80.9323405632891,4,1,0,90,0,1
224661,-80.006400512041,4,1,0,90,0,1
224828,-79.5544948289578,4,1,0,90,0,1
224911,-79.3650793650794,4,1,0,90,0,1
224994,-79.1076655327901,4,1,0,90,0,1
225078,-79.0513833992095,4,1,0,90,0,1
225161,-78.665827564506,4,1,0,90,0,1
225328,-78.2288977548306,4,1,0,90,0,1
225494,-77.7907429015947,4,1,0,90,0,1
225578,-77.5795190069822,4,1,0,90,0,1
225661,-77.3634535045644,4,1,0,90,0,1
225744,-77.2200772200772,4,1,0,90,0,1
225828,-76.9408324998076,4,1,0,90,0,1
226161,-86.9565217391304,4,1,0,90,0,1
232661,-86.9565217391304,4,1,0,90,0,1
232828,-86.7377916558244,4,1,0,90,0,1
232911,-86.5800865800866,4,1,0,90,0,1
232994,-86.5126741067566,4,1,0,90,0,1
233161,-86.2961684501208,4,1,0,90,0,1
233328,-86.0733344809778,4,1,0,90,0,1
233411,-86.0733344809778,4,1,0,90,0,1
233494,-85.8590194899974,4,1,0,90,0,1
233578,-85.748585148345,4,1,0,90,0,1
233661,-85.6457690990065,4,1,0,90,0,1
233744,-85.6457690990065,4,1,0,90,0,1
233828,-85.426277122843,4,1,0,90,0,1
233911,-85.1063829787234,4,1,0,90,0,1
233994,-85.1063829787234,4,1,0,90,0,1
234161,-84.9978750531237,4,1,0,90,0,1
234328,-84.7888756995082,4,1,0,90,0,1
234411,-84.7888756995082,4,1,0,90,0,1
234494,-84.573748308525,4,1,0,90,0,1
234661,-84.3668269636379,4,1,0,90,0,1
234744,-84.2601954836535,4,1,0,90,0,1
234828,-84.1609156707625,4,1,0,90,0,1
234911,-84.1609156707625,4,1,0,90,0,1
234994,-83.948959032908,4,1,0,90,0,1
235161,-83.7450799765514,4,1,0,90,0,1
235328,-83.5352100910534,4,1,0,90,0,1
235494,-83.3333333333333,4,1,0,90,0,1
235578,-83.3333333333333,4,1,0,90,0,1
235661,-83.3333333333333,4,1,0,90,0,1
235828,-83.3333333333333,4,1,0,80,0,0
235939,-86.3309600952403,4,1,0,80,0,0
236050,-89.5522120739665,4,1,0,80,0,0
236161,-93.0232558139535,4,1,0,80,0,0
236272,-96.774224765879,4,1,0,80,0,0
236383,-100.840302238554,4,1,0,80,0,0
236494,-105.263157894737,4,1,0,80,0,0
236828,-111.111111111111,4,1,0,70,0,0

[HitObjects]
123,91,1161,5,0,0:0:0:0:
434,315,1828,1,8,0:0:0:0:
334,282,2828,1,8,0:0:0:0:
334,282,2994,1,0,0:0:0:0:
334,282,3494,1,8,0:0:0:0:
334,282,3661,1,0,0:0:0:0:
334,282,3828,1,8,0:0:0:0:
161,298,4161,1,0,0:0:0:0:
161,298,4328,1,8,0:0:0:0:
161,298,4494,1,8,0:0:0:0:
195,144,4828,1,8,0:0:0:0:
195,144,4994,1,0,0:0:0:0:
195,144,5328,1,0,0:0:0:0:
195,144,5494,1,8,0:0:0:0:
379,324,5828,1,8,0:0:0:0:
79,171,5994,1,8,0:0:0:0:
219,264,6161,1,0,0:0:0:0:
226,276,6494,1,8,0:0:0:0:
226,276,6828,1,0,0:0:0:0:
387,196,7161,1,8,0:0:0:0:
171,208,7828,1,0,0:0:0:0:
171,208,8161,1,8,0:0:0:0:
171,208,8328,1,8,0:0:0:0:
171,208,8828,1,0,0:0:0:0:
171,208,9161,1,8,0:0:0:0:
171,208,9494,1,0,0:0:0:0:
171,208,9661,1,8,0:0:0:0:
171,208,9828,1,8,0:0:0:0:
171,208,9994,1,8,0:0:0:0:
171,208,10161,1,0,0:0:0:0:
85,182,10328,1,0,0:0:0:0:
85,182,10661,1,0,0:0:0:0:
85,182,10828,1,8,0:0:0:0:
85,182,11161,1,8,0:0:0:0:
85,182,11328,1,8,0:0:0:0:
85,182,11495,1,0,0:0:0:0:
192,172,11828,1,8,0:0:0:0:
190,121,12161,1,0,0:0:0:0:
190,121,12494,1,8,0:0:0:0:
156,246,12661,1,8,0:0:0:0:
270,306,12828,1,0,0:0:0:0:
270,306,13161,1,8,0:0:0:0:
170,194,13494,1,0,0:0:0:0:
270,306,13661,1,0,0:0:0:0:
170,194,13828,1,8,0:0:0:0:
170,194,13994,1,8,0:0:0:0:
170,194,14161,1,0,0:0:0:0:
170,194,14494,1,8,0:0:0:0:
170,194,14828,1,0,0:0:0:0:
170,194,14994,1,8,0:0:0:0:
170,194,15161,1,0,0:0:0:0:
170,194,15494,1,0,0:0:0:0:
170,194,15661,1,0,0:0:0:0:
170,194,15828,1,8,0:0:0:0:
142,146,15994,1,8,0:0:0:0:
142,146,16161,1,0,0:0:0:0:
174,148,16494,1,8,0:0:0:0:
174,148,16661,1,8,0:0:0:0:
174,148,16828,1,0,0:0:0:0:
202,140,17161,1,8,0:0:0:0:
145,117,17328,1,0,0:0:0:0:
145,117,17494,1,8,0:0:0:0:
145,117,17661,1,8,0:0:0:0:
145,117,17828,1,0,0:0:0:0:
219,142,18161,1,8,0:0:0:0:
219,142,18328,1,0,0:0:0:0:
219,142,18494,1,8,0:0:0:0:
228,284,18828,1,8,0:0:0:0:
228,284,18994,1,8,0:0:0:0:
228,284,19161,1,0,0:0:0:0:
228,284,19328,1,8,0:0:0:0:
228,284,19494,1,0,0:0:0:0:
190,200,19661,1,0,0:0:0:0:
190,200,19828,1,8,0:0:0:0:
190,200,20161,1,8,0:0:0:0:
190,200,20328,1,8,0:0:0:0:
190,200,20494,1,0,0:0:0:0:
190,200,20661,1,0,0:0:0:0:
193,277,20828,1,8,0:0:0:0:
256,192,20994,12,0,22161,0:0:0:0:
277,134,22494,5,8,0:0:0:0:
277,134,23161,1,4,0:0:0:0:
159,222,23328,1,0,0:0:0:0:
159,222,23494,1,8,0:0:0:0:
159,222,23578,1,8,0:0:0:0:
159,222,23661,1,0,0:0:0:0:
175,184,23744,1,0,0:0:0:0:
175,184,23828,1,8,0:0:0:0:
175,184,23994,1,0,0:0:0:0:
175,184,24161,1,8,0:0:0:0:
211,234,24328,1,0,0:0:0:0:
211,234,24661,1,0,0:0:0:0:
211,234,24828,1,8,0:0:0:0:
211,234,24994,1,0,0:0:0:0:
211,234,25078,1,0,0:0:0:0:
211,234,25161,1,8,0:0:0:0:
221,188,25328,1,0,0:0:0:0:
221,188,25411,1,0,0:0:0:0:
229,175,25494,1,8,0:0:0:0:
229,175,25661,1,8,0:0:0:0:
132,130,25828,1,0,0:0:0:0:
288,158,25994,1,0,0:0:0:0:
256,215,26161,1,8,0:0:0:0:
256,215,26244,1,8,0:0:0:0:
256,215,26328,1,0,0:0:0:0:
241,204,26494,1,8,0:0:0:0:
244,126,26661,1,0,0:0:0:0:
244,126,26744,1,0,0:0:0:0:
214,117,26828,1,8,0:0:0:0:
214,117,26994,1,0,0:0:0:0:
186,70,27328,1,0,0:0:0:0:
249,193,27411,1,0,0:0:0:0:
186,70,27494,1,8,0:0:0:0:
157,62,27661,1,0,0:0:0:0:
209,62,27828,1,8,0:0:0:0:
209,62,27994,1,0,0:0:0:0:
209,62,28161,1,8,0:0:0:0:
209,62,28244,1,8,0:0:0:0:
209,62,28328,1,8,0:0:0:0:
209,62,28494,1,0,0:0:0:0:
229,138,28661,1,0,0:0:0:0:
297,283,28828,1,8,0:0:0:0:
297,283,28911,1,8,0:0:0:0:
297,283,28994,1,0,0:0:0:0:
297,283,29161,1,8,0:0:0:0:
297,283,29328,1,0,0:0:0:0:
166,230,29411,1,0,0:0:0:0:
228,97,29494,1,8,0:0:0:0:
228,97,29661,1,0,0:0:0:0:
214,80,29994,1,0,0:0:0:0:
214,80,30161,1,8,0:0:0:0:
214,80,30328,1,0,0:0:0:0:
214,80,30411,1,0,0:0:0:0:
214,80,30494,1,8,0:0:0:0:
214,80,30661,1,0,0:0:0:0:
461,228,30828,1,8,0:0:0:0:
368,213,30911,1,0,0:0:0:0:
368,213,30994,1,8,0:0:0:0:
368,213,31078,1,8,0:0:0:0:
368,213,31161,1,0,0:0:0:0:
292,253,31328,1,0,0:0:0:0:
350,244,31494,1,8,0:0:0:0:
117,193,31578,1,8,0:0:0:0:
117,193,31661,1,0,0:0:0:0:
117,193,31828,1,8,0:0:0:0:
117,193,31911,1,8,0:0:0:0:
117,193,31994,1,0,0:0:0:0:
199,203,32078,1,0,0:0:0:0:
173,164,32161,1,8,0:0:0:0:
173,164,32328,1,0,0:0:0:0:
170,153,32661,1,0,0:0:0:0:
207,219,32828,1,8,0:0:0:0:
202,186,32911,1,8,0:0:0:0:
183,157,32994,1,0,0:0:0:0:
202,186,33078,1,0,0:0:0:0:
183,157,33161,1,8,0:0:0:0:
183,157,33328,1,0,0:0:0:0:
183,157,33494,1,8,0:0:0:0:
183,157,33578,1,8,0:0:0:0:
181,162,33661,1,8,0:0:0:0:
181,162,33744,1,8,0:0:0:0:
277,134,33828,1,4,0:0:0:0:
159,222,34161,1,8,0:0:0:0:
159,222,34245,1,8,0:0:0:0:
159,222,34328,1,0,0:0:0:0:
175,184,34411,1,0,0:0:0:0:
175,184,34495,1,8,0:0:0:0:
175,184,34661,1,0,0:0:0:0:
175,184,34828,1,8,0:0:0:0:
211,234,34995,1,0,0:0:0:0:
211,234,35328,1,0,0:0:0:0:
211,234,35495,1,8,0:0:0:0:
211,234,35661,1,0,0:0:0:0:
211,234,35745,1,0,0:0:0:0:
211,234,35828,1,8,0:0:0:0:
340,170,35911,1,8,0:0:0:0:
221,188,35995,1,0,0:0:0:0:
229,175,36161,1,8,0:0:0:0:
229,175,36328,1,8,0:0:0:0:
132,130,36495,1,0,0:0:0:0:
217,74,36578,1,8,0:0:0:0:
288,158,36661,1,0,0:0:0:0:
256,215,36828,1,8,0:0:0:0:
256,215,36911,1,8,0:0:0:0:
256,215,36995,1,0,0:0:0:0:
241,204,37161,1,8,0:0:0:0:
244,126,37328,1,0,0:0:0:0:
244,126,37411,1,0,0:0:0:0:
214,117,37495,1,8,0:0:0:0:
214,117,37661,1,0,0:0:0:0:
383,268,37994,1,0,0:0:0:0:
383,268,38161,1,8,0:0:0:0:
383,268,38244,1,8,0:0:0:0:
383,268,38328,1,0,0:0:0:0:
291,201,38494,1,8,0:0:0:0:
291,201,38661,1,0,0:0:0:0:
291,201,38744,1,0,0:0:0:0:
291,201,38828,1,8,0:0:0:0:
291,201,38994,1,8,0:0:0:0:
291,201,39161,1,0,0:0:0:0:
291,201,39244,1,8,0:0:0:0:
291,201,39328,1,0,0:0:0:0:
291,201,39494,1,8,0:0:0:0:
291,201,39578,1,8,0:0:0:0:
237,174,39661,1,0,0:0:0:0:
237,174,39828,1,8,0:0:0:0:
254,117,39994,1,0,0:0:0:0:
175,90,40078,1,0,0:0:0:0:
254,117,40161,1,8,0:0:0:0:
175,90,40328,1,0,0:0:0:0:
243,69,40661,1,0,0:0:0:0:
210,60,40828,1,8,0:0:0:0:
190,39,40911,1,8,0:0:0:0:
155,55,40994,1,0,0:0:0:0:
190,39,41161,1,8,0:0:0:0:
190,39,41328,1,0,0:0:0:0:
189,53,41411,1,0,0:0:0:0:
189,53,41494,1,8,0:0:0:0:
189,53,41661,1,8,0:0:0:0:
166,46,41828,1,0,0:0:0:0:
202,48,41911,1,8,0:0:0:0:
201,55,41994,1,0,0:0:0:0:
199,61,42161,1,8,0:0:0:0:
199,61,42328,1,0,0:0:0:0:
199,61,42411,1,0,0:0:0:0:
199,61,42494,1,8,0:0:0:0:
188,61,42661,1,0,0:0:0:0:
188,60,42744,1,0,0:0:0:0:
188,61,42828,1,8,0:0:0:0:
188,61,42911,1,8,0:0:0:0:
188,61,42994,1,0,0:0:0:0:
415,87,43161,1,8,0:0:0:0:
415,87,43328,1,0,0:0:0:0:
415,87,43494,1,8,0:0:0:0:
268,60,43578,1,8,0:0:0:0:
415,87,43661,1,0,0:0:0:0:
415,87,43828,1,8,0:0:0:0:
386,146,43939,1,8,0:0:0:0:
386,146,44050,1,0,0:0:0:0:
386,146,44161,1,0,0:0:0:0:
386,146,44272,1,8,0:0:0:0:
386,146,44383,1,8,0:0:0:0:
386,146,44494,1,4,0:0:0:0:
384,220,44828,1,8,0:0:0:0:
239,158,44994,1,0,0:0:0:0:
239,158,45161,1,8,0:0:0:0:
239,127,45494,1,0,0:0:0:0:
239,127,45661,1,8,0:0:0:0:
239,127,45994,1,8,0:0:0:0:
291,192,46161,1,0,0:0:0:0:
291,192,46328,1,0,0:0:0:0:
291,192,46494,1,8,0:0:0:0:
152,82,46578,1,8,0:0:0:0:
164,79,46661,1,0,0:0:0:0:
291,192,46828,1,8,0:0:0:0:
291,192,46994,1,8,0:0:0:0:
199,152,47161,1,0,0:0:0:0:
203,238,47328,1,0,0:0:0:0:
199,152,47494,1,0,0:0:0:0:
243,198,47661,1,8,0:0:0:0:
199,152,47828,1,8,0:0:0:0:
210,145,47994,1,0,0:0:0:0:
210,145,48161,1,0,0:0:0:0:
210,145,48494,1,8,0:0:0:0:
202,233,48578,1,0,0:0:0:0:
152,93,48661,1,8,0:0:0:0:
152,93,48828,1,0,0:0:0:0:
152,93,48994,1,0,0:0:0:0:
152,93,49161,1,8,0:0:0:0:
152,93,49494,1,0,0:0:0:0:
152,93,49661,1,8,0:0:0:0:
171,68,49828,1,8,0:0:0:0:
171,68,50161,1,0,0:0:0:0:
171,68,50328,1,8,0:0:0:0:
171,68,50494,1,0,0:0:0:0:
139,58,50661,1,0,0:0:0:0:
139,58,50828,1,8,0:0:0:0:
139,58,50994,1,8,0:0:0:0:
221,44,51328,1,8,0:0:0:0:
221,44,51494,1,0,0:0:0:0:
221,44,51661,1,0,0:0:0:0:
221,44,51828,1,8,0:0:0:0:
219,116,51911,1,8,0:0:0:0:
219,116,51994,1,0,0:0:0:0:
185,46,52161,1,8,0:0:0:0:
185,46,52328,1,8,0:0:0:0:
185,46,52494,1,0,0:0:0:0:
186,70,52661,1,0,0:0:0:0:
166,62,52828,1,0,0:0:0:0:
205,238,53161,1,8,0:0:0:0:
205,238,53328,1,8,0:0:0:0:
165,85,53494,1,0,0:0:0:0:
165,85,53661,1,8,0:0:0:0:
165,85,53828,1,8,0:0:0:0:
205,238,53911,1,0,0:0:0:0:
165,85,53994,1,8,0:0:0:0:
165,85,54161,1,0,0:0:0:0:
220,49,54328,1,0,0:0:0:0:
185,58,54494,1,8,0:0:0:0:
188,51,54828,1,8,0:0:0:0:
188,51,54994,1,0,0:0:0:0:
188,51,55161,1,8,0:0:0:0:
188,51,55494,1,8,0:0:0:0:
188,51,55661,1,0,0:0:0:0:
188,51,55828,1,8,0:0:0:0:
188,51,55994,1,8,0:0:0:0:
188,51,56161,1,0,0:0:0:0:
205,238,56328,1,0,0:0:0:0:
136,51,56494,1,8,0:0:0:0:
136,51,56828,1,0,0:0:0:0:
136,51,56994,1,0,0:0:0:0:
136,51,57161,1,8,0:0:0:0:
219,116,57244,1,8,0:0:0:0:
219,116,57328,1,0,0:0:0:0:
136,51,57494,1,8,0:0:0:0:
136,51,57661,1,0,0:0:0:0:
136,51,57828,1,8,0:0:0:0:
336,185,57994,1,0,0:0:0:0:
136,51,58161,1,0,0:0:0:0:
182,42,58328,1,8,0:0:0:0:
182,42,58494,1,8,0:0:0:0:
182,42,58828,1,8,0:0:0:0:
182,42,58994,1,0,0:0:0:0:
182,42,59161,1,8,0:0:0:0:
286,206,59244,1,0,0:0:0:0:
182,42,59328,1,8,0:0:0:0:
182,42,59494,1,0,0:0:0:0:
182,42,59661,1,0,0:0:0:0:
182,42,59828,1,8,0:0:0:0:
182,42,59994,1,0,0:0:0:0:
182,42,60161,1,8,0:0:0:0:
182,42,60494,1,0,0:0:0:0:
160,23,60661,1,0,0:0:0:0:
160,23,60828,1,8,0:0:0:0:
246,139,60994,1,8,0:0:0:0:
321,243,61161,1,8,0:0:0:0:
160,23,61328,1,0,0:0:0:0:
160,23,61494,1,8,0:0:0:0:
160,23,61661,1,0,0:0:0:0:
160,23,61994,1,8,0:0:0:0:
160,23,62161,1,8,0:0:0:0:
160,23,62328,1,0,0:0:0:0:
188,55,62494,1,8,0:0:0:0:
263,164,62578,1,8,0:0:0:0:
188,55,62661,1,0,0:0:0:0:
187,46,62828,1,8,0:0:0:0:
187,46,62994,1,8,0:0:0:0:
187,46,63161,1,0,0:0:0:0:
316,242,63328,1,0,0:0:0:0:
316,242,63411,1,8,0:0:0:0:
215,174,63494,1,0,0:0:0:0:
190,140,63661,1,8,0:0:0:0:
190,140,63828,1,8,0:0:0:0:
190,140,63994,1,0,0:0:0:0:
190,140,64161,1,8,0:0:0:0:
190,140,64328,1,0,0:0:0:0:
186,117,64494,1,8,0:0:0:0:
221,190,64578,1,0,0:0:0:0:
186,117,64661,1,8,0:0:0:0:
186,117,64828,1,0,0:0:0:0:
186,117,64994,1,0,0:0:0:0:
186,117,65161,1,8,0:0:0:0:
186,117,65328,1,8,0:0:0:0:
186,117,65494,1,0,0:0:0:0:
186,117,65661,1,8,0:0:0:0:
183,98,65828,1,4,0:0:0:0:
236,268,66494,1,8,0:0:0:0:
150,181,67161,1,8,0:0:0:0:
150,188,67661,1,0,0:0:0:0:
151,188,67828,1,8,0:0:0:0:
151,189,68161,1,0,0:0:0:0:
150,188,68328,1,0,0:0:0:0:
150,188,68494,1,8,0:0:0:0:
151,188,68994,1,8,0:0:0:0:
151,189,69161,1,0,0:0:0:0:
151,188,69661,1,8,0:0:0:0:
151,188,69828,1,0,0:0:0:0:
151,189,71161,1,8,0:0:0:0:
151,189,71828,1,8,0:0:0:0:
134,167,72161,1,0,0:0:0:0:
134,167,72494,1,8,0:0:0:0:
164,138,73161,1,8,0:0:0:0:
164,138,73494,1,0,0:0:0:0:
164,138,73828,1,8,0:0:0:0:
164,138,74161,1,0,0:0:0:0:
164,138,74494,1,8,0:0:0:0:
164,138,74828,1,8,0:0:0:0:
164,138,74994,1,8,0:0:0:0:
170,108,75161,1,0,0:0:0:0:
170,108,76494,1,4,0:0:0:0:
166,138,76828,1,0,0:0:0:0:
165,180,76994,1,0,0:0:0:0:
165,180,77161,1,8,0:0:0:0:
165,180,77494,1,8,0:0:0:0:
165,180,77661,1,0,0:0:0:0:
145,153,77828,1,8,0:0:0:0:
245,250,78161,1,0,0:0:0:0:
245,250,78328,1,0,0:0:0:0:
245,250,78494,1,8,0:0:0:0:
143,211,78828,1,0,0:0:0:0:
156,258,78994,1,8,0:0:0:0:
156,258,79161,1,0,0:0:0:0:
156,258,79494,1,8,0:0:0:0:
156,258,79661,1,0,0:0:0:0:
156,258,79828,1,8,0:0:0:0:
156,258,79994,1,8,0:0:0:0:
156,258,80161,1,0,0:0:0:0:
156,258,80494,1,8,0:0:0:0:
156,258,80661,1,0,0:0:0:0:
156,258,80828,1,8,0:0:0:0:
156,258,80994,1,8,0:0:0:0:
156,258,81161,1,8,0:0:0:0:
156,258,81328,1,0,0:0:0:0:
156,258,81494,1,0,0:0:0:0:
294,239,81661,1,8,0:0:0:0:
294,239,81828,1,8,0:0:0:0:
185,163,82161,1,0,0:0:0:0:
185,163,82328,1,8,0:0:0:0:
185,163,82494,1,8,0:0:0:0:
185,163,82828,1,8,0:0:0:0:
185,163,82994,1,0,0:0:0:0:
185,163,83161,1,8,0:0:0:0:
185,163,83328,1,8,0:0:0:0:
185,163,83494,1,0,0:0:0:0:
350,311,83661,1,0,0:0:0:0:
185,163,83828,1,8,0:0:0:0:
336,274,84161,1,8,0:0:0:0:
320,271,84328,1,0,0:0:0:0:
320,271,84494,1,8,0:0:0:0:
197,81,85161,1,8,0:0:0:0:
197,81,85828,1,8,0:0:0:0:
281,262,86328,1,0,0:0:0:0:
197,81,86494,1,8,0:0:0:0:
398,258,87161,1,4,0:0:0:0:
230,210,87328,1,0,0:0:0:0:
250,198,87494,1,8,0:0:0:0:
230,210,87661,1,0,0:0:0:0:
279,178,87744,1,0,0:0:0:0:
230,210,87828,1,8,0:0:0:0:
302,271,87994,1,0,0:0:0:0:
310,269,88161,1,8,0:0:0:0:
310,269,88244,1,8,0:0:0:0:
302,271,88328,1,0,0:0:0:0:
310,269,88494,1,8,0:0:0:0:
302,271,88661,1,0,0:0:0:0:
191,38,88828,1,8,0:0:0:0:
191,38,88911,1,8,0:0:0:0:
302,271,88994,1,0,0:0:0:0:
310,269,89078,1,0,0:0:0:0:
302,271,89161,1,8,0:0:0:0:
302,271,89328,1,0,0:0:0:0:
302,271,89494,1,8,0:0:0:0:
302,271,89661,1,8,0:0:0:0:
302,271,89744,1,8,0:0:0:0:
302,271,89828,1,0,0:0:0:0:
270,151,89994,1,0,0:0:0:0:
152,138,90161,1,8,0:0:0:0:
270,151,90244,1,8,0:0:0:0:
302,271,90328,1,0,0:0:0:0:
302,271,90494,1,8,0:0:0:0:
152,138,90828,1,8,0:0:0:0:
302,271,90994,1,0,0:0:0:0:
302,271,91328,1,0,0:0:0:0:
152,138,91494,1,8,0:0:0:0:
302,271,91661,1,0,0:0:0:0:
152,138,91744,1,0,0:0:0:0:
240,237,91828,1,8,0:0:0:0:
152,138,91911,1,8,0:0:0:0:
240,237,91994,1,0,0:0:0:0:
240,237,92161,1,8,0:0:0:0:
293,216,92328,1,8,0:0:0:0:
293,216,92411,1,8,0:0:0:0:
293,216,92494,1,0,0:0:0:0:
293,216,92661,1,0,0:0:0:0:
293,216,92994,1,0,0:0:0:0:
239,175,93161,1,8,0:0:0:0:
239,175,93328,1,0,0:0:0:0:
239,175,93661,1,0,0:0:0:0:
242,121,93744,1,0,0:0:0:0:
242,121,93828,1,8,0:0:0:0:
239,175,93994,1,0,0:0:0:0:
239,175,94328,1,0,0:0:0:0:
232,71,94411,1,0,0:0:0:0:
239,175,94494,1,8,0:0:0:0:
232,71,94661,1,0,0:0:0:0:
239,175,94828,1,8,0:0:0:0:
239,175,94994,1,8,0:0:0:0:
239,175,95078,1,8,0:0:0:0:
239,175,95161,1,0,0:0:0:0:
239,175,95328,1,0,0:0:0:0:
239,175,95661,1,0,0:0:0:0:
234,117,95744,1,0,0:0:0:0:
239,175,95828,1,8,0:0:0:0:
234,117,95911,1,0,0:0:0:0:
181,105,95994,1,0,0:0:0:0:
232,71,96161,1,8,0:0:0:0:
239,175,96328,1,0,0:0:0:0:
239,175,96661,1,0,0:0:0:0:
232,71,96828,1,8,0:0:0:0:
232,71,96911,1,8,0:0:0:0:
239,175,96994,1,0,0:0:0:0:
239,175,97161,1,8,0:0:0:0:
239,175,97328,1,0,0:0:0:0:
239,175,97494,1,8,0:0:0:0:
239,175,97661,1,8,0:0:0:0:
239,175,97744,1,8,0:0:0:0:
233,153,97828,1,0,0:0:0:0:
233,153,97994,1,0,0:0:0:0:
311,186,98161,1,8,0:0:0:0:
311,186,98244,1,8,0:0:0:0:
233,153,98328,1,0,0:0:0:0:
233,153,98494,1,8,0:0:0:0:
239,175,98661,1,0,0:0:0:0:
152,154,98828,1,8,0:0:0:0:
239,172,98994,1,0,0:0:0:0:
163,82,99078,1,0,0:0:0:0:
163,82,99161,1,8,0:0:0:0:
239,172,99328,1,0,0:0:0:0:
239,175,99661,1,0,0:0:0:0:
239,172,99828,1,8,0:0:0:0:
239,172,99994,1,0,0:0:0:0:
303,229,100078,1,0,0:0:0:0:
239,172,100161,1,8,0:0:0:0:
239,172,100328,1,8,0:0:0:0:
239,175,100411,1,8,0:0:0:0:
239,175,100494,1,0,0:0:0:0:
239,175,100661,1,0,0:0:0:0:
221,124,100828,1,8,0:0:0:0:
181,105,100911,1,8,0:0:0:0:
239,175,100994,1,0,0:0:0:0:
239,175,101161,1,8,0:0:0:0:
221,124,101494,1,8,0:0:0:0:
221,124,101578,1,8,0:0:0:0:
239,175,101661,1,0,0:0:0:0:
171,75,101828,1,8,0:0:0:0:
239,175,101994,1,0,0:0:0:0:
185,83,102161,1,8,0:0:0:0:
239,175,102327,1,0,0:0:0:0:
185,83,102411,1,0,0:0:0:0:
239,175,102494,1,8,0:0:0:0:
239,175,102661,1,0,0:0:0:0:
239,175,102827,1,8,0:0:0:0:
171,75,102911,1,0,0:0:0:0:
239,175,102994,1,8,0:0:0:0:
239,175,103077,1,8,0:0:0:0:
233,153,103161,1,0,0:0:0:0:
233,153,103327,1,0,0:0:0:0:
185,83,103494,1,8,0:0:0:0:
185,83,103578,1,8,0:0:0:0:
233,153,103661,1,0,0:0:0:0:
233,153,103827,1,8,0:0:0:0:
239,175,103994,1,0,0:0:0:0:
185,83,104078,1,0,0:0:0:0:
185,83,104161,1,8,0:0:0:0:
239,172,104327,1,0,0:0:0:0:
184,73,104411,1,0,0:0:0:0:
184,73,104494,1,8,0:0:0:0:
239,172,104661,1,0,0:0:0:0:
239,175,104994,1,0,0:0:0:0:
239,172,105161,1,8,0:0:0:0:
239,172,105327,1,0,0:0:0:0:
196,113,105411,1,0,0:0:0:0:
239,172,105494,1,8,0:0:0:0:
239,172,105661,1,8,0:0:0:0:
385,208,105744,1,8,0:0:0:0:
236,58,105828,1,0,0:0:0:0:
332,216,105994,1,0,0:0:0:0:
332,216,106161,1,8,0:0:0:0:
206,131,106328,1,0,0:0:0:0:
359,213,106494,1,8,0:0:0:0:
359,213,106578,1,8,0:0:0:0:
206,131,106661,1,0,0:0:0:0:
206,131,106828,1,8,0:0:0:0:
359,213,106994,1,0,0:0:0:0:
359,213,107078,1,0,0:0:0:0:
206,131,107161,1,8,0:0:0:0:
206,131,107244,1,8,0:0:0:0:
206,131,107328,1,0,0:0:0:0:
206,131,107494,1,8,0:0:0:0:
206,131,107661,1,0,0:0:0:0:
206,131,107828,1,8,0:0:0:0:
406,124,108494,1,4,0:0:0:0:
406,124,108717,1,0,0:0:0:0:
317,228,108828,1,8,0:0:0:0:
317,228,109050,1,0,0:0:0:0:
277,198,109161,1,8,0:0:0:0:
248,203,109272,1,0,0:0:0:0:
337,128,109383,1,0,0:0:0:0:
372,302,109494,1,8,0:0:0:0:
275,135,109661,1,0,0:0:0:0:
269,206,109994,1,0,0:0:0:0:
269,206,110078,1,0,0:0:0:0:
269,206,110161,1,8,0:0:0:0:
269,206,110328,1,0,0:0:0:0:
255,133,110494,1,8,0:0:0:0:
260,138,110661,1,0,0:0:0:0:
159,12,110744,1,0,0:0:0:0:
194,102,110828,1,8,0:0:0:0:
194,102,110994,1,8,0:0:0:0:
194,102,111078,1,8,0:0:0:0:
194,102,111161,1,0,0:0:0:0:
249,139,111494,1,8,0:0:0:0:
249,139,111606,1,0,0:0:0:0:
226,104,111717,1,0,0:0:0:0:
226,104,111828,1,8,0:0:0:0:
226,104,111994,1,0,0:0:0:0:
226,104,112161,1,8,0:0:0:0:
226,104,112272,1,8,0:0:0:0:
225,47,112383,1,0,0:0:0:0:
226,104,112494,1,8,0:0:0:0:
357,169,112661,1,0,0:0:0:0:
205,108,112828,1,8,0:0:0:0:
241,104,112939,1,0,0:0:0:0:
357,169,113050,1,0,0:0:0:0:
357,169,113161,1,8,0:0:0:0:
357,169,113328,1,0,0:0:0:0:
177,99,113411,1,8,0:0:0:0:
357,169,113494,1,8,0:0:0:0:
304,151,113661,1,8,0:0:0:0:
304,151,113744,1,8,0:0:0:0:
304,151,113828,1,0,0:0:0:0:
222,218,114161,1,8,0:0:0:0:
214,211,114272,1,0,0:0:0:0:
222,218,114383,1,0,0:0:0:0:
214,211,114494,1,8,0:0:0:0:
197,200,114717,1,0,0:0:0:0:
197,200,114828,1,8,0:0:0:0:
389,171,114994,1,0,0:0:0:0:
389,171,115078,1,0,0:0:0:0:
254,93,115161,1,8,0:0:0:0:
278,155,115328,1,0,0:0:0:0:
383,190,115411,1,8,0:0:0:0:
232,136,115578,1,8,0:0:0:0:
217,182,115661,1,0,0:0:0:0:
217,182,115744,1,0,0:0:0:0:
217,182,115828,1,8,0:0:0:0:
217,182,115994,1,0,0:0:0:0:
273,220,116161,1,8,0:0:0:0:
273,220,116328,1,8,0:0:0:0:
273,220,116494,1,0,0:0:0:0:
339,177,116661,1,0,0:0:0:0:
232,201,116744,1,8,0:0:0:0:
339,177,116828,1,0,0:0:0:0:
232,201,116994,1,8,0:0:0:0:
51,210,117078,1,0,0:0:0:0:
51,210,117161,1,8,0:0:0:0:
233,145,117244,1,8,0:0:0:0:
142,190,117328,1,0,0:0:0:0:
142,190,117494,1,8,0:0:0:0:
214,102,117661,1,0,0:0:0:0:
224,119,117744,1,0,0:0:0:0:
312,131,117828,1,8,0:0:0:0:
388,121,117994,1,0,0:0:0:0:
265,206,118078,1,0,0:0:0:0:
132,222,118161,1,8,0:0:0:0:
132,222,118244,1,8,0:0:0:0:
132,222,118328,1,0,0:0:0:0:
132,222,118494,1,8,0:0:0:0:
194,206,118661,1,0,0:0:0:0:
170,193,118744,1,0,0:0:0:0:
170,193,118828,1,0,0:0:0:0:
170,193,118994,1,8,0:0:0:0:
509,253,119078,1,8,0:0:0:0:
253,176,119161,1,0,0:0:0:0:
256,131,119494,1,0,0:0:0:0:
439,220,119661,1,0,0:0:0:0:
394,215,119828,1,8,0:0:0:0:
394,215,119911,1,8,0:0:0:0:
394,215,119994,1,0,0:0:0:0:
394,215,120161,1,8,0:0:0:0:
199,126,120328,1,0,0:0:0:0:
215,129,120411,1,8,0:0:0:0:
215,129,120494,1,0,0:0:0:0:
317,173,120578,1,8,0:0:0:0:
218,115,120661,1,0,0:0:0:0:
218,115,120828,1,0,0:0:0:0:
377,100,120994,1,8,0:0:0:0:
252,90,121078,1,0,0:0:0:0:
252,90,121161,1,8,0:0:0:0:
308,140,121328,1,0,0:0:0:0:
232,117,121494,1,8,0:0:0:0:
336,229,121828,1,0,0:0:0:0:
243,195,121911,1,8,0:0:0:0:
336,229,121994,1,0,0:0:0:0:
243,195,122078,1,0,0:0:0:0:
175,151,122161,1,8,0:0:0:0:
175,151,122328,1,0,0:0:0:0:
175,151,122494,1,8,0:0:0:0:
175,151,122578,1,8,0:0:0:0:
175,151,122661,1,0,0:0:0:0:
230,158,122828,1,8,0:0:0:0:
230,158,122994,1,0,0:0:0:0:
224,109,123078,1,8,0:0:0:0:
224,109,123244,1,8,0:0:0:0:
224,109,123328,1,0,0:0:0:0:
388,178,123494,1,0,0:0:0:0:
388,178,123578,1,8,0:0:0:0:
276,185,123661,1,0,0:0:0:0:
276,185,123828,1,8,0:0:0:0:
276,185,123994,1,0,0:0:0:0:
276,185,124161,1,8,0:0:0:0:
215,136,124494,1,0,0:0:0:0:
352,223,124606,1,8,0:0:0:0:
352,223,124717,1,0,0:0:0:0:
352,223,124828,1,8,0:0:0:0:
352,223,125050,1,8,0:0:0:0:
266,122,125161,1,8,0:0:0:0:
274,116,125272,1,0,0:0:0:0:
237,128,125383,1,0,0:0:0:0:
237,128,125494,1,8,0:0:0:0:
183,83,125717,1,0,0:0:0:0:
342,156,125828,1,8,0:0:0:0:
342,156,125994,1,0,0:0:0:0:
245,99,126161,1,8,0:0:0:0:
322,236,126328,1,0,0:0:0:0:
322,236,126411,1,8,0:0:0:0:
322,236,126494,1,0,0:0:0:0:
258,202,126661,1,8,0:0:0:0:
258,202,126828,1,8,0:0:0:0:
244,176,126994,1,0,0:0:0:0:
395,297,127078,1,0,0:0:0:0:
185,166,127161,1,0,0:0:0:0:
293,132,127494,1,0,0:0:0:0:
293,132,127661,1,0,0:0:0:0:
293,132,127744,1,0,0:0:0:0:
293,132,127828,1,8,0:0:0:0:
374,333,127911,1,8,0:0:0:0:
293,132,127994,1,0,0:0:0:0:
374,333,128161,1,8,0:0:0:0:
374,333,128328,1,0,0:0:0:0:
374,333,128411,1,8,0:0:0:0:
374,333,128494,1,0,0:0:0:0:
374,333,128661,1,0,0:0:0:0:
374,333,128828,1,8,0:0:0:0:
374,333,128994,1,0,0:0:0:0:
374,333,129078,1,0,0:0:0:0:
374,333,129161,1,8,0:0:0:0:
374,333,129244,1,8,0:0:0:0:
374,333,129328,1,0,0:0:0:0:
374,333,129494,1,8,0:0:0:0:
374,333,129578,1,8,0:0:0:0:
374,333,129661,1,8,0:0:0:0:
374,333,129744,1,8,0:0:0:0:
374,333,129828,1,4,0:0:0:0:
260,175,130161,1,8,0:0:0:0:
260,175,130328,1,8,0:0:0:0:
190,102,130411,1,8,0:0:0:0:
260,175,130494,1,0,0:0:0:0:
260,175,130661,1,0,0:0:0:0:
321,180,130828,1,8,0:0:0:0:
190,102,130911,1,0,0:0:0:0:
321,180,130994,1,8,0:0:0:0:
321,180,131328,1,0,0:0:0:0:
321,180,131411,1,0,0:0:0:0:
321,180,131494,1,8,0:0:0:0:
190,102,131661,1,0,0:0:0:0:
190,102,131828,1,0,0:0:0:0:
190,102,131911,1,8,0:0:0:0:
190,102,131994,1,0,0:0:0:0:
205,118,132078,1,0,0:0:0:0:
205,118,132161,1,8,0:0:0:0:
205,118,132328,1,8,0:0:0:0:
205,118,132494,1,4,0:0:0:0:
205,118,132828,1,8,0:0:0:0:
205,118,132911,1,8,0:0:0:0:
205,118,132994,1,0,0:0:0:0:
205,118,133161,1,8,0:0:0:0:
205,118,133328,1,0,0:0:0:0:
205,118,133661,1,8,0:0:0:0:
174,122,133828,1,8,0:0:0:0:
174,122,133994,1,0,0:0:0:0:
174,122,134078,1,0,0:0:0:0:
174,122,134161,1,8,0:0:0:0:
174,122,134328,1,0,0:0:0:0:
174,122,134411,1,0,0:0:0:0:
174,122,134494,1,8,0:0:0:0:
143,53,134661,1,0,0:0:0:0:
143,53,134828,1,8,0:0:0:0:
143,53,134994,1,8,0:0:0:0:
143,53,135078,1,8,0:0:0:0:
143,53,135161,1,4,0:0:0:0:
249,151,135494,1,8,0:0:0:0:
249,151,135661,1,0,0:0:0:0:
249,151,135828,1,0,0:0:0:0:
249,151,135911,1,8,0:0:0:0:
249,151,135994,1,0,0:0:0:0:
199,82,136161,1,8,0:0:0:0:
249,151,136328,1,8,0:0:0:0:
199,82,136661,1,0,0:0:0:0:
199,82,136744,1,0,0:0:0:0:
199,82,136828,1,8,0:0:0:0:
199,82,136911,1,8,0:0:0:0:
199,82,136994,1,0,0:0:0:0:
199,82,137161,1,0,0:0:0:0:
199,82,137244,1,8,0:0:0:0:
199,82,137328,1,0,0:0:0:0:
177,77,137494,1,8,0:0:0:0:
216,211,137661,1,8,0:0:0:0:
216,211,137828,1,4,0:0:0:0:
216,211,138078,1,0,0:0:0:0:
216,211,138328,1,0,0:0:0:0:
216,211,138411,1,0,0:0:0:0:
216,211,138494,1,8,0:0:0:0:
216,211,138578,1,8,0:0:0:0:
216,211,138661,1,0,0:0:0:0:
216,211,138828,1,8,0:0:0:0:
216,211,138994,1,4,0:0:0:0:
216,211,139328,1,0,0:0:0:0:
216,211,139411,1,0,0:0:0:0:
216,211,139494,1,8,0:0:0:0:
216,211,139578,1,0,0:0:0:0:
272,186,139661,1,0,0:0:0:0:
272,186,139828,1,8,0:0:0:0:
272,186,139994,1,0,0:0:0:0:
257,177,140161,1,8,0:0:0:0:
257,177,140244,1,0,0:0:0:0:
257,177,140328,1,8,0:0:0:0:
257,177,140494,1,4,0:0:0:0:
312,129,140661,1,0,0:0:0:0:
309,213,140994,1,0,0:0:0:0:
232,155,141078,1,0,0:0:0:0:
309,213,141161,1,8,0:0:0:0:
312,129,141328,1,0,0:0:0:0:
312,129,141494,1,8,0:0:0:0:
312,129,141578,1,8,0:0:0:0:
312,129,141661,1,0,0:0:0:0:
312,129,141994,1,0,0:0:0:0:
252,88,142078,1,8,0:0:0:0:
206,100,142161,1,0,0:0:0:0:
237,111,142328,1,0,0:0:0:0:
237,111,142411,1,0,0:0:0:0:
237,111,142494,1,8,0:0:0:0:
237,111,142661,1,0,0:0:0:0:
237,111,142828,1,8,0:0:0:0:
195,53,142911,1,8,0:0:0:0:
195,53,142994,1,0,0:0:0:0:
195,53,143161,1,4,0:0:0:0:
195,53,143328,1,0,0:0:0:0:
305,244,143661,1,0,0:0:0:0:
305,244,143744,1,0,0:0:0:0:
305,244,143828,1,8,0:0:0:0:
305,244,143994,1,0,0:0:0:0:
276,215,144161,1,8,0:0:0:0:
266,198,144244,1,8,0:0:0:0:
266,198,144328,1,0,0:0:0:0:
251,209,144494,1,8,0:0:0:0:
251,209,144661,1,0,0:0:0:0:
251,209,144744,1,0,0:0:0:0:
251,209,144828,1,8,0:0:0:0:
190,186,144911,1,8,0:0:0:0:
190,186,144994,1,0,0:0:0:0:
190,186,145161,1,8,0:0:0:0:
196,171,145328,1,0,0:0:0:0:
196,171,145494,1,8,0:0:0:0:
196,171,145578,1,0,0:0:0:0:
196,171,145661,1,8,0:0:0:0:
196,171,145744,1,8,0:0:0:0:
196,171,145828,1,4,0:0:0:0:
226,158,145994,1,0,0:0:0:0:
226,158,146328,1,0,0:0:0:0:
220,145,146494,1,8,0:0:0:0:
220,145,146661,1,0,0:0:0:0:
166,114,146744,1,8,0:0:0:0:
166,114,146828,1,0,0:0:0:0:
166,114,146994,1,0,0:0:0:0:
279,200,147328,1,0,0:0:0:0:
279,200,147494,1,8,0:0:0:0:
279,200,147578,1,8,0:0:0:0:
279,200,147661,1,0,0:0:0:0:
279,200,147744,1,0,0:0:0:0:
279,200,147828,1,8,0:0:0:0:
279,200,147994,1,0,0:0:0:0:
279,200,148161,1,8,0:0:0:0:
279,200,148244,1,0,0:0:0:0:
203,174,148328,1,8,0:0:0:0:
203,174,148494,1,4,0:0:0:0:
203,174,148744,1,0,0:0:0:0:
188,142,148994,1,0,0:0:0:0:
188,142,149078,1,0,0:0:0:0:
188,142,149161,1,8,0:0:0:0:
292,248,149328,1,0,0:0:0:0:
261,189,149494,1,8,0:0:0:0:
261,189,149578,1,8,0:0:0:0:
261,189,149661,1,4,0:0:0:0:
244,193,149994,1,0,0:0:0:0:
244,193,150078,1,0,0:0:0:0:
244,193,150161,1,8,0:0:0:0:
244,193,150328,1,0,0:0:0:0:
244,193,150411,1,0,0:0:0:0:
244,193,150494,1,8,0:0:0:0:
244,193,150661,1,0,0:0:0:0:
192,173,150828,1,8,0:0:0:0:
192,173,150911,1,0,0:0:0:0:
192,173,150994,1,8,0:0:0:0:
177,146,151078,1,8,0:0:0:0:
183,98,151161,1,0,0:0:0:0:
236,268,151827,1,8,0:0:0:0:
150,181,152327,1,0,0:0:0:0:
150,181,152494,1,8,0:0:0:0:
150,188,152827,1,8,0:0:0:0:
150,188,152994,1,0,0:0:0:0:
151,188,153161,1,8,0:0:0:0:
151,189,153494,1,0,0:0:0:0:
150,188,153661,1,0,0:0:0:0:
150,188,153827,1,8,0:0:0:0:
151,188,154327,1,8,0:0:0:0:
151,189,154494,1,0,0:0:0:0:
151,188,154994,1,8,0:0:0:0:
151,188,155161,1,0,0:0:0:0:
151,189,156494,1,8,0:0:0:0:
151,189,157161,1,8,0:0:0:0:
134,167,157494,1,8,0:0:0:0:
134,167,157827,1,0,0:0:0:0:
164,138,158161,1,0,0:0:0:0:
164,138,158494,1,8,0:0:0:0:
164,138,158827,1,8,0:0:0:0:
164,138,159161,1,8,0:0:0:0:
164,138,159494,1,0,0:0:0:0:
164,138,159827,1,8,0:0:0:0:
164,138,160161,1,8,0:0:0:0:
164,138,160327,1,8,0:0:0:0:
170,108,160494,1,0,0:0:0:0:
170,108,160827,1,0,0:0:0:0:
170,108,161161,1,8,0:0:0:0:
170,108,161327,1,0,0:0:0:0:
170,108,161494,1,8,0:0:0:0:
170,108,161827,1,0,0:0:0:0:
342,209,162161,1,0,0:0:0:0:
165,180,162327,1,0,0:0:0:0:
165,180,162494,1,8,0:0:0:0:
165,180,162827,1,8,0:0:0:0:
165,180,162994,1,0,0:0:0:0:
145,153,163161,1,8,0:0:0:0:
245,250,163494,1,0,0:0:0:0:
237,141,163661,1,8,0:0:0:0:
208,139,163828,1,8,0:0:0:0:
143,211,163994,1,8,0:0:0:0:
143,211,164161,1,0,0:0:0:0:
156,258,164327,1,8,0:0:0:0:
156,258,164494,1,0,0:0:0:0:
156,258,164827,1,8,0:0:0:0:
156,258,164994,1,0,0:0:0:0:
156,258,165161,1,8,0:0:0:0:
156,258,165327,1,8,0:0:0:0:
156,258,165494,1,0,0:0:0:0:
156,258,165827,1,8,0:0:0:0:
156,258,165994,1,0,0:0:0:0:
453,248,166161,1,0,0:0:0:0:
156,258,166327,1,8,0:0:0:0:
156,258,166494,1,8,0:0:0:0:
156,258,166661,1,0,0:0:0:0:
156,258,166827,1,0,0:0:0:0:
294,239,166994,1,8,0:0:0:0:
365,284,167161,1,4,0:0:0:0:
357,284,167328,1,8,0:0:0:0:
185,163,167494,1,0,0:0:0:0:
321,226,167578,1,8,0:0:0:0:
321,226,167661,1,0,0:0:0:0:
321,226,167744,1,0,0:0:0:0:
185,163,167827,1,8,0:0:0:0:
402,280,167994,1,0,0:0:0:0:
185,163,168161,1,8,0:0:0:0:
185,163,168327,1,0,0:0:0:0:
378,217,168494,1,0,0:0:0:0:
378,217,168578,1,8,0:0:0:0:
341,202,168661,1,0,0:0:0:0:
185,163,168827,1,8,0:0:0:0:
350,311,168994,1,0,0:0:0:0:
185,163,169161,1,8,0:0:0:0:
302,158,169244,1,0,0:0:0:0:
302,158,169328,1,8,0:0:0:0:
231,115,169494,1,0,0:0:0:0:
231,115,169661,1,8,0:0:0:0:
231,115,169744,1,8,0:0:0:0:
320,271,169827,1,0,0:0:0:0:
436,268,170161,1,0,0:0:0:0:
436,268,170328,1,0,0:0:0:0:
197,81,170494,1,8,0:0:0:0:
436,268,170661,1,0,0:0:0:0:
436,268,170828,1,0,0:0:0:0:
436,268,170994,1,0,0:0:0:0:
197,81,171161,1,8,0:0:0:0:
408,248,171328,1,0,0:0:0:0:
436,268,171494,1,0,0:0:0:0:
211,220,171661,1,0,0:0:0:0:
197,81,171827,1,8,0:0:0:0:
211,220,171994,1,0,0:0:0:0:
211,220,172161,1,8,0:0:0:0:
211,220,172328,1,8,0:0:0:0:
398,258,172494,1,0,0:0:0:0:
190,202,172828,1,0,0:0:0:0:
458,248,173161,1,8,0:0:0:0:
458,248,173494,1,8,0:0:0:0:
324,178,173828,1,8,0:0:0:0:
324,178,174161,1,8,0:0:0:0:
191,145,174494,1,0,0:0:0:0:
172,116,174828,1,8,0:0:0:0:
172,116,175161,1,8,0:0:0:0:
172,116,175494,1,8,0:0:0:0:
172,116,175828,1,0,0:0:0:0:
195,78,176161,1,0,0:0:0:0:
195,78,176328,1,8,0:0:0:0:
235,97,176494,1,0,0:0:0:0:
190,202,176828,1,8,0:0:0:0:
190,202,177494,1,0,0:0:0:0:
186,83,177828,1,8,0:0:0:0:
186,83,178161,1,8,0:0:0:0:
186,83,178494,1,8,0:0:0:0:
181,97,179161,1,8,0:0:0:0:
181,97,179828,1,8,0:0:0:0:
182,76,180328,1,0,0:0:0:0:
182,76,180494,1,8,0:0:0:0:
298,229,181161,1,0,0:0:0:0:
298,229,181494,1,8,0:0:0:0:
298,229,182161,1,8,0:0:0:0:
298,229,182661,1,8,0:0:0:0:
292,198,182828,1,0,0:0:0:0:
292,198,182994,1,8,0:0:0:0:
292,198,183161,1,8,0:0:0:0:
292,198,183494,1,0,0:0:0:0:
292,198,183828,1,8,0:0:0:0:
292,198,184161,1,8,0:0:0:0:
292,198,184328,1,0,0:0:0:0:
292,198,184494,1,8,0:0:0:0:
292,198,184828,1,0,0:0:0:0:
292,198,184994,1,0,0:0:0:0:
292,198,185161,1,8,0:0:0:0:
292,198,185494,1,8,0:0:0:0:
292,198,185661,1,8,0:0:0:0:
232,137,185828,1,0,0:0:0:0:
232,137,186161,1,0,0:0:0:0:
232,137,186328,1,0,0:0:0:0:
232,137,186494,1,8,0:0:0:0:
232,137,186661,1,0,0:0:0:0:
232,137,186828,1,8,0:0:0:0:
232,137,187161,1,8,0:0:0:0:
232,137,187328,1,8,0:0:0:0:
232,137,187494,1,0,0:0:0:0:
232,137,187661,1,0,0:0:0:0:
232,137,187828,1,8,0:0:0:0:
232,137,188161,1,8,0:0:0:0:
232,137,188244,1,8,0:0:0:0:
232,137,188328,1,8,0:0:0:0:
232,137,188494,1,0,0:0:0:0:
232,137,188828,1,8,0:0:0:0:
232,137,189161,1,8,0:0:0:0:
232,137,189494,1,8,0:0:0:0:
232,137,189661,1,0,0:0:0:0:
190,44,189828,1,8,0:0:0:0:
190,44,189994,1,8,0:0:0:0:
190,44,190161,1,0,0:0:0:0:
190,44,190328,1,0,0:0:0:0:
190,44,190494,1,8,0:0:0:0:
358,204,190828,1,8,0:0:0:0:
292,217,190994,1,8,0:0:0:0:
292,217,191161,1,0,0:0:0:0:
256,192,191494,12,0,192494,0:0:0:0:
180,110,193161,5,8,0:0:0:0:
180,110,193828,1,4,0:0:0:0:
282,203,194161,1,0,0:0:0:0:
282,203,194494,1,0,0:0:0:0:
357,137,194828,1,0,0:0:0:0:
357,137,194994,1,8,0:0:0:0:
276,189,195078,1,8,0:0:0:0:
357,137,195161,1,0,0:0:0:0:
276,189,195328,1,8,0:0:0:0:
362,298,195494,1,0,0:0:0:0:
362,298,195828,1,0,0:0:0:0:
317,148,195911,1,0,0:0:0:0:
362,298,195994,1,8,0:0:0:0:
362,298,196161,1,0,0:0:0:0:
317,148,196328,1,8,0:0:0:0:
299,102,196411,1,8,0:0:0:0:
362,298,196494,1,0,0:0:0:0:
274,272,196828,1,8,0:0:0:0:
274,272,196994,1,0,0:0:0:0:
204,132,197078,1,0,0:0:0:0:
274,272,197161,1,8,0:0:0:0:
175,209,197328,1,0,0:0:0:0:
326,153,197494,1,0,0:0:0:0:
175,209,197661,1,8,0:0:0:0:
365,73,197744,1,8,0:0:0:0:
365,73,197828,1,0,0:0:0:0:
368,263,198161,1,0,0:0:0:0:
368,263,198328,1,8,0:0:0:0:
286,257,198411,1,8,0:0:0:0:
253,268,198494,1,0,0:0:0:0:
253,268,198661,1,8,0:0:0:0:
253,268,198744,1,0,0:0:0:0:
253,268,198828,1,8,0:0:0:0:
253,268,198994,1,0,0:0:0:0:
194,187,199078,1,8,0:0:0:0:
194,187,199161,1,0,0:0:0:0:
219,195,199494,1,8,0:0:0:0:
219,195,199661,1,8,0:0:0:0:
219,195,199828,1,0,0:0:0:0:
219,195,199994,1,0,0:0:0:0:
219,195,200161,1,8,0:0:0:0:
219,195,200328,1,0,0:0:0:0:
204,125,200411,1,8,0:0:0:0:
204,125,200494,1,0,0:0:0:0:
204,125,200661,1,8,0:0:0:0:
204,125,200828,1,0,0:0:0:0:
204,125,201161,1,8,0:0:0:0:
160,88,201244,1,8,0:0:0:0:
204,125,201328,1,0,0:0:0:0:
204,125,201411,1,0,0:0:0:0:
204,125,201494,1,8,0:0:0:0:
160,88,201661,1,0,0:0:0:0:
160,88,201828,1,8,0:0:0:0:
160,88,201911,1,8,0:0:0:0:
160,88,201994,1,0,0:0:0:0:
186,257,202161,1,0,0:0:0:0:
212,137,202328,1,8,0:0:0:0:
212,137,202411,1,8,0:0:0:0:
183,128,202494,1,8,0:0:0:0:
183,128,202661,1,0,0:0:0:0:
183,128,202828,1,8,0:0:0:0:
195,98,202911,1,8,0:0:0:0:
195,98,202994,1,0,0:0:0:0:
195,98,203161,1,8,0:0:0:0:
195,98,203244,1,8,0:0:0:0:
195,98,203328,1,0,0:0:0:0:
195,98,203411,1,0,0:0:0:0:
195,98,203494,1,8,0:0:0:0:
195,98,203661,1,0,0:0:0:0:
195,98,203744,1,0,0:0:0:0:
195,98,203828,1,8,0:0:0:0:
201,107,204161,1,8,0:0:0:0:
201,107,204244,1,8,0:0:0:0:
201,107,204328,1,8,0:0:0:0:
201,107,204411,1,8,0:0:0:0:
190,102,204494,1,0,0:0:0:0:
190,102,204661,1,0,0:0:0:0:
190,102,204828,1,8,0:0:0:0:
190,102,204994,1,0,0:0:0:0:
190,102,205078,1,0,0:0:0:0:
190,102,205161,1,8,0:0:0:0:
148,99,205328,1,0,0:0:0:0:
326,229,205494,1,8,0:0:0:0:
326,229,205578,1,8,0:0:0:0:
326,229,205661,1,0,0:0:0:0:
297,172,205828,1,8,0:0:0:0:
297,172,205994,1,0,0:0:0:0:
297,172,206328,1,0,0:0:0:0:
297,172,206494,1,8,0:0:0:0:
297,172,206661,1,0,0:0:0:0:
297,172,206744,1,0,0:0:0:0:
297,172,206828,1,8,0:0:0:0:
208,104,206994,1,8,0:0:0:0:
208,104,207078,1,8,0:0:0:0:
208,104,207161,1,0,0:0:0:0:
189,95,207328,1,0,0:0:0:0:
260,81,207494,1,8,0:0:0:0:
260,81,207661,1,0,0:0:0:0:
260,81,207828,1,8,0:0:0:0:
260,81,207911,1,8,0:0:0:0:
260,81,207994,1,0,0:0:0:0:
260,81,208161,1,8,0:0:0:0:
260,81,208328,1,0,0:0:0:0:
260,81,208661,1,0,0:0:0:0:
260,81,208828,1,8,0:0:0:0:
260,81,208911,1,8,0:0:0:0:
260,81,208994,1,0,0:0:0:0:
260,81,209078,1,0,0:0:0:0:
260,81,209161,1,8,0:0:0:0:
220,72,209328,1,0,0:0:0:0:
220,72,209411,1,0,0:0:0:0:
220,72,209494,1,8,0:0:0:0:
220,72,209661,1,8,0:0:0:0:
220,72,209744,1,8,0:0:0:0:
220,72,209828,1,0,0:0:0:0:
204,98,209994,1,8,0:0:0:0:
204,98,210161,1,0,0:0:0:0:
204,98,210328,1,8,0:0:0:0:
204,98,210411,1,8,0:0:0:0:
204,98,210494,1,8,0:0:0:0:
204,98,210661,1,0,0:0:0:0:
204,98,210828,1,8,0:0:0:0:
204,98,210994,1,8,0:0:0:0:
204,98,211078,1,8,0:0:0:0:
204,98,211161,1,0,0:0:0:0:
250,122,211328,1,8,0:0:0:0:
250,122,211661,1,0,0:0:0:0:
221,72,211828,1,8,0:0:0:0:
215,78,211994,1,0,0:0:0:0:
215,78,212161,1,8,0:0:0:0:
201,61,212244,1,8,0:0:0:0:
201,63,212328,1,8,0:0:0:0:
201,63,212411,1,8,0:0:0:0:
201,63,212494,1,0,0:0:0:0:
201,63,212661,1,0,0:0:0:0:
201,63,212828,1,8,0:0:0:0:
201,63,212994,1,0,0:0:0:0:
201,63,213078,1,0,0:0:0:0:
201,63,213161,1,8,0:0:0:0:
201,63,213328,1,0,0:0:0:0:
201,63,213411,1,0,0:0:0:0:
201,63,213494,1,8,0:0:0:0:
192,55,213578,1,8,0:0:0:0:
192,55,213661,1,0,0:0:0:0:
337,295,213828,1,8,0:0:0:0:
182,60,213994,1,0,0:0:0:0:
181,63,214161,1,8,0:0:0:0:
181,63,214244,1,8,0:0:0:0:
183,63,214328,1,0,0:0:0:0:
183,63,214494,1,8,0:0:0:0:
277,134,215161,1,4,0:0:0:0:
159,222,215328,1,0,0:0:0:0:
159,222,215494,1,8,0:0:0:0:
159,222,215578,1,8,0:0:0:0:
159,222,215661,1,0,0:0:0:0:
175,184,215744,1,0,0:0:0:0:
175,184,215828,1,8,0:0:0:0:
175,184,215994,1,0,0:0:0:0:
175,184,216161,1,8,0:0:0:0:
211,234,216328,1,0,0:0:0:0:
211,234,216661,1,0,0:0:0:0:
211,234,216828,1,8,0:0:0:0:
211,234,216994,1,0,0:0:0:0:
211,234,217078,1,0,0:0:0:0:
211,234,217161,1,8,0:0:0:0:
221,188,217328,1,0,0:0:0:0:
221,188,217411,1,0,0:0:0:0:
229,175,217494,1,8,0:0:0:0:
229,175,217661,1,8,0:0:0:0:
359,247,217744,1,8,0:0:0:0:
132,130,217828,1,0,0:0:0:0:
288,158,217994,1,0,0:0:0:0:
256,215,218161,1,8,0:0:0:0:
256,215,218244,1,8,0:0:0:0:
256,215,218328,1,0,0:0:0:0:
241,204,218494,1,8,0:0:0:0:
244,126,218661,1,0,0:0:0:0:
244,126,218744,1,0,0:0:0:0:
214,117,218828,1,8,0:0:0:0:
325,288,218911,1,8,0:0:0:0:
214,117,218994,1,0,0:0:0:0:
186,70,219328,1,0,0:0:0:0:
249,193,219411,1,0,0:0:0:0:
186,70,219494,1,8,0:0:0:0:
157,62,219661,1,0,0:0:0:0:
209,62,219828,1,8,0:0:0:0:
209,62,219994,1,0,0:0:0:0:
209,62,220161,1,8,0:0:0:0:
349,280,220244,1,0,0:0:0:0:
209,62,220328,1,8,0:0:0:0:
209,62,220411,1,8,0:0:0:0:
209,62,220494,1,0,0:0:0:0:
229,138,220661,1,0,0:0:0:0:
297,283,220828,1,8,0:0:0:0:
297,283,220911,1,8,0:0:0:0:
297,283,220994,1,0,0:0:0:0:
297,283,221078,1,0,0:0:0:0:
297,283,221161,1,8,0:0:0:0:
297,283,221328,1,0,0:0:0:0:
228,97,221494,1,8,0:0:0:0:
166,230,221578,1,8,0:0:0:0:
228,97,221661,1,0,0:0:0:0:
214,80,221994,1,0,0:0:0:0:
214,80,222161,1,8,0:0:0:0:
214,80,222328,1,0,0:0:0:0:
214,80,222411,1,0,0:0:0:0:
214,80,222494,1,8,0:0:0:0:
214,80,222661,1,0,0:0:0:0:
461,228,222828,1,8,0:0:0:0:
368,213,222911,1,0,0:0:0:0:
368,213,222994,1,8,0:0:0:0:
368,213,223078,1,8,0:0:0:0:
368,213,223161,1,0,0:0:0:0:
292,253,223328,1,0,0:0:0:0:
350,244,223494,1,8,0:0:0:0:
117,193,223578,1,8,0:0:0:0:
117,193,223661,1,0,0:0:0:0:
117,193,223828,1,8,0:0:0:0:
117,193,223911,1,8,0:0:0:0:
117,193,223994,1,0,0:0:0:0:
199,203,224078,1,0,0:0:0:0:
173,164,224161,1,8,0:0:0:0:
173,164,224328,1,0,0:0:0:0:
170,153,224661,1,0,0:0:0:0:
207,219,224828,1,8,0:0:0:0:
202,186,224911,1,8,0:0:0:0:
183,157,224994,1,0,0:0:0:0:
202,186,225078,1,0,0:0:0:0:
183,157,225161,1,8,0:0:0:0:
183,157,225328,1,0,0:0:0:0:
183,157,225494,1,8,0:0:0:0:
183,157,225578,1,8,0:0:0:0:
181,162,225661,1,8,0:0:0:0:
181,162,225744,1,8,0:0:0:0:
277,134,225828,1,4,0:0:0:0:
159,222,226161,1,8,0:0:0:0:
159,222,226245,1,8,0:0:0:0:
159,222,226328,1,0,0:0:0:0:
175,184,226411,1,0,0:0:0:0:
175,184,226495,1,8,0:0:0:0:
175,184,226661,1,0,0:0:0:0:
175,184,226828,1,8,0:0:0:0:
282,146,226911,1,8,0:0:0:0:
211,234,226995,1,0,0:0:0:0:
211,234,227328,1,0,0:0:0:0:
211,234,227495,1,8,0:0:0:0:
211,234,227661,1,0,0:0:0:0:
211,234,227745,1,0,0:0:0:0:
211,234,227828,1,8,0:0:0:0:
340,170,227911,1,8,0:0:0:0:
221,188,227995,1,0,0:0:0:0:
229,175,228161,1,8,0:0:0:0:
229,175,228328,1,8,0:0:0:0:
282,146,228411,1,8,0:0:0:0:
132,130,228495,1,0,0:0:0:0:
217,74,228578,1,8,0:0:0:0:
288,158,228661,1,0,0:0:0:0:
256,215,228828,1,8,0:0:0:0:
256,215,228911,1,8,0:0:0:0:
256,215,228995,1,0,0:0:0:0:
241,204,229161,1,8,0:0:0:0:
244,126,229328,1,0,0:0:0:0:
244,126,229411,1,0,0:0:0:0:
214,117,229495,1,8,0:0:0:0:
214,117,229661,1,0,0:0:0:0:
383,268,229994,1,0,0:0:0:0:
383,268,230161,1,8,0:0:0:0:
383,268,230244,1,8,0:0:0:0:
383,268,230328,1,0,0:0:0:0:
291,201,230494,1,8,0:0:0:0:
291,201,230661,1,0,0:0:0:0:
291,201,230744,1,0,0:0:0:0:
291,201,230828,1,8,0:0:0:0:
291,201,230994,1,8,0:0:0:0:
205,162,231078,1,8,0:0:0:0:
291,201,231161,1,0,0:0:0:0:
291,201,231244,1,8,0:0:0:0:
291,201,231328,1,0,0:0:0:0:
291,201,231494,1,8,0:0:0:0:
237,174,231661,1,0,0:0:0:0:
250,53,231744,1,0,0:0:0:0:
237,174,231828,1,8,0:0:0:0:
254,117,231994,1,0,0:0:0:0:
254,117,232161,1,8,0:0:0:0:
175,90,232244,1,8,0:0:0:0:
175,90,232328,1,0,0:0:0:0:
243,69,232661,1,0,0:0:0:0:
210,60,232828,1,8,0:0:0:0:
190,39,232911,1,8,0:0:0:0:
155,55,232994,1,0,0:0:0:0:
190,39,233161,1,8,0:0:0:0:
190,39,233328,1,0,0:0:0:0:
189,53,233411,1,0,0:0:0:0:
189,53,233494,1,8,0:0:0:0:
189,53,233661,1,8,0:0:0:0:
271,80,233744,1,8,0:0:0:0:
166,46,233828,1,0,0:0:0:0:
202,48,233911,1,8,0:0:0:0:
201,55,233994,1,0,0:0:0:0:
199,61,234161,1,8,0:0:0:0:
199,61,234328,1,0,0:0:0:0:
199,61,234411,1,0,0:0:0:0:
199,61,234494,1,8,0:0:0:0:
188,61,234661,1,0,0:0:0:0:
188,60,234744,1,0,0:0:0:0:
188,61,234828,1,8,0:0:0:0:
188,61,234911,1,8,0:0:0:0:
188,61,234994,1,0,0:0:0:0:
415,87,235161,1,8,0:0:0:0:
415,87,235328,1,0,0:0:0:0:
415,87,235494,1,8,0:0:0:0:
268,60,235578,1,8,0:0:0:0:
415,87,235661,1,0,0:0:0:0:
415,87,235828,1,8,0:0:0:0:
386,146,235939,1,8,0:0:0:0:
386,146,236050,1,0,0:0:0:0:
386,146,236161,1,0,0:0:0:0:
386,146,236272,1,8,0:0:0:0:
386,146,236383,1,8,0:0:0:0:
386,146,236494,1,4,0:0:0:0:
256,192,236828,12,0,241161,0:0:0:0:
