osu file format v14

[General]
AudioFilename: audio.mp3
AudioLeadIn: 0
PreviewTime: 22288
Countdown: 0
SampleSet: Normal
StackLeniency: 0.7
Mode: 1
LetterboxInBreaks: 0
WidescreenStoryboard: 1

[Editor]
DistanceSpacing: 0.3
BeatDivisor: 2
GridSize: 32
TimelineZoom: 1.4

[Metadata]
Title:kageokuri feat. MuryokuP
TitleUnicode:kageokuri feat. 無力P
Artist:rest or stay?
ArtistUnicode:rest or stay?
Creator:op45667
Version:futsuu
Source:
Tags:rock vocaloid gumi japanese powerless sounds megpoid jrock g.k hwaken music have a nice day records HNDR HNDRecords j-rock muryoku-p HNDC-00001 1st first album worlds
BeatmapID:3543101
BeatmapSetID:1729989

[Difficulty]
HPDrainRate:7
CircleSize:5
OverallDifficulty:4
ApproachRate:5
SliderMultiplier:1.4
SliderTickRate:1

[Events]
//Background and Video events
0,0,"BG5.jpg",0,90
//Break Periods
//Storyboard Layer 0 (Background)
//Storyboard Layer 1 (Fail)
//Storyboard Layer 2 (Pass)
//Storyboard Layer 3 (Foreground)
//Storyboard Layer 4 (Overlay)
//Storyboard Sound Samples

[TimingPoints]
495,333.333333333333,4,1,0,60,1,8
1161,-133.333333333333,4,1,0,60,0,0
11828,-131.578947368421,4,1,0,60,0,0
11994,-129.87012987013,4,1,0,60,0,0
12161,-128.205128205128,4,1,0,60,0,0
12328,-126.582278481013,4,1,0,60,0,0
12494,-125,4,1,0,60,0,0
22494,-117.647058823529,4,1,0,90,0,0
23161,-111.111111111111,4,1,0,90,0,1
43161,-113.636363636364,4,1,0,90,0,1
43328,-114.942528735632,4,1,0,90,0,1
43494,-116.279069767442,4,1,0,90,0,1
43828,-117.647058823529,4,1,0,90,0,0
43994,-121.951219512195,4,1,0,90,0,0
44161,-125,4,1,0,70,0,0
44328,-129.87012987013,4,1,0,70,0,0
44494,-133.333333333333,4,1,0,60,0,0
65494,-138.888888888889,4,1,0,60,0,0
65661,-140.845070422535,4,1,0,60,0,0
65828,-142.857142857143,4,1,0,60,0,0
76494,-133.333333333333,4,1,0,70,0,0
82494,-125,4,1,0,80,0,0
87161,-111.111111111111,4,1,0,90,0,1
107828,-111.111111111111,4,1,0,70,0,0
108494,-105.263157894737,4,1,0,90,0,1
129161,-107.52688172043,4,1,0,90,0,1
129328,-109.89010989011,4,1,0,90,0,1
129494,-112.359550561798,4,1,0,90,0,1
129661,-114.942528735632,4,1,0,90,0,1
129828,-117.647058823529,4,1,0,90,0,0
149994,-119.047619047619,4,1,0,90,0,0
150161,-120.481927710843,4,1,0,90,0,0
150494,-123.456790123457,4,1,0,90,0,0
150825,-126.582278481013,4,1,0,90,0,0
150992,-129.87012987013,4,1,0,90,0,0
151161,-133.333333333333,4,1,0,70,0,0
161827,-125,4,1,0,80,0,0
167161,-117.647058823529,4,1,0,90,0,0
170494,-121.951219512195,4,1,0,90,0,0
170828,-125,4,1,0,90,0,0
170994,-126.582278481013,4,1,0,90,0,0
171161,-128.205128205128,4,1,0,90,0,0
171494,-131.578947368421,4,1,0,90,0,0
171661,-133.333333333333,4,1,0,90,0,0
171827,-135.135135135135,4,1,0,90,0,0
171994,-136.986301369863,4,1,0,90,0,0
172161,-138.888888888889,4,1,0,90,0,0
172328,-140.845070422535,4,1,0,90,0,0
172494,-142.857142857143,4,1,0,60,0,0
193161,-125,4,1,0,90,0,0
193828,-117.647058823529,4,1,0,90,0,1
203494,-116.279069767442,4,1,0,90,0,1
203661,-114.942528735632,4,1,0,90,0,1
203828,-113.636363636364,4,1,0,90,0,1
203994,-112.359550561798,4,1,0,90,0,1
204161,-111.111111111111,4,1,0,90,0,1
214494,-111.111111111111,4,1,0,80,0,0
215161,-105.263157894737,4,1,0,90,0,1
235828,-105.263157894737,4,1,0,90,0,0
236494,-105.263157894737,4,1,0,90,0,0
236828,-105.263157894737,4,1,0,70,0,0

[HitObjects]
123,91,1161,5,0,0:0:0:0:
434,315,1828,1,8,0:0:0:0:
334,282,2828,1,8,0:0:0:0:
334,282,2994,1,0,0:0:0:0:
334,282,3494,1,8,0:0:0:0:
334,282,3828,1,8,0:0:0:0:
161,298,4161,1,0,0:0:0:0:
161,298,4328,1,8,0:0:0:0:
161,298,4494,1,8,0:0:0:0:
203,172,4994,1,0,0:0:0:0:
203,172,5494,1,8,0:0:0:0:
379,324,5828,1,8,0:0:0:0:
226,276,6494,1,8,0:0:0:0:
226,276,6828,1,0,0:0:0:0:
387,196,7161,1,8,0:0:0:0:
171,208,7828,1,0,0:0:0:0:
171,208,8161,1,8,0:0:0:0:
171,208,8328,1,8,0:0:0:0:
171,208,8828,1,0,0:0:0:0:
171,208,9161,1,8,0:0:0:0:
171,208,9494,1,0,0:0:0:0:
171,208,9661,1,8,0:0:0:0:
171,208,9828,1,8,0:0:0:0:
212,117,10328,1,8,0:0:0:0:
234,91,10828,1,8,0:0:0:0:
85,182,11161,1,8,0:0:0:0:
85,182,11328,1,8,0:0:0:0:
85,182,11495,1,0,0:0:0:0:
192,172,11828,1,8,0:0:0:0:
190,121,12161,1,0,0:0:0:0:
190,121,12494,1,8,0:0:0:0:
270,306,13161,1,8,0:0:0:0:
170,194,13494,1,0,0:0:0:0:
270,306,13661,1,0,0:0:0:0:
170,194,14161,1,0,0:0:0:0:
170,194,14494,1,8,0:0:0:0:
170,194,14828,1,0,0:0:0:0:
170,194,14994,1,8,0:0:0:0:
170,194,15161,1,0,0:0:0:0:
170,194,15494,1,0,0:0:0:0:
170,194,15661,1,0,0:0:0:0:
142,146,15828,1,8,0:0:0:0:
142,146,16161,1,0,0:0:0:0:
174,148,16494,1,8,0:0:0:0:
174,148,16661,1,8,0:0:0:0:
174,148,16828,1,0,0:0:0:0:
202,140,17161,1,8,0:0:0:0:
145,117,17494,1,8,0:0:0:0:
145,117,17828,1,0,0:0:0:0:
219,142,18494,1,8,0:0:0:0:
228,284,18828,1,8,0:0:0:0:
228,284,18994,1,8,0:0:0:0:
228,284,19494,1,0,0:0:0:0:
190,200,19661,1,0,0:0:0:0:
190,200,19828,1,8,0:0:0:0:
190,200,20161,1,8,0:0:0:0:
190,200,20328,1,8,0:0:0:0:
190,200,20494,1,0,0:0:0:0:
256,192,20828,12,0,22161,0:0:0:0:
277,134,22494,5,8,0:0:0:0:
277,134,23161,1,4,0:0:0:0:
159,222,23494,1,8,0:0:0:0:
159,222,23661,1,0,0:0:0:0:
175,184,23828,1,8,0:0:0:0:
175,184,24161,1,8,0:0:0:0:
211,234,24328,1,0,0:0:0:0:
452,291,24661,1,0,0:0:0:0:
452,291,24828,1,8,0:0:0:0:
211,234,24994,1,0,0:0:0:0:
211,234,25161,1,8,0:0:0:0:
229,175,25494,1,8,0:0:0:0:
132,130,25828,1,0,0:0:0:0:
241,204,26494,1,8,0:0:0:0:
244,126,26661,1,0,0:0:0:0:
214,117,26828,1,8,0:0:0:0:
214,117,26994,1,0,0:0:0:0:
186,70,27328,1,0,0:0:0:0:
157,62,27661,1,0,0:0:0:0:
209,62,27828,1,8,0:0:0:0:
209,62,28161,1,8,0:0:0:0:
209,62,28494,1,0,0:0:0:0:
297,283,29161,1,8,0:0:0:0:
297,283,29328,1,0,0:0:0:0:
228,97,29494,1,8,0:0:0:0:
277,108,29661,1,0,0:0:0:0:
214,80,29994,1,0,0:0:0:0:
299,88,30161,1,0,0:0:0:0:
214,80,30494,1,8,0:0:0:0:
214,80,30661,1,0,0:0:0:0:
305,64,30828,1,8,0:0:0:0:
292,253,31161,1,0,0:0:0:0:
350,244,31494,1,8,0:0:0:0:
117,193,31661,1,0,0:0:0:0:
117,193,31828,1,8,0:0:0:0:
173,164,32161,1,8,0:0:0:0:
173,164,32328,1,0,0:0:0:0:
170,153,32661,1,0,0:0:0:0:
183,157,32994,1,8,0:0:0:0:
183,157,33161,1,8,0:0:0:0:
260,97,33494,1,8,0:0:0:0:
260,97,33661,1,8,0:0:0:0:
277,134,33828,1,4,0:0:0:0:
175,184,34495,1,8,0:0:0:0:
175,184,34661,1,0,0:0:0:0:
175,184,34828,1,8,0:0:0:0:
214,95,34994,1,0,0:0:0:0:
211,234,35328,1,0,0:0:0:0:
211,234,35661,1,0,0:0:0:0:
211,234,35828,1,8,0:0:0:0:
229,175,36161,1,8,0:0:0:0:
132,130,36495,1,0,0:0:0:0:
241,204,37161,1,8,0:0:0:0:
244,126,37328,1,8,0:0:0:0:
214,117,37495,1,8,0:0:0:0:
214,117,37661,1,0,0:0:0:0:
383,268,37994,1,0,0:0:0:0:
288,124,38328,1,0,0:0:0:0:
291,201,38494,1,8,0:0:0:0:
291,201,38828,1,8,0:0:0:0:
291,201,39161,1,0,0:0:0:0:
237,174,39828,1,8,0:0:0:0:
254,117,39994,1,0,0:0:0:0:
254,117,40161,1,8,0:0:0:0:
327,104,40328,1,8,0:0:0:0:
243,69,40661,1,0,0:0:0:0:
155,55,40994,1,0,0:0:0:0:
190,39,41161,1,8,0:0:0:0:
189,53,41494,1,8,0:0:0:0:
166,46,41828,1,0,0:0:0:0:
319,80,41994,1,0,0:0:0:0:
199,61,42161,1,8,0:0:0:0:
210,60,42494,1,8,0:0:0:0:
188,61,42661,1,0,0:0:0:0:
188,61,42828,1,0,0:0:0:0:
415,87,43161,1,8,0:0:0:0:
415,87,43328,1,0,0:0:0:0:
415,87,43494,1,8,0:0:0:0:
415,87,43828,1,8,0:0:0:0:
386,146,44494,1,4,0:0:0:0:
239,158,45161,1,8,0:0:0:0:
239,127,45494,1,0,0:0:0:0:
239,127,45661,1,8,0:0:0:0:
291,192,46161,1,0,0:0:0:0:
291,192,46328,1,0,0:0:0:0:
291,192,46494,1,8,0:0:0:0:
291,192,46828,1,8,0:0:0:0:
291,192,46994,1,8,0:0:0:0:
199,152,47161,1,0,0:0:0:0:
199,152,47494,1,0,0:0:0:0:
199,152,47828,1,8,0:0:0:0:
210,145,48494,1,8,0:0:0:0:
152,93,48661,1,8,0:0:0:0:
152,93,48994,1,0,0:0:0:0:
152,93,49161,1,8,0:0:0:0:
152,93,49494,1,0,0:0:0:0:
171,68,49828,1,8,0:0:0:0:
171,68,50494,1,0,0:0:0:0:
139,58,50828,1,8,0:0:0:0:
139,58,50994,1,8,0:0:0:0:
221,44,51328,1,8,0:0:0:0:
221,44,51494,1,0,0:0:0:0:
221,44,51828,1,8,0:0:0:0:
185,46,52161,1,8,0:0:0:0:
185,46,52328,1,8,0:0:0:0:
261,93,52494,1,0,0:0:0:0:
205,238,53161,1,8,0:0:0:0:
165,85,53494,1,0,0:0:0:0:
265,113,53661,1,8,0:0:0:0:
165,85,53994,1,8,0:0:0:0:
185,58,54161,1,0,0:0:0:0:
185,58,54494,1,8,0:0:0:0:
188,51,55161,1,8,0:0:0:0:
188,51,55494,1,0,0:0:0:0:
188,51,55828,1,8,0:0:0:0:
188,51,56161,1,0,0:0:0:0:
205,238,56328,1,0,0:0:0:0:
136,51,56494,1,8,0:0:0:0:
136,51,57161,1,8,0:0:0:0:
136,51,57494,1,8,0:0:0:0:
136,51,57828,1,8,0:0:0:0:
336,185,57994,1,0,0:0:0:0:
182,42,58328,1,8,0:0:0:0:
182,42,58494,1,8,0:0:0:0:
182,42,58828,1,8,0:0:0:0:
182,42,58994,1,0,0:0:0:0:
182,42,59161,1,8,0:0:0:0:
182,42,59494,1,0,0:0:0:0:
182,42,59828,1,8,0:0:0:0:
182,42,60161,1,8,0:0:0:0:
182,42,60494,1,0,0:0:0:0:
160,23,60828,1,8,0:0:0:0:
321,243,60994,1,8,0:0:0:0:
160,23,61661,1,0,0:0:0:0:
160,23,61994,1,8,0:0:0:0:
160,23,62161,1,8,0:0:0:0:
188,55,62494,1,8,0:0:0:0:
188,55,62661,1,0,0:0:0:0:
187,46,62828,1,8,0:0:0:0:
187,46,63161,1,0,0:0:0:0:
215,174,63494,1,0,0:0:0:0:
190,140,63828,1,8,0:0:0:0:
190,140,64161,1,8,0:0:0:0:
186,117,64494,1,8,0:0:0:0:
186,117,64661,1,8,0:0:0:0:
186,117,64828,1,0,0:0:0:0:
186,117,65161,1,8,0:0:0:0:
186,117,65494,1,0,0:0:0:0:
186,117,65661,1,8,0:0:0:0:
183,98,65828,1,4,0:0:0:0:
236,268,66494,1,8,0:0:0:0:
150,181,67161,1,8,0:0:0:0:
150,188,67661,1,0,0:0:0:0:
151,188,67828,1,8,0:0:0:0:
151,189,68161,1,0,0:0:0:0:
150,188,68328,1,0,0:0:0:0:
150,188,68494,1,8,0:0:0:0:
151,188,68994,1,8,0:0:0:0:
151,189,69161,1,0,0:0:0:0:
151,188,69661,1,8,0:0:0:0:
151,188,69828,1,0,0:0:0:0:
151,189,71161,1,8,0:0:0:0:
151,189,71828,1,8,0:0:0:0:
262,151,72161,1,0,0:0:0:0:
134,167,72494,1,8,0:0:0:0:
164,138,73161,1,8,0:0:0:0:
164,138,73494,1,0,0:0:0:0:
164,138,73828,1,8,0:0:0:0:
164,138,74161,1,0,0:0:0:0:
164,138,74494,1,8,0:0:0:0:
164,138,74828,1,8,0:0:0:0:
164,138,74994,1,8,0:0:0:0:
170,108,75161,1,0,0:0:0:0:
170,108,76494,1,4,0:0:0:0:
165,180,77161,1,8,0:0:0:0:
217,82,77494,1,0,0:0:0:0:
145,153,77828,1,8,0:0:0:0:
245,250,78161,1,0,0:0:0:0:
245,250,78494,1,8,0:0:0:0:
143,211,78828,1,0,0:0:0:0:
227,122,78994,1,8,0:0:0:0:
156,258,79161,1,0,0:0:0:0:
156,258,79494,1,8,0:0:0:0:
156,258,79828,1,8,0:0:0:0:
156,258,80161,1,0,0:0:0:0:
156,258,80494,1,8,0:0:0:0:
156,258,80661,1,0,0:0:0:0:
156,258,80828,1,8,0:0:0:0:
156,258,81161,1,8,0:0:0:0:
156,258,81494,1,0,0:0:0:0:
294,239,81828,1,8,0:0:0:0:
185,163,82494,1,8,0:0:0:0:
185,163,82828,1,8,0:0:0:0:
185,163,82994,1,0,0:0:0:0:
185,163,83161,1,8,0:0:0:0:
185,163,83494,1,0,0:0:0:0:
185,163,83828,1,8,0:0:0:0:
336,274,84161,1,8,0:0:0:0:
320,271,84494,1,8,0:0:0:0:
197,81,85161,1,8,0:0:0:0:
197,81,85828,1,8,0:0:0:0:
278,269,86328,1,0,0:0:0:0:
197,81,86494,1,8,0:0:0:0:
398,258,87161,1,4,0:0:0:0:
250,198,87494,1,8,0:0:0:0:
230,210,87661,1,0,0:0:0:0:
230,210,87828,1,8,0:0:0:0:
310,269,88161,1,8,0:0:0:0:
302,271,88328,1,0,0:0:0:0:
302,271,88661,1,0,0:0:0:0:
302,271,88994,1,0,0:0:0:0:
302,271,89161,1,8,0:0:0:0:
302,271,89328,1,0,0:0:0:0:
302,271,89494,1,8,0:0:0:0:
302,271,89828,1,0,0:0:0:0:
270,151,89994,1,0,0:0:0:0:
302,271,90328,1,0,0:0:0:0:
302,271,90494,1,8,0:0:0:0:
317,99,90661,1,0,0:0:0:0:
302,271,90994,1,0,0:0:0:0:
212,70,91328,1,0,0:0:0:0:
152,138,91494,1,8,0:0:0:0:
240,237,91828,1,8,0:0:0:0:
240,237,92161,1,8,0:0:0:0:
293,216,92328,1,8,0:0:0:0:
293,216,92494,1,0,0:0:0:0:
239,175,93161,1,8,0:0:0:0:
239,175,93328,1,0,0:0:0:0:
239,175,93661,1,0,0:0:0:0:
242,121,93828,1,8,0:0:0:0:
239,175,93994,1,0,0:0:0:0:
239,175,94328,1,0,0:0:0:0:
239,175,94494,1,8,0:0:0:0:
232,71,94661,1,0,0:0:0:0:
239,175,94828,1,8,0:0:0:0:
185,38,95161,1,0,0:0:0:0:
239,175,95328,1,0,0:0:0:0:
185,38,95661,1,0,0:0:0:0:
205,75,95828,1,8,0:0:0:0:
232,71,96161,1,8,0:0:0:0:
239,175,96328,1,0,0:0:0:0:
239,175,96661,1,0,0:0:0:0:
232,71,96828,1,8,0:0:0:0:
239,175,96994,1,0,0:0:0:0:
239,175,97161,1,8,0:0:0:0:
239,175,97494,1,8,0:0:0:0:
239,175,97661,1,8,0:0:0:0:
233,153,97828,1,0,0:0:0:0:
233,153,98494,1,8,0:0:0:0:
239,175,98661,1,0,0:0:0:0:
239,172,98994,1,0,0:0:0:0:
239,172,99328,1,0,0:0:0:0:
197,70,99494,1,8,0:0:0:0:
239,172,99828,1,8,0:0:0:0:
239,172,99994,1,0,0:0:0:0:
239,172,100161,1,8,0:0:0:0:
239,175,100494,1,0,0:0:0:0:
239,175,100661,1,0,0:0:0:0:
239,175,100994,1,0,0:0:0:0:
239,175,101161,1,8,0:0:0:0:
281,125,101328,1,0,0:0:0:0:
221,124,101494,1,8,0:0:0:0:
239,175,101994,1,0,0:0:0:0:
240,101,102161,1,8,0:0:0:0:
239,175,102327,1,0,0:0:0:0:
239,175,102494,1,8,0:0:0:0:
239,175,102827,1,8,0:0:0:0:
207,44,102994,1,0,0:0:0:0:
233,153,103161,1,0,0:0:0:0:
233,153,103827,1,8,0:0:0:0:
239,175,103994,1,0,0:0:0:0:
239,172,104327,1,0,0:0:0:0:
184,73,104494,1,8,0:0:0:0:
239,172,104661,1,0,0:0:0:0:
239,175,104994,1,0,0:0:0:0:
239,172,105161,1,8,0:0:0:0:
239,172,105494,1,8,0:0:0:0:
239,172,105661,1,8,0:0:0:0:
236,58,105828,1,0,0:0:0:0:
385,208,106161,1,8,0:0:0:0:
205,18,106328,1,0,0:0:0:0:
359,213,106494,1,8,0:0:0:0:
206,131,106828,1,8,0:0:0:0:
359,213,106994,1,0,0:0:0:0:
206,131,107328,1,0,0:0:0:0:
206,131,107494,1,8,0:0:0:0:
206,131,107661,1,0,0:0:0:0:
206,131,107828,1,8,0:0:0:0:
406,124,108494,1,4,0:0:0:0:
317,228,108828,1,8,0:0:0:0:
277,198,109161,1,8,0:0:0:0:
248,109,109328,1,0,0:0:0:0:
275,135,109661,1,0,0:0:0:0:
269,206,109994,1,0,0:0:0:0:
269,206,110161,1,8,0:0:0:0:
269,206,110328,1,8,0:0:0:0:
260,138,110661,1,0,0:0:0:0:
194,102,110828,1,8,0:0:0:0:
194,102,110994,1,8,0:0:0:0:
194,102,111161,1,0,0:0:0:0:
249,139,111494,1,8,0:0:0:0:
249,139,111661,1,0,0:0:0:0:
226,104,111828,1,8,0:0:0:0:
226,104,112161,1,8,0:0:0:0:
226,104,112328,1,0,0:0:0:0:
295,170,112661,1,0,0:0:0:0:
357,169,112828,1,8,0:0:0:0:
357,169,112994,1,0,0:0:0:0:
357,169,113161,1,8,0:0:0:0:
357,169,113494,1,0,0:0:0:0:
304,151,113661,1,8,0:0:0:0:
304,151,113828,1,0,0:0:0:0:
337,138,114494,1,8,0:0:0:0:
197,200,114661,1,0,0:0:0:0:
197,200,114828,1,8,0:0:0:0:
197,200,115161,1,0,0:0:0:0:
278,155,115328,1,0,0:0:0:0:
217,182,115661,1,0,0:0:0:0:
289,79,115828,1,8,0:0:0:0:
217,182,115994,1,0,0:0:0:0:
273,220,116161,1,8,0:0:0:0:
273,220,116494,1,0,0:0:0:0:
168,84,116828,1,0,0:0:0:0:
232,201,116994,1,8,0:0:0:0:
142,190,117328,1,0,0:0:0:0:
142,190,117494,1,8,0:0:0:0:
312,131,117828,1,8,0:0:0:0:
132,222,118161,1,8,0:0:0:0:
132,222,118328,1,8,0:0:0:0:
237,76,118494,1,0,0:0:0:0:
194,206,118661,1,8,0:0:0:0:
170,193,118994,1,0,0:0:0:0:
253,176,119161,1,0,0:0:0:0:
394,215,119828,1,8,0:0:0:0:
394,215,120161,1,8,0:0:0:0:
199,126,120328,1,0,0:0:0:0:
218,115,120661,1,0,0:0:0:0:
218,115,120828,1,8,0:0:0:0:
293,95,121161,1,8,0:0:0:0:
300,80,121328,1,0,0:0:0:0:
232,117,121494,1,8,0:0:0:0:
336,229,121828,1,0,0:0:0:0:
175,151,122161,1,8,0:0:0:0:
175,151,122328,1,0,0:0:0:0:
175,151,122494,1,8,0:0:0:0:
371,153,122828,1,8,0:0:0:0:
230,158,122994,1,0,0:0:0:0:
330,112,123161,1,8,0:0:0:0:
224,109,123328,1,0,0:0:0:0:
276,185,123828,1,8,0:0:0:0:
481,315,123994,1,0,0:0:0:0:
276,185,124161,1,8,0:0:0:0:
215,136,124494,1,0,0:0:0:0:
352,223,124661,1,0,0:0:0:0:
352,223,124828,1,8,0:0:0:0:
266,122,125161,1,0,0:0:0:0:
237,128,125494,1,8,0:0:0:0:
183,83,125661,1,0,0:0:0:0:
342,156,125994,1,0,0:0:0:0:
245,99,126161,1,8,0:0:0:0:
322,236,126328,1,8,0:0:0:0:
322,236,126494,1,0,0:0:0:0:
185,166,127161,1,0,0:0:0:0:
293,132,127494,1,0,0:0:0:0:
293,132,127661,1,0,0:0:0:0:
293,132,127828,1,8,0:0:0:0:
282,136,128161,1,0,0:0:0:0:
374,333,128494,1,0,0:0:0:0:
374,333,128828,1,8,0:0:0:0:
374,333,129161,1,8,0:0:0:0:
208,100,129328,1,0,0:0:0:0:
374,333,129494,1,8,0:0:0:0:
374,333,129661,1,8,0:0:0:0:
374,333,129828,1,4,0:0:0:0:
260,175,130494,1,0,0:0:0:0:
321,180,130828,1,8,0:0:0:0:
321,180,130994,1,8,0:0:0:0:
230,133,131328,1,0,0:0:0:0:
321,180,131494,1,8,0:0:0:0:
283,82,131661,1,8,0:0:0:0:
190,102,131828,1,0,0:0:0:0:
205,118,132161,1,8,0:0:0:0:
205,118,132328,1,0,0:0:0:0:
205,118,132494,1,4,0:0:0:0:
205,118,133161,1,8,0:0:0:0:
205,118,133328,1,0,0:0:0:0:
203,51,133494,1,0,0:0:0:0:
205,118,133661,1,8,0:0:0:0:
174,122,133994,1,0,0:0:0:0:
174,122,134161,1,8,0:0:0:0:
174,122,134328,1,0,0:0:0:0:
174,122,134494,1,8,0:0:0:0:
143,53,134828,1,8,0:0:0:0:
143,53,134994,1,8,0:0:0:0:
143,53,135161,1,4,0:0:0:0:
249,151,135494,1,8,0:0:0:0:
249,151,135828,1,0,0:0:0:0:
199,82,136161,1,8,0:0:0:0:
249,151,136328,1,8,0:0:0:0:
260,140,136661,1,0,0:0:0:0:
260,140,136828,1,8,0:0:0:0:
177,77,137494,1,8,0:0:0:0:
297,285,137661,1,8,0:0:0:0:
216,211,137828,1,4,0:0:0:0:
216,211,138328,1,0,0:0:0:0:
215,132,138494,1,8,0:0:0:0:
216,211,138828,1,8,0:0:0:0:
216,211,138994,1,4,0:0:0:0:
206,54,139328,1,8,0:0:0:0:
216,211,139494,1,8,0:0:0:0:
272,186,139661,1,0,0:0:0:0:
272,186,139828,1,8,0:0:0:0:
257,177,140161,1,8,0:0:0:0:
257,177,140494,1,4,0:0:0:0:
312,129,140661,1,0,0:0:0:0:
309,213,140994,1,0,0:0:0:0:
309,213,141161,1,8,0:0:0:0:
312,129,141328,1,0,0:0:0:0:
172,39,141661,1,8,0:0:0:0:
312,129,141994,1,0,0:0:0:0:
206,100,142161,1,0,0:0:0:0:
237,111,142328,1,0,0:0:0:0:
237,111,142494,1,8,0:0:0:0:
237,111,142828,1,8,0:0:0:0:
195,53,143161,1,4,0:0:0:0:
305,244,143828,1,8,0:0:0:0:
305,244,143994,1,0,0:0:0:0:
185,88,144328,1,8,0:0:0:0:
382,53,144661,1,0,0:0:0:0:
251,209,144828,1,8,0:0:0:0:
190,186,144994,1,0,0:0:0:0:
190,186,145161,1,8,0:0:0:0:
196,171,145494,1,8,0:0:0:0:
196,171,145828,1,4,0:0:0:0:
226,158,145994,1,0,0:0:0:0:
226,158,146328,1,0,0:0:0:0:
220,145,146494,1,8,0:0:0:0:
230,24,146828,1,0,0:0:0:0:
230,24,146994,1,0,0:0:0:0:
279,200,147328,1,0,0:0:0:0:
279,200,147494,1,8,0:0:0:0:
279,200,147661,1,0,0:0:0:0:
279,200,147828,1,8,0:0:0:0:
279,200,148161,1,8,0:0:0:0:
203,174,148494,1,4,0:0:0:0:
188,142,149161,1,8,0:0:0:0:
292,248,149328,1,0,0:0:0:0:
261,189,149494,1,8,0:0:0:0:
261,189,149661,1,4,0:0:0:0:
233,55,149994,1,8,0:0:0:0:
472,262,150161,1,8,0:0:0:0:
244,193,150494,1,8,0:0:0:0:
206,61,150828,1,8,0:0:0:0:
244,193,150994,1,8,0:0:0:0:
183,98,151161,1,0,0:0:0:0:
236,268,151827,1,8,0:0:0:0:
150,181,152494,1,8,0:0:0:0:
150,188,152994,1,0,0:0:0:0:
151,188,153161,1,8,0:0:0:0:
151,189,153494,1,0,0:0:0:0:
150,188,153661,1,0,0:0:0:0:
150,188,153827,1,8,0:0:0:0:
151,188,154327,1,8,0:0:0:0:
151,189,154494,1,0,0:0:0:0:
151,188,154994,1,8,0:0:0:0:
151,188,155161,1,0,0:0:0:0:
151,189,156494,1,8,0:0:0:0:
151,189,157161,1,8,0:0:0:0:
134,167,157494,1,0,0:0:0:0:
134,167,157827,1,8,0:0:0:0:
164,138,158494,1,8,0:0:0:0:
164,138,158827,1,8,0:0:0:0:
164,138,159161,1,8,0:0:0:0:
164,138,159494,1,0,0:0:0:0:
164,138,159827,1,8,0:0:0:0:
164,138,160161,1,8,0:0:0:0:
164,138,160327,1,8,0:0:0:0:
170,108,160494,1,0,0:0:0:0:
170,108,161827,1,0,0:0:0:0:
342,209,162161,1,0,0:0:0:0:
165,180,162494,1,8,0:0:0:0:
165,180,162827,1,8,0:0:0:0:
145,153,163161,1,8,0:0:0:0:
245,250,163494,1,0,0:0:0:0:
237,141,163661,1,8,0:0:0:0:
143,211,164161,1,0,0:0:0:0:
156,258,164327,1,8,0:0:0:0:
156,258,164494,1,0,0:0:0:0:
156,258,164827,1,8,0:0:0:0:
156,258,165161,1,8,0:0:0:0:
156,258,165494,1,0,0:0:0:0:
156,258,165827,1,8,0:0:0:0:
453,248,166161,1,0,0:0:0:0:
156,258,166494,1,8,0:0:0:0:
414,300,166828,1,8,0:0:0:0:
328,235,167161,1,4,0:0:0:0:
185,163,167827,1,8,0:0:0:0:
185,163,168161,1,8,0:0:0:0:
185,163,168327,1,0,0:0:0:0:
378,217,168494,1,0,0:0:0:0:
185,163,168827,1,8,0:0:0:0:
350,311,168994,1,0,0:0:0:0:
222,55,169161,1,0,0:0:0:0:
302,158,169328,1,8,0:0:0:0:
231,115,169661,1,8,0:0:0:0:
320,271,169827,1,0,0:0:0:0:
197,81,170494,1,8,0:0:0:0:
436,268,170828,1,0,0:0:0:0:
436,268,170994,1,0,0:0:0:0:
197,81,171161,1,8,0:0:0:0:
436,268,171494,1,0,0:0:0:0:
211,220,171661,1,0,0:0:0:0:
197,81,171827,1,8,0:0:0:0:
211,220,171994,1,0,0:0:0:0:
211,220,172161,1,8,0:0:0:0:
211,220,172328,1,8,0:0:0:0:
398,258,172494,1,0,0:0:0:0:
244,244,172828,1,0,0:0:0:0:
458,248,173161,1,8,0:0:0:0:
458,248,173494,1,8,0:0:0:0:
324,178,173828,1,8,0:0:0:0:
324,178,174161,1,8,0:0:0:0:
265,39,174494,1,0,0:0:0:0:
272,47,174828,1,8,0:0:0:0:
172,116,175161,1,8,0:0:0:0:
172,116,175494,1,8,0:0:0:0:
172,116,175828,1,0,0:0:0:0:
195,78,176161,1,0,0:0:0:0:
195,78,176328,1,8,0:0:0:0:
235,97,176494,1,0,0:0:0:0:
214,78,176828,1,8,0:0:0:0:
190,202,177494,1,0,0:0:0:0:
186,83,177828,1,8,0:0:0:0:
186,83,178161,1,8,0:0:0:0:
186,83,178494,1,8,0:0:0:0:
181,97,179161,1,8,0:0:0:0:
181,97,179828,1,8,0:0:0:0:
182,76,180328,1,0,0:0:0:0:
182,76,180494,1,8,0:0:0:0:
298,229,181161,1,0,0:0:0:0:
298,229,181494,1,8,0:0:0:0:
298,229,182161,1,8,0:0:0:0:
314,87,182828,1,8,0:0:0:0:
292,198,183161,1,8,0:0:0:0:
292,198,183494,1,0,0:0:0:0:
292,198,183828,1,8,0:0:0:0:
292,198,184161,1,8,0:0:0:0:
292,198,184494,1,8,0:0:0:0:
292,198,185161,1,8,0:0:0:0:
292,198,185494,1,8,0:0:0:0:
232,137,185828,1,0,0:0:0:0:
232,137,186161,1,0,0:0:0:0:
232,137,186494,1,8,0:0:0:0:
232,137,186828,1,8,0:0:0:0:
232,137,187494,1,0,0:0:0:0:
232,137,187661,1,0,0:0:0:0:
232,137,187828,1,8,0:0:0:0:
232,137,188161,1,8,0:0:0:0:
232,137,188494,1,0,0:0:0:0:
232,137,188828,1,8,0:0:0:0:
232,137,189161,1,8,0:0:0:0:
232,137,189494,1,8,0:0:0:0:
232,137,189661,1,0,0:0:0:0:
190,44,189828,1,8,0:0:0:0:
190,44,190161,1,0,0:0:0:0:
190,44,190494,1,8,0:0:0:0:
358,204,190828,1,8,0:0:0:0:
115,117,190994,1,0,0:0:0:0:
292,217,191161,1,0,0:0:0:0:
256,192,191494,12,0,192494,0:0:0:0:
180,110,193161,5,8,0:0:0:0:
180,110,193828,1,4,0:0:0:0:
282,203,194161,1,0,0:0:0:0:
282,203,194494,1,0,0:0:0:0:
357,137,194828,1,0,0:0:0:0:
357,137,194994,1,8,0:0:0:0:
357,137,195161,1,0,0:0:0:0:
362,298,195494,1,0,0:0:0:0:
362,298,195828,1,0,0:0:0:0:
362,298,195994,1,8,0:0:0:0:
362,298,196328,1,8,0:0:0:0:
362,298,196494,1,0,0:0:0:0:
274,272,196828,1,8,0:0:0:0:
274,272,196994,1,0,0:0:0:0:
274,272,197161,1,8,0:0:0:0:
326,153,197494,1,8,0:0:0:0:
175,209,197661,1,8,0:0:0:0:
365,73,197828,1,0,0:0:0:0:
257,73,198161,1,8,0:0:0:0:
230,85,198494,1,0,0:0:0:0:
253,268,198661,1,8,0:0:0:0:
253,268,198828,1,8,0:0:0:0:
194,187,199161,1,0,0:0:0:0:
219,195,199494,1,8,0:0:0:0:
219,195,199661,1,8,0:0:0:0:
219,195,199828,1,0,0:0:0:0:
219,195,200161,1,8,0:0:0:0:
204,125,200494,1,0,0:0:0:0:
261,131,201161,1,0,0:0:0:0:
204,125,201328,1,0,0:0:0:0:
204,125,201494,1,8,0:0:0:0:
192,80,201828,1,0,0:0:0:0:
160,88,201994,1,0,0:0:0:0:
192,80,202161,1,8,0:0:0:0:
212,137,202328,1,8,0:0:0:0:
183,128,202661,1,0,0:0:0:0:
183,128,202828,1,8,0:0:0:0:
195,98,202994,1,0,0:0:0:0:
195,98,203161,1,8,0:0:0:0:
152,93,203494,1,0,0:0:0:0:
195,98,203661,1,0,0:0:0:0:
195,98,203828,1,8,0:0:0:0:
312,214,204161,1,8,0:0:0:0:
243,157,204328,1,8,0:0:0:0:
190,102,204494,1,0,0:0:0:0:
317,128,204828,1,8,0:0:0:0:
328,104,204994,1,0,0:0:0:0:
190,102,205161,1,8,0:0:0:0:
423,21,205494,1,0,0:0:0:0:
214,48,205661,1,0,0:0:0:0:
198,35,205828,1,8,0:0:0:0:
297,172,206494,1,8,0:0:0:0:
297,172,206828,1,8,0:0:0:0:
208,104,206994,1,8,0:0:0:0:
208,104,207161,1,0,0:0:0:0:
260,81,207494,1,8,0:0:0:0:
260,81,207661,1,0,0:0:0:0:
260,81,207828,1,8,0:0:0:0:
260,81,208161,1,8,0:0:0:0:
260,81,208328,1,0,0:0:0:0:
260,81,208661,1,0,0:0:0:0:
260,81,208828,1,8,0:0:0:0:
246,158,208994,1,0,0:0:0:0:
260,81,209161,1,8,0:0:0:0:
246,170,209494,1,8,0:0:0:0:
220,72,209661,1,8,0:0:0:0:
220,72,209828,1,0,0:0:0:0:
204,98,209994,1,8,0:0:0:0:
204,98,210161,1,0,0:0:0:0:
204,98,210328,1,8,0:0:0:0:
204,98,210828,1,8,0:0:0:0:
317,115,210994,1,0,0:0:0:0:
317,115,211161,1,0,0:0:0:0:
250,122,211328,1,8,0:0:0:0:
250,122,211661,1,0,0:0:0:0:
221,72,211828,1,8,0:0:0:0:
215,78,211994,1,0,0:0:0:0:
215,78,212161,1,8,0:0:0:0:
292,204,212328,1,8,0:0:0:0:
201,63,212494,1,0,0:0:0:0:
255,115,213161,1,8,0:0:0:0:
201,63,213328,1,0,0:0:0:0:
192,55,213661,1,0,0:0:0:0:
337,295,213828,1,8,0:0:0:0:
182,60,213994,1,8,0:0:0:0:
181,63,214161,1,0,0:0:0:0:
183,63,214328,1,0,0:0:0:0:
183,63,214494,1,8,0:0:0:0:
277,134,215161,1,4,0:0:0:0:
159,222,215328,1,0,0:0:0:0:
159,222,215494,1,8,0:0:0:0:
159,222,215661,1,0,0:0:0:0:
175,184,215828,1,8,0:0:0:0:
175,184,216161,1,8,0:0:0:0:
211,234,216328,1,0,0:0:0:0:
452,291,216661,1,0,0:0:0:0:
452,291,216828,1,8,0:0:0:0:
211,234,216994,1,0,0:0:0:0:
211,234,217161,1,8,0:0:0:0:
229,175,217494,1,8,0:0:0:0:
229,175,217661,1,8,0:0:0:0:
132,130,217828,1,0,0:0:0:0:
241,204,218494,1,8,0:0:0:0:
244,126,218661,1,0,0:0:0:0:
214,117,218828,1,8,0:0:0:0:
214,117,218994,1,0,0:0:0:0:
186,70,219328,1,0,0:0:0:0:
186,70,219494,1,8,0:0:0:0:
157,62,219661,1,0,0:0:0:0:
209,62,219828,1,8,0:0:0:0:
209,62,220161,1,8,0:0:0:0:
323,89,220328,1,8,0:0:0:0:
209,62,220494,1,0,0:0:0:0:
297,283,221161,1,8,0:0:0:0:
297,283,221328,1,0,0:0:0:0:
228,97,221494,1,8,0:0:0:0:
277,108,221661,1,0,0:0:0:0:
214,80,221994,1,0,0:0:0:0:
299,88,222161,1,0,0:0:0:0:
214,80,222328,1,0,0:0:0:0:
214,80,222494,1,8,0:0:0:0:
305,64,222828,1,8,0:0:0:0:
305,64,222994,1,8,0:0:0:0:
292,253,223161,1,0,0:0:0:0:
350,244,223494,1,8,0:0:0:0:
117,193,223661,1,8,0:0:0:0:
117,193,223828,1,8,0:0:0:0:
117,193,223994,1,0,0:0:0:0:
173,164,224161,1,8,0:0:0:0:
173,164,224328,1,0,0:0:0:0:
170,153,224661,1,0,0:0:0:0:
207,219,224828,1,8,0:0:0:0:
183,157,224994,1,8,0:0:0:0:
183,157,225161,1,8,0:0:0:0:
260,97,225494,1,8,0:0:0:0:
260,97,225661,1,8,0:0:0:0:
277,134,225828,1,4,0:0:0:0:
175,184,226495,1,8,0:0:0:0:
175,184,226661,1,0,0:0:0:0:
175,184,226828,1,8,0:0:0:0:
214,95,226994,1,0,0:0:0:0:
211,234,227328,1,0,0:0:0:0:
211,234,227495,1,8,0:0:0:0:
211,234,227661,1,0,0:0:0:0:
211,234,227828,1,8,0:0:0:0:
229,175,228161,1,8,0:0:0:0:
229,175,228328,1,8,0:0:0:0:
132,130,228495,1,0,0:0:0:0:
241,204,229161,1,8,0:0:0:0:
244,126,229328,1,8,0:0:0:0:
214,117,229495,1,8,0:0:0:0:
214,117,229661,1,0,0:0:0:0:
383,268,229994,1,0,0:0:0:0:
383,268,230161,1,8,0:0:0:0:
288,124,230328,1,0,0:0:0:0:
291,201,230494,1,8,0:0:0:0:
291,201,230828,1,8,0:0:0:0:
291,201,230994,1,8,0:0:0:0:
291,201,231161,1,0,0:0:0:0:
237,174,231828,1,8,0:0:0:0:
254,117,231994,1,0,0:0:0:0:
254,117,232161,1,8,0:0:0:0:
327,104,232328,1,8,0:0:0:0:
243,69,232661,1,0,0:0:0:0:
210,60,232828,1,8,0:0:0:0:
155,55,232994,1,0,0:0:0:0:
190,39,233161,1,8,0:0:0:0:
189,53,233494,1,8,0:0:0:0:
189,53,233661,1,0,0:0:0:0:
166,46,233828,1,0,0:0:0:0:
319,80,233994,1,0,0:0:0:0:
199,61,234161,1,8,0:0:0:0:
210,60,234494,1,8,0:0:0:0:
188,61,234828,1,0,0:0:0:0:
188,61,234994,1,0,0:0:0:0:
415,87,235161,1,8,0:0:0:0:
415,87,235328,1,0,0:0:0:0:
415,87,235494,1,8,0:0:0:0:
415,87,235828,1,8,0:0:0:0:
386,146,236494,1,4,0:0:0:0:
256,192,236828,12,0,241161,0:0:0:0:
