osu file format v14

[General]
AudioFilename: MuryokuP - Kageokuri.mp3
AudioLeadIn: 0
PreviewTime: 22871
Countdown: 0
SampleSet: Soft
StackLeniency: 0.5
Mode: 0
LetterboxInBreaks: 1
EpilepsyWarning: 1
WidescreenStoryboard: 1

[Editor]
Bookmarks: 65788,76454,151121,161788,172454,183121
DistanceSpacing: 1
BeatDivisor: 4
GridSize: 4
TimelineZoom: 1

[Metadata]
Title:kageokuri feat. MuryokuP
TitleUnicode:kageokuri feat. 無力P
Artist:rest or stay?
ArtistUnicode:rest or stay?
Creator:NekoLumi
Version:Normal
Source:
Tags:Megpoid Gumi Powerless Sounds Vocaloid
BeatmapID:790262
BeatmapSetID:359426

[Difficulty]
HPDrainRate:3.5
CircleSize:3
OverallDifficulty:3
ApproachRate:4.5
SliderMultiplier:0.8
SliderTickRate:1

[Events]
//Background and Video events
0,0,"BG5.jpg",0,0
//Break Periods
2,65987,75134
2,152454,160454
2,174121,181454
//Storyboard Layer 0 (Background)
//Storyboard Layer 1 (Fail)
//Storyboard Layer 2 (Pass)
//Storyboard Layer 3 (Foreground)
//Storyboard Sound Samples

[TimingPoints]
455,333.333333333333,4,2,1,35,1,0
23121,-100,4,1,1,70,0,1
43788,-100,4,1,1,35,0,0
43871,-100,4,2,1,35,0,0
79121,-100,4,2,1,50,0,0
81788,-100,4,2,1,75,0,0
86454,-100,4,1,1,70,0,0
87121,-100,4,1,1,70,0,1
107788,-100,4,1,1,35,0,0
108454,-100,4,1,1,70,0,1
129788,-100,4,1,1,70,0,0
151121,-100,4,2,1,70,0,0
161788,-100,4,1,1,50,0,0
167121,-100,4,1,1,70,0,1
172454,-100,4,2,1,35,0,0
183121,-100,4,2,1,50,0,0
193121,-100,4,1,1,50,0,0
193788,-100,4,1,1,70,0,1
214454,-100,4,1,1,70,0,0
214538,-100,4,2,1,50,0,0
215121,-100,4,1,1,100,0,1
215204,-100,4,1,1,70,0,1
235788,-100,4,1,1,70,0,0
236454,-100,4,1,1,70,0,1
236496,-100,4,2,1,5,0,0

[Colours]
Combo1 : 65,65,100
Combo2 : 50,100,0
Combo3 : 150,150,0
Combo4 : 128,255,0
Combo5 : 255,255,0
Combo6 : 145,145,185

[HitObjects]
167,108,22454,5,0,0:0:0:0:
174,115,23121,38,0,P|146:189|69:245,2,160,4|8|0,0:0|0:0|0:0,0:0:0:0:
110,66,24788,1,0,0:0:0:0:
32,48,25121,2,0,P|34:91|57:126,1,80,8|8,0:0|0:0,0:0:0:0:
110,66,25788,70,0,P|167:34|247:80,2,160,4|8|0,0:0|0:0|0:0,0:0:0:0:
97,144,27454,2,0,P|63:160|18:161,2,80,0|8|8,1:0|0:0|0:0,0:0:0:0:
137,147,28288,1,0,1:0:0:0:
176,156,28454,6,0,B|213:171|232:210|232:210|280:196|324:220,1,160,4|8,0:0|0:0,0:0:0:0:
312,293,29454,2,0,B|281:310|233:296|233:296|214:335|177:350,1,160,0|0,0:0|1:0,0:0:0:0:
97,350,30454,2,0,P|105:311|135:280,1,80,8|8,0:0|0:0,0:0:0:0:
187,224,31121,70,0,P|146:202|105:208,2,80,4|8|8,0:0|0:0|0:0,0:0:0:0:
252,269,32121,2,0,P|289:287|400:280,1,120,8|0,0:0|0:0,0:0:0:0:
404,276,32788,1,0,0:0:0:0:
453,212,33121,1,12,0:0:0:0:
451,132,33454,1,8,0:0:0:0:
431,97,33621,1,8,0:0:0:0:
406,65,33788,6,0,P|369:47|240:68,1,160,4|8,0:0|0:0,0:0:0:0:
220,131,34788,2,0,P|143:149|68:124,1,160,4|0,0:0|0:0,0:0:0:0:
46,47,35788,2,0,P|9:68|-12:113,1,80,8|8,0:0|0:0,0:0:0:0:
0,178,36454,70,0,P|26:258|74:315,1,160,4|8,0:0|0:0,0:0:0:0:
153,301,37454,1,0,0:0:0:0:
183,226,37788,2,0,P|159:195|123:174,1,80,0|0,0:0|0:0,0:0:0:0:
45,163,38454,1,8,0:0:0:0:
0,97,38788,1,8,0:0:0:0:
3,17,39121,6,0,P|56:39|79:91,1,80,4|0,0:0|0:0,0:0:0:0:
112,123,39788,2,0,P|187:97|240:34,2,160,8|0|8,0:0|0:0|0:0,0:0:0:0:
32,126,41454,1,8,0:0:0:0:
22,205,41788,70,0,L|14:287,2,80,4|8|8,0:0|0:0|0:0,0:0:0:0:
32,126,42788,1,8,0:0:0:0:
71,118,42954,1,4,0:0:0:0:
111,117,43121,2,0,B|152:113|184:142|184:142|227:126|241:73,1,160,0|14,0:0|0:2,0:0:0:0:
237,85,44454,22,0,P|302:128|321:204,2,160,4|2|0,0:1|0:0|0:0,0:0:0:0:
173,36,46121,2,0,P|158:70|163:118,2,80,0|2|0,0:0|0:0|0:0,0:0:0:0:
208,16,46954,1,0,0:0:0:0:
248,7,47121,6,0,P|293:20|379:99,1,160,0|2,0:0|0:0,0:0:0:0:
467,225,48454,2,0,P|432:245|383:249,1,80,6|0,1:2|0:0,0:0:0:0:
315,228,49121,2,0,P|280:208|241:202,1,80,2|2,0:0|0:0,0:0:0:0:
201,204,49621,1,0,0:0:0:0:
162,217,49788,70,0,P|98:234|16:193,2,160,0|2|0,0:0|0:0|0:0,0:0:0:0:
215,157,51454,1,0,0:0:0:0:
256,88,51788,2,0,P|294:81|345:92,1,80,2|0,0:0|0:0,0:0:0:0:
407,120,52454,6,0,B|430:164|419:197|419:197|384:201|336:237,1,160,0|2,0:0|0:0,0:0:0:0:
291,286,53454,1,0,0:0:0:0:
279,320,53621,1,0,0:0:0:0:
267,358,53788,2,0,P|312:372|356:361,2,80,6|2|2,1:2|0:0|0:0,0:0:0:0:
194,327,54788,1,2,0:0:0:0:
124,291,55121,70,0,P|112:212|154:124,1,160,6|2,0:0|0:0,0:0:0:0:
217,112,56121,1,0,0:0:0:0:
298,114,56454,2,0,B|312:152|312:152|281:214|213:215,1,160,0|2,0:0|0:0,0:0:0:0:
137,211,57454,1,0,0:0:0:0:
60,184,57788,6,0,P|84:148|120:132,2,80,0|0|2,0:0|0:0|0:0,0:0:0:0:
160,308,59121,2,0,B|203:346|236:272|272:348|328:304,1,160,6|2,1:2|0:0,0:0:0:0:
340,235,60121,1,2,0:0:0:0:
386,168,60454,70,0,P|436:210|445:314,2,160,0|2|0,0:0|0:0|0:0,0:0:0:0:
309,144,62121,2,0,L|289:225,2,80,0|2|0,0:0|0:0|0:0,0:0:0:0:
366,88,63121,6,0,P|318:64|229:142,2,160,0|2|6,0:0|0:0|1:2,0:0:0:0:
401,160,64788,2,0,P|417:203|425:233,2,40,2|0|2,0:0|0:0|0:0,0:0:0:0:
324,183,65454,2,0,P|318:165|310:146,2,40,2|2|4,0:0|0:0|0:1,0:0:0:0:
256,192,76454,85,4,0:1:0:0:
100,153,77121,1,2,0:0:0:0:
144,307,77788,1,0,0:0:0:0:
299,345,78454,1,2,0:0:0:0:
368,304,78788,1,0,0:0:0:0:
410,236,79121,70,0,P|422:192|381:79,1,160,4|2,0:1|0:0,0:0:0:0:
306,86,80121,1,0,0:0:0:0:
230,115,80454,2,0,P|220:192|256:272,1,160,6|2,0:0|0:0,0:0:0:0:
332,261,81454,1,2,0:0:0:0:
410,236,81788,6,0,P|400:304|296:336,1,160,4|2,0:1|0:0,0:0:0:0:
257,297,82788,1,0,0:0:0:0:
182,326,83121,2,0,B|161:252|240:214|240:214|236:149|286:122,1,240,4|0,0:1|0:0,0:0:0:0:
321,194,84454,22,0,P|344:81|232:61,1,240,4|0,0:1|0:0,0:0:0:0:
166,72,85788,1,2,0:0:0:0:
10,34,86454,1,4,0:1:0:0:
10,34,87121,6,0,P|-3:75|-2:126,1,80,4|0,0:0|0:0,0:0:0:0:
12,190,87788,1,8,0:0:0:0:
79,233,88121,1,0,0:0:0:0:
155,211,88454,2,0,P|189:194|245:193,1,80,0|0,0:0|0:0,0:0:0:0:
235,270,89121,2,0,P|274:266|310:249,1,80,8|8,0:0|0:0,0:0:0:0:
388,228,89788,6,0,P|390:253|365:308,1,80,4|0,0:0|0:0,0:0:0:0:
307,353,90454,1,8,0:0:0:0:
381,381,90788,2,0,B|429:376|461:322|469:257,1,160,4|0,0:0|0:0,0:0:0:0:
429,190,91788,1,8,0:0:0:0:
474,122,92121,1,8,0:0:0:0:
474,122,92454,70,0,B|450:88|409:81|409:81|383:43|342:33,1,160,4|8,0:0|0:0,0:0:0:0:
265,44,93454,1,0,0:0:0:0:
185,33,93788,2,0,B|147:42|121:80|121:80|80:87|56:121,1,160,0|8,0:0|0:0,0:0:0:0:
20,192,94788,1,8,0:0:0:0:
56,264,95121,6,0,B|80:298|121:305|121:305|147:343|185:352,1,160,4|8,0:0|0:0,0:0:0:0:
264,353,96121,2,0,B|302:344|328:306|328:306|369:299|393:265,1,160,0|0,0:0|0:0,0:0:0:0:
389,185,97121,1,8,0:0:0:0:
309,202,97454,1,8,0:0:0:0:
280,174,97621,1,8,0:0:0:0:
257,141,97788,70,0,B|215:100|161:151|96:142,1,160,4|8,0:0|0:0,0:0:0:0:
90,223,98788,1,0,0:0:0:0:
103,303,99121,2,0,B|160:294|214:345|256:304,1,160,0|8,0:0|0:0,0:0:0:0:
311,245,100121,1,8,0:0:0:0:
388,269,100454,6,0,P|369:302|329:324,1,80,4|0,0:0|0:0,0:0:0:0:
256,303,101121,1,8,0:0:0:0:
232,226,101454,2,0,B|226:187|226:187|244:149|228:106|228:106|236:62,1,160,4|0,0:0|0:0,0:0:0:0:
311,44,102454,1,8,0:0:0:0:
388,66,102788,1,8,0:0:0:0:
415,95,102954,1,8,0:0:0:0:
436,128,103121,70,0,P|449:168|453:213,1,80,4|0,0:0|0:0,0:0:0:0:
406,271,103788,2,0,P|365:265|317:270,1,80,12|0,0:0|0:0,0:0:0:0:
304,301,104288,1,0,0:0:0:0:
291,338,104454,1,4,0:0:0:0:
344,186,105121,1,12,0:0:0:0:
269,156,105454,1,8,0:0:0:0:
229,147,105621,1,8,0:0:0:0:
189,142,105788,6,0,P|179:183|189:233,1,80,4|8,0:0|0:0,0:0:0:0:
241,275,106454,1,8,0:0:0:0:
314,307,106788,1,8,0:0:0:0:
392,319,107121,2,0,P|434:319|476:295,2,80,0|8|12,0:0|0:0|0:2,0:0:0:0:
392,319,108454,70,0,P|367:288|353:239,1,80,4|8,0:0|0:0,0:0:0:0:
275,238,109121,2,0,B|254:274|254:274|210:301,1,80,8|0,0:0|0:0,0:0:0:0:
181,294,109621,2,0,B|148:273|148:273|127:237,1,80,8|0,0:0|0:0,0:0:0:0:
127,197,110121,1,8,0:0:0:0:
204,176,110454,2,0,P|239:157|262:125,1,80,8|8,0:0|0:0,0:0:0:0:
239,49,111121,5,4,0:0:0:0:
318,65,111454,2,0,P|353:91|367:142,1,80,8|8,0:0|0:0,0:0:0:0:
346,201,112121,2,0,P|362:237|394:259,1,80,8|0,0:0|0:0,0:0:0:0:
474,258,112788,1,8,0:0:0:0:
437,329,113121,1,12,0:0:0:0:
364,361,113454,1,8,0:0:0:0:
325,372,113621,1,8,0:0:0:0:
285,373,113788,70,0,B|266:296|266:296|275:239,1,120,4|12,0:0|0:0,0:0:0:0:
279,216,114454,1,0,0:0:0:0:
312,143,114788,1,8,0:0:0:0:
380,98,115121,2,0,B|397:155|397:155|388:215,1,120,4|12,0:0|0:0,0:0:0:0:
377,253,115788,1,0,0:0:0:0:
302,223,116121,1,0,0:0:0:0:
267,202,116288,1,0,0:0:0:0:
232,182,116454,6,0,P|215:237|222:299,2,120,4|12|12,0:0|0:0|0:0,0:0:0:0:
255,148,117621,1,0,0:0:0:0:
290,129,117788,1,12,0:0:0:0:
362,94,118121,2,0,P|355:53|331:11,2,80,8|8|0,0:0|0:0|0:0,0:0:0:0:
354,173,119121,69,4,0:0:0:0:
274,178,119454,1,0,0:0:0:0:
203,216,119788,2,0,L|225:377,2,160,8|2|8,0:0|2:0|0:0,0:0:0:0:
193,136,121454,1,10,1:2:0:0:
191,95,121621,1,2,2:0:0:0:
197,55,121788,5,4,0:0:0:0:
343,121,122454,2,0,P|345:165|280:273,1,160,8|0,0:0|0:0,0:0:0:0:
139,215,123788,1,8,0:0:0:0:
168,139,124121,1,8,0:0:0:0:
200,164,124288,1,8,0:0:0:0:
219,200,124454,69,4,0:0:0:0:
198,277,124788,2,0,L|287:297,1,80,8|0,0:0|0:0,0:0:0:0:
329,235,125454,2,0,L|418:215,1,80,8|0,0:0|0:0,0:0:0:0:
484,196,126121,2,0,P|477:257|418:298,1,120,12|12,0:0|0:0,0:0:0:0:
329,235,127121,6,0,P|318:191|320:165,2,40,4|0|0,0:0|0:0|0:0,0:0:0:0:
354,311,127788,2,0,P|360:330|363:351,2,40,12|0|0,0:0|0:0|0:0,0:0:0:0:
274,303,128454,2,0,P|240:321|184:328,1,80,4|12,0:0|0:0,0:0:0:0:
122,307,129121,2,0,P|105:267|109:221,1,80,12|8,0:0|0:0,0:0:0:0:
145,221,129621,1,8,0:0:0:0:
184,230,129788,21,4,0:0:0:0:
249,275,130121,2,0,P|330:264|433:292,1,160,8|0,0:0|0:0,0:0:0:0:
445,288,130954,2,0,B|456:238|456:238|433:163,1,120,12|12,0:0|0:0,0:0:0:0:
357,186,131788,1,0,0:0:0:0:
338,263,132121,1,8,0:0:0:0:
340,304,132288,1,0,0:0:0:0:
336,344,132454,70,0,P|272:347|229:332,1,80,4|8,0:0|0:0,0:0:0:0:
222,270,133121,2,0,P|166:273|103:298,2,120,0|12|12,0:0|0:0|0:0,0:0:0:0:
301,276,134454,1,12,0:0:0:0:
378,254,134788,1,12,0:0:0:0:
408,228,134954,1,8,0:0:0:0:
434,197,135121,5,4,0:0:0:0:
462,122,135454,2,0,B|411:61|411:61|332:44,1,160,8|0,0:0|0:0,0:0:0:0:
299,67,136288,2,0,B|260:78|260:78|176:73,1,120,12|12,0:0|0:0,0:0:0:0:
101,62,137121,1,0,0:0:0:0:
24,39,137454,1,8,0:0:0:0:
19,78,137621,1,0,0:0:0:0:
20,119,137788,70,0,P|50:149|97:162,1,80,4|0,0:0|0:0,0:0:0:0:
163,176,138454,1,8,0:0:0:0:
230,132,138788,1,8,0:0:0:0:
270,138,138954,2,0,P|325:188|339:237,1,120,4|8,0:0|0:0,0:0:0:0:
286,291,139788,1,8,0:0:0:0:
209,314,140121,1,8,0:0:0:0:
169,383,140454,5,4,0:0:0:0:
140,353,140621,2,0,P|132:295|161:247,1,80,0|0,0:0|0:0,0:0:0:0:
166,248,141121,1,12,0:0:0:0:
241,222,141454,2,0,P|281:215|325:222,2,80,0|0|4,0:0|0:0|0:0,0:0:0:0:
166,247,142454,1,8,0:0:0:0:
110,188,142788,1,4,0:0:0:0:
82,112,143121,69,4,0:0:0:0:
120,99,143288,2,0,P|159:88|213:94,1,80
226,117,143788,2,0,B|222:158|222:158|232:194|232:194|229:240,2,120,12|0|12,0:0|0:0|0:0,0:0:0:0:
300,87,145121,1,8,0:0:0:0:
377,68,145454,1,12,0:0:0:0:
359,31,145621,1,8,0:0:0:0:
324,10,145788,5,4,0:0:0:0:
173,69,146454,2,0,P|128:66|38:34,2,120,12|0|4,0:0|0:0|0:0,0:0:0:0:
250,48,147788,2,0,P|292:37|328:42,1,80,8|12,0:0|0:0,0:0:0:0:
350,118,148454,2,0,L|309:179,2,60,4|0|0,0:0|0:0|0:0,0:0:0:0:
388,105,149121,70,0,P|435:120|461:154,1,80,12|8,0:0|0:0,0:0:0:0:
458,181,149621,2,0,L|395:285,1,120,4|8,0:0|0:0,0:0:0:0:
328,326,150454,1,8,0:0:0:0:
268,272,150788,1,8,0:0:0:0:
261,232,150954,1,8,0:0:0:0:
256,192,151121,5,4,0:0:0:0:
188,152,161788,21,4,0:0:0:0:
256,112,162121,1,0,0:0:0:0:
324,152,162454,1,0,0:0:0:0:
324,232,162788,1,0,0:0:0:0:
256,276,163121,2,0,L|168:280,1,80,2|0,0:2|0:0,0:0:0:0:
195,201,163788,2,0,L|115:197,1,80,2|0,0:2|0:0,0:0:0:0:
67,133,164454,70,0,P|53:97|47:57,2,80,4|2|2,0:0|0:2|0:2,0:0:0:0:
115,197,165454,1,2,0:2:0:0:
196,198,165788,2,0,P|210:150|196:116,1,80,4|2,0:2|2:0,0:0:0:0:
123,104,166454,2,0,P|145:65|189:44,1,80,2|8,2:0|0:0,0:0:0:0:
201,124,167121,38,0,B|243:127|266:164|266:164|296:137|353:151,1,160,4|12,0:0|0:0,0:0:0:0:
382,217,168121,1,0,0:0:0:0:
344,287,168454,2,0,B|297:298|267:271|267:271|244:308|202:311,1,160,4|4,0:0|0:0,0:0:0:0:
256,192,169788,12,4,172454,0:0:0:0:
131,242,183121,21,4,0:0:0:0:
268,160,183788,1,2,0:0:0:0:
411,232,184454,2,0,B|399:271|399:271|327:256|276:309,2,160,2|2|2,0:0|0:0|0:0,0:0:0:0:
425,152,186121,70,0,P|429:111|424:72,1,80,2|2,0:0|0:0,0:0:0:0:
351,39,186788,2,0,B|273:57|273:57|259:93|192:144|122:66,1,240,0|2,0:0|0:0,0:0:0:0:
198,27,188121,1,2,0:0:0:0:
122,6,188454,6,0,P|88:22|63:66,1,80,2|0,0:0|0:0,0:0:0:0:
67,136,189121,2,0,P|88:169|123:186,1,80,2|0,0:0|0:0,0:0:0:0:
197,157,189788,2,0,P|230:137|272:133,1,80,2|0,0:0|0:0,0:0:0:0:
344,160,190454,2,0,P|381:128|402:67,1,80,2|0,0:0|0:0,0:0:0:0:
404,21,191121,6,0,B|357:23|334:52|334:52|303:22|227:-2|120:11,1,300,2|0,0:0|0:0,0:0:0:0:
119,188,193121,5,4,0:0:0:0:
119,188,193788,22,0,P|170:193|274:158,1,160,4|0,0:0|0:0,0:0:0:0:
394,56,195121,2,0,P|343:51|239:86,1,160,0|0,0:0|0:0,0:0:0:0:
271,159,196121,1,0,0:0:0:0:
307,175,196288,1,8,0:0:0:0:
339,199,196454,70,0,P|368:227|386:275,2,80,4|0|0,0:0|0:0|0:0,0:0:0:0:
271,159,197454,2,0,P|228:155|105:185,1,160,0|0,0:0|0:0,0:0:0:0:
39,207,198454,1,4,0:0:0:0:
99,259,198788,1,8,0:0:0:0:
26,292,199121,6,0,P|64:331|163:307,1,160,4|0,0:0|0:0,0:0:0:0:
233,278,200121,1,0,0:0:0:0:
300,321,200454,2,0,P|337:334|377:334,2,80,4|0|0,0:0|0:0|0:0,0:0:0:0:
233,278,201454,1,8,0:0:0:0:
209,245,201621,1,0,0:0:0:0:
192,208,201788,70,0,B|179:168|179:168|186:129|216:102|216:102|261:93,1,160,4|0,0:0|0:0,0:0:0:0:
328,59,202788,2,0,B|341:99|341:99|334:138|304:165|304:165|259:174,1,160,12|12,0:0|0:0,0:0:0:0:
192,208,203788,2,0,P|161:233|143:293,1,80,12|8,0:0|0:0,0:0:0:0:
183,338,204454,6,0,P|222:342|277:312,1,80,4|0,0:0|0:0,0:0:0:0:
325,283,205121,1,8,0:0:0:0:
361,211,205454,1,0,0:0:0:0:
284,188,205788,2,0,P|220:172|167:91,1,160,4|8,0:0|0:0,0:0:0:0:
135,24,206788,1,8,0:0:0:0:
62,57,207121,70,0,L|52:147,2,80,4|0|12,0:0|0:0|0:0,0:0:0:0:
135,24,208121,2,0,P|184:21|278:74,1,160,0|0,0:0|0:0,0:0:0:0:
304,149,209121,1,8,0:0:0:0:
372,189,209454,1,8,0:0:0:0:
452,189,209788,6,0,P|459:156|432:76,2,120,4|12|8,0:0|0:0|0:0,0:0:0:0:
389,238,211121,1,4,0:0:0:0:
315,269,211454,2,0,L|232:271,1,80,0|0,0:0|0:0,0:0:0:0:
165,231,212121,1,8,0:0:0:0:
89,259,212454,70,0,P|81:178|111:100,2,160,4|12|0,0:0|0:0|0:0,0:0:0:0:
130,328,214121,1,8,0:0:0:0:
209,335,214454,70,0,B|231:337|231:337|254:331|254:331|278:335|278:335|302:331|302:331|342:337,1,120,12|2,0:0|0:0,0:0:0:0:
366,326,215121,6,0,B|401:279|401:279|413:203,1,120,4|0,0:0|0:0,0:0:0:0:
376,197,215788,2,0,P|340:209|296:201,1,80,8|0,0:0|0:0,0:0:0:0:
259,204,216288,2,0,P|219:210|140:181,1,120,0|0,0:0|0:0,0:0:0:0:
123,108,217121,2,0,P|146:73|186:51,1,80,8|8,0:0|0:0,0:0:0:0:
217,60,217621,1,8,0:0:0:0:
256,71,217788,5,4,0:0:0:0:
306,132,218121,1,0,0:0:0:0:
277,206,218454,1,12,0:0:0:0:
338,257,218788,1,0,0:0:0:0:
290,321,219121,2,0,P|270:328|161:328,1,120,0|0,0:0|0:0,0:0:0:0:
134,316,219788,2,0,L|130:233,1,80,8|8,1:0|0:0,0:0:0:0:
176,170,220454,70,0,P|106:160|51:221,2,160,4|8|0,0:0|0:0|1:0,0:0:0:0:
246,209,222121,1,0,0:0:0:0:
321,236,222454,1,12,0:0:0:0:
397,212,222788,1,12,0:0:0:0:
476,217,223121,6,0,L|497:340,1,120,4|0,0:0|0:0,0:0:0:0:
459,351,223788,2,0,P|421:362|381:360,1,80,12|0,0:0|0:0,0:0:0:0:
341,354,224288,2,0,P|330:293|350:238,1,120,0|0,0:0|0:0,0:0:0:0:
387,169,225121,1,8,0:0:0:0:
320,125,225454,1,8,0:0:0:0:
280,116,225621,1,8,0:0:0:0:
240,111,225788,70,0,P|195:107|123:127,1,120,4|0,0:0|0:0,0:0:0:0:
121,167,226454,2,0,P|129:203|117:263,1,80,8|0,0:0|0:0,0:0:0:0:
100,278,226954,2,0,P|129:338|174:362,1,120,4|0,0:0|0:0,0:0:0:0:
253,369,227788,1,12,0:0:0:0:
326,337,228121,1,12,0:0:0:0:
405,346,228454,6,0,P|442:362|494:355,1,80,4|0,0:0|0:0,0:0:0:0:
457,282,229121,1,12,0:0:0:0:
378,274,229454,1,0,0:0:0:0:
305,304,229788,2,0,B|246:309|246:309|189:278,1,120,0|0,0:0|0:0,0:0:0:0:
170,246,230454,2,0,P|161:205|166:164,1,80,8|8,0:0|0:0,0:0:0:0:
198,144,230954,1,8,0:0:0:0:
235,129,231121,70,0,B|283:103|336:165|403:121,2,160,4|12|0,0:0|0:0|0:0,0:0:0:0:
160,158,232788,1,0,0:0:0:0:
84,184,233121,1,12,0:0:0:0:
92,263,233454,1,12,0:0:0:0:
156,310,233788,6,0,L|235:325,1,80,4|12,0:0|0:0,0:0:0:0:
253,247,234454,2,0,L|332:232,1,80,12|8,0:0|0:0,0:0:0:0:
366,252,234954,2,0,P|408:241|441:201,1,80,4|0,0:0|0:0,0:0:0:0:
473,213,235454,2,0,P|481:185|464:122,1,80,12|10,0:0|0:2,0:0:0:0:
319,87,236454,38,0,B|298:216|138:133|99:201|92:344|160:344|253:381|269:274,1,480,4|0,0:0|0:0,0:0:0:0:
423,235,239121,54,0,B|442:170|495:142|495:142|526:89|504:10,2,240,2|2|2,0:0|0:0|0:0,0:0:0:0:
