osu file format v14

[General]
AudioFilename: audio.ogg
AudioLeadIn: 0
PreviewTime: 12297
Countdown: 0
SampleSet: Soft
StackLeniency: 0.5
Mode: 0
LetterboxInBreaks: 0
WidescreenStoryboard: 1

[Editor]
DistanceSpacing: 1
BeatDivisor: 4
GridSize: 16
TimelineZoom: 1.3

[Metadata]
Title:39-byou
TitleUnicode:39秒
Artist:respon feat. Hatsune Miku
ArtistUnicode:れすぽん feat. 初音ミク
Creator:HonigFNA
Version:Normal
Source:
Tags:resupon female electronic 14th anniversary birthday KARENT カレント vocaloid japanese pop jpop j-pop 39byou seconds sankyu thank you amon- take
BeatmapID:4483774
BeatmapSetID:2111625

[Difficulty]
HPDrainRate:3
CircleSize:3.2
OverallDifficulty:4
ApproachRate:5
SliderMultiplier:0.999999999999999
SliderTickRate:1

[Events]
//Background and Video events
0,0,"bg.jpg",0,0
//Break Periods
//Storyboard Layer 0 (Background)
//Storyboard Layer 1 (Fail)
//Storyboard Layer 2 (Pass)
//Storyboard Layer 3 (Foreground)
//Storyboard Layer 4 (Overlay)
//Storyboard Sound Samples

[TimingPoints]
146,379.746835443038,4,2,1,50,1,0
146,-100,4,2,1,50,0,0
6221,-100,4,2,1,75,0,0
11538,-100,4,2,1,45,0,0
11633,-100,4,2,1,50,0,0
11728,-100,4,2,1,55,0,0
11823,-100,4,2,1,60,0,0
11918,-100,4,2,1,65,0,0
12013,-100,4,2,1,70,0,0
12108,-100,4,2,1,75,0,0
12202,-100,4,2,1,80,0,0
12297,-90.9090909090909,4,2,1,85,0,1
16570,-90.9090909090909,4,2,1,5,0,1
16664,-90.9090909090909,4,2,1,85,0,1
21411,-90.9090909090909,4,2,1,85,0,0
24734,-90.9090909090909,4,2,1,5,0,0
24829,-90.9090909090909,4,2,1,85,0,1
33563,-90.9090909090909,4,2,1,85,0,0
36411,-90.9090909090909,4,2,1,100,0,0
36506,-90.9090909090909,4,2,1,40,0,0
39070,-90.9090909090909,4,2,1,5,0,0

[Colours]
Combo1 : 193,202,230
Combo2 : 80,105,185
Combo3 : 131,151,216
Combo4 : 152,84,156
Combo5 : 177,125,124

[HitObjects]
77,59,146,6,0,L|48:206,1,150,2|2,0:2|0:2,0:0:0:0:
100,291,1095,1,2,0:2:0:0:
177,227,1475,2,0,L|324:198,1,150,2|2,0:2|0:2,0:0:0:0:
390,123,2424,2,0,L|488:142,1,99.9999999999999,2|2,0:2|0:2,0:0:0:0:
473,43,3183,6,0,L|325:14,1,150,2|2,0:2|0:2,0:0:0:0:
245,74,4133,1,2,0:2:0:0:
156,27,4513,2,0,P|195:86|182:162,1,150,2|2,0:2|0:2,0:0:0:0:
83,160,5462,2,0,P|56:120|65:69,1,99.9999999999999,2|2,0:2|0:2,0:0:0:0:
156,27,6221,6,0,L|254:46,1,99.9999999999999,6|2,1:2|1:2,0:0:0:0:
284,85,6791,1,2,0:0:0:0:
374,42,7171,1,2,0:0:0:0:
428,125,7551,2,0,L|408:223,1,99.9999999999999,2|2,0:2|0:0,0:0:0:0:
430,268,8120,2,0,L|439:317,1,50,2|2,1:2|0:0,0:0:0:0:
409,357,8500,2,0,P|371:381|318:374,1,99.9999999999999,2|2,1:2|1:2,0:0:0:0:
280,282,9259,6,0,P|242:257|189:264,1,99.9999999999999,2|2,1:2|1:2,0:0:0:0:
164,307,9829,1,2,0:0:0:0:
82,364,10209,1,2,0:0:0:0:
46,270,10589,2,0,L|27:171,1,99.9999999999999,6|2,1:2|0:0,0:0:0:0:
20,122,11158,1,10,3:2:0:0:
119,128,11538,2,0,L|129:177,2,50,10|10|10,0:2|0:0|0:0,0:0:0:0:
205,62,12297,6,0,P|259:53|304:83,1,110.000003356934,6|10,3:2|0:2,0:0:0:0:
335,126,12867,1,2,0:2:0:0:
284,222,13247,1,2,0:2:0:0:
175,241,13627,2,0,L|67:218,1,110.000003356934,2|2,0:2|0:2,0:0:0:0:
19,245,14196,2,0,L|8:302,1,55.0000016784668,10|2,0:2|0:2,0:0:0:0:
39,344,14576,1,2,1:2:0:0:
144,375,14956,1,10,0:2:0:0:
238,320,15335,6,0,P|267:274|257:221,1,110.000003356934,2|10,1:2|0:2,0:0:0:0:
217,183,15905,1,2,0:2:0:0:
115,227,16285,1,2,0:2:0:0:
36,149,16664,2,0,L|58:41,1,110.000003356934,2|2,0:2|0:2,0:0:0:0:
113,39,17234,1,10,0:2:0:0:
113,39,17424,2,0,L|169:26,1,55.0000016784668,2|2,0:2|1:2,0:0:0:0:
225,32,17804,1,8,0:2:0:0:
225,32,17994,1,8,0:2:0:0:
329,64,18373,6,0,P|358:110|348:163,1,110.000003356934,6|10,1:2|0:2,0:0:0:0:
304,196,18943,1,2,0:2:0:0:
200,157,19323,1,2,0:2:0:0:
122,235,19702,2,0,L|144:343,1,110.000003356934,2|2,0:2|0:2,0:0:0:0:
196,360,20272,2,0,L|250:348,1,55.0000016784668,10|2,0:2|0:2,0:0:0:0:
281,302,20652,2,0,L|335:314,1,55.0000016784668,2|2,1:2|0:2,0:0:0:0:
388,328,21032,1,10,0:2:0:0:
473,258,21411,6,0,P|481:205|452:160,1,110.000003356934,2|10,1:2|0:2,0:0:0:0:
405,129,21981,1,2,0:2:0:0:
351,225,22361,2,0,L|297:214,1,55.0000016784668,2|8,0:2|0:2,0:0:0:0:
265,168,22740,2,0,L|157:190,1,110.000003356934,6|10,1:2|0:2,0:0:0:0:
104,165,23310,2,0,L|49:176,1,55.0000016784668,10|2,0:2|3:2,0:0:0:0:
3,205,23690,2,0,P|-3:260|20:312,1,110.000003356934,2|10,1:2|0:2,0:0:0:0:
107,373,24449,6,0,L|141:266,1,110.000003356934,2|14,1:2|0:2,0:0:0:0:
161,216,25019,1,2,0:2:0:0:
203,114,25399,1,2,0:2:0:0:
298,60,25778,2,0,L|406:82,1,110.000003356934,2|2,0:2|0:2,0:0:0:0:
457,102,26348,2,0,L|467:156,1,55.0000016784668,10|2,0:2|0:2,0:0:0:0:
496,203,26728,1,2,1:2:0:0:
385,205,27108,2,0,L|331:216,1,55.0000016784668,10|0,0:2|1:2,0:0:0:0:
277,226,27487,5,6,1:2:0:0:
194,153,27867,1,10,0:2:0:0:
194,153,28057,2,0,L|77:174,1,110.000003356934,2|2,0:2|0:2,0:0:0:0:
47,211,28627,1,10,0:2:0:0:
47,211,28816,1,2,0:0:0:0:
82,315,29196,1,2,0:2:0:0:
82,315,29386,2,0,L|190:293,1,110.000003356934,10|0,0:2|1:2,0:0:0:0:
244,283,29956,1,10,0:2:0:0:
244,283,30146,1,10,0:2:0:0:
344,239,30525,6,0,P|353:185|323:140,1,110.000003356934,6|10,1:2|0:2,0:0:0:0:
286,100,31095,1,2,0:2:0:0:
198,167,31475,2,0,L|144:177,1,55.0000016784668,2|10,0:2|0:2,0:0:0:0:
125,229,31854,2,0,L|147:337,1,110.000003356934,2|2,0:2|0:2,0:0:0:0:
190,370,32424,2,0,L|245:360,1,55.0000016784668,10|2,0:2|0:2,0:0:0:0:
279,317,32804,2,0,L|333:328,1,55.0000016784668,2|2,1:2|0:2,0:0:0:0:
386,342,33183,1,10,0:2:0:0:
490,300,33563,2,0,P|503:276|504:247,1,55.0000016784668,2|10,1:2|0:2,0:0:0:0:
487,195,33943,5,10,0:2:0:0:
487,195,34133,2,0,P|441:165|388:175,1,110.000003356934,10|10,0:2|0:2,0:0:0:0:
361,224,34702,1,10,0:2:0:0:
361,224,34892,1,6,1:2:0:0:
280,298,35272,1,10,0:2:0:0:
280,298,35462,2,0,L|225:288,1,55.0000016784668,10|2,3:2|1:2,0:0:0:0:
190,245,35842,2,0,L|200:190,1,55.0000016784668,2|0,1:2|1:2,0:0:0:0:
214,140,36221,5,10,0:2:0:0:
214,140,36411,1,10,0:2:0:0:
256,192,36506,12,0,39070,0:0:0:0:
