osu file format v14

[General]
AudioFilename: audio.mp3
AudioLeadIn: 0
PreviewTime: 12913
Countdown: 0
SampleSet: Soft
StackLeniency: 0.7
Mode: 0
LetterboxInBreaks: 0
WidescreenStoryboard: 1

[Editor]
DistanceSpacing: 1.4
BeatDivisor: 4
GridSize: 32
TimelineZoom: 1

[Metadata]
Title:45-byou
TitleUnicode:45秒
Artist:respon feat. Hatsune Miku & Megpoid
ArtistUnicode:れすぽん feat. 初音ミク & メグッポイド
Creator:crewfantasy
Version:Hard
Source:
Tags:resupon vocaloid japanese pop jpop j-pop gumi 45byou seconds leominexd leomine
BeatmapID:3668217
BeatmapSetID:1790029

[Difficulty]
HPDrainRate:4
CircleSize:3.5
OverallDifficulty:6
ApproachRate:7.4
SliderMultiplier:1.5
SliderTickRate:1

[Events]
//Background and Video events
0,0,"bg.jpg",0,0
//Break Periods
2,3145,5977
//Storyboard Layer 0 (Background)
//Storyboard Layer 1 (Fail)
//Storyboard Layer 2 (Pass)
//Storyboard Layer 3 (Foreground)
//Storyboard Layer 4 (Overlay)
//Storyboard Sound Samples

[TimingPoints]
623,387.096774193548,4,2,1,50,1,0
623,-125,4,2,1,50,0,0
9913,-125,4,2,1,78,0,0
11268,-111.111111111111,4,2,1,75,0,0
13010,-100,4,2,1,85,0,0
37784,-105.263157894737,4,2,1,78,0,0
39332,-105.263157894737,4,2,1,75,0,0

[Colours]
Combo1 : 252,112,112
Combo2 : 83,221,232
Combo3 : 80,237,163
Combo4 : 251,142,221

[HitObjects]
49,155,623,6,0,P|108:148|168:141,1,120,2|2,2:2|2:2,0:0:0:0:
292,27,1397,1,2,2:2:0:0:
292,27,1590,2,0,P|289:54|285:87,1,60,2|0,2:2|0:0,0:0:0:0:
357,148,1977,1,2,2:2:0:0:
357,148,2074,1,2,2:2:0:0:
357,148,2171,6,0,P|385:139|414:143,1,60,2|2,2:2|2:2,0:0:0:0:
419,227,2558,2,0,P|390:235|361:231,1,60,2|2,2:2|2:2,0:0:0:0:
284,196,2945,1,2,2:2:0:0:
463,155,6816,6,0,P|403:148|343:141,1,120,2|2,2:2|2:2,0:0:0:0:
220,27,7590,1,2,2:2:0:0:
220,27,7783,2,0,P|222:54|226:87,1,60,2|0,2:2|2:2,0:0:0:0:
155,148,8170,1,2,2:2:0:0:
155,148,8267,1,2,2:2:0:0:
155,148,8364,6,0,P|126:139|97:143,1,60,2|2,2:2|2:2,0:0:0:0:
93,227,8751,2,0,P|121:235|150:231,1,60,2|2,2:2|2:2,0:0:0:0:
228,196,9138,2,0,B|271:188|271:188|295:203|295:203|344:194,1,120,2|2,2:2|2:2,0:0:0:0:
466,316,9913,5,8,2:2:0:0:
466,316,10106,1,8,2:2:0:0:
500,69,10687,5,8,2:2:0:0:
500,69,10881,1,8,2:2:0:0:
332,230,11268,6,0,B|258:206|275:256|199:235,1,134.999995880127,4|8,1:2|2:2,0:0:0:0:
130,173,11848,2,0,P|138:136|145:99,1,67.4999979400635,8|8,2:2|2:2,0:0:0:0:
219,48,12235,2,0,P|225:81|233:113,1,67.4999979400635,8|8,2:2|2:2,0:0:0:0:
325,138,12622,2,0,P|341:133|357:130,3,33.7499989700318,8|0|0|0,2:2|3:3|3:3|3:3,0:0:0:0:
410,120,13010,6,0,P|417:156|425:193,1,75,4|2,1:2|2:2,0:0:0:0:
345,260,13397,2,0,P|337:296|329:333,1,75,10|0,2:2|0:0,0:0:0:0:
239,278,13784,1,2,1:2:0:0:
158,345,13977,2,0,P|101:351|39:271,1,150,2|2,1:2|2:2,0:0:0:0:
64,243,14461,1,2,2:2:0:0:
64,243,14558,6,0,P|55:206|48:169,1,75,2|2,1:2|2:2,0:0:0:0:
28,66,14945,2,0,P|64:74|101:81,1,75,10|2,2:2|2:2,0:0:0:0:
191,136,15332,2,0,B|245:126|245:126|281:145|281:145|334:135,1,150,2|8,1:2|2:2,0:0:0:0:
468,118,15913,1,2,2:2:0:0:
468,118,16010,1,2,2:2:0:0:
468,118,16106,6,0,B|449:105|446:76|446:76|428:181,1,150,4|10,1:2|2:2,0:0:0:0:
435,280,16687,2,0,B|362:256|362:256|292:280,1,150,2|2,2:2|1:2,0:0:0:0:
205,338,17268,2,0,P|198:301|190:264,1,75,8|2,2:2|2:2,0:0:0:0:
110,195,17655,6,0,P|117:158|125:121,1,75,2|2,1:2|2:2,0:0:0:0:
201,48,18042,1,10,2:2:0:0:
201,48,18235,1,2,2:2:0:0:
271,126,18429,2,0,P|307:131|343:120,1,75,2|0,1:2|1:1,0:0:0:0:
444,88,18816,2,0,P|447:69|450:51,3,37.5,8|0|8|0,2:2|0:0|2:2|3:3,0:0:0:0:
473,99,19203,6,0,P|484:134|479:170,1,75,4|2,1:2|2:2,0:0:0:0:
496,274,19590,2,0,P|460:266|423:259,1,75,10|0,2:2|0:0,0:0:0:0:
322,227,19977,1,2,1:2:0:0:
351,327,20171,2,0,B|270:298|286:359|204:333,1,150,2|2,1:2|2:2,0:0:0:0:
171,302,20655,1,2,2:2:0:0:
171,302,20752,6,0,P|159:266|164:230,1,75,2|2,1:2|2:2,0:0:0:0:
234,150,21139,2,0,P|245:114|240:78,1,75,10|2,2:2|2:2,0:0:0:0:
160,8,21526,2,0,P|103:2|41:82,1,150,2|10,1:2|2:2,0:0:0:0:
118,136,22106,1,2,2:2:0:0:
20,217,22300,6,0,P|93:231|166:248,1,150,4|10,1:2|2:2,0:0:0:0:
231,331,22881,1,2,2:2:0:0:
314,268,23074,2,0,P|325:232|320:196,1,75,2|2,1:2|1:2,0:0:0:0:
267,103,23461,1,10,2:2:0:0:
149,149,23655,6,0,B|166:248|166:248|169:219|188:206,1,150,4|0,1:2|1:1,0:0:0:0:
60,224,24235,2,0,P|66:260|75:297,1,75,14|10,2:2|2:2,0:0:0:0:
152,379,24622,2,0,P|154:360|158:342,2,37.5,10|0|8,2:2|0:0|2:2,0:0:0:0:
250,332,25010,1,8,2:2:0:0:
250,332,25106,1,0,3:3:0:0:
250,332,25203,2,0,P|271:337|290:341,1,37.5,0|8,3:3|2:2,0:0:0:0:
329,373,25397,6,0,P|365:365|402:358,1,75,4|2,1:2|2:2,0:0:0:0:
469,277,25784,2,0,P|433:269|396:262,1,75,10|0,2:2|0:0,0:0:0:0:
292,241,26171,1,2,1:2:0:0:
360,161,26364,2,0,P|315:103|242:104,1,150,2|2,1:2|2:2,0:0:0:0:
211,136,26848,1,2,2:2:0:0:
211,136,26945,6,0,P|175:147|139:142,1,75,2|2,1:2|2:2,0:0:0:0:
35,120,27332,2,0,P|43:156|50:193,1,75,10|2,2:2|2:2,0:0:0:0:
11,291,27719,2,0,P|84:305|157:322,1,150,2|8,1:2|2:2,0:0:0:0:
267,251,28300,1,2,2:2:0:0:
267,251,28397,1,2,2:2:0:0:
267,251,28493,6,0,P|275:287|282:324,1,75,4|0,1:2|0:0,0:0:0:0:
373,377,28881,2,0,P|381:341|388:304,1,75,10|2,2:2|2:2,0:0:0:0:
470,237,29268,1,2,1:2:0:0:
413,148,29461,2,0,B|422:98|432:41|432:41|391:69,1,150,2|2,1:2|2:2,0:0:0:0:
305,141,30042,5,2,1:2:0:0:
240,54,30235,1,2,2:2:0:0:
240,54,30332,1,0,0:0:0:0:
240,54,30429,1,14,2:2:0:0:
202,167,30622,2,0,P|198:185|195:204,2,37.5,2|0|2,2:2|0:0|1:2,0:0:0:0:
85,197,31010,1,0,1:1:0:0:
61,80,31203,2,0,P|58:61|54:42,3,37.5,12|0|0|0,2:2|3:3|3:3|3:3,0:0:0:0:
92,6,31590,6,0,P|128:13|165:21,1,75,4|2,1:2|2:2,0:0:0:0:
238,96,31977,2,0,P|274:88|311:80,1,75,10|0,2:2|0:0,0:0:0:0:
400,24,32364,1,2,1:2:0:0:
464,107,32558,2,0,P|484:157|437:244,1,150,2|2,1:2|2:2,0:0:0:0:
406,273,33042,1,2,2:2:0:0:
406,273,33139,6,0,P|369:265|332:257,1,75,2|2,1:2|2:2,0:0:0:0:
261,180,33526,2,0,P|297:172|334:164,1,75,10|2,2:2|2:2,0:0:0:0:
276,76,33913,2,0,B|222:66|222:66|186:85|186:85|133:75,1,150,2|10,1:2|2:2,0:0:0:0:
45,133,34493,1,2,2:2:0:0:
135,225,34687,6,0,P|121:298|104:371,1,150,4|10,1:2|2:2,0:0:0:0:
37,285,35268,1,2,2:2:0:0:
160,313,35461,2,0,P|233:327|306:344,1,150,4|8,1:2|2:2,0:0:0:0:
415,264,36042,6,0,B|397:362|397:362|409:336|432:330,1,150,4|2,1:2|3:2,0:0:0:0:
507,257,36622,1,2,3:2:0:0:
507,257,36816,1,2,3:2:0:0:
437,165,37010,5,2,3:2:0:0:
437,165,37106,1,0,0:0:0:0:
437,165,37203,2,0,P|419:161|400:158,1,37.5,8|0,2:2|0:0,0:0:0:0:
355,130,37397,2,0,P|337:132|318:136,3,37.5,8|0|8|0,2:2|0:0|2:2|0:0,0:0:0:0:
284,106,37784,5,12,2:2:0:0:
284,106,37977,1,8,2:2:0:0:
84,329,38558,5,8,2:2:0:0:
84,329,38752,1,8,2:2:0:0:
111,31,39332,6,0,P|119:67|127:104,1,71.2499980974198,8|10,2:2|2:2,0:0:0:0:
169,135,39622,1,8,2:2:0:0:
169,135,39719,2,0,P|161:171|153:208,1,71.2499980974198,10|10,2:2|2:2,0:0:0:0:
209,287,40106,1,10,2:2:0:0:
292,231,40300,1,10,2:2:0:0:
384,321,40493,5,14,2:2:0:0:
