osu file format v14

[General]
AudioFilename: audio.mp3
AudioLeadIn: 0
PreviewTime: 52021
Countdown: 0
SampleSet: Soft
StackLeniency: 0.7
Mode: 0
LetterboxInBreaks: 0
WidescreenStoryboard: 1

[Editor]
Bookmarks: 52100,85974,113995
DistanceSpacing: 0.6
BeatDivisor: 3
GridSize: 32
TimelineZoom: 1.8

[Metadata]
Title:Chubyou Gekihatsu Boy
TitleUnicode:厨病激発ボーイ
Artist:rerulili feat. Kagamine Len
ArtistUnicode:れるりり feat. 鏡音レン
Creator:Nevo
Version:Hard
Source:厨病激発ボーイ
Tags:toushahip 当社比P young disease outburst 鏡音レン soop so0p kudosu maiev stack Gottagof4st vocaloid japanese novelty anime rock Dreamer Juubyou cut
BeatmapID:2355110
BeatmapSetID:1096975

[Difficulty]
HPDrainRate:4
CircleSize:3.8
OverallDifficulty:7
ApproachRate:8
SliderMultiplier:1.4
SliderTickRate:1

[Events]
//Background and Video events
0,0,"effb7672-8f2d-4423-8472-4ca39d717cf8.jpg",0,0
//Break Periods
2,25824,29611
//Storyboard Layer 0 (Background)
//Storyboard Layer 1 (Fail)
//Storyboard Layer 2 (Pass)
//Storyboard Layer 3 (Foreground)
//Storyboard Layer 4 (Overlay)
//Storyboard Sound Samples

[TimingPoints]
361,315.789473684211,4,2,1,70,1,0
5413,-100,4,2,1,80,0,0
30361,-100,4,2,1,70,0,0
52150,-83.3333333333333,4,2,1,90,0,1
64782,-83.3333333333333,4,2,1,90,0,0
67308,333.333333333333,4,2,1,90,1,0
68641,-133.333333333333,4,2,1,70,0,0
103242,315.789473684211,4,2,1,65,1,0
112084,-100,4,2,1,80,0,0
113347,-83.3333333333333,4,2,1,90,0,1
125978,-83.3333333333333,4,2,1,80,0,0

[Colours]
Combo1 : 192,192,192
Combo2 : 245,3,160
Combo3 : 14,187,237
Combo4 : 205,253,115

[HitObjects]
426,299,361,6,0,P|382:291|358:266,1,70,2|2,0:2|0:2,0:0:0:0:
342,239,597,1,2,0:2:0:0:
342,239,676,2,0,L|348:160,1,70,2|2,0:2|0:2,0:0:0:0:
428,130,992,2,0,L|422:51,1,70,2|2,0:2|0:2,0:0:0:0:
353,14,1308,1,2,0:2:0:0:
291,89,1466,6,0,P|251:99|216:98,1,70,2|0,0:2|0:0,0:0:0:0:
136,52,1782,1,2,0:2:0:0:
136,52,1861,1,2,0:2:0:0:
136,52,1939,2,0,P|88:52|58:60,1,70,2|2,0:2|0:2,0:0:0:0:
14,132,2255,2,0,L|21:208,1,70,2|2,0:2|0:2,0:0:0:0:
103,241,2571,2,0,L|96:317,1,70,2|2,0:2|0:2,0:0:0:0:
53,380,2887,6,0,P|85:368|141:373,1,70,2|2,0:2|0:2,0:0:0:0:
165,378,3124,1,2,0:2:0:0:
165,378,3203,2,0,L|250:370,1,70,2|2,0:2|0:2,0:0:0:0:
338,363,3518,1,2,0:2:0:0:
431,355,3676,1,2,0:2:0:0:
427,267,3834,1,2,0:2:0:0:
329,269,3992,6,0,L|169:262,1,140,2|2,0:2|0:2,0:0:0:0:
169,231,4387,1,2,0:2:0:0:
169,231,4466,2,0,P|152:181|155:151,1,70,2|2,0:2|0:2,0:0:0:0:
233,131,4782,2,0,P|250:81|247:51,1,70,2|2,0:2|0:2,0:0:0:0:
205,1,5097,1,2,0:2:0:0:
205,1,5413,6,0,L|112:12,1,70,6|2,1:2|0:2,0:0:0:0:
57,56,5729,1,10,0:0:0:0:
123,107,5887,1,2,0:2:0:0:
46,161,6045,2,0,P|24:204|16:233,1,70,2|6,1:2|0:3,0:0:0:0:
38,310,6361,1,10,0:0:0:0:
136,268,6518,6,0,P|183:252|290:258,1,140,2|2,1:2|1:2,0:0:0:0:
307,279,6913,1,2,0:0:0:0:
307,279,6992,2,0,L|387:270,1,70,10|2,0:0|0:0,0:0:0:0:
433,200,7308,2,0,L|518:222,1,70,2|2,1:2|0:0,0:0:0:0:
512,304,7624,2,0,P|512:338|503:372,1,70,10|2,0:0|0:0,0:0:0:0:
404,384,7939,6,0,P|342:371|264:382,1,140,6|10,1:2|0:0,0:0:0:0:
178,343,8413,1,2,0:2:0:0:
237,272,8571,2,0,P|250:214|243:179,1,70,2|6,1:2|0:3,0:0:0:0:
235,117,8887,1,10,0:0:0:0:
161,167,9045,6,0,P|126:187|31:150,1,140,2|2,1:2|1:2,0:0:0:0:
19,135,9439,1,2,0:0:0:0:
19,135,9518,2,0,L|12:57,1,70,10|2,0:0|0:0,0:0:0:0:
74,6,9834,1,2,1:2:0:0:
129,73,9992,1,2,1:2:0:0:
214,7,10150,1,10,0:0:0:0:
214,7,10466,6,0,L|311:22,1,70,6|2,1:2|0:2,0:0:0:0:
321,45,10703,1,2,0:2:0:0:
321,45,10782,2,0,L|418:30,1,70,10|2,0:0|0:2,0:0:0:0:
477,0,11097,1,2,1:2:0:0:
512,84,11255,1,6,0:3:0:0:
474,167,11413,1,10,0:0:0:0:
391,211,11571,6,0,P|327:207|236:236,1,140,2|2,1:2|1:2,0:0:0:0:
224,256,11966,1,2,0:0:0:0:
224,256,12045,2,0,L|240:355,1,70,10|2,0:0|0:0,0:0:0:0:
316,368,12361,2,0,P|353:369|385:356,1,70,2|2,1:2|0:0,0:0:0:0:
421,277,12676,2,0,L|424:200,1,70,10|2,0:0|0:0,0:0:0:0:
405,115,12992,6,0,P|356:140|263:118,1,140,2|10,1:2|0:0,0:0:0:0:
211,67,13466,1,2,0:2:0:0:
175,151,13624,2,0,L|83:144,1,70,2|6,1:2|0:3,0:0:0:0:
41,93,13939,1,10,0:0:0:0:
0,179,14097,6,0,P|-12:228|10:323,1,140,2|10,1:2|0:0,0:0:0:0:
36,331,14492,1,10,0:0:0:0:
36,331,14571,2,0,L|117:319,1,70,10|10,0:0|0:0,0:0:0:0:
180,283,14887,2,0,L|252:295,1,70,2|8,1:2|0:0,0:0:0:0:
305,362,15203,2,0,P|351:360|384:344,1,70,10|0,0:0|0:0,0:0:0:0:
426,279,15518,6,0,L|454:126,2,140,6|10|2,1:2|0:0|1:2,0:0:0:0:
372,351,16308,1,2,1:2:0:0:
319,277,16466,1,10,0:0:0:0:
242,323,16624,2,0,L|147:330,1,70,2|0,1:2|0:0,0:0:0:0:
116,241,16939,1,2,1:2:0:0:
116,241,17097,2,0,L|211:248,1,70,10|2,0:0|0:0,0:0:0:0:
263,198,17413,2,0,P|263:163|251:130,1,70,2|0,1:2|1:2,0:0:0:0:
178,82,17729,2,0,P|177:47|189:14,1,70,10|2,0:0|0:0,0:0:0:0:
299,20,18045,6,0,L|449:4,2,140,2|10|2,1:2|0:0|1:2,0:0:0:0:
261,108,18834,1,2,1:2:0:0:
178,82,18992,1,10,0:0:0:0:
104,148,19150,6,0,L|11:139,1,70,2|0,1:2|0:0,0:0:0:0:
90,239,19466,1,2,1:2:0:0:
90,239,19624,2,0,L|183:230,1,70,8|2,0:2|0:0,0:0:0:0:
254,181,19939,1,2,1:2:0:0:
254,181,20018,1,8,0:0:0:0:
254,181,20097,1,0,1:2:0:0:
294,270,20255,1,10,0:0:0:0:
294,270,20571,6,0,P|375:256|435:297,2,140,6|10|2,1:2|0:0|1:2,0:0:0:0:
349,354,21361,2,0,L|418:362,1,70,2|10,1:2|0:0,0:0:0:0:
512,295,21676,6,0,P|504:248|487:223,1,70,2|0,1:2|0:0,0:0:0:0:
421,166,21992,1,2,1:2:0:0:
465,96,22150,1,10,0:0:0:0:
410,30,22308,1,2,0:0:0:0:
332,50,22466,2,0,L|253:60,1,70,2|0,1:2|1:2,0:0:0:0:
188,122,22782,2,0,L|118:113,1,70,10|2,0:0|0:0,0:0:0:0:
34,64,23097,6,0,P|24:134|99:192,2,140,2|10|2,1:2|0:0|1:2,0:0:0:0:
105,15,23887,1,0,1:2:0:0:
174,67,24045,1,10,0:0:0:0:
258,25,24203,6,0,B|299:11|343:16|343:16|372:44|408:48,1,140,2|2,1:2|1:2,0:0:0:0:
466,28,24676,1,10,0:2:0:0:
502,124,24834,1,2,0:0:0:0:
502,124,24913,1,8,0:0:0:0:
502,124,24992,2,0,L|482:221,1,70,2|0,1:2|1:2,0:0:0:0:
424,248,25308,2,0,L|436:306,3,35,10|8|8|8,0:0|0:0|0:0|0:0,0:0:0:0:
415,328,25624,5,6,1:2:0:0:
327,341,30361,5,10,0:0:0:0:
327,341,30676,6,0,P|333:293|316:204,1,140,6|10,1:2|0:0,0:0:0:0:
250,151,31150,1,0,0:0:0:0:
341,111,31308,2,0,L|433:123,2,70,2|2|10,1:2|1:2|0:0,0:0:0:0:
254,58,31782,6,0,P|219:56|168:70,1,70,2|0,1:2|0:0,0:0:0:0:
112,131,32097,1,2,1:2:0:0:
112,131,32176,1,2,0:0:0:0:
112,131,32255,2,0,L|107:200,1,70,10|2,0:0|0:0,0:0:0:0:
136,291,32571,2,0,P|89:285|42:300,2,70,0|0|10,1:2|1:2|0:0,0:0:0:0:
215,324,33045,1,2,0:0:0:0:
298,260,33203,6,0,B|347:250|347:250|398:271|446:242,1,140,2|10,1:2|0:0,0:0:0:0:
475,167,33676,1,0,0:0:0:0:
378,99,33834,2,0,P|379:134|389:168,2,70,2|0|10,1:2|1:2|0:0,0:0:0:0:
485,97,34308,6,0,L|470:195,1,70,2|0,1:2|0:0,0:0:0:0:
497,248,34624,1,2,1:2:0:0:
450,323,34782,2,0,P|399:325|371:314,1,70,8|2,0:2|0:0,0:0:0:0:
315,258,35097,2,0,L|322:219,2,35,2|8|2,1:2|0:0|1:2,0:0:0:0:
294,346,35413,1,10,0:0:0:0:
294,346,35729,6,0,P|216:322|152:337,1,140,6|10,1:2|0:0,0:0:0:0:
88,369,36203,1,0,0:0:0:0:
49,300,36361,2,0,L|-18:321,2,70,2|2|10,1:2|1:2|0:0,0:0:0:0:
129,237,36834,6,0,P|133:185|129:146,1,70,2|0,1:2|0:0,0:0:0:0:
49,130,37150,2,0,P|45:78|49:39,1,70,2|8,1:2|0:0,0:0:0:0:
112,2,37466,1,2,0:0:0:0:
183,61,37624,2,0,L|259:46,1,70,2|2,1:2|1:2,0:0:0:0:
341,13,37939,2,0,L|422:23,1,70,10|2,0:0|0:0,0:0:0:0:
488,73,38255,6,0,P|498:113|471:221,1,140,2|10,1:2|0:0,0:0:0:0:
426,279,38729,1,0,0:0:0:0:
345,227,38887,2,0,L|352:144,2,70,2|2|10,1:2|1:2|0:0,0:0:0:0:
290,293,39361,6,0,P|225:268|153:285,1,140,2|10,1:2|0:2,0:0:0:0:
122,303,39755,1,8,0:0:0:0:
122,303,39834,2,0,P|71:308|29:282,1,70,10|6,0:2|0:3,0:0:0:0:
26,272,40071,1,6,0:3:0:0:
26,272,40150,2,0,L|34:189,1,70,6|6,0:3|0:3,0:0:0:0:
76,107,40466,2,0,P|119:87|146:87,1,70,6|6,0:3|0:3,0:0:0:0:
229,136,40782,6,0,L|319:130,1,70,6|2,1:2|0:0,0:0:0:0:
253,43,41097,1,10,0:0:0:0:
253,43,41254,1,2,0:0:0:0:
168,72,41413,2,0,P|146:115|143:162,1,70,2|2,1:2|0:0,0:0:0:0:
192,217,41729,1,10,0:0:0:0:
192,217,41887,2,0,P|214:260|217:307,1,70,2|0,0:0|1:2,0:0:0:0:
171,349,42203,2,0,L|96:354,2,70,2|10|2,0:0|0:0|0:0,0:0:0:0:
298,303,42676,2,0,L|340:312,3,35,10|10|8|8,0:0|0:0|0:0|0:0,0:0:0:0:
363,318,42992,5,4,1:2:0:0:
363,318,43308,6,0,P|390:271|396:243,1,70,6|2,1:2|0:0,0:0:0:0:
316,180,43624,2,0,P|302:127|303:99,1,70,8|2,0:0|0:0,0:0:0:0:
427,46,43939,1,0,1:2:0:0:
512,78,44097,1,2,0:0:0:0:
482,162,44255,1,8,0:0:0:0:
382,126,44413,6,0,B|339:110|339:110|230:147,1,140,2|2,0:0|0:0,0:0:0:0:
162,167,44887,2,0,L|73:156,1,70,10|2,0:0|0:0,0:0:0:0:
46,87,45203,2,0,L|35:45,3,35,6|4|4|4,0:3|0:3|0:3|0:3,0:0:0:0:
43,33,45518,2,0,L|129:50,1,70,4|6,0:3|0:3,0:0:0:0:
180,87,45834,6,0,P|229:99|302:43,1,140,6|10,1:2|0:0,0:0:0:0:
387,8,46308,1,2,0:0:0:0:
417,97,46466,2,0,P|397:147|391:185,1,70,2|2,1:2|0:0,0:0:0:0:
450,227,46782,1,10,0:0:0:0:
450,227,46939,6,0,P|470:277|476:315,1,70,2|0,0:0|1:2,0:0:0:0:
360,354,47255,2,0,P|380:304|386:266,1,70,2|10,0:0|0:0,0:0:0:0:
321,230,47571,1,2,0:0:0:0:
247,279,47729,2,0,L|160:288,1,70,2|2,1:2|0:0,0:0:0:0:
106,234,48045,2,0,L|19:225,1,70,10|2,0:0|0:0,0:0:0:0:
0,132,48361,6,0,P|-5:99|9:43,1,70,6|0,1:2|0:0,0:0:0:0:
93,25,48676,2,0,P|98:59|93:93,1,70,0|8,1:0|0:0,0:0:0:0:
61,175,48992,2,0,L|-14:183,2,70,0|0|8,0:0|1:0|0:0,0:0:0:0:
158,148,49466,1,0,1:0:0:0:
227,222,49624,6,0,L|315:243,1,70,10|10,0:0|0:0,0:0:0:0:
392,268,49939,1,8,0:0:0:0:
455,101,50255,2,0,L|386:117,1,70,10|8,0:0|0:0,0:0:0:0:
308,145,50571,1,8,0:0:0:0:
150,147,50887,5,10,0:0:0:0:
150,147,51203,6,0,L|141:69,1,70,2|0,0:0|0:0,0:0:0:0:
255,26,51518,2,0,L|234:99,1,70,2|0,0:0|0:0,0:0:0:0:
217,208,51834,1,8,0:0:0:0:
217,208,52150,6,0,P|266:191|332:193,1,83.9999974365235,6|2,1:2|0:0,0:0:0:0:
378,225,52466,2,0,L|395:317,1,83.9999974365235,10|2,0:0|0:0,0:0:0:0:
340,374,52782,1,2,1:2:0:0:
340,374,52939,1,2,1:2:0:0:
238,339,53097,1,10,0:0:0:0:
138,384,53255,6,0,B|118:301|118:301|139:267|129:222,1,167.999994873047,2|2,1:2|1:2,0:0:0:0:
116,196,53650,1,2,0:0:0:0:
116,196,53729,2,0,P|95:152|99:106,1,83.9999974365235,10|2,0:0|0:0,0:0:0:0:
174,53,54045,2,0,L|163:12,2,41.9999987182618,2|8|0,1:2|0:0|1:2,0:0:0:0:
258,110,54361,1,8,0:0:0:0:
258,110,54676,6,0,L|245:201,1,83.9999974365235,2|2,1:2|0:0,0:0:0:0:
353,146,54992,2,0,L|340:55,1,83.9999974365235,10|2,0:0|0:0,0:0:0:0:
442,88,55308,2,0,P|459:126|459:167,1,83.9999974365235,2|2,1:2|1:2,0:0:0:0:
347,239,55624,2,0,P|329:277|329:318,1,83.9999974365235,10|2,0:0|1:2,0:0:0:0:
349,347,55861,1,2,0:0:0:0:
349,347,55939,6,0,L|438:336,1,83.9999974365235,2|2,0:0|1:2,0:0:0:0:
512,266,56255,2,0,L|423:255,1,83.9999974365235,10|2,0:0|0:0,0:0:0:0:
340,201,56571,2,0,L|347:158,2,41.9999987182618,2|8|0,1:2|0:0|1:2,0:0:0:0:
261,256,56887,1,10,0:0:0:0:
261,256,57203,6,0,P|148:255|89:312,2,167.999994873047,6|10|2,1:2|0:0|1:2,0:0:0:0:
288,343,57992,1,2,1:2:0:0:
288,343,58150,1,10,0:0:0:0:
190,343,58308,6,0,B|170:298|170:298|197:162,1,167.999994873047,2|2,1:2|1:2,0:0:0:0:
240,99,58782,1,10,0:0:0:0:
313,168,58939,1,2,0:0:0:0:
313,168,59018,1,8,0:0:0:0:
313,168,59097,2,0,L|404:154,1,83.9999974365235,2|0,1:2|1:2,0:0:0:0:
441,71,59413,2,0,L|350:57,1,83.9999974365235,8|2,0:0|0:0,0:0:0:0:
245,16,59729,6,0,P|185:14|148:30,1,83.9999974365235,2|2,1:2|0:0,0:0:0:0:
89,104,60045,2,0,P|130:104|169:119,1,83.9999974365235,10|2,0:0|0:0,0:0:0:0:
241,190,60361,2,0,L|233:280,1,83.9999974365235,2|2,1:2|1:2,0:0:0:0:
334,334,60676,2,0,L|326:244,1,83.9999974365235,8|2,0:0|1:2,0:0:0:0:
348,162,60992,6,0,P|383:138|436:129,1,83.9999974365235,2|2,0:0|1:2,0:0:0:0:
506,166,61308,1,10,0:0:0:0:
497,82,61466,1,2,0:0:0:0:
497,82,61545,1,8,0:0:0:0:
497,82,61624,2,0,L|482:-5,1,83.9999974365235,2|0,1:2|1:2,0:0:0:0:
403,55,61939,2,0,L|393:101,3,41.9999987182618,8|8|10|10,0:0|0:0|0:0|0:0,0:0:0:0:
372,122,62255,6,0,P|317:110|270:120,1,83.9999974365235,6|0,1:2|0:0,0:0:0:0:
212,183,62571,2,0,P|157:195|110:185,1,83.9999974365235,10|0,0:0|0:0,0:0:0:0:
50,162,62887,1,2,1:2:0:0:
50,162,63045,2,0,L|35:70,1,83.9999974365235,2|10,1:2|0:0,0:0:0:0:
107,18,63361,1,2,1:2:0:0:
155,122,63518,6,0,L|138:207,2,83.9999974365235,2|2|10,0:0|1:2|0:0,0:0:0:0:
262,70,63992,2,0,P|311:60|360:63,1,83.9999974365235,2|0,0:0|1:2,0:0:0:0:
437,151,64308,2,0,P|387:154|340:169,1,83.9999974365235,0|8,1:2|0:0,0:0:0:0:
278,217,64624,1,2,0:2:0:0:
320,328,64782,6,0,L|433:338,2,83.9999974365235,6|0|2,1:2|1:2|1:2,0:0:0:0:
192,328,65413,2,0,L|79:338,2,83.9999974365235,2|0|10,1:2|1:2|0:0,0:0:0:0:
253,260,65887,1,6,1:2:0:0:
185,112,66203,5,2,1:2:0:0:
185,112,66361,1,6,1:2:0:0:
22,193,66676,6,0,P|74:178|118:182,1,83.9999974365235,10|0,0:0|0:0,0:0:0:0:
103,179,66913,1,8,0:0:0:0:
103,179,66992,1,0,1:2:0:0:
338,252,67308,6,0,L|345:302,2,46.6666666666667,8|4|4,0:0|0:3|0:3,0:0:0:0:
412,226,67641,2,0,L|419:276,2,46.6666666666667,4|4|4,0:3|0:3|0:3,0:0:0:0:
347,169,67974,2,0,L|354:123,2,46.6666666666667,8|4|4,0:0|0:3|0:3,0:0:0:0:
273,143,68308,2,0,L|280:97,2,46.6666666666667,4|4|4,0:3|0:3|0:3,0:0:0:0:
201,210,68641,6,0,P|168:205|112:230,2,70.0000026702882,6|0|0,1:2|0:0|0:0,0:0:0:0:
264,275,69308,2,0,L|276:347,2,70.0000026702882,10|0|0,0:0|0:0|1:0,0:0:0:0:
306,197,69974,2,0,P|337:183|372:183,2,70.0000026702882,2|0|2,1:2|0:0|0:0,0:0:0:0:
264,275,70641,6,0,L|186:270,1,70.0000026702882,8|2,0:0|0:0,0:0:0:0:
101,231,71085,1,2,0:0:0:0:
145,156,71308,2,0,P|147:117|136:62,1,70.0000026702882,2|2,1:2|0:0,0:0:0:0:
92,13,71752,1,2,0:0:0:0:
180,14,71974,2,0,L|270:29,1,70.0000026702882,10|0,0:0|0:0,0:0:0:0:
310,79,72419,1,0,1:2:0:0:
398,64,72641,6,0,P|425:27|426:-3,2,70.0000026702882,2|0|2,1:2|0:0|0:0,0:0:0:0:
400,156,73308,2,0,P|445:148|467:128,2,70.0000026702882,10|0|2,0:0|0:0|0:0,0:0:0:0:
298,200,73974,2,0,P|252:192|230:172,2,70.0000026702882,6|2|2,1:2|0:0|0:0,0:0:0:0:
361,266,74641,2,0,P|323:293|293:294,2,70.0000026702882,10|0|2,0:0|0:0|1:2,0:0:0:0:
378,171,75307,6,0,L|364:91,1,70.0000026702882,2|2,1:2|0:0,0:0:0:0:
293,39,75752,1,2,0:0:0:0:
243,129,75974,2,0,L|229:209,1,70.0000026702882,10|2,0:0|0:0,0:0:0:0:
189,282,76419,1,2,0:0:0:0:
107,214,76641,6,0,L|74:223,2,35.0000013351441,10|8|8,0:0|0:0|0:3,0:0:0:0:
76,142,76974,2,0,L|43:151,2,35.0000013351441,8|10|8,0:3|0:3|0:3,0:0:0:0:
134,78,77307,2,0,L|167:87,2,35.0000013351441,10|8|10,0:0|0:0|0:3,0:0:0:0:
165,6,77640,2,0,L|198:15,2,35.0000013351441,8|10|8,0:3|0:3|0:3,0:0:0:0:
63,11,77974,6,0,L|77:70,2,35.0000013351441,12|8|8,0:2|0:0|0:0,0:0:0:0:
48,89,78307,2,0,L|34:148,2,35.0000013351441,10|10|8,0:0|0:0|0:0,0:0:0:0:
63,164,78641,2,0,L|77:223,2,35.0000013351441,8|8|8,0:3|0:3|0:0,0:0:0:0:
48,242,78974,2,0,L|34:301,2,35.0000013351441,8|8|8,0:3|0:3|0:0,0:0:0:0:
191,169,79307,6,0,L|180:93,2,70.0000026702882,6|0|0,1:2|0:0|0:0,0:0:0:0:
275,178,79974,2,0,L|264:102,2,70.0000026702882,8|0|2,0:0|0:0|1:2,0:0:0:0:
361,190,80641,2,0,L|350:114,2,70.0000026702882,0|0|2,1:2|0:0|0:0,0:0:0:0:
369,299,81307,5,10,0:0:0:0:
302,263,81530,1,0,0:0:0:0:
230,232,81752,1,0,0:0:0:0:
150,206,81974,2,0,L|161:282,2,70.0000026702882,0|2|2,1:2|0:0|0:0,0:0:0:0:
69,256,82641,2,0,L|80:332,2,70.0000026702882,8|2|0,0:0|0:0|1:2,0:0:0:0:
52,171,83307,5,10,0:0:0:0:
71,89,83530,1,0,0:0:0:0:
152,53,83752,1,0,0:0:0:0:
233,88,83974,2,0,L|220:173,2,70.0000026702882,10|2|0,0:0|0:0|0:0,0:0:0:0:
287,10,84641,6,0,P|321:4|354:13,1,70.0000026702882,6|0,1:2|0:0,0:0:0:0:
433,58,85085,1,0,0:0:0:0:
455,142,85307,2,0,L|446:245,1,70.0000026702882,10|0,0:2|0:0,0:0:0:0:
386,269,85752,1,0,1:2:0:0:
305,239,85974,2,0,P|255:227|219:241,1,70.0000026702882,0|0,1:2|0:0,0:0:0:0:
173,288,86419,1,0,0:0:0:0:
111,217,86641,2,0,L|116:147,1,70.0000026702882,10|0,0:0|0:0,0:0:0:0:
171,78,87085,1,0,0:0:0:0:
250,132,87307,6,0,P|284:131|316:117,2,70.0000026702882,0|2|2,1:2|0:0|0:0,0:0:0:0:
171,78,87974,2,0,P|145:54|112:41,2,70.0000026702882,8|2|2,0:0|0:0|1:2,0:0:0:0:
177,159,88641,6,0,L|160:209,1,35.0000013351441,6|2,1:2|0:0,0:0:0:0:
86,172,88863,2,0,L|69:222,3,35.0000013351441,10|10|8|0,0:0|0:0|0:0|0:0,0:0:0:0:
135,266,89307,2,0,L|118:316,1,35.0000013351441,6|6,0:3|0:3,0:0:0:0:
37,291,89530,2,0,L|20:341,3,35.0000013351441,6|6|4|0,0:3|0:3|0:3|0:0,0:0:0:0:
87,371,89974,6,0,P|52:374|19:385,2,70.0000026702882,6|0|0,1:2|0:0|0:0,0:0:0:0:
175,298,90641,2,0,P|147:275|116:260,2,70.0000026702882,14|0|0,0:0|0:0|1:2,0:0:0:0:
274,311,91307,2,0,P|270:276|259:243,2,70.0000026702882,2|0|2,1:2|0:0|0:0,0:0:0:0:
346,378,91974,1,8,0:0:0:0:
416,322,92196,1,2,0:0:0:0:
438,236,92419,1,2,0:0:0:0:
387,163,92641,6,0,L|303:152,1,70.0000026702882,6|0,1:2|0:0,0:0:0:0:
253,93,93085,1,0,0:0:0:0:
192,154,93307,2,0,L|108:165,1,70.0000026702882,10|0,0:0|0:0,0:0:0:0:
48,221,93752,1,2,1:2:0:0:
3,147,93974,6,0,P|-3:102|2:68,2,70.0000026702882,2|0|0,1:2|0:0|0:0,0:0:0:0:
48,221,94641,2,0,P|50:255|44:290,2,70.0000026702882,10|0|0,0:0|0:0|0:0,0:0:0:0:
3,147,95307,5,6,1:2:0:0:
160,174,95641,2,0,L|155:232,2,35.0000013351441,8|2|0,0:0|1:2|1:2,0:0:0:0:
205,106,95974,2,0,P|254:90|281:94,1,70.0000026702882,8|0,0:0|0:0,0:0:0:0:
332,145,96307,2,0,L|323:197,2,35.0000013351441,8|2|0,0:0|1:2|1:2,0:0:0:0:
382,80,96641,2,0,P|427:64|470:67,1,70.0000026702882,14|0,0:0|0:0,0:0:0:0:
506,125,96974,6,0,L|499:171,2,35.0000013351441,8|2|2,0:0|1:2|1:2,0:0:0:0:
443,221,97307,2,0,L|446:259,2,35.0000013351441,10|10|10,0:2|0:0|0:0,0:0:0:0:
512,299,97641,2,0,L|506:347,2,35.0000013351441,10|10|10,0:0|0:0|0:0,0:0:0:0:
439,374,97974,5,6,1:2:0:0:
256,192,98085,12,0,100974,0:0:0:0:
341,348,103242,5,2,0:0:0:0:
380,260,104505,1,2,0:0:0:0:
385,154,105768,1,2,0:0:0:0:
314,59,107031,5,2,0:0:0:0:
201,61,107663,1,2,0:0:0:0:
113,129,108294,5,2,0:0:0:0:
98,252,109557,1,2,0:0:0:0:
195,353,110820,1,2,0:0:0:0:
323,225,112084,6,0,L|339:136,2,70,6|2|2,1:2|0:0|1:2,0:0:0:0:
250,296,112557,1,2,0:0:0:0:
164,248,112715,2,0,P|101:235|76:244,1,70,2|0,1:2|0:0,0:0:0:0:
55,252,112952,1,8,0:0:0:0:
55,252,113031,2,0,L|35:169,1,70,8|8,0:0|0:0,0:0:0:0:
77,61,113347,6,0,P|126:44|192:46,1,83.9999974365235,6|2,1:2|0:0,0:0:0:0:
268,82,113663,2,0,L|283:164,1,83.9999974365235,10|2,0:0|0:0,0:0:0:0:
277,252,113979,1,2,1:2:0:0:
281,256,114136,1,2,1:2:0:0:
387,270,114294,1,10,0:0:0:0:
470,207,114452,6,0,B|470:135|446:89|446:89|431:116|412:149,1,167.999994873047,2|2,1:2|1:2,0:0:0:0:
393,153,114847,1,2,0:0:0:0:
393,153,114926,2,0,P|349:174|303:170,1,83.9999974365235,10|2,0:0|0:0,0:0:0:0:
242,107,115242,2,0,L|245:63,2,41.9999987182618,2|8|0,1:2|0:0|1:2,0:0:0:0:
181,185,115558,1,8,0:0:0:0:
181,185,115873,6,0,L|85:173,1,83.9999974365235,2|2,1:2|0:0,0:0:0:0:
29,257,116189,2,0,L|126:269,1,83.9999974365235,10|2,0:0|0:0,0:0:0:0:
238,340,116505,2,0,P|279:339|317:322,1,83.9999974365235,2|2,1:2|1:2,0:0:0:0:
382,248,116821,2,0,P|343:230|302:230,1,83.9999974365235,10|2,0:0|1:2,0:0:0:0:
263,254,117058,1,2,0:0:0:0:
263,254,117136,6,0,L|274:165,1,83.9999974365235,2|2,0:0|1:2,0:0:0:0:
162,109,117452,2,0,L|178:198,1,83.9999974365235,10|2,0:0|0:0,0:0:0:0:
119,269,117768,2,0,L|112:312,2,41.9999987182618,2|8|0,1:2|0:0|1:2,0:0:0:0:
72,190,118084,1,10,0:0:0:0:
72,190,118400,6,0,B|44:70|44:70|74:22,2,167.999994873047,6|10|2,1:2|0:0|1:2,0:0:0:0:
119,269,119189,1,2,1:2:0:0:
176,191,119347,1,10,0:0:0:0:
263,254,119505,6,0,B|308:274|308:274|444:247,1,167.999994873047,2|2,1:2|1:2,0:0:0:0:
476,172,119979,1,10,0:0:0:0:
396,117,120136,1,2,0:0:0:0:
396,117,120215,1,8,0:0:0:0:
396,117,120294,2,0,L|304:103,1,83.9999974365235,2|0,1:2|1:2,0:0:0:0:
278,10,120610,2,0,L|369:24,1,83.9999974365235,8|2,0:0|0:0,0:0:0:0:
477,72,120926,6,0,P|487:112|482:153,1,83.9999974365235,2|2,1:2|0:0,0:0:0:0:
400,238,121242,2,0,P|358:237|319:222,1,83.9999974365235,10|2,0:0|0:0,0:0:0:0:
234,154,121558,2,0,L|226:237,1,83.9999974365235,2|2,1:2|1:2,0:0:0:0:
147,298,121873,2,0,L|139:214,1,83.9999974365235,8|2,0:0|1:2,0:0:0:0:
97,134,122189,6,0,P|56:127|21:151,1,83.9999974365235,2|2,0:0|1:2,0:0:0:0:
0,242,122505,1,10,0:0:0:0:
64,312,122663,1,2,0:0:0:0:
64,312,122742,1,8,0:0:0:0:
64,312,122821,2,0,L|151:297,1,83.9999974365235,2|0,1:2|1:2,0:0:0:0:
220,250,123136,2,0,L|230:204,3,41.9999987182618,8|8|10|10,0:0|0:0|0:0|0:0,0:0:0:0:
244,171,123452,6,0,P|299:159|346:169,1,83.9999974365235,6|0,1:2|0:0,0:0:0:0:
387,224,123768,2,0,L|405:328,1,83.9999974365235,10|0,0:0|0:0,0:0:0:0:
465,359,124084,1,2,1:2:0:0:
486,272,124242,2,0,L|501:180,1,83.9999974365235,2|10,1:2|0:0,0:0:0:0:
493,90,124558,1,2,1:2:0:0:
414,133,124715,6,0,P|370:150|316:146,2,83.9999974365235,2|2|10,0:0|1:2|0:0,0:0:0:0:
413,40,125189,2,0,P|364:30|315:33,1,83.9999974365235,2|0,0:0|1:2,0:0:0:0:
250,95,125505,2,0,P|209:105|167:107,1,83.9999974365235,2|8,1:2|0:0,0:0:0:0:
89,55,125821,1,0,0:2:0:0:
44,167,125978,6,0,L|59:271,2,83.9999974365235,6|2|2,1:2|1:2|1:2,0:0:0:0:
174,244,126610,2,0,L|189:348,2,83.9999974365235,2|2|10,1:2|1:2|0:0,0:0:0:0:
157,153,127084,1,6,1:2:0:0:
288,283,127400,5,2,1:2:0:0:
288,283,127558,1,6,1:2:0:0:
304,125,127873,6,0,L|315:29,1,83.9999974365235,10|0,0:0|0:0,0:0:0:0:
314,41,128110,1,8,0:0:0:0:
314,41,128189,1,0,1:2:0:0:
409,193,128505,6,0,B|371:192|371:192|331:214,2,83.9999974365235,6|0|2,1:2|1:2|1:2,0:0:0:0:
438,320,129136,2,0,B|398:342|398:342|359:341,2,83.9999974365235,2|0|10,1:2|1:2|0:0,0:0:0:0:
269,291,129610,6,0,L|181:278,1,83.9999974365235,6|0,1:2|0:0,0:0:0:0:
96,262,129926,1,2,1:2:0:0:
69,179,130084,2,0,P|118:164|164:174,1,83.9999974365235,6|0,1:2|0:0,0:0:0:0:
240,193,130399,2,0,P|289:205|357:108,1,167.999994873047,10|8,0:0|0:0,0:0:0:0:
340,45,130873,1,8,0:0:0:0:
260,14,131031,5,6,1:2:0:0:
