osu file format v14

[General]
AudioFilename: audio.mp3
AudioLeadIn: 0
PreviewTime: 47358
Countdown: 0
SampleSet: Soft
StackLeniency: 0.4
Mode: 0
LetterboxInBreaks: 0
WidescreenStoryboard: 1

[Editor]
Bookmarks: 21981,33170,99978,103870,109059,114248,142626,142789
DistanceSpacing: 1.3
BeatDivisor: 3
GridSize: 32
TimelineZoom: 3.300004

[Metadata]
Title:I am you
TitleUnicode:Iなんです
Artist:rerulili feat. Hatsune Miku
ArtistUnicode:れるりり feat. 初音ミク
Creator:Age17
Version:gazimal's Insane
Source:プロジェクトセカイ カラフルステージ! feat. 初音ミク
Tags:video game pop jpop j-pop vocaloid japanese Project Sekai colorful stage gazimal Suzuaki_Rin -karUpA- I nan desu rhythm
BeatmapID:3975754
BeatmapSetID:1923678

[Difficulty]
HPDrainRate:5
CircleSize:3.5
OverallDifficulty:8
ApproachRate:9
SliderMultiplier:1.9
SliderTickRate:1

[Events]
//Background and Video events
0,0,"Fipq0L7akAA8cgl.jpg",0,0
//Break Periods
2,109259,113648
//Storyboard Layer 0 (Background)
//Storyboard Layer 1 (Fail)
//Storyboard Layer 2 (Pass)
//Storyboard Layer 3 (Foreground)
//Storyboard Layer 4 (Overlay)
//Storyboard Sound Samples

[TimingPoints]
738,324.324324324324,4,2,1,60,1,0
1386,-66.6666666666667,4,2,1,60,0,0
1873,-83.3333333333333,4,2,1,60,0,0
2359,-100,4,2,1,60,0,0
3170,-83.3333333333333,4,2,1,60,0,0
3656,-100,4,2,1,60,0,0
4467,-83.3333333333333,4,2,1,60,0,0
4954,-100,4,2,1,60,0,0
5927,-200,4,2,1,50,0,0
7062,-133.333333333333,4,2,1,50,0,0
9819,-133.333333333333,4,2,1,55,0,0
10467,-133.333333333333,4,2,1,60,0,0
11278,-200,4,2,1,60,0,0
12089,-200,4,2,3,60,0,0
12413,-83.3333333333333,4,2,1,60,0,0
12737,-100,4,2,1,60,0,0
13548,-83.3333333333333,4,2,1,60,0,0
13873,-100,4,2,1,60,0,0
14846,-83.3333333333333,4,2,1,60,0,0
15332,-100,4,2,1,60,0,0
15656,-133.333333333333,4,2,1,60,0,0
16143,-83.3333333333333,4,2,1,60,0,0
16629,-100,4,2,1,60,0,0
17278,-200,4,2,1,60,0,0
17602,-83.3333333333333,4,2,1,60,0,0
17927,-100,4,2,1,60,0,0
18737,-83.3333333333333,4,2,1,60,0,0
19062,-100,4,2,1,60,0,0
20035,-83.3333333333333,4,2,1,60,0,0
20521,-100,4,2,1,60,0,0
20846,-133.333333333333,4,2,1,60,0,0
21332,-66.6666666666667,4,2,1,60,0,0
21656,-133.333333333333,4,2,1,60,0,0
22467,-333.333333333333,4,2,1,60,0,0
22792,-100,4,2,1,50,0,0
23116,-133.333333333333,4,2,1,50,0,0
26683,-100,4,2,1,50,0,0
28629,-133.333333333333,4,2,1,50,0,0
31224,-100,4,2,1,50,0,0
31873,-100,4,2,1,70,0,0
32197,-100,4,2,1,65,0,0
32521,-100,4,2,1,60,0,0
32846,-100,4,2,1,55,0,0
33170,324.324324324324,3,2,1,40,1,0
33170,-333.333333333333,3,2,1,40,0,0
33818,-133.333333333333,3,2,1,40,0,0
34142,-200,3,2,1,40,0,0
34791,-133.333333333333,3,2,1,40,0,0
37061,-333.333333333333,3,2,1,40,0,0
37710,-133.333333333333,3,2,1,40,0,0
38034,-200,3,2,1,40,0,0
38683,-133.333333333333,3,2,1,40,0,0
40061,-133.333333333333,3,2,1,20,0,0
40305,-133.333333333333,3,2,1,25,0,0
40629,-333.333333333333,3,2,1,40,0,0
40710,-333.333333333333,3,2,1,20,0,0
40791,-333.333333333333,3,2,1,25,0,0
40872,-333.333333333333,3,2,1,30,0,0
40953,-133.333333333333,3,2,1,40,0,0
42980,-133.333333333333,3,2,1,25,0,0
43061,-133.333333333333,3,2,1,30,0,0
43142,-133.333333333333,3,2,1,40,0,0
43224,324.324324324324,3,2,1,60,1,0
43224,-100,3,2,1,60,0,0
45169,324.324324324324,4,2,1,60,1,0
45169,-100,3,2,1,50,0,0
45493,-200,3,2,2,50,0,0
45979,-200,3,2,1,50,0,0
46141,-200,3,2,2,50,0,0
46466,-100,3,2,1,50,0,0
46790,-133.333333333333,3,2,1,50,0,0
47114,-133.333333333333,3,2,1,50,0,0
47439,-333.333333333333,3,2,4,60,0,0
47763,-66.6666666666667,4,2,1,70,0,1
48087,-83.3333333333333,4,2,1,70,0,1
48655,-333.333333333333,4,2,1,70,0,1
49060,-83.3333333333333,4,2,1,70,0,1
49385,-100,4,2,1,70,0,1
50196,-83.3333333333333,4,2,1,70,0,1
51168,-133.333333333333,4,2,1,70,0,1
51493,-83.3333333333333,4,2,1,70,0,1
52304,-133.333333333333,4,2,1,70,0,1
52952,-66.6666666666667,4,2,1,70,0,1
53277,-76.9230769230769,4,2,1,70,0,1
53601,-83.3333333333333,4,2,1,70,0,1
53844,-333.333333333333,4,2,1,70,0,1
54250,-83.3333333333333,4,2,1,70,0,1
54574,-100,4,2,1,70,0,1
55385,-83.3333333333333,4,2,1,70,0,1
55871,-133.333333333333,4,2,1,70,0,1
56196,-83.3333333333333,4,2,1,70,0,1
57331,-133.333333333333,4,2,1,70,0,1
58141,-83.3333333333333,4,2,1,60,0,0
58466,-100,4,2,1,60,0,0
59439,-83.3333333333333,4,2,1,60,0,0
60736,-76.9230769230769,4,2,1,60,0,0
61385,-100,4,2,1,60,0,0
63331,-133.333333333333,4,2,1,50,0,0
72412,-100,4,2,1,70,0,0
72736,-100,4,2,1,65,0,0
73060,-100,4,2,1,60,0,0
73385,-100,4,2,1,55,0,0
73709,324.324324324324,3,2,1,40,1,0
73709,-333.333333333333,3,2,1,40,0,0
74357,-133.333333333333,3,2,1,40,0,0
74681,-200,3,2,1,40,0,0
75330,-133.333333333333,3,2,1,40,0,0
77600,-333.333333333333,3,2,1,40,0,0
78249,-133.333333333333,3,2,1,40,0,0
78573,-200,3,2,1,40,0,0
79222,-133.333333333333,3,2,1,40,0,0
80600,-133.333333333333,3,2,1,20,0,0
80844,-133.333333333333,3,2,1,25,0,0
81168,-333.333333333333,3,2,1,40,0,0
81249,-333.333333333333,3,2,1,20,0,0
81330,-333.333333333333,3,2,1,25,0,0
81411,-333.333333333333,3,2,1,30,0,0
81492,-133.333333333333,3,2,1,40,0,0
83168,-133.333333333333,3,2,1,25,0,0
83222,-133.333333333333,3,2,1,30,0,0
83276,-133.333333333333,3,2,1,35,0,0
83330,-133.333333333333,3,2,1,40,0,0
83384,-133.333333333333,3,2,1,45,0,0
83438,-333.333333333333,3,2,1,50,0,0
83763,324.324324324324,3,2,1,60,1,0
83763,-100,3,2,1,60,0,0
85708,324.324324324324,4,2,1,70,1,0
85708,-133.333333333333,3,2,1,40,0,0
86032,-133.333333333333,3,2,1,45,0,0
86356,-133.333333333333,3,2,1,50,0,0
86680,-133.333333333333,3,2,1,55,0,0
87005,-133.333333333333,3,2,2,45,0,0
87086,-133.333333333333,3,2,1,45,0,0
87329,-133.333333333333,3,2,2,45,0,0
87410,-133.333333333333,3,2,1,45,0,0
87653,-133.333333333333,3,2,1,60,0,0
88302,-66.6666666666667,4,2,1,70,0,1
88626,-83.3333333333333,4,2,1,70,0,1
89194,-333.333333333333,4,2,1,70,0,1
89599,-83.3333333333333,4,2,1,70,0,1
89924,-100,4,2,1,70,0,1
90735,-83.3333333333333,4,2,1,70,0,1
91708,-133.333333333333,4,2,1,70,0,1
92032,-83.3333333333333,4,2,1,70,0,1
92843,-133.333333333333,4,2,1,70,0,1
93491,-66.6666666666667,4,2,1,70,0,1
93816,-83.3333333333333,4,2,1,70,0,1
95113,-100,4,2,1,70,0,1
95924,-83.3333333333333,4,2,1,70,0,1
96410,-133.333333333333,4,2,1,70,0,1
96735,-83.3333333333333,4,2,1,70,0,1
97870,-133.333333333333,4,2,1,70,0,1
98680,-200,4,2,1,70,0,0
99978,-133.333333333333,4,2,1,30,0,0
100302,-133.333333333333,4,2,1,40,0,0
101275,-200,4,2,1,40,0,0
102572,-133.333333333333,4,2,1,40,0,0
103870,-125,4,2,1,60,0,0
114248,-133.333333333333,4,2,1,40,0,0
114897,-133.333333333333,4,2,1,50,0,0
118140,-100,4,2,1,50,0,0
119437,-200,4,2,1,55,0,0
120086,-66.6666666666667,4,2,1,70,0,0
120735,-66.6666666666667,4,2,1,55,0,0
121059,-66.6666666666667,4,2,1,75,0,1
121707,-133.333333333333,4,2,1,75,0,1
122032,-83.3333333333333,4,2,1,75,0,1
125275,-100,4,2,1,75,0,1
125599,-333.333333333333,4,2,1,75,0,1
125924,-66.6666666666667,4,2,1,75,0,1
126248,-83.3333333333333,4,2,1,75,0,1
127545,-100,4,2,1,75,0,1
128356,-83.3333333333333,4,2,1,75,0,1
128843,-133.333333333333,4,2,1,75,0,1
129167,-83.3333333333333,4,2,1,75,0,1
130464,-133.333333333333,4,2,1,75,0,1
131113,-83.3333333333333,4,2,1,65,0,0
131437,-100,4,2,1,65,0,0
132410,-83.3333333333333,4,2,1,65,0,0
132735,-133.333333333333,4,2,1,65,0,0
133059,-100,4,2,1,65,0,0
133707,-83.3333333333333,4,2,1,65,0,0
134032,-133.333333333333,4,2,1,65,0,0
134843,-83.3333333333333,4,2,1,65,0,0
135329,-133.333333333333,4,2,1,65,0,0
136302,-83.3333333333333,4,2,1,65,0,0
137924,-100,4,2,1,65,0,0
138248,-100,4,2,1,65,0,0
138897,-83.3333333333333,4,2,1,65,0,0
139707,-100,4,2,1,65,0,0
141491,-100,4,2,1,65,0,0
142140,-83.3333333333333,4,2,1,65,0,0

[Colours]
Combo1 : 255,255,128
Combo2 : 255,127,127
Combo3 : 255,191,127
Combo4 : 255,128,192

[HitObjects]
230,141,738,6,0,B|189:119|199:83|199:83|234:93|230:139,1,142.5,6|0,3:2|0:0,0:0:0:0:
316,214,1062,2,0,B|353:240|380:215|380:215|354:188|315:212,1,142.5,6|0,3:2|0:0,0:0:0:0:
212,238,1386,6,0,B|170:257|178:293|178:293|214:283|213:237,1,142.5,2|0,3:2|0:0,0:0:0:0:
256,192,1629,5,2,3:2:0:0:
256,192,1873,6,0,B|180:148|151:211|156:211|110:287|46:238,1,227.999993041992,6|2,3:2|3:2,0:0:0:0:
55,71,2359,2,0,L|74:163,1,95,10|2,2:2|0:2,0:0:0:0:
81,171,2602,1,8,0:2:0:0:
81,171,2683,2,0,P|94:151|114:138,1,47.5,2|0,3:3|1:2,0:0:0:0:
153,58,2846,2,0,P|176:60|197:70,1,47.5,2|2,3:3|2:3,0:0:0:0:
321,158,3008,5,8,0:2:0:0:
321,158,3089,1,2,2:3:0:0:
321,158,3170,2,0,B|395:131|398:59|365:2|291:30|287:73|302:90,1,227.999993041992,6|2,3:2|3:2,0:0:0:0:
423,178,3656,2,0,P|458:214|509:225,1,95,10|2,2:2|0:2,0:0:0:0:
508,232,3900,1,0,1:2:0:0:
508,232,3981,2,0,P|484:242|472:263,1,47.5,2|0,3:0|0:0,0:0:0:0:
411,365,4143,1,2,3:3:0:0:
411,365,4224,1,2,2:3:0:0:
411,365,4305,2,0,P|413:339|402:318,1,47.5,8|0,0:2|0:0,0:0:0:0:
349,248,4467,6,0,L|98:301,1,227.999993041992,6|2,3:2|3:2,0:0:0:0:
5,155,4954,2,0,L|97:174,1,95,10|2,2:2|0:2,0:0:0:0:
106,181,5197,1,8,0:2:0:0:
106,181,5278,2,0,L|93:118,1,47.5,2|0,3:0|0:0,0:0:0:0:
195,60,5440,2,0,L|182:123,1,47.5,0|0,3:0|0:0,0:0:0:0:
256,192,5602,5,10,0:2:0:0:
256,192,5683,1,8,0:2:0:0:
256,192,5765,1,8,0:2:0:0:
256,192,5846,1,8,0:2:0:0:
256,192,5927,6,0,L|275:98,2,95,2|2|2,3:2|3:2|3:2,0:0:0:0:
189,111,6819,1,2,0:2:0:0:
189,111,6900,1,0,3:2:0:0:
147,210,7062,6,0,L|166:303,1,71.2500027179719,2|0,0:2|3:2,0:0:0:0:
317,367,7386,1,2,0:2:0:0:
231,384,7548,2,0,L|245:314,2,71.2500027179719,2|2|2,3:2|0:2|3:2,0:0:0:0:
329,275,8035,2,0,L|321:240,2,35.625001358986,2|2|0,2:3|2:3|3:2,0:0:0:0:
409,377,8359,6,0,P|428:349|474:338,1,71.2500027179719,2|0,0:2|3:2,0:0:0:0:
493,213,8683,1,2,0:2:0:0:
400,190,8846,2,0,L|414:259,1,71.2500027179719,2|2,3:2|0:2,0:0:0:0:
326,139,9170,2,0,P|353:111|385:101,1,71.2500027179719,2|2,3:2|2:3,0:0:0:0:
503,63,9494,2,0,P|465:53|440:30,1,71.2500027179719,2|2,3:2|2:3,0:0:0:0:
256,0,9819,5,4,1:2:0:0:
256,0,9981,1,2,1:2:0:0:
191,129,10143,5,2,1:2:0:0:
191,129,10305,1,2,1:2:0:0:
343,217,10467,5,8,1:2:0:0:
166,336,10629,1,10,1:2:0:0:
256,192,10792,1,10,1:2:0:0:
365,384,10954,1,10,1:2:0:0:
365,384,11278,6,0,L|371:352,2,23.75,2|2|2,2:2|2:3|2:3,0:0:0:0:
34,322,12089,6,0,L|27:290,1,23.75,2|0,2:0|0:0,0:0:0:0:
78,36,12413,6,0,L|117:223,1,170.999994781494,6|0,3:2|0:0,0:0:0:0:
113,203,12737,2,0,P|76:174|31:184,1,95,2|0,3:2|0:0,0:0:0:0:
137,287,12981,1,8,0:2:0:0:
137,287,13062,2,0,P|179:269|193:225,1,95,2|0,3:2|0:0,0:0:0:0:
176,147,13305,1,2,3:2:0:0:
176,147,13548,6,0,L|363:186,1,170.999994781494,6|0,3:2|0:0,0:0:0:0:
343,182,13873,2,0,L|329:119,1,47.5,2|0,3:2|0:0,0:0:0:0:
310,23,14035,2,0,P|345:56|403:52,1,95,10|2,2:2|0:2,0:0:0:0:
460,21,14278,1,0,1:2:0:0:
460,21,14359,2,0,P|479:3|513:0,3,47.5,2|0|2|2,3:0|1:2|3:3|2:3,0:0:0:0:
491,132,14683,5,8,0:2:0:0:
491,132,14765,1,2,2:3:0:0:
491,132,14846,2,0,B|513:185|474:224|424:217|430:211|378:199|343:233|355:285,1,227.999993041992,6|2,3:2|3:2,0:0:0:0:
446,384,15332,2,0,L|426:291,1,95,10|2,2:2|0:2,0:0:0:0:
433,298,15575,1,0,1:2:0:0:
433,298,15656,6,0,P|445:308|465:313,1,35.625001358986,2|0,3:0|1:2,0:0:0:0:
353,267,15819,2,0,L|339:329,1,35.625001358986,2|2,3:2|2:3,0:0:0:0:
258,290,15981,2,0,L|244:352,1,35.625001358986,10|0,0:2|0:0,0:0:0:0:
141,384,16143,6,0,L|194:133,1,227.999993041992,6|2,3:2|3:2,0:0:0:0:
44,34,16629,2,0,L|70:159,1,95,10|2,2:2|0:2,0:0:0:0:
70,134,16873,1,8,0:2:0:0:
70,134,16954,2,0,L|132:120,3,47.5,2|8|2|0,3:2|0:2|3:2|0:0,0:0:0:0:
182,34,17278,2,0,L|213:40,3,23.75,10|2|2|8,0:2|2:3|0:2|0:2,0:0:0:0:
291,117,17602,6,0,P|355:63|438:64,1,170.999994781494,6|0,3:2|0:0,0:0:0:0:
438,64,17927,2,0,P|393:55|373:14,1,95,2|0,3:2|0:0,0:0:0:0:
507,136,18170,1,0,1:2:0:0:
507,136,18251,2,0,L|487:229,1,95,2|0,3:2|0:0,0:0:0:0:
456,333,18494,1,2,3:2:0:0:
456,333,18737,6,0,B|389:303|410:236|410:236|420:281|439:292,1,170.999994781494,6|0,3:2|0:0,0:0:0:0:
344,364,19062,2,0,P|323:380|299:385,1,47.5,2|0,3:2|0:0,0:0:0:0:
212,266,19224,2,0,P|258:272|289:307,1,95,10|2,2:2|0:2,0:0:0:0:
320,220,19467,1,0,1:2:0:0:
320,220,19548,2,0,P|335:199|360:183,3,47.5,2|0|2|2,3:0|1:2|3:3|2:3,0:0:0:0:
507,136,19873,5,8,0:2:0:0:
507,136,19954,1,2,2:3:0:0:
507,136,20035,2,0,L|256:82,1,227.999993041992,6|2,3:2|3:2,0:0:0:0:
95,27,20521,2,0,L|187:7,1,95,10|2,2:2|0:2,0:0:0:0:
196,13,20765,1,0,1:2:0:0:
196,13,20846,2,0,L|182:76,1,35.625001358986,2|0,3:0|1:2,0:0:0:0:
121,142,21008,2,0,L|107:79,2,35.625001358986,2|2|10,3:2|2:3|0:2,0:0:0:0:
52,294,21332,6,0,B|1:301|-39:258|-12:186|55:195|55:195|68:214|89:222,1,213.750008153916,6|0,3:2|0:0,0:0:0:0:
158,220,21656,2,0,L|144:282,1,35.625001358986,2|0,3:2|0:0,0:0:0:0:
92,371,21819,2,0,L|126:363,1,35.625001358986,10|0,2:2|0:0,0:0:0:0:
261,336,21981,6,0,L|238:310,2,35.625001358986,2|2|2,2:2|2:3|2:3,0:0:0:0:
352,384,22305,1,2,2:3:0:0:
386,286,22467,6,0,L|337:296,1,42.7499986953736,2|0,2:3|0:0,0:0:0:0:
344,293,22792,6,0,P|370:229|434:203,1,142.5,6|0,3:2|0:0,0:0:0:0:
446,116,23116,2,0,P|480:124|508:146,1,71.2500027179719,10|0,2:2|0:0,0:0:0:0:
370,62,23440,2,0,P|394:36|427:23,1,71.2500027179719,2|2,3:2|3:2,0:0:0:0:
435,30,23683,1,2,0:2:0:0:
435,30,23765,2,0,L|341:10,1,71.2500027179719,8|2,2:2|0:2,0:0:0:0:
209,0,24089,6,0,L|139:14,1,71.2500027179719,2|2,3:2|0:2,0:0:0:0:
139,14,24332,1,2,0:2:0:0:
139,14,24413,1,8,2:2:0:0:
59,139,24575,2,0,L|25:-17,1,142.500005435944,2|2,3:2|3:2,0:0:0:0:
153,140,25062,2,0,L|145:174,1,35.625001358986,8|0,2:2|0:0,0:0:0:0:
160,384,25386,5,2,3:2:0:0:
10,302,25548,1,2,0:2:0:0:
106,268,25710,1,8,2:2:0:0:
101,288,25791,1,2,0:2:0:0:
96,309,25872,1,2,0:2:0:0:
92,330,25953,1,2,2:3:0:0:
88,345,26035,2,0,P|116:316|154:306,1,71.2500027179719,2|2,3:2|3:2,0:0:0:0:
215,240,26278,1,2,0:2:0:0:
215,240,26359,2,0,P|254:249|281:277,1,71.2500027179719,8|2,2:2|0:2,0:0:0:0:
427,368,26683,6,0,L|446:274,2,95,2|2|10,3:2|0:2|2:2,0:0:0:0:
383,232,27170,2,0,B|392:194|375:162|375:162|400:189|446:195,1,142.5,2|0,3:2|0:0,0:0:0:0:
512,220,27494,1,2,3:2:0:0:
307,202,27656,1,10,2:2:0:0:
307,202,27981,6,0,P|371:142|377:75,1,142.5,2|0,3:2|0:0,0:0:0:0:
354,16,28305,1,10,2:2:0:0:
475,103,28467,1,2,0:2:0:0:
303,83,28629,2,0,P|275:60|241:50,1,71.2500027179719,2|2,3:2|3:2,0:0:0:0:
171,0,28873,1,2,0:2:0:0:
171,0,28954,2,0,P|137:12|112:36,1,71.2500027179719,8|2,2:2|0:2,0:0:0:0:
37,163,29278,6,0,L|17:69,1,71.2500027179719,2|2,3:2|0:2,0:0:0:0:
22,93,29521,1,2,0:2:0:0:
22,93,29602,1,8,2:2:0:0:
151,188,29765,2,0,B|173:87|173:87|158:103|137:114,1,142.500005435944,2|2,3:2|3:2,0:0:0:0:
32,271,30251,2,0,L|94:257,1,35.625001358986,8|0,2:2|0:0,0:0:0:0:
175,304,30413,5,2,0:2:0:0:
175,304,30494,1,2,2:3:0:0:
175,304,30575,2,0,P|142:318|120:345,1,71.2500027179719,2|2,3:2|0:2,0:0:0:0:
256,384,30900,1,10,2:2:0:0:
379,291,31062,1,2,0:2:0:0:
379,291,31143,1,2,0:2:0:0:
379,291,31224,2,0,L|285:271,2,95,2|2|10,3:2|3:2|2:2,0:0:0:0:
498,308,31710,1,2,0:2:0:0:
393,187,31873,6,0,B|371:130|426:104|426:104|489:100|492:57,3,190,4|4|4|4,3:2|3:2|3:2|3:2,0:0:0:0:
60,0,33170,6,0,L|81:100,1,94.9999971008302,2|2,3:2|0:2,0:0:0:0:
94,100,33818,2,0,L|87:68,1,17.812500679493,10|0,2:2|0:0,0:0:0:0:
192,245,34142,6,0,B|137:315|151:192|92:207|92:207|83:234|61:242,1,158.333333333333,2|2,3:2|0:2,0:0:0:0:
42,256,34791,6,0,L|261:209,1,190.000007247925,8|0,3:2|0:0,0:0:0:0:
312,239,35332,1,10,2:2:0:0:
312,239,35440,2,0,B|335:206|299:176|299:176|311:196|310:213,1,95.0000036239625,2|2,3:2|0:2,0:0:0:0:
403,239,35764,2,0,B|443:242|451:196|451:196|439:216|423:223,1,95.0000036239625,2|2,3:0|0:2,0:0:0:0:
448,317,36088,5,0,3:0:0:0:
448,317,37061,6,0,L|426:217,1,94.9999971008302,2|0,3:0|0:0,0:0:0:0:
442,210,37710,2,0,L|448:241,1,17.812500679493,10|0,2:2|0:0,0:0:0:0:
343,55,38034,6,0,B|333:62|314:60|314:60|356:79|381:118|381:118|376:83|387:63,1,158.333333333333,2|2,3:0|0:2,0:0:0:0:
457,89,38683,6,0,B|442:79|436:63|436:63|350:94|350:94|343:144|289:153,1,190.000007247925,2|0,3:2|0:0,0:0:0:0:
240,108,39224,1,10,2:2:0:0:
240,108,39332,2,0,B|242:82|228:63|228:63|245:79|273:78,1,95.0000036239625,2|2,3:2|0:2,0:0:0:0:
237,191,39656,2,0,B|213:202|204:223|204:223|209:201|194:177,1,95.0000036239625,2|2,3:2|0:2,0:0:0:0:
315,144,39980,5,2,3:2:0:0:
315,144,40629,6,0,L|325:194,1,37.9999988403321,0|0,3:0|0:0,0:0:0:0:
359,249,40953,6,0,P|378:212|441:204,1,95.0000036239625,6|2,3:2|0:2,0:0:0:0:
439,370,41278,2,0,P|397:372|359:321,1,95.0000036239625,2|2,0:2|0:2,0:0:0:0:
504,241,41602,5,2,0:2:0:0:
504,241,41710,1,2,2:3:0:0:
504,241,41818,1,2,2:3:0:0:
504,241,41926,6,0,P|526:275|501:334,1,95.0000036239625,2|2,3:2|0:2,0:0:0:0:
361,336,42251,2,0,P|319:313|272:305,1,95.0000036239625,2|2,3:2|0:2,0:0:0:0:
187,302,42575,5,2,0:2:0:0:
187,302,42683,1,2,2:3:0:0:
187,302,42791,1,2,2:3:0:0:
187,302,42899,6,0,L|200:239,3,35.625001358986,0|8|8|8,3:0|2:2|2:2|2:2,0:0:0:0:
174,190,43224,5,6,1:2:0:0:
96,176,43386,1,2,3:2:0:0:
96,176,43548,1,2,3:2:0:0:
200,52,43710,5,6,1:2:0:0:
229,133,43872,1,2,3:2:0:0:
229,133,44034,1,2,3:2:0:0:
68,96,44197,5,4,1:2:0:0:
124,44,44359,1,2,3:2:0:0:
124,44,44521,1,2,3:2:0:0:
174,190,44683,5,4,1:2:0:0:
200,52,44845,1,0,3:2:0:0:
68,96,45007,1,2,3:2:0:0:
148,115,45169,5,2,3:2:0:0:
148,115,45493,6,0,L|85:101,1,47.5,8|0,2:2|0:0,0:0:0:0:
200,52,45736,1,8,2:2:0:0:
200,52,45817,2,0,L|262:38,2,47.5,0|0|8,0:0|3:0|2:2,0:0:0:0:
280,33,46304,1,8,2:2:0:0:
332,137,46466,6,0,L|322:183,3,47.5,2|2|2|2,3:2|2:3|2:3|2:3,0:0:0:0:
194,253,46790,2,0,L|207:315,3,35.625001358986,2|2|2|2,2:2|2:3|2:3|2:3,0:0:0:0:
289,345,47114,5,2,3:2:0:0:
287,353,47196,1,2,2:3:0:0:
285,362,47277,1,2,2:3:0:0:
283,371,47358,1,2,2:3:0:0:
281,379,47439,6,0,P|271:360|273:336,1,42.7499986953736,2|0,3:2|0:0,0:0:0:0:
281,379,47763,6,0,B|255:350|261:308|319:292|322:295|325:299|375:308|399:270|382:221,1,213.750008153916,6|0,3:2|0:0,0:0:0:0:
321,183,48087,2,0,P|278:141|278:87,1,113.999996520996,10|2,3:2|2:3,0:0:0:0:
407,146,48331,1,0,1:2:0:0:
407,146,48412,2,0,P|404:84|366:50,1,113.999996520996,2|0,3:2|0:0,0:0:0:0:
297,13,48655,6,0,L|290:-7,2,14.2499995651245,2|2|2,3:2|2:3|2:3,0:0:0:0:
277,89,48898,1,6,3:2:0:0:
119,107,49060,6,0,B|133:43|214:35|214:35|194:54|191:75,1,170.999994781494,0|0,3:2|0:0,0:0:0:0:
72,182,49385,2,0,P|49:167|35:139,1,47.5,10|0,3:2|0:0,0:0:0:0:
156,189,49547,2,0,P|154:216|137:242,1,47.5,2|0,0:2|0:0,0:0:0:0:
50,331,49709,5,2,3:2:0:0:
45,300,49790,1,0,0:0:0:0:
71,287,49871,1,2,2:3:0:0:
92,308,49952,1,2,2:3:0:0:
93,319,50033,1,10,3:2:0:0:
90,331,50114,1,2,2:3:0:0:
87,343,50196,6,0,B|99:333|105:318|105:318|210:296,1,113.999996520996,2|2,0:2|3:2,0:0:0:0:
181,311,50439,1,0,0:0:0:0:
175,321,50520,1,2,0:2:0:0:
256,192,50682,1,10,3:2:0:0:
288,375,50844,1,2,0:2:0:0:
145,233,51006,1,2,3:2:0:0:
274,294,51168,6,0,L|308:286,1,35.625001358986,2|0,0:2|0:0,0:0:0:0:
361,215,51331,2,0,L|384:241,1,35.625001358986,10|0,3:2|0:0,0:0:0:0:
459,363,51493,6,0,L|485:237,2,113.999996520996,2|0|2,0:2|3:2|0:2,0:0:0:0:
438,169,51979,1,10,3:2:0:0:
421,152,52060,1,2,2:3:0:0:
423,123,52141,1,10,2:2:0:0:
440,103,52223,1,0,1:2:0:0:
468,102,52304,2,0,L|433:94,1,35.625001358986,2|8,3:2|2:2,0:0:0:0:
424,10,52466,2,0,L|458:17,1,35.625001358986,8|0,3:3|0:0,0:0:0:0:
360,65,52628,5,10,3:2:0:0:
334,76,52709,1,8,0:2:0:0:
306,71,52790,2,0,L|319:8,1,35.625001358986,8|0,2:3|0:0,0:0:0:0:
241,0,52952,6,0,L|194:219,1,213.750008153916,6|0,3:2|0:0,0:0:0:0:
121,218,53277,2,0,B|111:177|59:177|59:177|88:196|90:223,1,123.499994346619,10|2,3:2|2:3,0:0:0:0:
22,247,53520,1,0,1:2:0:0:
22,247,53601,2,0,L|48:372,1,113.999996520996,2|0,3:2|0:0,0:0:0:0:
128,373,53844,6,0,L|123:350,2,14.2499995651245,2|2|2,3:2|2:3|2:3,0:0:0:0:
164,285,54087,1,6,3:2:0:0:
267,370,54250,6,0,B|289:329|276:285|276:285|293:328|341:344,1,170.999994781494,0|0,3:2|0:0,0:0:0:0:
420,367,54574,2,0,L|406:304,1,47.5,10|0,3:2|0:0,0:0:0:0:
502,241,54736,2,0,L|488:303,1,47.5,2|0,0:2|0:0,0:0:0:0:
407,198,54898,5,2,3:0:0:0:
387,174,54979,1,2,2:3:0:0:
403,149,55060,1,2,2:3:0:0:
432,156,55141,1,2,2:3:0:0:
436,169,55223,1,8,3:2:0:0:
439,181,55304,1,2,2:3:0:0:
442,193,55385,6,0,L|316:166,1,113.999996520996,2|2,0:2|3:0,0:0:0:0:
339,165,55628,1,2,2:3:0:0:
349,160,55709,1,2,0:2:0:0:
333,341,55871,2,0,L|270:327,2,35.625001358986,10|0|2,3:2|0:0|0:2,0:0:0:0:
132,271,56196,2,0,L|244:248,1,113.999996520996,2|0,3:0|0:0,0:0:0:0:
236,256,56439,1,0,0:0:0:0:
229,264,56520,2,0,L|242:201,2,56.9999982604981,10|2|2,3:2|2:3|2:3,0:0:0:0:
116,378,56844,5,0,3:0:0:0:
76,205,57006,1,2,0:2:0:0:
229,264,57168,1,10,2:2:0:0:
65,317,57331,1,10,0:2:0:0:
65,317,57412,1,8,0:2:0:0:
65,317,57493,2,0,L|31:309,2,35.625001358986,0|0|2,3:0|0:0|0:2,0:0:0:0:
209,362,57817,1,2,3:0:0:0:
209,362,57898,1,8,2:2:0:0:
209,362,57979,2,0,L|243:354,1,35.625001358986,10|0,2:3|0:0,0:0:0:0:
364,355,58141,6,0,B|349:283|279:282|279:282|311:296|321:325,1,170.999994781494,6|0,3:2|0:0,0:0:0:0:
315,312,58466,2,0,P|354:272|370:227,1,95,2|0,3:2|0:0,0:0:0:0:
462,209,58709,1,8,0:2:0:0:
462,209,58790,2,0,P|423:169|407:124,1,95,2|0,3:2|0:0,0:0:0:0:
364,66,59033,1,2,3:2:0:0:
218,163,59277,5,6,3:2:0:0:
218,163,59358,1,2,2:3:0:0:
218,163,59439,2,0,L|343:136,1,113.999996520996,0|2,3:0|3:2,0:0:0:0:
256,30,59763,1,10,2:2:0:0:
68,62,59925,1,2,0:2:0:0:
113,150,60088,2,0,B|155:128|145:83|145:83|141:105|124:122,1,113.999996520996,2|2,3:0|3:3,0:0:0:0:
131,112,60332,1,2,2:3:0:0:
131,112,60412,1,8,0:2:0:0:
21,214,60574,5,6,3:2:0:0:
21,214,60655,1,2,2:3:0:0:
21,214,60736,2,0,P|78:232|115:281,1,123.499994346619,0|2,3:0|3:2,0:0:0:0:
132,384,61060,1,10,2:2:0:0:
290,286,61223,1,2,0:2:0:0:
221,384,61385,2,0,L|194:258,1,95,2|2,3:0|3:2,0:0:0:0:
373,358,61709,5,10,0:2:0:0:
373,358,61790,1,2,2:3:0:0:
373,358,61871,2,0,P|402:320|470:313,1,95,6|0,3:2|3:0,0:0:0:0:
512,181,62196,1,2,3:2:0:0:
512,181,62277,1,2,2:3:0:0:
512,181,62358,2,0,L|498:243,3,47.5,10|0|2|8,2:2|0:0|0:2|0:2,0:0:0:0:
413,222,62683,5,2,3:2:0:0:
374,242,62763,1,2,2:3:0:0:
325,237,62844,1,10,0:2:0:0:
291,207,62925,1,2,2:3:0:0:
277,179,63006,1,2,3:2:0:0:
251,170,63087,1,2,2:3:0:0:
226,176,63168,1,2,0:2:0:0:
215,191,63250,1,2,2:3:0:0:
215,201,63331,6,0,L|241:75,1,106.875004076958,6|0,3:2|0:0,0:0:0:0:
251,22,63655,1,10,2:2:0:0:
251,22,63817,1,0,0:0:0:0:
68,114,63979,1,2,3:2:0:0:
150,128,64141,2,0,L|130:34,2,71.2500027179719,2|8|2,3:2|2:2|0:2,0:0:0:0:
96,250,64628,6,0,P|70:225|31:222,1,71.2500027179719,2|2,3:2|0:2,0:0:0:0:
36,220,64871,1,2,0:2:0:0:
36,220,64952,1,8,2:2:0:0:
78,366,65114,1,2,3:2:0:0:
78,366,65439,5,2,3:2:0:0:
223,334,65602,2,0,L|129:314,1,71.2500027179719,8|0,2:2|0:0,0:0:0:0:
309,383,65925,5,2,3:2:0:0:
376,331,66087,1,2,0:2:0:0:
291,207,66250,5,8,2:2:0:0:
302,291,66412,1,2,0:2:0:0:
453,279,66574,5,2,3:2:0:0:
374,246,66736,1,2,3:2:0:0:
374,246,66817,1,2,0:2:0:0:
374,246,66898,1,8,0:0:0:0:
336,100,67060,6,0,B|345:97|356:94|356:94|431:110,2,71.2500027179719,2|2|2,0:2|3:2|0:2,0:0:0:0:
439,176,67547,1,10,2:2:0:0:
280,158,67709,1,2,3:2:0:0:
280,158,68033,5,2,3:2:0:0:
245,11,68196,2,0,L|264:104,1,71.2500027179719,10|0,2:2|0:0,0:0:0:0:
124,192,68520,6,0,P|141:151|203:139,1,106.875004076958,2|0,3:2|0:0,0:0:0:0:
284,162,68844,1,10,2:2:0:0:
284,162,69006,1,2,0:2:0:0:
124,192,69168,1,2,3:2:0:0:
204,286,69331,2,0,L|223:192,2,71.2500027179719,2|8|2,3:2|2:2|0:2,0:0:0:0:
28,384,69817,2,0,P|48:355|82:347,1,71.2500027179719,2|2,3:2|0:2,0:0:0:0:
82,347,70060,1,2,0:2:0:0:
82,347,70141,1,8,2:2:0:0:
15,229,70304,1,2,3:2:0:0:
15,229,70628,5,2,3:2:0:0:
124,192,70790,2,0,L|104:98,1,71.2500027179719,8|2,2:2|0:2,0:0:0:0:
0,63,71114,5,0,3:2:0:0:
4,66,71439,1,10,2:2:0:0:
4,66,71601,1,2,0:2:0:0:
165,32,71763,6,0,L|71:12,2,71.2500027179719,2|2|10,3:2|3:2|2:2,0:0:0:0:
352,63,72250,1,2,0:2:0:0:
258,263,72412,6,0,P|322:197|414:202,3,190,4|4|4|4,3:2|3:2|3:2|3:2,0:0:0:0:
170,380,73709,6,0,P|126:355|78:349,1,94.9999971008302,2|2,3:2|0:0,0:0:0:0:
70,341,74357,2,0,P|82:337|93:336,1,17.812500679493,10|0,2:2|0:0,0:0:0:0:
415,210,74681,6,0,B|432:235|418:266|386:275|390:270|351:263|325:293|341:320,1,158.333333333333,2|2,3:2|0:2,0:0:0:0:
407,333,75330,6,0,B|433:309|422:271|389:253|386:256|384:259|329:252|322:212|351:188,1,190.000007247925,0|0,3:2|0:0,0:0:0:0:
402,127,75871,1,10,2:2:0:0:
402,127,75979,2,0,B|395:91|351:89|351:89|372:108|368:126,1,95.0000036239625,2|2,3:2|0:2,0:0:0:0:
478,161,76303,2,0,B|512:172|536:135|536:135|509:144|495:132,1,95.0000036239625,2|2,3:0|0:2,0:0:0:0:
415,210,76627,5,0,3:0:0:0:
415,210,77600,6,0,L|434:303,1,94.9999971008302,2|0,3:0|0:0,0:0:0:0:
457,313,78249,2,0,L|450:281,1,17.812500679493,10|0,2:2|0:0,0:0:0:0:
180,334,78573,6,0,B|185:273|111:267|111:267|143:289|145:323,1,158.333333333333,2|2,3:0|0:2,0:0:0:0:
67,335,79222,2,0,P|144:283|168:193,1,190.000007247925,2|0,3:2|0:0,0:0:0:0:
147,116,79763,1,10,2:2:0:0:
147,116,79871,2,0,B|125:116|105:92|105:92|123:118|115:134,1,95.0000036239625,2|2,3:2|0:2,0:0:0:0:
62,191,80195,2,0,B|73:210|62:239|62:239|75:210|93:208,1,95.0000036239625,2|2,3:2|0:2,0:0:0:0:
168,193,80519,5,2,3:2:0:0:
168,193,81168,6,0,L|217:182,1,37.9999988403321,0|0,3:3|0:0,0:0:0:0:
304,165,81492,6,0,P|270:132|262:86,1,95.0000036239625,6|2,3:2|0:2,0:0:0:0:
440,83,81817,2,0,P|429:128|393:158,1,95.0000036239625,2|2,0:2|0:2,0:0:0:0:
302,6,82141,5,2,0:2:0:0:
302,6,82249,1,2,2:3:0:0:
302,6,82357,1,2,2:3:0:0:
302,6,82465,6,0,P|346:-7|390:8,1,95.0000036239625,2|2,3:2|0:2,0:0:0:0:
304,165,82790,2,0,P|270:132|262:86,1,95.0000036239625,2|2,3:2|0:2,0:0:0:0:
440,83,83114,2,0,P|429:128|393:158,1,95.0000036239625,2|0,0:2|0:0,0:0:0:0:
262,87,83438,6,0,P|245:73|225:66,1,42.7499986953736,2|0,2:2|0:0,0:0:0:0:
132,29,83763,6,0,L|151:121,1,95,6|2,3:2|2:2,0:0:0:0:
55,98,84087,1,2,2:2:0:0:
304,165,84249,6,0,L|284:257,1,95,10|2,3:2|2:2,0:0:0:0:
381,234,84573,1,2,2:2:0:0:
133,292,84735,6,0,L|152:384,1,95,2|2,3:2|2:2,0:0:0:0:
56,361,85060,1,2,2:2:0:0:
284,257,85222,6,0,B|244:191|160:212|160:212|197:223|206:255,1,190,2|2,3:2|2:2,0:0:0:0:
323,384,85708,2,0,P|360:346|411:331,1,106.875004076958,6|0,3:2|0:0,0:0:0:0:
487,322,86032,5,0,1:2:0:0:
442,256,86194,1,0,1:2:0:0:
477,178,86356,5,0,1:2:0:0:
364,186,86518,1,0,1:2:0:0:
348,102,86680,5,8,1:2:0:0:
284,257,86843,1,8,1:2:0:0:
217,175,87005,6,0,P|200:163|189:139,3,35.625001358986,2|2|2|2,2:2|2:3|2:3|2:3,0:0:0:0:
107,142,87329,2,0,P|108:121|124:99,3,35.625001358986,2|2|2|2,2:2|2:3|2:3|2:3,0:0:0:0:
141,21,87653,5,8,3:2:0:0:
103,28,87735,1,8,2:2:0:0:
66,36,87816,1,8,2:2:0:0:
28,44,87897,1,8,2:2:0:0:
2,50,87978,5,8,3:2:0:0:
0,39,88059,1,8,2:2:0:0:
5,32,88140,1,8,2:2:0:0:
16,26,88221,1,8,2:2:0:0:
29,23,88302,6,0,B|82:75|43:134|43:134|-8:157|0:210,1,213.750008153916,6|0,3:2|0:0,0:0:0:0:
176,232,88626,2,0,P|131:198|75:204,1,113.999996520996,10|2,3:2|2:3,0:0:0:0:
187,319,88870,1,0,1:2:0:0:
187,319,88951,2,0,P|238:296|261:246,1,113.999996520996,2|0,3:2|0:0,0:0:0:0:
106,285,89194,6,0,P|99:292|97:308,2,14.2499995651245,2|10|2,3:2|2:2|2:3,0:0:0:0:
176,232,89437,1,6,3:2:0:0:
397,257,89599,6,0,B|382:185|315:190|315:190|337:210|337:244,1,170.999994781494,0|0,3:2|0:0,0:0:0:0:
416,120,89924,2,0,P|432:103|455:96,1,47.5,10|0,3:2|0:0,0:0:0:0:
504,177,90086,2,0,P|488:194|466:202,1,47.5,2|0,0:2|0:0,0:0:0:0:
324,86,90248,5,2,3:2:0:0:
297,70,90329,1,2,2:3:0:0:
303,41,90410,1,2,2:3:0:0:
333,38,90491,1,2,2:3:0:0:
341,47,90572,1,10,3:2:0:0:
349,57,90653,1,2,2:3:0:0:
356,67,90735,6,0,L|230:40,1,113.999996520996,2|2,0:2|3:2,0:0:0:0:
254,37,90978,1,2,2:3:0:0:
264,29,91059,1,2,0:2:0:0:
336,236,91221,1,10,3:2:0:0:
170,106,91383,1,2,0:2:0:0:
298,144,91545,1,2,3:2:0:0:
159,262,91708,6,0,L|151:227,1,35.625001358986
223,173,91870,2,0,L|230:207,1,35.625001358986,8|0,3:2|0:0,0:0:0:0:
312,347,92032,6,0,L|338:221,2,113.999996520996,2|0|2,0:2|3:2|0:2,0:0:0:0:
184,384,92518,1,10,3:2:0:0:
165,362,92599,1,2,2:3:0:0:
141,347,92680,1,10,2:2:0:0:
114,339,92762,1,0,1:2:0:0:
86,340,92843,2,0,L|72:277,1,35.625001358986,2|8,3:2|2:2,0:0:0:0:
58,220,93005,2,0,L|44:157,1,35.625001358986,8|0,3:3|0:0,0:0:0:0:
99,88,93167,5,10,3:2:0:0:
119,84,93248,1,8,0:2:0:0:
132,98,93329,2,0,L|118:160,1,35.625001358986,8|0,2:3|0:0,0:0:0:0:
65,20,93491,6,0,B|131:-19|186:33|186:33|204:78|253:78,1,213.750008153916,6|0,3:2|0:0,0:0:0:0:
358,87,93816,2,0,B|359:39|307:28|307:28|329:54|324:76,1,113.999996520996,10|2,3:2|2:3,0:0:0:0:
336,163,94059,1,0,1:2:0:0:
336,163,94140,2,0,P|379:127|435:116,1,113.999996520996,2|0,3:2|0:0,0:0:0:0:
435,116,94383,1,2,3:2:0:0:
435,116,94464,1,10,2:2:0:0:
499,279,94626,1,6,3:2:0:0:
382,366,94789,6,0,L|417:198,1,170.999994781494,0|0,3:2|0:0,0:0:0:0:
336,163,95113,2,0,L|326:209,1,47.5,10|0,3:2|0:0,0:0:0:0:
306,295,95275,2,0,L|296:341,1,47.5,2|0,0:2|0:0,0:0:0:0:
183,354,95437,5,2,3:0:0:0:
156,338,95518,1,2,2:3:0:0:
162,309,95599,1,2,2:3:0:0:
192,306,95680,1,2,2:3:0:0:
200,315,95762,1,8,3:2:0:0:
208,325,95843,1,2,2:3:0:0:
215,335,95924,6,0,P|162:318|135:269,1,113.999996520996,2|2,0:2|3:0,0:0:0:0:
128,276,96167,1,2,2:3:0:0:
120,284,96248,1,2,0:2:0:0:
24,209,96410,2,0,L|86:222,2,35.625001358986,10|0|2,3:2|0:0|0:2,0:0:0:0:
234,115,96735,2,0,L|108:141,1,113.999996520996,2|0,3:0|0:0,0:0:0:0:
131,132,96978,1,0,0:0:0:0:
139,122,97059,2,0,L|125:184,2,56.9999982604981,10|2|2,3:2|2:3|2:3,0:0:0:0:
15,40,97383,5,0,3:0:0:0:
58,216,97545,1,2,0:2:0:0:
155,40,97707,1,10,2:2:0:0:
12,130,97870,1,10,0:2:0:0:
12,130,97951,1,8,0:2:0:0:
12,130,98032,2,0,L|74:116,2,35.625001358986,8|0|2,3:3|0:0|0:2,0:0:0:0:
134,185,98356,1,2,3:0:0:0:
134,185,98437,1,8,2:2:0:0:
134,185,98518,2,0,L|196:171,1,35.625001358986,10|0,2:3|0:0,0:0:0:0:
256,170,98680,6,0,P|249:148|229:121,1,47.5,6|2,3:2|0:2,0:0:0:0:
337,135,99005,2,0,P|324:115|317:93,1,47.5,2|2,3:2|2:3,0:0:0:0:
480,225,99329,6,0,P|487:203|507:176,1,47.5,2|2,3:2|2:3,0:0:0:0:
418,147,99572,1,2,2:3:0:0:
418,147,99653,2,0,P|411:170|398:190,1,47.5,2|2,3:2|2:3,0:0:0:0:
335,274,99978,6,0,B|349:267|349:267|395:278|395:278|424:264,3,71.2500027179719,2|2|2|2,3:2|2:3|3:2|2:3,0:0:0:0:
402,265,100626,2,0,L|316:284,1,71.2500027179719,2|2,3:2|2:3,0:0:0:0:
275,351,100870,1,2,2:3:0:0:
275,351,100951,2,0,P|246:328|211:320,1,71.2500027179719,2|2,3:2|2:3,0:0:0:0:
104,381,101275,6,0,P|111:359|131:332,1,47.5,2|2,3:2|2:3,0:0:0:0:
23,346,101599,2,0,P|36:326|43:304,1,47.5,2|2,3:2|2:3,0:0:0:0:
193,215,101924,6,0,P|180:195|173:173,1,47.5,2|2,3:2|2:3,0:0:0:0:
91,207,102167,1,2,2:3:0:0:
91,207,102248,2,0,P|104:227|112:250,1,47.5,2|2,3:2|2:3,0:0:0:0:
91,120,102572,6,0,B|87:104|87:104|107:62|107:62|99:30,3,71.2500027179719,2|2|2|2,3:2|2:3|3:2|2:3,0:0:0:0:
91,51,103221,2,0,L|110:144,1,71.2500027179719,2|2,3:2|2:3,0:0:0:0:
172,172,103464,1,2,2:3:0:0:
172,172,103545,2,0,P|197:148|232:140,1,71.2500027179719,2|2,3:2|2:3,0:0:0:0:
465,102,103870,6,0,L|480:27,1,76,2|0,3:2|0:0,0:0:0:0:
401,13,104113,1,8,1:2:0:0:
401,13,104194,2,0,L|385:87,1,76,2|8,3:2|2:2,0:0:0:0:
312,24,104518,1,2,3:2:0:0:
314,141,104680,2,0,L|306:103,2,38,8|2|0,2:2|0:2|3:2,0:0:0:0:
215,65,105005,2,0,L|231:140,1,76,10|2,2:2|3:2,0:0:0:0:
116,84,105329,5,2,0:2:0:0:
116,84,105410,1,0,1:2:0:0:
116,84,105491,2,0,L|135:-9,1,76,2|8,3:2|2:2,0:0:0:0:
26,58,105816,1,2,3:2:0:0:
57,179,105978,2,0,L|43:116,2,38,8|2|0,2:2|0:2|3:2,0:0:0:0:
152,239,106302,5,10,2:2:0:0:
152,239,106383,1,0,1:2:0:0:
152,239,106464,2,0,L|136:164,1,76,2|2,3:2|0:2,0:0:0:0:
210,122,106707,1,0,1:2:0:0:
210,122,106789,2,0,L|217:159,2,38,0|2|8,3:2|0:2|2:2,0:0:0:0:
261,293,107113,6,0,L|277:218,1,76,2|0,3:2|0:0,0:0:0:0:
361,205,107356,1,2,1:2:0:0:
361,205,107437,2,0,L|354:243,2,38,0|2|10,3:2|0:2|2:2,0:0:0:0:
341,320,107762,5,0,3:2:0:0:
235,384,107924,2,0,P|223:365|202:355,2,38,2|0|0,0:2|1:2|3:2,0:0:0:0:
176,283,108167,2,0,P|153:283|134:297,2,38,2|8|0,0:2|2:2|0:0,0:0:0:0:
261,293,108410,6,0,L|277:218,1,76,2|0,3:2|0:0,0:0:0:0:
217,159,108653,1,10,2:2:0:0:
217,159,108735,2,0,L|203:221,3,38,8|10|10|8,3:2|2:2|2:2|2:2,0:0:0:0:
120,213,109059,5,8,2:2:0:0:
190,191,114248,6,0,B|148:201|118:174|118:174|113:121|62:118,3,142.500005435944,2|2|2|0,3:2|3:2|3:2|3:2,0:0:0:0:
300,131,115545,6,0,B|311:89|350:77|350:77|398:99|426:56,3,142.500005435944,0|2|2|2,3:2|3:2|3:2|3:3,0:0:0:0:
295,258,116843,6,0,B|324:288|315:327|315:327|273:359|296:404,3,142.500005435944,0|2|2|2,3:2|3:2|3:2|3:2,0:0:0:0:
169,174,118140,6,0,L|354:213,3,190,0|2|0|2,3:2|3:2|3:2|3:2,0:0:0:0:
289,118,119275,1,2,3:2:0:0:
150,254,119437,6,0,L|156:285,3,23.75,2|2|2|2,3:2|2:2|2:2|2:2,0:0:0:0:
86,321,119762,2,0,L|79:289,3,23.75,2|2|2|2,2:2|2:2|2:2|2:2,0:0:0:0:
19,284,120086,6,0,B|52:265|52:265|185:304|185:304|232:284,2,213.750008153916,2|2|2,3:1|3:1|3:1,0:0:0:0:
256,192,120735,5,2,2:2:0:0:
256,192,121059,6,0,B|258:143|217:98|217:98|263:142|323:139,1,213.750008153916,14|0,3:2|1:2,0:0:0:0:
407,95,121383,2,0,L|377:234,1,142.500005435944,2|0,3:2|0:0,0:0:0:0:
371,313,121626,1,2,3:2:0:0:
371,313,121707,2,0,L|405:305,1,35.625001358986,8|8,2:2|2:2,0:0:0:0:
487,287,121870,1,10,3:2:0:0:
312,372,122032,6,0,B|295:356|291:336|291:336|145:305,1,170.999994781494,4|0,3:2|0:0,0:0:0:0:
50,272,122356,2,0,B|19:277|19:277|2:305,1,56.9999982604981,10|2,3:2|2:3,0:0:0:0:
45,377,122518,2,0,B|76:372|76:372|93:344,1,56.9999982604981,2|0,0:2|0:0,0:0:0:0:
132,231,122680,5,2,3:2:0:0:
159,214,122762,1,2,2:3:0:0:
151,187,122843,1,12,2:2:0:0:
121,184,122924,1,2,2:3:0:0:
113,191,123005,1,12,3:2:0:0:
105,200,123086,1,2,2:3:0:0:
98,209,123167,6,0,L|223:182,1,113.999996520996,2|4,0:2|3:2,0:0:0:0:
200,179,123410,1,2,2:3:0:0:
191,173,123491,1,2,0:2:0:0:
89,350,123653,1,10,3:2:0:0:
290,284,123816,1,2,0:2:0:0:
98,209,123978,1,2,3:2:0:0:
220,375,124140,1,2,0:2:0:0:
223,363,124221,1,2,0:2:0:0:
226,351,124302,1,10,3:2:0:0:
310,172,124464,6,0,B|359:125|431:172|431:172|449:233|507:231,1,227.999993041992,6|2,3:2|3:2,0:0:0:0:
290,284,124951,1,10,3:2:0:0:
229,49,125113,1,10,2:2:0:0:
98,209,125275,6,0,L|144:199,1,47.5,10|0,3:2|0:0,0:0:0:0:
310,172,125437,1,8,3:2:0:0:
206,151,125599,6,0,P|188:132|182:113,1,42.7499986953736,2|0,2:2|0:0,0:0:0:0:
229,49,125924,6,0,B|258:75|257:130|204:136|204:134|204:132|162:122|118:157|149:210,1,213.750008153916,6|0,3:2|0:0,0:0:0:0:
180,277,126248,2,0,B|231:269|223:222|223:222|215:246|198:265,1,113.999996520996,10|2,3:2|2:3,0:0:0:0:
101,285,126491,1,0,1:2:0:0:
101,285,126572,2,0,P|153:305|184:350,1,113.999996520996,2|0,3:2|0:0,0:0:0:0:
185,351,126816,1,2,3:2:0:0:
185,351,126897,1,10,2:2:0:0:
373,258,127059,1,6,3:2:0:0:
319,384,127221,6,0,L|279:196,1,170.999994781494,0|0,3:2|0:0,0:0:0:0:
268,137,127545,2,0,L|314:146,1,47.5,10|0,3:2|0:0,0:0:0:0:
396,188,127707,2,0,L|427:152,1,47.5,2|0,0:2|0:0,0:0:0:0:
490,51,127870,5,2,3:0:0:0:
489,19,127951,1,2,2:3:0:0:
462,13,128032,1,2,2:3:0:0:
444,37,128113,1,2,2:3:0:0:
446,47,128194,1,8,3:2:0:0:
450,57,128275,1,2,2:3:0:0:
453,66,128356,6,0,L|341:42,1,113.999996520996,2|0,0:2|3:2,0:0:0:0:
349,35,128599,1,2,2:3:0:0:
356,27,128680,1,2,0:2:0:0:
268,137,128843,2,0,L|233:129,2,35.625001358986,10|0|2,3:2|0:0|0:2,0:0:0:0:
48,77,129167,2,0,L|173:50,1,113.999996520996,2|0,3:0|0:0,0:0:0:0:
150,64,129410,1,2,2:3:0:0:
140,74,129491,2,0,L|153:11,2,56.9999982604981,10|2|2,3:2|2:3|2:3,0:0:0:0:
113,218,129816,5,4,3:2:0:0:
268,137,129978,1,2,0:2:0:0:
219,344,130140,1,10,2:2:0:0:
294,242,130302,1,10,0:2:0:0:
294,242,130383,1,8,0:2:0:0:
294,242,130464,2,0,L|231:255,2,35.625001358986,8|0|2,3:3|0:0|0:2,0:0:0:0:
404,210,130789,1,10,3:2:0:0:
404,210,130870,1,8,2:2:0:0:
404,210,130951,2,0,L|390:272,1,35.625001358986,10|0,2:3|0:0,0:0:0:0:
456,347,131113,6,0,L|495:159,1,170.999994781494,6|0,3:2|0:0,0:0:0:0:
512,106,131437,2,0,P|477:74|430:73,1,95,2|2,3:2|2:3,0:0:0:0:
303,66,131680,1,0,1:2:0:0:
303,66,131762,2,0,P|347:51|371:12,1,95,10|2,3:3|2:3,0:0:0:0:
371,12,132005,1,2,3:2:0:0:
371,12,132086,1,8,0:2:0:0:
336,156,132248,1,2,3:2:0:0:
220,12,132410,6,0,B|94:38|94:38|87:66|62:84,1,170.999994781494,2|0,3:2|0:0,0:0:0:0:
122,134,132735,2,0,P|136:123|146:108,1,35.625001358986,10|0,2:2|0:0,0:0:0:0:
20,22,132897,1,2,0:2:0:0:
42,149,133059,2,0,L|61:241,1,95,2|2,3:0|3:3,0:0:0:0:
61,241,133302,1,2,2:3:0:0:
61,241,133383,1,8,0:2:0:0:
233,352,133545,5,6,2:2:0:0:
233,352,133626,1,0,0:0:0:0:
233,352,133707,2,0,B|199:289|133:293|133:293|118:319|85:329,1,170.999994781494,0|0,3:0|0:0,0:0:0:0:
12,315,134032,2,0,L|31:408,1,71.2500027179719,10|2,2:2|0:2,0:0:0:0:
245,250,134356,6,0,P|262:239|290:234,1,35.625001358986,0|0,3:0|0:0,0:0:0:0:
312,163,134518,2,0,P|330:172|348:193,1,35.625001358986,2|0,0:2|0:0,0:0:0:0:
420,177,134680,2,0,P|421:197|411:223,1,35.625001358986,10|0,3:2|0:0,0:0:0:0:
379,376,134843,6,0,L|355:264,1,113.999996520996,2|0,0:2|3:2,0:0:0:0:
281,346,135167,1,2,0:2:0:0:
464,361,135329,1,10,3:2:0:0:
464,361,135410,1,2,2:3:0:0:
464,361,135491,2,0,L|450:298,1,35.625001358986,10|8,2:2|2:2,0:0:0:0:
512,219,135653,2,0,L|498:281,2,35.625001358986,2|8|8,3:2|2:2|3:3,0:0:0:0:
452,73,135978,5,10,3:2:0:0:
415,58,136059,1,8,0:2:0:0:
385,71,136140,1,8,2:3:0:0:
373,91,136221,1,2,2:3:0:0:
375,110,136302,6,0,B|334:48|261:53|261:53|241:78|214:86,1,170.999994781494,6|0,3:2|0:0,0:0:0:0:
158,45,136626,2,0,B|153:17|133:-5|133:-5|158:14|189:13,1,113.999996520996,10|2,3:2|2:3,0:0:0:0:
287,137,136870,1,0,1:2:0:0:
287,137,136952,2,0,L|260:262,1,113.999996520996,2|10,3:2|2:3,0:0:0:0:
263,248,137194,1,8,0:2:0:0:
263,248,137275,1,2,3:2:0:0:
361,199,137437,1,6,3:2:0:0:
234,341,137599,6,0,B|187:327|151:346|151:346|179:318|172:260,1,170.999994781494,0|0,3:2|0:0,0:0:0:0:
191,176,137924,2,0,L|79:199,1,95,10|2,3:2|0:2,0:0:0:0:
0,96,138248,1,2,3:0:0:0:
92,76,138410,2,0,L|78:138,2,47.5,2|2|8,2:3|2:3|3:2,0:0:0:0:
209,9,138735,5,2,0:2:0:0:
209,9,138816,1,2,2:3:0:0:
209,9,138897,2,0,B|243:72|312:55|312:55|327:30|364:13,1,170.999994781494,2|0,3:0|0:0,0:0:0:0:
427,18,139221,1,10,3:2:0:0:
371,207,139383,1,2,0:2:0:0:
503,134,139545,1,2,3:0:0:0:
388,90,139707,6,0,L|394:121,3,31.6666666666667,2|0|0|10,2:2|0:0|0:0|3:2,0:0:0:0:
459,307,140032,6,0,L|478:213,1,95,2|4,0:2|3:2,0:0:0:0:
321,317,140356,1,2,0:2:0:0:
321,317,140437,1,2,2:3:0:0:
321,317,140518,2,0,P|338:301|374:294,3,47.5,2|2|2|0,1:2|1:2|1:2|1:2,0:0:0:0:
246,374,140843,1,10,3:2:0:0:
233,384,140924,1,10,2:2:0:0:
219,384,141005,2,0,P|196:377|172:349,1,47.5,10|10,0:2|2:2,0:0:0:0:
124,280,141167,5,10,3:3:0:0:
83,251,141248,1,8,2:3:0:0:
34,260,141329,1,6,2:3:0:0:
19,274,141410,1,6,2:3:0:0:
11,293,141491,6,0,L|-2:230,1,47.5,6|0,3:3|0:0,0:0:0:0:
261,54,141816,6,0,L|247:116,1,47.5,10|0,3:2|0:0,0:0:0:0:
462,348,142140,6,0,L|485:236,1,113.999996520996,10|0,3:3|0:0,0:0:0:0:
491,151,142383,1,2,3:2:0:0:
491,151,142464,2,0,L|428:164,1,56.9999982604981,8|8,2:2|2:2,0:0:0:0:
256,192,142626,5,10,3:2:0:0:
