osu file format v14

[General]
AudioFilename: mr music.mp3
AudioLeadIn: 0
PreviewTime: -1
Countdown: 0
SampleSet: Normal
StackLeniency: 0.7
Mode: 0
LetterboxInBreaks: 1
WidescreenStoryboard: 0

[Editor]
Bookmarks: 48221,62483,86581,100598,116090,130475,153098,172032,172401,172524,172647,173016,173508,174000,174245,192565,215188,237688,248139
DistanceSpacing: 0.8
BeatDivisor: 4
GridSize: 4
TimelineZoom: 1

[Metadata]
Title:Mr.Music
TitleUnicode:Mr.Music
Artist:rerulili
ArtistUnicode:rerulili
Creator:KaaiYukiChan
Version:Mr.Music!!
Source:rerulili & Ronchino=Pepe
Tags:Hatsune Miku Megurine Luka Kaai Yuki Megpoid Gumi vocaloid chorus mr music groovin' movin' cool buzz Kagamine rin len append
BeatmapID:162136
BeatmapSetID:53147

[Difficulty]
HPDrainRate:7
CircleSize:5
OverallDifficulty:8
ApproachRate:8
SliderMultiplier:1.8
SliderTickRate:1

[Events]
//Background and Video events
0,0,"675411.jpg",0,0
Video,0,"mr music.avi"
//Break Periods
2,8587,24851
2,138915,169687
2,241211,246162
2,249817,256982
//Storyboard Layer 0 (Background)
//Storyboard Layer 1 (Fail)
//Storyboard Layer 2 (Pass)
//Storyboard Layer 3 (Foreground)
//Storyboard Sound Samples

[TimingPoints]
1995,491.803278688525,4,1,0,70,1,0
7770,-50,4,1,0,70,0,0
8631,-100,4,1,0,70,0,0
25475,-100,4,1,0,80,0,0
25721,-100,4,1,0,70,0,0
25844,-100,4,1,0,65,0,0
25967,-100,4,1,0,60,0,0
26090,-100,4,1,0,55,0,0
26213,-100,4,1,0,70,0,0
26581,-100,4,1,0,65,0,0
66663,-100,4,1,0,70,0,0
73552,-100,4,1,0,45,0,0
74044,-100,4,1,0,10,0,0
74167,-100,4,1,0,15,0,0
74290,-100,4,1,0,25,0,0
74413,-100,4,1,0,35,0,0
74535,-100,4,1,0,45,0,0
74658,-100,4,1,0,55,0,0
74778,-100,4,1,0,70,0,1
77483,-100,4,1,0,70,0,0
78713,-100,4,1,0,70,0,1
81648,-100,4,1,0,70,0,0
81909,-100,4,1,0,70,0,1
89778,-100,4,1,0,70,0,0
90516,-100,4,1,0,30,0,0
91501,-100,4,2,0,80,0,0
94450,-100,4,1,0,45,0,0
94942,-100,4,1,0,65,0,0
95680,-100,4,2,0,80,0,0
106254,-100,4,1,0,50,0,0
107975,-100,4,1,0,70,0,0
123959,-100,4,1,0,70,0,1
126663,-100,4,1,0,70,0,0
127893,-100,4,1,0,70,0,1
130844,-100,4,1,0,70,0,0
131303,-100,4,1,0,70,0,1
138713,-100,4,1,0,70,0,0
170188,-100,4,1,0,45,0,0
172155,-100,4,2,0,80,0,0
174614,-100,4,1,0,60,0,0
176336,-100,4,2,0,80,0,0
178303,-100,4,1,0,60,0,0
178795,-100,4,2,0,80,0,0
198467,-100,4,1,0,20,0,0
198836,-100,4,1,0,40,0,0
199204,-100,4,1,0,60,0,0
199573,-100,4,1,0,65,0,0
199942,-100,4,1,0,70,0,0
200311,-100,4,1,0,80,0,0
200926,-100,4,1,0,90,0,0
201663,-100,4,1,0,5,0,0
202647,-100,4,1,0,70,0,1
205598,-100,4,1,0,70,0,0
206581,-100,4,1,0,70,0,1
209532,-100,4,1,0,70,0,0
210024,-100,4,1,0,70,0,1
217401,-100,4,1,0,70,0,0
218385,-100,4,1,0,70,0,1
221090,-100,4,1,0,70,0,0
222319,-100,4,1,0,70,0,1
225270,-100,4,1,0,70,0,0
225762,-100,4,1,0,70,0,1
233383,-100,4,1,0,60,0,0
234245,-100,4,1,0,5,0,0
234491,-100,4,1,0,60,0,0
234737,-100,4,1,0,5,0,0
234983,-100,4,1,0,60,0,0
240024,-100,4,1,0,60,0,1
241254,-100,4,1,0,60,0,0
246909,-100,4,1,0,75,0,1
248877,-100,4,1,0,75,0,0

[Colours]
Combo1 : 250,75,75
Combo2 : 0,255,255
Combo3 : 255,159,207
Combo4 : 255,255,70
Combo5 : 157,255,60

[HitObjects]
64,80,1257,5,0,0:0:0:0:
96,64,1380,1,0,0:0:0:0:
128,72,1503,1,0,0:0:0:0:
96,136,1748,1,0,0:0:0:0:
32,176,1994,2,0,B|48:216|96:240|144:216|160:192|160:192|160:240|160:312,1,270
304,320,3224,5,0,0:0:0:0:
344,320,3347,1,0,0:0:0:0:
384,320,3470,1,0,0:0:0:0:
448,280,3716,1,0,0:0:0:0:
488,216,3962,2,0,B|464:200|424:200|392:216|376:272|376:272|240:272,1,270
368,184,5191,5,0,0:0:0:0:
368,184,5314,1,0,0:0:0:0:
368,184,5437,1,0,0:0:0:0:
392,120,5683,1,0,0:0:0:0:
260,24,5929,1,0,0:0:0:0:
124,184,6421,1,0,0:0:0:0:
260,288,6912,1,0,0:0:0:0:
392,120,7404,1,0,0:0:0:0:
456,192,7896,2,2,B|88:192,1,360
470,40,25601,5,0,0:0:0:0:
425,43,25723,1,0,0:0:0:0:
383,58,25846,1,0,0:0:0:0:
344,80,25969,1,0,0:0:0:0:
308,107,26092,1,0,0:0:0:0:
277,139,26215,1,0,0:0:0:0:
251,176,26338,1,0,0:0:0:0:
216,112,26584,5,0,0:0:0:0:
176,48,26830,1,0,0:0:0:0:
144,48,26953,1,0,0:0:0:0:
112,48,27076,1,0,0:0:0:0:
80,112,27322,1,0,0:0:0:0:
152,120,27568,2,0,B|152:176,2,45
80,112,28060,1,8,0:0:0:0:
152,192,28429,1,0,0:0:0:0:
152,224,28552,1,0,0:0:0:0:
152,296,28798,2,0,B|200:320|256:296,2,90,0|8|0,0:0|0:0|0:0,0:0:0:0:
239,302,29535,1,2,0:0:0:0:
384,280,30027,1,10,0:0:0:0:
344,224,30273,1,0,0:0:0:0:
392,168,30519,1,8,0:0:0:0:
464,168,30765,6,0,B|464:104|400:96,1,90
417,99,31257,2,0,B|360:104|352:48,1,90
280,48,31748,1,0,0:0:0:0:
352,48,31994,1,0,0:0:0:0:
344,152,32363,1,0,0:0:0:0:
344,152,32486,1,0,0:0:0:0:
272,152,32732,2,2,B|272:216|352:256|416:216|416:160,1,180
432,264,33470,5,0,0:0:0:0:
448,336,33716,1,0,0:0:0:0:
376,344,33962,1,8,0:0:0:0:
364,305,34084,1,0,0:0:0:0:
333,280,34207,1,8,0:0:0:0:
293,279,34330,1,0,0:0:0:0:
261,303,34453,1,8,0:0:0:0:
192,304,34699,5,0,0:0:0:0:
192,232,34945,1,0,0:0:0:0:
120,232,35191,1,0,0:0:0:0:
192,232,35437,1,0,0:0:0:0:
192,160,35683,1,8,0:0:0:0:
192,160,35929,1,8,0:0:0:0:
304,160,36298,2,0,B|328:160|336:192,1,45,0|8,0:0|0:0,0:0:0:0:
264,160,36666,1,8,0:0:0:0:
192,160,36912,1,10,0:0:0:0:
120,160,37158,2,2,B|120:120|192:88|264:120|264:176,2,180
120,232,38388,1,0,0:0:0:0:
120,232,38511,1,8,0:0:0:0:
120,232,38634,1,0,0:0:0:0:
120,304,38880,1,8,0:0:0:0:
192,312,39125,6,0,B|256:328|288:304,1,90
192,312,39617,2,8,B|240:272|216:224,1,90
192,312,40109,2,0,B|176:264|104:240,1,90,0|8,0:0|0:0,0:0:0:0:
112,184,40601,1,8,0:0:0:0:
144,184,40724,1,8,0:0:0:0:
176,184,40847,1,8,0:0:0:0:
248,184,41093,1,0,0:0:0:0:
320,192,41339,5,0,0:0:0:0:
480,192,41584,1,0,0:0:0:0:
408,192,41830,1,8,0:0:0:0:
397,235,41952,1,0,0:0:0:0:
364,265,42075,1,8,0:0:0:0:
321,276,42198,1,0,0:0:0:0:
277,271,42321,1,8,0:0:0:0:
272,344,42568,5,0,0:0:0:0:
272,344,42691,1,0,0:0:0:0:
272,344,42814,1,0,0:0:0:0:
208,304,43060,1,0,0:0:0:0:
277,271,43306,1,0,0:0:0:0:
376,232,43675,1,0,0:0:0:0:
408,216,43798,1,8,0:0:0:0:
376,232,44166,1,0,0:0:0:0:
376,176,44289,1,8,0:0:0:0:
304,184,44535,2,0,B|304:152|328:120|368:112,2,90,0|8|2,0:0|0:0|0:0,0:0:0:0:
232,192,45273,5,2,0:0:0:0:
160,192,45519,1,0,0:0:0:0:
200,192,45642,1,2,0:0:0:0:
272,192,45888,1,2,0:0:0:0:
272,264,46134,1,0,0:0:0:0:
232,264,46257,1,2,0:0:0:0:
160,264,46503,6,0,B|88:328,1,90,0|8,0:0|0:0,0:0:0:0:
88,256,46994,2,0,B|88:144,1,90,8|0,0:0|0:0,0:0:0:0:
88,96,47486,1,0,0:0:0:0:
88,168,47732,1,2,0:0:0:0:
152,128,47978,1,0,0:0:0:0:
192,128,48101,1,2,0:0:0:0:
224,128,48224,1,2,0:0:0:0:
296,128,48470,2,8,B|296:216,2,90
296,56,49207,5,8,0:0:0:0:
339,63,49329,1,8,0:0:0:0:
370,95,49452,1,0,0:0:0:0:
382,138,49575,1,8,0:0:0:0:
456,136,49822,1,8,0:0:0:0:
382,138,50068,1,0,0:0:0:0:
376,176,50191,1,8,0:0:0:0:
384,248,50437,6,0,B|336:312|296:272,1,90
309,282,50929,2,0,B|264:304|232:224,1,90
168,240,51421,1,0,0:0:0:0:
96,240,51666,1,0,0:0:0:0:
120,136,52035,5,8,0:0:0:0:
152,136,52158,1,8,0:0:0:0:
224,136,52404,2,0,B|256:136|256:56,2,90,2|0|2,0:0|0:0|0:0,0:0:0:0:
368,136,53388,2,0,B|336:136|336:56,2,90,2|0|2,0:0|0:0|0:0,0:0:0:0:
352,208,54125,1,0,0:0:0:0:
335,200,54247,1,8,0:0:0:0:
318,197,54370,1,0,0:0:0:0:
248,192,54617,1,8,0:0:0:0:
256,120,54863,5,0,0:0:0:0:
256,88,54986,1,0,0:0:0:0:
256,56,55109,1,0,0:0:0:0:
184,48,55355,6,8,B|128:48|112:112,1,90
112,168,55847,5,2,0:0:0:0:
112,208,55970,1,2,0:0:0:0:
112,240,56093,1,2,0:0:0:0:
152,304,56339,6,8,B|208:336|256:304,1,90
312,312,56830,1,0,0:0:0:0:
256,192,57076,12,0,58552,0:0:0:0:
80,104,59043,6,0,B|96:72|136:72|152:104,1,90
224,104,59535,1,0,0:0:0:0:
192,120,59658,1,0,0:0:0:0:
160,104,59781,1,8,0:0:0:0:
192,168,60027,1,8,0:0:0:0:
192,240,60273,1,0,0:0:0:0:
208,312,60519,5,0,0:0:0:0:
280,312,60765,1,0,0:0:0:0:
208,328,61011,1,0,0:0:0:0:
280,328,61257,1,2,0:0:0:0:
352,328,61503,1,2,0:0:0:0:
424,328,61748,1,0,0:0:0:0:
352,312,61994,1,0,0:0:0:0:
424,312,62240,1,2,0:0:0:0:
424,240,62486,2,2,B|400:232|376:240,2,45
424,168,62978,5,2,0:0:0:0:
424,168,63224,1,8,0:0:0:0:
432,96,63470,2,0,B|360:96|352:168,1,90,8|0,0:0|0:0,0:0:0:0:
296,176,63962,1,0,0:0:0:0:
285,161,64084,1,8,0:0:0:0:
281,144,64207,1,0,0:0:0:0:
208,136,64453,5,0,0:0:0:0:
48,136,64699,1,0,0:0:0:0:
184,176,64945,1,8,0:0:0:0:
72,176,65191,1,8,0:0:0:0:
160,216,65437,1,0,0:0:0:0:
104,216,65683,1,0,0:0:0:0:
128,152,65929,1,0,0:0:0:0:
128,112,66052,1,8,0:0:0:0:
128,80,66175,1,0,0:0:0:0:
200,80,66421,1,8,0:0:0:0:
272,80,66666,1,8,0:0:0:0:
328,40,66912,6,0,B|416:40,1,90
424,112,67404,2,0,B|312:112,1,90
336,184,67896,1,2,0:0:0:0:
344,256,68142,5,0,0:0:0:0:
376,256,68265,1,0,0:0:0:0:
416,256,68388,1,0,0:0:0:0:
416,328,68634,2,0,B|328:328,1,90,0|2,0:0|0:0,0:0:0:0:
312,256,69125,5,0,0:0:0:0:
272,256,69248,1,0,0:0:0:0:
240,256,69371,1,0,0:0:0:0:
168,248,69617,2,0,B|168:352,1,90,0|2,0:0|0:0,0:0:0:0:
108,300,70109,6,0,P|56:240|60:200,2,90
256,192,70847,12,0,73552,0:0:0:0:
100,252,74043,5,0,0:0:0:0:
76,224,74165,1,0,0:0:0:0:
76,188,74288,1,0,0:0:0:0:
92,152,74411,1,0,0:0:0:0:
124,136,74534,1,0,0:0:0:0:
160,128,74658,1,0,0:0:0:0:
208,128,74781,2,2,B|288:112|360:192|280:288|192:256,1,270
128,256,75765,1,0,0:0:0:0:
64,288,76011,5,0,0:0:0:0:
88,312,76134,1,0,0:0:0:0:
120,328,76257,1,8,0:0:0:0:
192,328,76503,1,0,0:0:0:0:
264,328,76748,1,2,0:0:0:0:
368,328,77117,1,2,0:0:0:0:
480,328,77486,1,2,0:0:0:0:
480,256,77732,1,4,0:0:0:0:
480,184,77978,5,0,0:0:0:0:
480,144,78101,1,0,0:0:0:0:
480,112,78224,1,8,0:0:0:0:
480,40,78470,1,8,0:0:0:0:
408,40,78716,2,2,B|392:40|376:40|376:40|368:48|368:48|368:64|368:128|368:160|368:160|336:192|296:160|296:128|344:128,1,270
341,128,79699,1,0,0:0:0:0:
272,128,79945,5,0,0:0:0:0:
240,64,80191,1,0,0:0:0:0:
208,80,80314,1,0,0:0:0:0:
192,112,80437,1,0,0:0:0:0:
184,184,80683,2,2,B|0:184,2,180
184,256,81912,1,0,0:0:0:0:
112,256,82158,1,8,0:0:0:0:
128,288,82281,1,8,0:0:0:0:
152,312,82404,1,8,0:0:0:0:
224,320,82650,6,0,B|328:320,1,90,8|0,0:0|0:0,0:0:0:0:
384,320,83142,1,0,0:0:0:0:
392,299,83264,1,8,0:0:0:0:
400,278,83387,1,0,0:0:0:0:
408,208,83634,2,0,B|320:208,1,90,0|8,0:0|0:0,0:0:0:0:
320,136,84125,1,8,0:0:0:0:
320,208,84371,1,0,0:0:0:0:
320,136,84617,5,0,0:0:0:0:
320,64,84863,2,2,B|256:64,1,45
200,64,85232,1,2,0:0:0:0:
128,64,85478,1,4,0:0:0:0:
128,136,85724,1,8,0:0:0:0:
128,136,85847,1,8,0:0:0:0:
128,208,86093,5,0,0:0:0:0:
56,208,86339,1,0,0:0:0:0:
56,280,86584,2,0,B|96:328|128:280,1,90,8|0,0:0|0:0,0:0:0:0:
200,280,87076,2,0,B|160:328|120:272,1,90,0|8,0:0|0:0,0:0:0:0:
125,279,87568,2,0,B|88:224|48:296,1,90,8|0,0:0|0:0,0:0:0:0:
125,279,88060,2,0,B|168:224|208:296,1,90,0|8,0:0|0:0,0:0:0:0:
272,272,88552,5,2,0:0:0:0:
432,272,88798,1,2,0:0:0:0:
432,168,89044,1,0,0:0:0:0:
432,168,89166,2,2,B|280:168,1,135
16,72,90519,5,0,0:0:0:0:
16,72,90642,1,0,0:0:0:0:
56,128,90888,1,0,0:0:0:0:
40,200,91134,2,0,B|48:248,1,45
96,296,91503,1,0,0:0:0:0:
168,296,91748,6,2,B|256:296,1,90,2|2,0:0|0:0,0:0:0:0:
256,224,92240,1,2,0:0:0:0:
256,296,92486,1,0,0:0:0:0:
328,296,92732,1,0,0:0:0:0:
328,224,92978,1,2,0:0:0:0:
400,224,93224,1,0,0:0:0:0:
432,224,93347,1,2,0:0:0:0:
464,224,93470,1,2,0:0:0:0:
472,152,93716,2,0,B|384:152,2,90,0|2|0,0:0|0:0|0:0,0:0:0:0:
472,80,94453,5,2,0:0:0:0:
336,80,94699,1,2,0:0:0:0:
184,104,94945,1,2,0:0:0:0:
160,128,95068,1,2,0:0:0:0:
168,160,95191,1,2,0:0:0:0:
48,192,95437,1,2,0:0:0:0:
112,224,95683,6,0,B|208:288,1,90,0|2,0:0|0:0,0:0:0:0:
248,312,96175,2,0,B|248:208,1,90,2|0,0:0|0:0,0:0:0:0:
320,200,96666,1,0,0:0:0:0:
329,214,96788,1,0,0:0:0:0:
339,229,96911,1,2,0:0:0:0:
408,200,97158,1,0,0:0:0:0:
398,214,97280,1,0,0:0:0:0:
388,229,97403,1,2,0:0:0:0:
368,296,97650,2,0,B|240:296,1,90,2|0,0:0|0:0,0:0:0:0:
208,296,98142,1,8,0:0:0:0:
135,296,98388,5,8,0:0:0:0:
63,296,98634,1,2,0:0:0:0:
135,296,98880,1,8,0:0:0:0:
135,296,99002,1,8,0:0:0:0:
135,296,99125,1,8,0:0:0:0:
135,224,99371,1,4,0:0:0:0:
63,224,99617,6,0,B|63:160|63:160|111:160,1,90,0|2,0:0|0:0,0:0:0:0:
89,160,100109,2,0,B|119:160|119:160|119:88,1,90
89,160,100601,1,2,0:0:0:0:
120,96,100847,1,2,0:0:0:0:
192,92,101093,1,0,0:0:0:0:
210,92,101215,1,0,0:0:0:0:
228,92,101338,1,0,0:0:0:0:
296,96,101584,2,0,B|296:152|224:176,2,90,0|2|0,0:0|0:0|0:0,0:0:0:0:
247,166,102322,1,8,0:0:0:0:
247,166,102568,2,0,B|296:192|296:272,2,90,0|8|0,0:0|0:0|0:0,0:0:0:0:
176,168,103306,5,0,0:0:0:0:
176,200,103429,1,8,0:0:0:0:
176,240,103552,1,2,0:0:0:0:
104,240,103798,1,2,0:0:0:0:
104,312,104043,6,0,B|208:312,1,90
264,312,104535,2,0,B|384:312,1,90
448,312,105027,2,2,B|344:312,1,90
264,312,105519,2,2,B|144:312,1,90
104,312,106011,1,0,0:0:0:0:
104,240,106257,5,8,0:0:0:0:
264,240,106503,1,8,0:0:0:0:
264,168,106748,1,0,0:0:0:0:
240,144,106871,1,8,0:0:0:0:
208,136,106994,1,0,0:0:0:0:
208,64,107240,1,0,0:0:0:0:
248,64,107362,1,0,0:0:0:0:
288,71,107485,1,8,0:0:0:0:
325,88,107608,1,8,0:0:0:0:
357,112,107731,1,0,0:0:0:0:
384,142,107854,1,8,0:0:0:0:
403,177,107977,1,0,0:0:0:0:
408,248,108224,5,0,0:0:0:0:
120,248,108716,1,0,0:0:0:0:
296,248,108962,1,8,0:0:0:0:
120,152,109207,1,4,0:0:0:0:
252,44,109699,6,0,L|328:108,1,90
448,192,110191,2,0,L|372:264,1,90
284,336,110683,2,0,L|196:276,1,90
140,184,111175,2,0,L|220:112,1,90
424,152,111666,1,8,0:0:0:0:
416,184,111789,1,8,0:0:0:0:
392,208,111912,1,8,0:0:0:0:
360,224,112035,1,8,0:0:0:0:
328,232,112158,1,8,0:0:0:0:
184,64,112650,5,0,0:0:0:0:
80,192,112896,1,8,0:0:0:0:
176,336,113142,1,2,0:0:0:0:
176,336,113634,1,2,0:0:0:0:
80,192,113880,1,2,0:0:0:0:
184,64,114125,1,2,0:0:0:0:
256,192,114617,5,2,0:0:0:0:
256,192,114863,1,0,0:0:0:0:
256,264,115109,2,2,B|208:256|184:192|208:144|112:128,1,180
141,135,115847,1,2,0:0:0:0:
192,80,116093,6,0,B|288:80,1,90
288,152,116584,2,0,B|400:152,1,90
368,224,117076,1,0,0:0:0:0:
360,296,117322,6,0,B|264:296,1,90,0|2,0:0|0:0,0:0:0:0:
196,292,117814,1,2,0:0:0:0:
132,256,118060,1,4,0:0:0:0:
132,184,118306,5,8,0:0:0:0:
132,184,118429,1,8,0:0:0:0:
132,184,118552,1,0,0:0:0:0:
196,156,118797,1,8,0:0:0:0:
316,236,119290,1,0,0:0:0:0:
196,156,119535,1,0,0:0:0:0:
316,80,119781,1,0,0:0:0:0:
256,192,120027,12,0,122732,0:0:0:0:
256,56,123224,5,0,0:0:0:0:
80,296,123470,1,0,0:0:0:0:
432,296,123716,1,0,0:0:0:0:
416,224,123962,2,2,B|288:256|248:192|312:128|368:192|328:256|192:224,1,270
88,208,125191,5,0,0:0:0:0:
160,208,125437,1,0,0:0:0:0:
128,272,125683,1,0,0:0:0:0:
200,272,125929,2,0,B|368:272,1,135
440,272,126666,1,0,0:0:0:0:
440,200,126912,5,4,0:0:0:0:
448,128,127158,1,8,0:0:0:0:
416,136,127281,1,8,0:0:0:0:
384,152,127404,1,0,0:0:0:0:
384,224,127650,1,8,0:0:0:0:
312,224,127896,2,2,B|312:144|312:144|264:112|184:120,1,180
216,118,128634,1,2,0:0:0:0:
144,120,128880,1,0,0:0:0:0:
72,120,129125,5,8,0:0:0:0:
72,120,129371,1,8,0:0:0:0:
72,120,129617,1,0,0:0:0:0:
40,184,129863,5,0,0:0:0:0:
72,184,129986,5,0,0:0:0:0:
104,184,130109,5,0,0:0:0:0:
136,184,130232,5,0,0:0:0:0:
168,184,130355,5,0,0:0:0:0:
200,184,130478,5,0,0:0:0:0:
232,184,130601,5,0,0:0:0:0:
264,184,130724,5,0,0:0:0:0:
296,184,130847,5,8,0:0:0:0:
368,184,131093,5,8,0:0:0:0:
376,256,131339,2,2,B|320:256,2,45
376,328,131830,1,2,0:0:0:0:
304,328,132076,1,0,0:0:0:0:
232,328,132322,1,0,0:0:0:0:
232,300,132445,1,0,0:0:0:0:
232,272,132568,1,2,0:0:0:0:
160,264,132814,1,2,0:0:0:0:
132,264,132937,1,2,0:0:0:0:
104,264,133060,1,0,0:0:0:0:
100,192,133306,1,8,0:0:0:0:
172,192,133552,1,8,0:0:0:0:
136,132,133798,5,2,0:0:0:0:
76,92,134043,1,2,0:0:0:0:
76,92,134166,1,0,0:0:0:0:
136,52,134412,1,8,0:0:0:0:
76,92,134658,1,0,0:0:0:0:
136,132,134904,1,8,0:0:0:0:
172,132,135027,1,8,0:0:0:0:
136,52,135273,6,0,B|240:52,1,90
300,52,135765,1,0,0:0:0:0:
296,124,136011,1,0,0:0:0:0:
300,52,136257,1,0,0:0:0:0:
324,120,136503,1,0,0:0:0:0:
300,52,136748,1,0,0:0:0:0:
352,104,136994,1,0,0:0:0:0:
300,52,137240,1,0,0:0:0:0:
368,76,137486,1,0,0:0:0:0:
440,80,137732,5,2,0:0:0:0:
440,152,137978,1,2,0:0:0:0:
440,260,138224,1,0,0:0:0:0:
440,260,138347,2,2,B|376:260|320:192,1,135
148,184,170437,5,0,0:0:0:0:
148,184,170560,1,0,0:0:0:0:
148,184,170683,1,0,0:0:0:0:
220,184,170929,1,0,0:0:0:0:
216,256,171175,2,0,B|276:268|360:248|384:208|316:172|264:200|272:244|360:276|432:264,1,270
304,144,172404,5,0,0:0:0:0:
232,144,172650,1,8,0:0:0:0:
228,72,172896,1,2,0:0:0:0:
264,72,173019,1,8,0:0:0:0:
336,72,173265,1,0,0:0:0:0:
416,144,173634,1,0,0:0:0:0:
416,216,173880,1,0,0:0:0:0:
416,252,174003,1,0,0:0:0:0:
416,288,174125,1,0,0:0:0:0:
344,284,174371,1,0,0:0:0:0:
292,336,174617,5,0,0:0:0:0:
224,312,174863,1,8,0:0:0:0:
164,272,175109,1,0,0:0:0:0:
100,240,175355,5,0,0:0:0:0:
128,220,175478,1,0,0:0:0:0:
160,200,175601,1,0,0:0:0:0:
192,184,175724,1,0,0:0:0:0:
224,164,175847,1,0,0:0:0:0:
256,144,175970,1,0,0:0:0:0:
288,128,176093,1,0,0:0:0:0:
284,56,176339,5,0,0:0:0:0:
284,56,176462,1,0,0:0:0:0:
284,56,176584,1,2,0:0:0:0:
356,56,176830,1,0,0:0:0:0:
364,128,177076,2,2,B|456:200,1,90,2|10,0:0|0:0,0:0:0:0:
364,196,177568,2,2,B|440:256,1,90,2|10,0:0|0:0,0:0:0:0:
384,304,178060,1,0,0:0:0:0:
312,304,178306,5,0,0:0:0:0:
276,304,178429,1,0,0:0:0:0:
240,304,178552,1,0,0:0:0:0:
168,308,178798,1,0,0:0:0:0:
168,272,178920,5,0,0:0:0:0:
168,272,179043,1,4,0:0:0:0:
452,192,180027,5,0,0:0:0:0:
420,128,180273,1,2,0:0:0:0:
384,192,180519,1,8,0:0:0:0:
420,128,180765,1,2,0:0:0:0:
420,128,180888,1,8,0:0:0:0:
348,128,181134,1,0,0:0:0:0:
256,72,181503,5,0,0:0:0:0:
256,144,181748,1,0,0:0:0:0:
256,180,181871,1,0,0:0:0:0:
256,252,182117,1,0,0:0:0:0:
24,28,183101,5,2,0:0:0:0:
24,100,183347,1,0,0:0:0:0:
140,188,183962,1,0,0:0:0:0:
156,220,184084,1,0,0:0:0:0:
180,244,184207,1,0,0:0:0:0:
212,260,184330,1,0,0:0:0:0:
248,272,184453,1,0,0:0:0:0:
284,260,184576,1,2,0:0:0:0:
312,240,184699,1,2,0:0:0:0:
340,220,184822,1,2,0:0:0:0:
360,192,184945,1,0,0:0:0:0:
360,120,185191,5,0,0:0:0:0:
136,116,185437,1,4,0:0:0:0:
176,328,186175,5,0,0:0:0:0:
176,328,186298,1,0,0:0:0:0:
176,328,186420,1,2,0:0:0:0:
248,324,186666,1,8,0:0:0:0:
248,252,186912,2,2,B|148:256|116:212|136:168|184:168|204:208|192:244|120:256|68:256,1,270
72,112,188142,6,0,B|112:84|164:112,2,90,0|2|0,0:0|0:0|0:0,0:0:0:0:
116,168,188880,1,0,0:0:0:0:
64,216,189125,1,2,0:0:0:0:
96,232,189248,1,2,0:0:0:0:
132,236,189371,1,0,0:0:0:0:
132,308,189617,1,0,0:0:0:0:
204,312,189863,1,0,0:0:0:0:
276,312,190109,2,2,B|336:336|408:308|424:224,1,180,2|2,0:0|0:0,0:0:0:0:
424,172,190847,2,0,L|256:172,2,135
416,52,192568,5,2,0:0:0:0:
380,52,192691,1,2,0:0:0:0:
344,52,192814,1,0,0:0:0:0:
420,112,193060,1,2,0:0:0:0:
384,112,193183,1,2,0:0:0:0:
340,112,193306,1,2,0:0:0:0:
268,128,193552,2,0,B|240:84|272:44,1,90,2|0,0:0|0:0,0:0:0:0:
200,44,194043,1,0,0:0:0:0:
188,80,194166,1,0,0:0:0:0:
192,116,194289,1,2,0:0:0:0:
120,120,194535,1,2,0:0:0:0:
60,160,194781,2,2,B|72:236|128:308|232:340|340:320,1,360,2|6,0:0|0:0,0:0:0:0:
440,128,196503,5,0,0:0:0:0:
440,200,196748,1,0,0:0:0:0:
368,200,196994,2,0,B|368:268,2,45
364,128,197486,1,0,0:0:0:0:
360,56,197732,1,0,0:0:0:0:
288,56,197978,1,0,0:0:0:0:
360,56,198224,1,0,0:0:0:0:
432,56,198470,6,0,B|456:120,3,45
447,98,198962,2,0,B|440:148,3,45
440,142,199453,2,0,B|428:208,3,45
432,186,199945,2,0,B|384:224,3,45
396,214,200437,2,0,B|376:260,2,45
324,212,200929,1,0,0:0:0:0:
76,208,201175,1,6,0:0:0:0:
260,96,201912,5,0,0:0:0:0:
260,114,202034,1,0,0:0:0:0:
260,132,202157,1,0,0:0:0:0:
260,204,202404,1,0,0:0:0:0:
168,212,202650,2,2,B|188:288|268:328|340:288|364:212,1,270
352,52,203880,5,0,0:0:0:0:
352,52,204003,1,0,0:0:0:0:
352,52,204126,1,0,0:0:0:0:
424,48,204371,2,0,B|464:72|464:72|480:100|464:136,1,90,0|8,0:0|0:0,0:0:0:0:
384,180,204986,1,0,0:0:0:0:
384,288,205355,1,8,0:0:0:0:
312,288,205601,5,4,0:0:0:0:
240,284,205847,1,8,0:0:0:0:
208,268,205970,1,8,0:0:0:0:
172,264,206093,1,0,0:0:0:0:
100,264,206339,1,8,0:0:0:0:
88,192,206584,2,2,B|128:140|192:132|232:196|296:208|368:152,1,270
392,116,207568,1,0,0:0:0:0:
384,44,207814,1,0,0:0:0:0:
384,44,208060,1,8,0:0:0:0:
312,40,208306,1,8,0:0:0:0:
240,44,208552,6,0,B|128:84,1,90,0|0,0:0|0:0,0:0:0:0:
152,148,209043,2,0,B|52:188,1,90
84,252,209535,2,0,B|188:300,1,90
224,244,210027,5,0,0:0:0:0:
260,244,210150,1,0,0:0:0:0:
296,244,210273,1,8,0:0:0:0:
300,316,210519,6,8,B|372:304|380:240,1,90
376,196,211011,1,0,0:0:0:0:
408,208,211134,1,8,0:0:0:0:
428,240,211257,1,0,0:0:0:0:
488,280,211503,5,8,0:0:0:0:
488,244,211625,1,8,0:0:0:0:
488,208,211748,1,0,0:0:0:0:
484,172,211871,1,0,0:0:0:0:
484,136,211994,1,8,0:0:0:0:
484,64,212240,1,8,0:0:0:0:
412,64,212486,1,2,0:0:0:0:
408,136,212732,2,0,B|388:136|364:160,1,45,2|0,0:0|0:0,0:0:0:0:
296,152,213101,1,2,0:0:0:0:
296,152,213347,1,0,0:0:0:0:
300,224,213593,5,8,0:0:0:0:
300,224,213716,1,8,0:0:0:0:
308,296,213962,6,0,B|204:296,1,90
144,296,214453,2,0,B|56:220,1,90
75,237,214945,2,0,B|148:152,1,90
134,168,215437,2,0,B|208:228,1,90
204,224,215929,2,0,B|136:304,1,90
216,304,216421,1,2,0:0:0:0:
288,300,216666,1,2,0:0:0:0:
396,296,216913,1,0,0:0:0:0:
396,296,217035,2,2,B|396:160,1,135
468,168,217650,5,0,0:0:0:0:
468,132,217773,1,0,0:0:0:0:
468,96,217896,1,0,0:0:0:0:
396,92,218142,1,8,0:0:0:0:
324,84,218388,2,2,B|320:220|320:220|296:232|252:236|236:200|244:164|316:172,1,270
252,112,219371,1,4,0:0:0:0:
180,116,219617,5,8,0:0:0:0:
180,116,219740,1,8,0:0:0:0:
180,116,219863,1,0,0:0:0:0:
108,120,220109,1,8,0:0:0:0:
68,180,220355,2,2,B|108:264|196:288,2,135
140,180,221339,1,4,0:0:0:0:
140,180,221584,5,8,0:0:0:0:
140,180,221707,1,8,0:0:0:0:
140,180,221830,1,0,0:0:0:0:
212,184,222076,1,8,0:0:0:0:
284,192,222322,2,2,B|284:248|248:296|176:316|64:280|68:212,1,270
72,176,223306,1,0,0:0:0:0:
72,104,223552,1,8,0:0:0:0:
144,104,223798,1,8,0:0:0:0:
72,176,224043,1,0,0:0:0:0:
144,184,224289,5,8,0:0:0:0:
180,184,224412,5,8,0:0:0:0:
216,184,224535,5,0,0:0:0:0:
252,184,224658,5,8,0:0:0:0:
288,184,224781,5,8,0:0:0:0:
324,184,224904,5,0,0:0:0:0:
360,188,225027,5,0,0:0:0:0:
396,188,225150,5,0,0:0:0:0:
432,188,225273,5,2,0:0:0:0:
432,188,225519,5,2,0:0:0:0:
432,260,225765,37,0,0:0:0:0:
380,312,226011,1,0,0:0:0:0:
256,320,226257,2,0,B|200:276|132:328|40:184|104:92|224:72|244:136|256:156|256:156|268:136|296:80|412:96|464:184|364:336|332:284|292:312,1,720,0|8,0:0|0:0,0:0:0:0:
322,300,228470,1,0,0:0:0:0:
276,244,228716,1,2,0:0:0:0:
276,244,228839,1,2,0:0:0:0:
276,244,228962,1,2,0:0:0:0:
204,244,229207,1,0,0:0:0:0:
132,244,229453,1,8,0:0:0:0:
60,244,229699,6,0,B|56:184|116:180,1,90
180,184,230191,2,0,B|272:184,1,90
180,184,230683,2,0,B|232:96,1,90
180,184,231175,2,0,B|116:108,1,90
180,184,231666,2,0,B|84:184,1,90
256,192,232158,12,0,233142,0:0:0:0:
256,188,233634,5,0,0:0:0:0:
256,188,233880,1,0,0:0:0:0:
184,192,234125,2,0,B|184:240|252:264,1,90,8|0,0:0|0:0,0:0:0:0:
308,244,234617,2,0,B|348:212|332:148,1,90
288,108,235109,2,0,B|232:88|180:144,1,90,8|0,0:0|0:0,0:0:0:0:
132,120,235601,1,8,0:0:0:0:
132,120,235724,1,0,0:0:0:0:
132,120,235847,1,8,0:0:0:0:
100,184,236093,5,0,0:0:0:0:
68,248,236339,1,8,0:0:0:0:
104,252,236462,1,0,0:0:0:0:
192,328,236707,1,0,0:0:0:0:
256,196,236953,1,0,0:0:0:0:
372,264,237199,1,8,0:0:0:0:
400,240,237322,1,8,0:0:0:0:
408,168,237568,5,0,0:0:0:0:
408,96,237814,1,0,0:0:0:0:
336,104,238060,2,0,B|256:160,1,90
200,92,238552,2,0,B|292:180,1,90
192,212,239043,2,0,B|268:152,1,90
328,216,239535,2,0,B|256:148,1,90
262,154,240027,5,0,0:0:0:0:
244,84,240273,5,8,0:0:0:0:
280,84,240396,5,4,0:0:0:0:
148,84,240642,5,8,0:0:0:0:
376,84,241011,5,4,0:0:0:0:
164,192,246912,5,0,0:0:0:0:
256,100,247158,1,0,0:0:0:0:
352,192,247404,1,0,0:0:0:0:
256,284,247650,1,0,0:0:0:0:
256,192,247896,12,4,249617,0:0:0:0:
256,160,257732,5,8,0:0:0:0:
256,232,257978,1,0,0:0:0:0:
292,148,258224,5,0,0:0:0:0:
220,224,258470,1,8,0:0:0:0:
320,168,258716,5,8,0:0:0:0:
196,196,258962,1,0,0:0:0:0:
332,204,259207,5,0,0:0:0:0:
192,164,259453,1,8,0:0:0:0:
324,244,259699,5,8,0:0:0:0:
204,128,259945,1,0,0:0:0:0:
292,264,260191,5,0,0:0:0:0:
236,108,260437,1,8,0:0:0:0:
256,272,260683,5,8,0:0:0:0:
272,104,260929,1,0,0:0:0:0:
220,264,261175,5,0,0:0:0:0:
308,112,261421,1,8,0:0:0:0:
192,240,261666,5,8,0:0:0:0:
340,128,261912,1,0,0:0:0:0:
176,208,262158,5,0,0:0:0:0:
364,156,262404,1,8,0:0:0:0:
180,176,262650,5,8,0:0:0:0:
364,188,262896,1,0,0:0:0:0:
196,144,263142,5,0,0:0:0:0:
352,220,263388,1,8,0:0:0:0:
128,288,263634,5,2,0:0:0:0:
384,288,263880,1,2,0:0:0:0:
256,28,264126,1,0,0:0:0:0:
256,28,264248,2,2,B|256:200,1,135
