osu file format v14

[General]
AudioFilename: mr music.mp3
AudioLeadIn: 0
PreviewTime: -1
Countdown: 1
SampleSet: Normal
StackLeniency: 0.7
Mode: 0
LetterboxInBreaks: 1
WidescreenStoryboard: 0

[Editor]
Bookmarks: 48221,62483,86581,100598,116090,130475,153098,172032,172401,172524,172647,173016,173508,174000,174245,192565,215188,237688,248139
DistanceSpacing: 0.8
BeatDivisor: 4
GridSize: 8
TimelineZoom: 1

[Metadata]
Title:Mr.Music
TitleUnicode:Mr.Music
Artist:rerulili
ArtistUnicode:rerulili
Creator:KaaiYukiChan
Version:Cool Buzz
Source:rerulili & Ronchino=Pepe
Tags:Hatsune Miku Megurine Luka Kaai Yuki Megpoid Gumi vocaloid chorus mr music groovin' movin' cool buzz Kagamine rin len append
BeatmapID:162133
BeatmapSetID:53147

[Difficulty]
HPDrainRate:7
CircleSize:5
OverallDifficulty:6
ApproachRate:7
SliderMultiplier:1.6
SliderTickRate:1

[Events]
//Background and Video events
0,0,"675411.jpg",0,0
Video,0,"mr music.avi"
//Break Periods
2,8588,25930
2,138915,169537
2,241211,246012
//Storyboard Layer 0 (Background)
//Storyboard Layer 1 (Fail)
//Storyboard Layer 2 (Pass)
//Storyboard Layer 3 (Foreground)
//Storyboard Sound Samples

[TimingPoints]
1995,491.803278688525,4,1,0,70,1,0
26581,-100,4,1,0,65,0,0
66663,-100,4,1,0,70,0,0
69860,-100,4,1,0,5,0,0
74778,-100,4,1,0,70,0,1
77483,-100,4,1,0,70,0,0
78713,-100,4,1,0,70,0,1
81648,-100,4,1,0,70,0,0
81909,-100,4,1,0,70,0,1
89778,-100,4,1,0,70,0,0
91501,-100,4,2,0,80,0,0
107975,-100,4,1,0,70,0,0
119040,-100,4,1,0,5,0,0
123959,-100,4,1,0,70,0,1
126663,-100,4,1,0,70,0,0
127893,-100,4,1,0,70,0,1
130844,-100,4,1,0,70,0,0
131303,-100,4,1,0,70,0,1
138713,-100,4,1,0,70,0,0
170188,-100,4,1,0,45,0,0
172155,-100,4,2,0,80,0,0
198467,-100,4,1,0,70,0,0
201663,-100,4,1,0,5,0,0
202647,-100,4,1,0,70,0,1
205598,-100,4,1,0,70,0,0
206581,-100,4,1,0,70,0,1
209532,-100,4,1,0,70,0,0
210024,-100,4,1,0,70,0,1
217401,-100,4,1,0,70,0,0
218385,-100,4,1,0,70,0,1
221090,-100,4,1,0,70,0,0
222319,-100,4,1,0,70,0,1
225270,-100,4,1,0,70,0,0
225762,-100,4,1,0,70,0,1
233383,-100,4,1,0,60,0,0
240024,-100,4,1,0,60,0,1
241254,-100,4,1,0,60,0,0
246909,-100,4,1,0,75,0,1
248877,-100,4,1,0,75,0,0

[Colours]
Combo1 : 250,75,75
Combo2 : 0,255,255
Combo3 : 255,159,207
Combo4 : 255,255,70
Combo5 : 157,255,60

[HitObjects]
104,152,1257,5,0,0:0:0:0:
168,136,1503,1,0,0:0:0:0:
216,88,1748,1,0,0:0:0:0:
232,152,1994,2,0,B|232:264|232:320|248:336|288:336|320:320|320:272|288:264|272:280|272:280,1,240
416,296,3224,5,0,0:0:0:0:
456,248,3470,1,0,0:0:0:0:
456,184,3716,1,0,0:0:0:0:
456,120,3962,2,0,B|408:48|336:48|304:120|256:120|240:48,1,240
120,56,5191,5,0,0:0:0:0:
120,56,5314,1,0,0:0:0:0:
120,56,5437,1,0,0:0:0:0:
72,104,5683,1,0,0:0:0:0:
48,160,5929,2,0,B|144:160|80:232|240:304,1,240
296,304,6912,1,8,0:0:0:0:
416,264,7404,1,0,0:0:0:0:
416,136,7896,5,2,0:0:0:0:
160,136,8388,1,2,0:0:0:0:
64,192,26830,5,0,0:0:0:0:
32,248,27076,1,0,0:0:0:0:
96,248,27322,1,0,0:0:0:0:
72,312,27568,2,0,B|128:344|176:304,2,80,0|0|8,0:0|0:0|0:0,0:0:0:0:
64,192,28429,5,0,0:0:0:0:
64,192,28552,1,0,0:0:0:0:
120,168,28798,2,0,B|168:136|192:192,2,80,0|8|0,0:0|0:0|0:0,0:0:0:0:
472,328,30765,6,0,B|424:304|464:256,1,80
464,200,31257,1,0,0:0:0:0:
464,136,31503,1,0,0:0:0:0:
456,72,31748,2,8,B|416:40|384:72,1,80
320,136,32363,1,8,0:0:0:0:
320,136,32486,1,0,0:0:0:0:
304,200,32732,2,2,B|304:216|304:216|296:224|296:224|312:224|312:224|304:232|304:232|296:240|296:240|312:240|312:240|304:248|304:248|304:320,1,160
240,88,34699,5,0,0:0:0:0:
176,64,34945,1,8,0:0:0:0:
160,128,35191,1,0,0:0:0:0:
96,128,35437,1,0,0:0:0:0:
32,144,35683,2,8,B|40:184|112:216,1,80
176,208,36298,1,0,0:0:0:0:
176,208,36421,1,0,0:0:0:0:
128,248,36666,1,0,0:0:0:0:
168,296,36912,1,8,0:0:0:0:
224,328,37158,2,2,B|288:320|352:256|336:208,2,160
384,128,39125,5,0,0:0:0:0:
320,128,39371,1,0,0:0:0:0:
384,144,39617,1,8,0:0:0:0:
320,144,39863,1,8,0:0:0:0:
384,160,40109,1,0,0:0:0:0:
320,160,40355,1,8,0:0:0:0:
256,176,40601,1,8,0:0:0:0:
256,176,40724,1,0,0:0:0:0:
256,176,40847,1,8,0:0:0:0:
200,152,41093,1,0,0:0:0:0:
432,96,42568,5,0,0:0:0:0:
432,96,42691,1,0,0:0:0:0:
432,96,42814,1,0,0:0:0:0:
432,160,43060,1,0,0:0:0:0:
432,160,43306,1,0,0:0:0:0:
360,96,43675,2,0,B|328:104|328:152,1,40,0|8,0:0|0:0,0:0:0:0:
288,40,44166,2,0,B|256:48|256:88,1,40,0|8,0:0|0:0,0:0:0:0:
192,64,44535,1,0,0:0:0:0:
128,64,44781,1,8,0:0:0:0:
160,120,45027,1,2,0:0:0:0:
64,128,46503,5,0,0:0:0:0:
64,128,46748,1,8,0:0:0:0:
64,128,46994,1,8,0:0:0:0:
64,192,47240,2,2,B|80:224|128:256|176:224|200:192,1,160
296,184,48101,1,8,0:0:0:0:
296,184,48224,1,8,0:0:0:0:
240,152,48470,2,0,B|296:120|336:144,2,80,2|0|8,0:0|0:0|0:0,0:0:0:0:
80,152,50437,6,0,B|120:96|176:128,1,80
208,112,50929,2,0,B|200:56|256:32,1,80
304,40,51421,1,8,0:0:0:0:
304,40,51666,1,8,0:0:0:0:
400,56,52035,1,0,0:0:0:0:
400,56,52158,1,8,0:0:0:0:
432,112,52404,2,0,B|392:136|416:208,2,80,8|8|2,0:0|0:0|0:0,0:0:0:0:
464,240,53388,2,0,B|424:256|376:240,2,80,2|0|10,0:0|0:0|0:0,0:0:0:0:
280,64,54863,5,0,0:0:0:0:
248,56,54986,1,0,0:0:0:0:
216,56,55109,1,0,0:0:0:0:
152,72,55355,5,8,0:0:0:0:
120,80,55478,1,0,0:0:0:0:
96,96,55601,1,8,0:0:0:0:
72,160,55847,5,8,0:0:0:0:
80,192,55970,1,8,0:0:0:0:
96,224,56093,1,8,0:0:0:0:
152,256,56339,5,8,0:0:0:0:
176,272,56462,1,0,0:0:0:0:
200,288,56584,1,0,0:0:0:0:
264,296,56830,5,8,0:0:0:0:
304,248,57076,1,4,0:0:0:0:
40,48,59043,6,2,B|112:176|208:112|192:24|96:48|72:128|200:208,1,320
256,88,60519,1,2,0:0:0:0:
312,120,60765,1,0,0:0:0:0:
256,144,61011,1,0,0:0:0:0:
312,176,61257,1,8,0:0:0:0:
368,144,61503,1,8,0:0:0:0:
432,144,61748,1,0,0:0:0:0:
440,208,61994,1,2,0:0:0:0:
440,240,62117,1,0,0:0:0:0:
432,272,62240,1,8,0:0:0:0:
376,240,62486,5,0,0:0:0:0:
376,240,62732,1,8,0:0:0:0:
360,304,62978,1,8,0:0:0:0:
256,232,63470,2,0,B|224:272|256:304,2,80,2|0|8,0:0|0:0|0:0,0:0:0:0:
128,216,64453,1,0,0:0:0:0:
176,128,64699,1,0,0:0:0:0:
160,224,64945,1,8,0:0:0:0:
144,128,65191,1,0,0:0:0:0:
192,208,65437,1,0,0:0:0:0:
112,144,65683,1,8,0:0:0:0:
80,88,65929,5,8,0:0:0:0:
104,72,66052,1,8,0:0:0:0:
128,56,66175,1,8,0:0:0:0:
192,40,66421,1,0,0:0:0:0:
192,40,66666,1,8,0:0:0:0:
256,56,66912,5,0,0:0:0:0:
312,32,67158,1,0,0:0:0:0:
360,72,67404,1,0,0:0:0:0:
416,40,67650,1,0,0:0:0:0:
424,168,68142,5,0,0:0:0:0:
376,208,68388,1,0,0:0:0:0:
320,176,68634,1,0,0:0:0:0:
272,296,69125,6,0,L|176:264,1,80
200,208,69617,1,0,0:0:0:0:
256,192,70109,12,0,73552,0:0:0:0:
256,184,74043,5,0,0:0:0:0:
256,184,74166,1,0,0:0:0:0:
256,184,74289,1,0,0:0:0:0:
256,248,74535,1,0,0:0:0:0:
256,312,74781,2,2,B|336:304|336:224|336:144|256:144,1,240
384,112,76011,5,0,0:0:0:0:
336,72,76257,1,0,0:0:0:0:
280,48,76503,1,0,0:0:0:0:
216,40,76748,2,0,B|136:72|96:128,2,120,8|0|8,0:0|0:0|0:0,0:0:0:0:
248,168,77978,5,0,0:0:0:0:
256,200,78101,1,0,0:0:0:0:
264,232,78224,1,0,0:0:0:0:
200,248,78470,1,0,0:0:0:0:
240,296,78716,2,2,B|288:328|352:320|440:272|432:200,1,240
456,88,79945,5,0,0:0:0:0:
392,80,80191,1,0,0:0:0:0:
384,48,80314,1,0,0:0:0:0:
352,64,80437,1,0,0:0:0:0:
288,56,80683,2,0,B|248:32|208:56|208:56|232:88|216:128,2,160,2|8|4,0:0|0:0|0:0,0:0:0:0:
256,192,82158,5,0,0:0:0:0:
256,192,82281,1,0,0:0:0:0:
256,192,82404,1,0,0:0:0:0:
256,128,82650,2,0,B|184:128|104:160|80:192,1,160,8|0,0:0|0:0,0:0:0:0:
256,128,83634,2,0,B|328:128|408:160|432:192,1,160,0|8,0:0|0:0,0:0:0:0:
336,280,84617,5,0,0:0:0:0:
312,224,84863,1,0,0:0:0:0:
312,224,84986,1,8,0:0:0:0:
272,272,85232,1,8,0:0:0:0:
336,280,85478,1,4,0:0:0:0:
392,128,86093,1,0,0:0:0:0:
392,64,86339,1,8,0:0:0:0:
328,64,86584,2,2,B|232:64|232:64|224:80|224:80|160:80,1,160
176,208,87568,2,2,B|224:208|224:208|232:224|232:224|328:224,1,160
376,104,88552,5,0,0:0:0:0:
376,104,88798,1,0,0:0:0:0:
328,24,89166,2,0,B|272:56|272:128|304:160,1,120,0|8,0:0|0:0,0:0:0:0:
112,64,91748,5,0,0:0:0:0:
56,104,91994,1,0,0:0:0:0:
112,128,92240,1,0,0:0:0:0:
64,168,92486,2,0,B|88:184|128:184|152:168,2,80,2|2|8,0:0|0:0|0:0,0:0:0:0:
104,256,93347,1,0,0:0:0:0:
120,280,93470,1,0,0:0:0:0:
184,288,93716,2,0,B|288:288,2,80,0|2|8,0:0|0:0|0:0,0:0:0:0:
256,56,95683,6,0,B|208:128,1,80
211,122,96175,2,0,B|256:192,1,80,0|2,0:0|0:0,0:0:0:0:
328,120,96789,1,0,0:0:0:0:
328,120,96912,1,2,0:0:0:0:
408,72,97281,1,2,0:0:0:0:
408,72,97404,1,0,0:0:0:0:
472,72,97650,2,0,B|472:128|408:128,2,80,2|8|4,0:0|0:0|0:0,0:0:0:0:
88,56,99617,5,0,0:0:0:0:
48,104,99863,1,2,0:0:0:0:
80,160,100109,1,2,0:0:0:0:
48,216,100355,1,2,0:0:0:0:
112,216,100601,1,8,0:0:0:0:
80,160,100847,1,8,0:0:0:0:
152,96,101216,2,2,B|176:96|176:120,1,40
192,184,101584,1,2,0:0:0:0:
184,248,101830,2,0,B|184:280|248:280,1,80,0|8,0:0|0:0,0:0:0:0:
368,232,102568,1,2,0:0:0:0:
368,232,102814,1,8,0:0:0:0:
368,232,103060,1,0,0:0:0:0:
144,112,104043,6,0,B|192:72|240:136,1,80
144,112,104535,2,2,B|168:160|96:192,1,80
144,112,105027,2,2,B|80:136|64:80,1,80
144,112,105519,2,0,B|112:48|176:24,1,80
144,112,106011,1,4,0:0:0:0:
256,192,108224,5,2,0:0:0:0:
248,64,108716,1,2,0:0:0:0:
192,96,108962,1,0,0:0:0:0:
136,128,109207,1,8,0:0:0:0:
120,256,109699,2,0,B|176:328,1,80
120,256,110191,2,0,B|192:312,1,80,8|0,0:0|0:0,0:0:0:0:
120,256,110683,2,0,B|216:288,1,80,0|8,0:0|0:0,0:0:0:0:
120,256,111175,1,8,0:0:0:0:
152,200,111421,1,8,0:0:0:0:
160,168,111543,1,8,0:0:0:0:
168,136,111666,1,8,0:0:0:0:
224,104,111912,1,0,0:0:0:0:
288,104,112158,5,2,0:0:0:0:
248,224,112650,2,0,B|296:240|344:224,2,80,0|2|2,0:0|0:0|0:0,0:0:0:0:
168,320,113634,2,0,B|216:336|272:320,2,80,2|2|2,0:0|0:0|0:0,0:0:0:0:
280,248,114617,1,2,0:0:0:0:
280,248,114863,1,0,0:0:0:0:
344,256,115109,1,8,0:0:0:0:
344,224,115232,1,8,0:0:0:0:
336,192,115355,1,2,0:0:0:0:
400,184,115601,1,2,0:0:0:0:
376,128,115847,1,0,0:0:0:0:
360,64,116093,6,0,B|320:24|256:64,1,80
286,49,116584,2,0,B|240:24|200:56,1,80
104,120,117322,6,0,B|64:152|96:192,2,80,0|0|8,0:0|0:0|0:0,0:0:0:0:
192,216,118306,5,2,0:0:0:0:
216,232,118429,1,2,0:0:0:0:
248,224,118552,1,0,0:0:0:0:
312,224,118798,1,2,0:0:0:0:
256,192,119289,12,0,122732,0:0:0:0:
136,264,123224,5,0,0:0:0:0:
256,64,123470,1,0,0:0:0:0:
352,264,123716,1,0,0:0:0:0:
352,200,123962,2,2,B|352:144|256:112|168:144|168:200,1,240
56,136,125191,5,0,0:0:0:0:
120,120,125437,1,0,0:0:0:0:
176,96,125683,1,0,0:0:0:0:
200,152,125929,2,0,B|280:136|256:48,2,120,0|8|8,0:0|0:0|0:0,0:0:0:0:
320,120,127158,5,0,0:0:0:0:
320,120,127281,1,0,0:0:0:0:
320,120,127404,1,0,0:0:0:0:
320,184,127650,1,0,0:0:0:0:
320,248,127896,2,2,B|272:208|208:208|168:248|120:248|80:208,1,240
144,104,129125,5,8,0:0:0:0:
208,104,129371,1,0,0:0:0:0:
144,216,129863,2,4,B|152:208|152:208|152:224|152:224|160:208|160:208|160:224|160:224|168:208|168:208|168:224|168:224|176:208|176:208|176:224|176:224|184:208|184:208|184:224|184:224|192:208|192:208|192:224|192:224|200:208|200:208|200:224|200:224|208:208|208:208|208:224|208:224|216:208|216:208|216:224|216:224|224:208|224:208|224:224|224:224|232:216,1,320
272,96,131339,5,0,0:0:0:0:
272,96,131462,1,0,0:0:0:0:
272,96,131584,1,0,0:0:0:0:
264,160,131830,2,0,B|192:216,1,80,0|8,0:0|0:0,0:0:0:0:
264,160,132322,2,0,B|264:248,1,80,8|0,0:0|0:0,0:0:0:0:
264,160,132814,2,0,B|336:224,1,80,0|8,0:0|0:0,0:0:0:0:
264,160,133306,5,8,0:0:0:0:
264,160,133552,1,0,0:0:0:0:
208,136,133798,1,8,0:0:0:0:
232,112,133921,1,8,0:0:0:0:
264,104,134043,1,0,0:0:0:0:
296,120,134166,1,2,0:0:0:0:
336,168,134412,1,2,0:0:0:0:
400,168,134658,1,4,0:0:0:0:
264,248,135273,5,0,0:0:0:0:
264,248,135519,1,0,0:0:0:0:
264,184,135765,2,0,B|320:192|336:248|320:296|264:304,1,160,0|8,0:0|0:0,0:0:0:0:
264,184,136748,2,0,B|192:200|184:280|256:304,1,160,8|0,0:0|0:0,0:0:0:0:
360,264,137732,5,2,0:0:0:0:
360,264,137978,1,0,0:0:0:0:
424,192,138347,2,2,B|368:168|368:168|312:192,1,120
256,192,170437,5,0,0:0:0:0:
256,224,170560,1,0,0:0:0:0:
256,256,170683,1,0,0:0:0:0:
256,320,170929,1,0,0:0:0:0:
320,320,171175,2,0,B|328:312|328:312|312:312|312:312|328:304|328:304|312:304|312:304|328:296|328:296|312:296|312:296|320:288|320:288|320:152,1,240
208,216,172404,5,0,0:0:0:0:
96,160,172896,1,2,0:0:0:0:
96,160,173019,1,8,0:0:0:0:
152,192,173265,2,0,B|128:120|256:112,1,120,0|2,0:0|0:0,0:0:0:0:
280,120,173880,1,2,0:0:0:0:
280,152,174003,1,8,0:0:0:0:
280,248,174371,1,4,0:0:0:0:
336,336,176339,5,2,0:0:0:0:
336,304,176462,1,2,0:0:0:0:
336,272,176585,1,8,0:0:0:0:
208,264,177076,2,0,B|248:208|296:208,1,80,0|2,0:0|0:0,0:0:0:0:
328,192,177568,2,0,B|384:200|408:136,1,80,2|0,0:0|0:0,0:0:0:0:
112,184,178921,5,2,0:0:0:0:
112,184,179043,1,4,0:0:0:0:
352,96,180027,5,0,0:0:0:0:
408,136,180273,1,2,0:0:0:0:
352,168,180519,1,2,0:0:0:0:
400,208,180765,1,0,0:0:0:0:
400,240,180888,1,8,0:0:0:0:
336,240,181134,1,8,0:0:0:0:
240,232,181503,1,2,0:0:0:0:
240,232,181748,1,2,0:0:0:0:
240,232,181871,2,0,B|248:264|280:280|328:272|344:224,1,120,0|4,0:0|0:0,0:0:0:0:
112,112,183224,5,2,0:0:0:0:
176,120,183470,1,8,0:0:0:0:
264,216,183962,6,0,B|264:112,1,80,0|2,0:0|0:0,0:0:0:0:
264,216,184454,2,0,B|360:216,1,80,0|8,0:0|0:0,0:0:0:0:
264,216,184946,2,0,B|264:304,1,80,0|2,0:0|0:0,0:0:0:0:
264,216,185438,2,0,B|168:216,1,80,0|4,0:0|0:0,0:0:0:0:
64,152,186175,5,0,0:0:0:0:
120,120,186421,1,2,0:0:0:0:
176,96,186666,1,2,0:0:0:0:
120,120,186912,2,2,B|144:208|280:192|272:72|184:56,1,240,2|2,0:0|0:0,0:0:0:0:
280,176,188142,5,0,0:0:0:0:
280,176,188388,1,2,0:0:0:0:
280,240,188634,1,2,0:0:0:0:
176,168,189125,2,0,B|144:208|184:256,2,80,0|2|8,0:0|0:0|0:0,0:0:0:0:
176,40,190109,1,0,0:0:0:0:
176,104,190355,1,0,0:0:0:0:
176,168,190601,1,8,0:0:0:0:
360,320,192568,5,0,0:0:0:0:
424,304,192814,1,2,0:0:0:0:
456,248,193060,2,8,B|464:208|448:192,2,40
392,248,193552,1,2,0:0:0:0:
392,184,193798,1,2,0:0:0:0:
448,152,194043,2,0,B|464:96,2,40,2|8|8,0:0|0:0|0:0,0:0:0:0:
392,128,194535,1,0,0:0:0:0:
432,80,194781,2,0,B|392:32|328:32|280:96|240:184|120:104,1,320,2|4,0:0|0:0,0:0:0:0:
320,192,196503,5,0,0:0:0:0:
200,192,196748,1,2,0:0:0:0:
256,192,196994,1,2,0:0:0:0:
136,192,197240,1,2,0:0:0:0:
72,192,197486,2,8,B|72:136|152:128,1,80
184,136,197978,1,0,0:0:0:0:
216,136,198101,1,2,0:0:0:0:
248,136,198224,1,2,0:0:0:0:
256,192,198470,12,6,201175,0:0:0:0:
256,240,201912,5,0,0:0:0:0:
208,192,202158,1,0,0:0:0:0:
248,136,202404,1,0,0:0:0:0:
288,184,202650,2,2,B|392:184|432:104|384:32|304:32,1,240
208,48,203880,5,0,0:0:0:0:
152,72,204125,1,8,0:0:0:0:
200,112,204371,1,0,0:0:0:0:
136,136,204617,2,0,B|80:176|88:248,2,120,0|2|0,0:0|0:0|0:0,0:0:0:0:
288,184,205847,5,0,0:0:0:0:
288,184,205970,1,0,0:0:0:0:
288,184,206093,1,8,0:0:0:0:
288,248,206339,1,8,0:0:0:0:
288,184,206584,2,2,B|224:184|168:248|232:336|320:312,1,240
432,280,207814,5,0,0:0:0:0:
432,216,208060,1,8,0:0:0:0:
432,280,208306,1,8,0:0:0:0:
432,216,208552,2,2,B|272:248|464:288,2,160
280,176,210027,5,8,0:0:0:0:
280,176,210150,1,8,0:0:0:0:
280,176,210273,1,8,0:0:0:0:
240,64,210519,2,0,L|176:136,1,80
184,216,211011,2,0,L|240:296,1,80
336,280,211503,2,0,L|384:208,1,80
384,128,211994,2,0,L|336:64,1,80
280,176,212486,5,0,0:0:0:0:
96,176,212732,2,0,L|136:176,1,40
176,256,213101,1,0,0:0:0:0:
176,256,213347,1,0,0:0:0:0:
136,184,213962,5,0,0:0:0:0:
136,184,214207,1,0,0:0:0:0:
144,120,214453,2,8,B|192:128|208:192|208:192|304:192,1,160,8|0,0:0|0:0,0:0:0:0:
208,72,215437,2,0,B|248:80|264:120|264:120|376:120,1,160,0|8,0:0|0:0,0:0:0:0:
464,192,216421,5,2,0:0:0:0:
464,192,216666,1,2,0:0:0:0:
432,104,217035,2,0,B|384:120|376:168|392:208,1,120,0|2,0:0|0:0,0:0:0:0:
344,240,217650,5,0,0:0:0:0:
336,208,217773,1,0,0:0:0:0:
328,176,217896,1,8,0:0:0:0:
312,112,218142,1,8,0:0:0:0:
248,104,218388,2,2,B|248:216|248:256|208:272|160:232|176:200|200:176|216:192,1,240
96,152,219617,6,0,B|40:184|96:248,2,80
160,152,220355,1,0,0:0:0:0:
256,152,220724,1,8,0:0:0:0:
160,152,221093,1,8,0:0:0:0:
248,240,221584,5,0,0:0:0:0:
248,240,221707,1,0,0:0:0:0:
248,240,221830,1,8,0:0:0:0:
248,304,222076,1,8,0:0:0:0:
248,304,222322,2,2,B|296:288|312:256|304:208|248:192|264:80,1,240
184,192,223552,5,8,0:0:0:0:
184,192,223798,1,0,0:0:0:0:
56,192,224289,2,2,B|96:96|184:104,2,160
192,192,225765,5,0,0:0:0:0:
216,216,225888,1,0,0:0:0:0:
240,240,226011,1,8,0:0:0:0:
256,304,226257,2,0,B|304:272|352:304|424:192|368:80|264:144|264:144|248:160|232:144|232:144|152:80|80:192|144:304|192:272|248:320,1,640,0|8,0:0|0:0,0:0:0:0:
256,304,228347,1,8,0:0:0:0:
256,240,228593,1,0,0:0:0:0:
256,176,228839,1,8,0:0:0:0:
256,112,229084,1,4,0:0:0:0:
112,184,229699,5,0,0:0:0:0:
112,120,229945,1,0,0:0:0:0:
112,56,230191,2,8,B|200:24|248:64|256:80|256:80|264:64|320:32|416:64,1,320
424,192,231666,1,8,0:0:0:0:
256,192,232158,12,0,233142,0:0:0:0:
256,192,233634,5,0,0:0:0:0:
256,192,233880,1,0,0:0:0:0:
192,192,234125,2,0,B|256:40,1,160,8|0,0:0|0:0,0:0:0:0:
328,144,235109,2,8,B|352:192|336:248|272:256|216:248,1,160
136,192,236093,5,0,0:0:0:0:
168,248,236339,1,0,0:0:0:0:
184,272,236462,1,8,0:0:0:0:
240,304,236707,1,8,0:0:0:0:
256,240,236953,1,8,0:0:0:0:
256,80,237568,5,0,0:0:0:0:
256,80,237814,1,0,0:0:0:0:
256,144,238060,2,0,B|360:144|360:144|376:152|376:168|376:184|376:184|376:200,1,160,8|0,0:0|0:0,0:0:0:0:
256,240,239043,1,0,0:0:0:0:
168,144,239535,1,8,0:0:0:0:
296,104,240027,5,0,0:0:0:0:
360,104,240273,5,4,0:0:0:0:
368,200,240642,5,4,0:0:0:0:
320,280,241011,5,4,0:0:0:0:
208,192,246912,5,2,0:0:0:0:
256,240,247158,1,2,0:0:0:0:
256,176,247404,1,2,0:0:0:0:
256,192,247650,12,6,249617,0:0:0:0:
