osu file format v14

[General]
AudioFilename: audio.mp3
AudioLeadIn: 0
PreviewTime: 104007
Countdown: 0
SampleSet: Soft
StackLeniency: 0.7
Mode: 2
LetterboxInBreaks: 0
WidescreenStoryboard: 1

[Editor]
Bookmarks: 4011,14011,24167,34011,44011,54011,64011,104011,147136,168854,189011,228386,269167,289011,309011,329011,349241
DistanceSpacing: 3
BeatDivisor: 8
GridSize: 8
TimelineZoom: 3.300005

[Metadata]
Title:Shibamata*
TitleUnicode:柴又☆
Artist:remmuh
ArtistUnicode:remmuh
Creator:FruktoLove
Version:Soredewa o Denwa, Omachishiteimasu!
Source:
Tags:音mad otomad oto-mad ニコニコ動画 nico douga nnd nicovideo クラピー☆ kurapii* クッキー☆ cookie* クラウンピースと小さな勇気 clownpiece to chiisana yuuki 東方project touhou ハマー hummer 2号. 2gou. 2号兄貴 2-go dot nigou 2th. 2-gou no.2 aniki チキチキボーンチキチキボーン CL姉貴 Cili Cり mimi姉貴 Meimei んぬえ Nnue ☯銘々 封獣ぬえ Houjuu Nue MOT姉貴 Mioto 多々良 小傘 tatara kogasa 真夏の夜の淫夢 manatsu no yo no inmu yoru a midsummer night's lewd dream electronic instrumental japanese novelty funkot レディースアンドじぇんとるめ! ladies and gentlemen! ボイスドラマ voice drama 声劇 koegeki marathon overdose niconico れむー aneki crappy* clappy*
BeatmapID:4512616
BeatmapSetID:2141520

[Difficulty]
HPDrainRate:5
CircleSize:3.8
OverallDifficulty:9.5
ApproachRate:9.5
SliderMultiplier:2.1
SliderTickRate:2

[Events]
//Background and Video events
0,0,"image.png",0,0
//Break Periods
//Storyboard Layer 0 (Background)
//Storyboard Layer 1 (Fail)
//Storyboard Layer 2 (Pass)
//Storyboard Layer 3 (Foreground)
//Storyboard Layer 4 (Overlay)
//Storyboard Sound Samples

[TimingPoints]
257,312.5,4,2,2,40,1,0
3733,-45.4545454545455,4,2,2,75,0,0
4007,-100,4,2,2,75,0,0
64007,-100,4,2,3,75,0,0
102757,-47.6190476190476,4,2,3,75,0,0
103069,-34.4827586206897,4,2,3,75,0,0
103382,-100,4,2,3,75,0,0
104007,-45.4545454545455,4,2,3,75,0,1
105257,-100,4,2,3,75,0,1
124007,-45.4545454545455,4,2,3,75,0,1
125257,-100,4,2,3,75,0,1
143850,-100,4,2,3,75,0,0
144007,-100,4,2,3,40,0,0
147132,-100,4,2,2,60,0,0
147678,-100,4,2,2,5,0,0
147757,-100,4,2,2,60,0,0
189007,-45.4545454545455,4,2,3,75,0,0
190569,-100,4,2,3,75,0,0
209007,-45.4545454545455,4,2,3,75,0,0
210569,-100,4,2,3,75,0,0
228382,-45.4545454545455,4,2,4,75,0,1
231507,-100,4,2,4,75,0,1
248382,-45.4545454545455,4,2,4,75,0,1
251507,-100,4,2,4,75,0,1
269007,-100,4,2,2,75,0,0
309319,-47.6190476190476,4,2,2,75,0,0
309788,-100,4,2,2,75,0,0
310569,-47.6190476190476,4,2,2,75,0,0
311038,-100,4,2,2,75,0,0
311819,-47.6190476190476,4,2,2,75,0,0
312288,-100,4,2,2,75,0,0
313069,-47.6190476190476,4,2,2,75,0,0
313538,-100,4,2,2,75,0,0
314319,-47.6190476190476,4,2,2,75,0,0
314788,-100,4,2,2,75,0,0
315569,-47.6190476190476,4,2,2,75,0,0
316038,-100,4,2,2,75,0,0
316819,-47.6190476190476,4,2,2,75,0,0
317288,-100,4,2,2,75,0,0
318069,-47.6190476190476,4,2,2,75,0,0
318538,-100,4,2,2,75,0,0
319319,-47.6190476190476,4,2,2,75,0,0
319788,-100,4,2,2,75,0,0
320569,-47.6190476190476,4,2,2,75,0,0
321038,-100,4,2,2,75,0,0
321819,-47.6190476190476,4,2,2,75,0,0
322288,-100,4,2,2,75,0,0
323069,-47.6190476190476,4,2,2,75,0,0
323538,-100,4,2,2,75,0,0
324319,-47.6190476190476,4,2,2,75,0,0
324788,-100,4,2,2,75,0,0
325569,-47.6190476190476,4,2,2,75,0,0
326038,-100,4,2,2,75,0,0
326819,-47.6190476190476,4,2,2,75,0,0
327288,-100,4,2,2,75,0,0

[Colours]
Combo1 : 123,149,153
Combo2 : 239,207,189
Combo3 : 157,236,236
Combo4 : 184,114,146

[HitObjects]
256,192,296,12,0,315,2:0:0:0:
256,192,335,12,0,354,2:0:0:0:
256,192,374,12,0,393,2:0:0:0:
256,192,413,12,0,432,2:0:0:0:
256,192,452,12,0,471,2:0:0:0:
256,192,491,12,0,510,2:0:0:0:
256,192,530,12,0,549,2:0:0:0:
256,192,569,12,0,589,2:0:0:0:
256,192,608,12,0,628,2:0:0:0:
256,192,647,12,0,667,2:0:0:0:
256,192,686,12,0,706,2:0:0:0:
256,192,725,12,0,745,2:0:0:0:
256,192,764,12,0,784,2:0:0:0:
256,192,803,12,0,823,2:0:0:0:
256,192,842,12,0,862,2:0:0:0:
256,192,881,12,0,901,2:0:0:0:
256,192,921,12,0,940,2:0:0:0:
256,192,960,12,0,979,2:0:0:0:
256,192,999,12,0,1018,2:0:0:0:
256,192,1038,12,0,1057,2:0:0:0:
256,192,1077,12,0,1096,2:0:0:0:
256,192,1116,12,0,1135,2:0:0:0:
256,192,1155,12,0,1174,2:0:0:0:
256,192,1194,12,0,1214,2:0:0:0:
256,192,1233,12,0,1253,2:0:0:0:
256,192,1272,12,0,1292,2:0:0:0:
256,192,1311,12,0,1331,2:0:0:0:
256,192,1350,12,0,1370,2:0:0:0:
256,192,1389,12,0,1409,2:0:0:0:
256,192,1428,12,0,1448,2:0:0:0:
256,192,1467,12,0,1487,2:0:0:0:
256,192,1507,12,0,1526,2:0:0:0:
256,192,1546,12,0,1565,2:0:0:0:
256,192,1585,12,0,1604,2:0:0:0:
256,192,1624,12,0,1643,2:0:0:0:
256,192,1663,12,0,1682,2:0:0:0:
256,192,1702,12,0,1721,2:0:0:0:
256,192,1741,12,0,1760,2:0:0:0:
256,192,1780,12,0,1799,2:0:0:0:
256,192,1819,12,0,1839,2:0:0:0:
256,192,1858,12,0,1878,2:0:0:0:
256,192,1897,12,0,1917,2:0:0:0:
256,192,1936,12,0,1956,2:0:0:0:
256,192,1975,12,0,1995,2:0:0:0:
256,192,2014,12,0,2034,2:0:0:0:
256,192,2053,12,0,2073,2:0:0:0:
256,192,2092,12,0,2112,2:0:0:0:
256,192,2131,12,0,2151,2:0:0:0:
256,192,2171,12,0,2190,2:0:0:0:
256,192,2210,12,0,2229,2:0:0:0:
256,192,2249,12,0,2268,2:0:0:0:
256,192,2288,12,0,2307,2:0:0:0:
256,192,2327,12,0,2346,2:0:0:0:
256,192,2366,12,0,2385,2:0:0:0:
256,192,2405,12,0,2424,2:0:0:0:
256,192,2444,12,0,2464,2:0:0:0:
256,192,2483,12,0,2503,2:0:0:0:
256,192,2522,12,0,2542,2:0:0:0:
256,192,2561,12,0,2581,2:0:0:0:
256,192,2600,12,0,2620,2:0:0:0:
256,192,2639,12,0,2659,2:0:0:0:
256,192,2678,12,0,2698,2:0:0:0:
256,192,2717,12,0,2737,2:0:0:0:
256,192,2756,12,0,2776,2:0:0:0:
256,192,2796,12,0,2815,2:0:0:0:
256,192,2835,12,0,2854,2:0:0:0:
256,192,2874,12,0,2893,2:0:0:0:
256,192,2913,12,0,2932,2:0:0:0:
256,192,2952,12,0,2971,2:0:0:0:
256,192,2991,12,0,3010,2:0:0:0:
256,192,3030,12,0,3049,2:0:0:0:
256,192,3069,12,0,3089,2:0:0:0:
256,192,3108,12,0,3128,2:0:0:0:
256,192,3147,12,0,3167,2:0:0:0:
256,192,3186,12,0,3206,2:0:0:0:
256,192,3225,12,0,3245,2:0:0:0:
256,192,3264,12,0,3284,2:0:0:0:
256,192,3303,12,0,3323,2:0:0:0:
256,192,3342,12,0,3362,2:0:0:0:
256,192,3381,12,0,3401,2:0:0:0:
256,192,3421,12,0,3440,2:0:0:0:
256,192,3460,12,0,3479,2:0:0:0:
256,192,3499,12,0,3518,2:0:0:0:
256,192,3538,12,0,3577,2:0:0:0:
119,202,3733,6,0,B|456:202,1,288.75,0|0,2:0|2:0,2:0:0:0:
230,182,4007,6,1,L|109:182,1,105,0|0,2:0|2:0,2:0:0:0:
269,158,4319,2,0,L|401:158,1,105,2|0,2:0|2:0,2:0:0:0:
269,158,4632,1,0,2:0:0:0:
51,170,4788,6,1,L|197:170,2,105,0|2|0,2:0|2:0|2:0,2:0:0:0:
204,185,5257,2,1,L|344:185,1,105,0|0,2:0|2:0,2:0:0:0:
168,162,5569,2,0,L|38:163,1,105,2|0,2:0|2:0,2:0:0:0:
168,162,5882,1,0,2:0:0:0:
388,198,6038,6,1,L|257:198,2,105,0|2|0,2:0|2:0|2:0,2:0:0:0:
239,168,6507,2,1,L|368:168,1,105,0|0,2:0|2:0,2:0:0:0:
480,108,6819,2,0,L|330:108,1,105,2|0,2:0|2:0,2:0:0:0:
259,110,7132,1,0,2:0:0:0:
40,174,7288,6,1,L|191:174,2,105,0|2|0,2:0|2:0|2:0,2:0:0:0:
189,186,7757,2,1,L|315:186,1,105,0|0,2:0|2:0,2:0:0:0:
147,140,8069,2,0,L|-4:140,1,105,2|0,2:0|2:0,2:0:0:0:
149,119,8382,1,0,2:0:0:0:
438,214,8538,6,1,L|320:214,2,105,0|2|0,2:0|2:0|2:0,2:0:0:0:
289,239,9007,2,1,L|295:90,1,105,0|0,2:0|2:0,2:0:0:0:
438,234,9319,2,0,L|442:129,1,105,2|0,2:0|2:0,2:0:0:0:
325,135,9632,1,0,2:0:0:0:
71,204,9788,6,1,L|220:204,2,105,0|2|0,2:0|2:0|2:0,2:0:0:0:
224,192,10257,2,1,L|218:43,1,105,0|0,2:0|2:0,2:0:0:0:
75,187,10569,2,0,L|71:82,1,105,2|0,2:0|2:0,2:0:0:0:
188,81,10882,1,0,2:0:0:0:
437,194,11038,6,1,L|321:194,2,105,0|2|0,2:0|2:0|2:0,2:0:0:0:
215,252,11507,2,1,L|216:128,1,105,0|0,2:0|2:0,2:0:0:0:
353,102,11819,2,0,L|481:102,1,105,2|0,2:0|2:0,2:0:0:0:
353,102,12132,1,0,2:0:0:0:
80,196,12288,6,1,L|221:196,2,105,0|2|0,2:0|2:0|2:0,2:0:0:0:
302,256,12757,2,1,L|303:125,1,105,0|0,2:0|2:0,2:0:0:0:
167,139,13069,2,0,L|30:139,1,105,2|0,2:0|2:0,2:0:0:0:
167,139,13382,1,0,2:0:0:0:
427,180,13538,6,1,L|306:180,2,105,0|2|0,2:0|2:0|2:0,2:0:0:0:
161,197,14007,6,1,L|99:196,1,52.5,0|0,2:0|2:0,2:0:0:0:
179,167,14163,2,1,L|237:163,1,52.5,0|0,2:0|2:0,2:0:0:0:
152,135,14319,2,0,L|97:134,1,52.5,2|0,2:0|2:0,2:0:0:0:
169,106,14475,2,0,L|269:106,1,52.5,0|0,2:0|2:0,2:0:0:0:
301,224,14632,2,1,L|302:166,1,52.5,0|0,2:0|2:0,2:0:0:0:
231,168,14788,2,1,L|161:168,1,52.5,0|0,2:0|2:0,2:0:0:0:
327,98,14944,2,0,L|392:101,1,52.5,2|0,2:0|2:0,2:0:0:0:
222,96,15100,2,0,L|136:94,1,52.5,0|0,2:0|2:0,2:0:0:0:
382,186,15257,6,1,L|454:184,1,52.5,0|0,2:0|2:0,2:0:0:0:
365,161,15413,2,1,L|297:163,1,52.5,0|0,2:0|2:0,2:0:0:0:
391,120,15569,2,0,L|469:118,1,52.5,2|0,2:0|2:0,2:0:0:0:
376,120,15725,2,0,L|306:122,1,52.5,0|0,2:0|2:0,2:0:0:0:
244,192,15882,2,1,L|241:125,1,52.5,0|0,2:0|2:0,2:0:0:0:
310,121,16038,2,1,L|376:121,1,52.5,0|0,2:0|2:0,2:0:0:0:
170,116,16194,2,1,L|71:118,1,52.5,2|0,2:0|2:0,2:0:0:0:
280,90,16350,2,1,L|341:89,1,52.5,0|0,2:0|2:0,2:0:0:0:
122,206,16507,6,0,L|123:140,1,52.5,0|0,2:0|2:0,2:0:0:0:
193,136,16663,2,0,L|247:135,1,52.5,0|0,2:0|2:0,2:0:0:0:
324,192,16819,2,1,L|325:123,1,52.5,2|0,2:0|2:0,2:0:0:0:
254,115,16975,2,1,L|196:116,1,52.5,0|0,2:0|2:0,2:0:0:0:
281,108,17132,2,0,L|353:111,1,52.5,0|0,2:0|2:0,2:0:0:0:
262,78,17288,2,0,L|208:76,1,52.5,0|0,2:0|2:0,2:0:0:0:
418,169,17444,2,1,L|478:165,1,52.5,2|0,2:0|2:0,2:0:0:0:
300,145,17600,2,1,L|231:148,1,52.5,0|0,2:0|2:0,2:0:0:0:
433,191,17757,6,0,L|433:134,1,52.5,0|0,2:0|2:0,2:0:0:0:
357,138,17913,2,0,L|360:80,1,52.5,0|0,2:0|2:0,2:0:0:0:
283,193,18069,2,1,L|281:97,1,52.5,2|0,2:0|2:0,2:0:0:0:
353,91,18225,2,1,L|429:90,1,52.5,0|0,2:0|2:0,2:0:0:0:
325,119,18382,2,0,L|265:122,1,52.5,0|0,2:0|2:0,2:0:0:0:
339,87,18538,2,0,L|411:90,1,52.5,0|0,2:0|2:0,2:0:0:0:
227,191,18694,2,1,L|166:191,1,52.5,2|0,2:0|2:0,2:0:0:0:
328,158,18850,2,1,L|383:158,1,52.5,0|0,2:0|2:0,2:0:0:0:
161,197,19007,6,1,L|97:193,1,52.5,0|0,2:0|2:0,2:0:0:0:
178,168,19163,2,1,L|236:164,1,52.5,0|0,2:0|2:0,2:0:0:0:
151,136,19319,2,0,L|96:135,1,52.5,2|0,2:0|2:0,2:0:0:0:
168,107,19475,2,0,L|268:107,1,52.5,0|0,2:0|2:0,2:0:0:0:
300,220,19632,2,1,L|301:162,1,52.5,0|0,2:0|2:0,2:0:0:0:
230,164,19788,2,1,L|160:164,1,52.5,0|0,2:0|2:0,2:0:0:0:
327,98,19944,2,0,L|392:101,1,52.5,2|0,2:0|2:0,2:0:0:0:
222,96,20100,2,0,L|136:94,1,52.5,0|0,2:0|2:0,2:0:0:0:
382,186,20257,6,1,L|454:184,1,52.5,0|0,2:0|2:0,2:0:0:0:
365,161,20413,2,1,L|297:163,1,52.5,0|0,2:0|2:0,2:0:0:0:
391,120,20569,2,0,L|469:118,1,52.5,2|0,2:0|2:0,2:0:0:0:
376,120,20725,2,0,L|306:122,1,52.5,0|0,2:0|2:0,2:0:0:0:
244,192,20882,2,1,L|241:125,1,52.5,0|0,2:0|2:0,2:0:0:0:
310,121,21038,2,1,L|376:121,1,52.5,0|0,2:0|2:0,2:0:0:0:
170,116,21194,2,0,L|71:118,1,52.5,2|0,2:0|2:0,2:0:0:0:
280,90,21350,2,0,L|341:89,1,52.5,0|0,2:0|2:0,2:0:0:0:
122,206,21507,6,1,L|123:140,1,52.5,0|0,2:0|2:0,2:0:0:0:
193,136,21663,2,1,L|247:135,1,52.5,0|0,2:0|2:0,2:0:0:0:
324,191,21819,2,0,L|325:122,1,52.5,2|0,2:0|2:0,2:0:0:0:
254,114,21975,2,0,L|196:115,1,52.5,0|0,2:0|2:0,2:0:0:0:
405,190,22132,5,0,2:0:0:0:
274,168,22288,2,1,L|419:168,2,105,0|2|0,2:0|2:0|2:0,2:0:0:0:
118,198,22757,6,1,L|118:93,1,105,0|0,2:0|2:0,2:0:0:0:
337,187,23069,2,0,L|446:187,1,105,2|0,2:0|2:0,2:0:0:0:
379,150,23303,1,0,2:0:0:0:
220,155,23382,6,0,L|328:155,1,105,2|0,2:0|2:0,2:0:0:0:
384,155,23616,1,0,2:0:0:0:
227,107,23694,2,1,L|94:107,1,105,2|0,2:0|2:0,2:0:0:0:
386,185,24007,1,0,2:0:0:0:
248,189,24163,6,0,L|249:74,1,105,0|2,2:0|2:0,2:0:0:0:
388,115,24475,2,0,L|388:7,1,105,0|0,2:0|2:0,2:0:0:0:
228,211,24788,2,0,L|227:74,1,105,0|2,2:0|2:0,2:0:0:0:
399,195,25100,2,0,L|283:195,1,105,0|0,2:0|2:0,2:0:0:0:
74,234,25413,6,0,L|72:84,1,105,0|2,2:0|2:0,2:0:0:0:
213,200,25725,2,0,L|218:85,1,105,0|0,2:0|2:0,2:0:0:0:
61,205,26038,2,0,L|59:87,1,105,0|2,2:0|2:0,2:0:0:0:
231,161,26350,2,0,L|114:161,1,105,0|0,2:0|2:0,2:0:0:0:
436,262,26663,6,0,L|435:125,1,105,0|2,2:0|2:0,2:0:0:0:
299,193,26975,2,0,L|295:58,1,105,0|0,2:0|2:0,2:0:0:0:
453,167,27288,2,0,L|454:47,1,105,0|2,2:0|2:0,2:0:0:0:
282,194,27600,2,0,L|391:194,1,105,0|0,2:0|2:0,2:0:0:0:
98,209,27913,6,0,L|96:71,1,105,0|2,2:0|2:0,2:0:0:0:
234,193,28225,2,1,L|233:69,1,105,0|0,2:0|2:0,2:0:0:0:
75,204,28538,2,0,L|73:59,1,105,0|2,2:0|2:0,2:0:0:0:
246,198,28850,2,0,L|100:198,1,105,0|0,2:0|2:0,2:0:0:0:
434,263,29163,6,0,L|437:122,1,105,0|2,2:0|2:0,2:0:0:0:
297,188,29475,2,0,L|296:60,1,105,0|0,2:0|2:0,2:0:0:0:
455,188,29788,2,0,L|456:54,1,105,0|2,2:0|2:0,2:0:0:0:
284,170,30100,2,0,L|402:170,1,105,0|0,2:0|2:0,2:0:0:0:
84,260,30413,6,0,L|83:125,1,105,0|2,2:0|2:0,2:0:0:0:
219,208,30725,2,0,L|221:62,1,105,0|0,2:0|2:0,2:0:0:0:
62,205,31038,2,0,L|62:92,1,105,0|2,2:0|2:0,2:0:0:0:
234,186,31350,2,0,L|114:186,1,105,0|0,2:0|2:0,2:0:0:0:
425,294,31663,6,0,L|428:186,1,105,0|2,2:0|2:0,2:0:0:0:
294,206,31975,2,0,L|290:87,1,105,0|0,2:0|2:0,2:0:0:0:
446,181,32288,2,0,L|447:63,1,105,0|2,2:0|2:0,2:0:0:0:
275,145,32600,2,0,L|419:145,1,105,0|0,2:0|2:0,2:0:0:0:
98,280,32913,6,0,L|97:153,1,105,0|2,2:0|2:0,2:0:0:0:
233,212,33225,2,1,L|242:69,1,105,0|0,2:0|2:0,2:0:0:0:
69,188,33538,2,0,L|181:188,2,105,0|2|0,2:0|2:0|2:0,2:0:0:0:
378,196,34007,6,1,L|442:192,1,52.5,0|0,2:0|2:0,2:0:0:0:
360,166,34163,2,1,L|302:162,1,52.5,0|0,2:0|2:0,2:0:0:0:
387,134,34319,2,0,L|442:133,1,52.5,2|0,2:0|2:0,2:0:0:0:
370,105,34475,2,0,L|270:105,1,52.5,0|0,2:0|2:0,2:0:0:0:
238,223,34632,2,1,L|237:165,1,52.5,0|0,2:0|2:0,2:0:0:0:
308,167,34788,2,1,L|378:167,1,52.5,0|0,2:0|2:0,2:0:0:0:
212,97,34944,2,0,L|147:100,1,52.5,2|0,2:0|2:0,2:0:0:0:
317,95,35100,2,0,L|403:93,1,52.5,0|0,2:0|2:0,2:0:0:0:
157,185,35257,6,1,L|85:183,1,52.5,0|0,2:0|2:0,2:0:0:0:
174,160,35413,2,1,L|242:162,1,52.5,0|0,2:0|2:0,2:0:0:0:
148,119,35569,2,0,L|70:117,1,52.5,2|0,2:0|2:0,2:0:0:0:
163,119,35725,2,0,L|233:121,1,52.5,0|0,2:0|2:0,2:0:0:0:
295,182,35882,2,1,L|298:115,1,52.5,0|0,2:0|2:0,2:0:0:0:
229,111,36038,2,1,L|163:111,1,52.5,0|0,2:0|2:0,2:0:0:0:
369,115,36194,2,0,L|468:117,1,52.5,2|0,2:0|2:0,2:0:0:0:
259,89,36350,2,0,L|198:88,1,52.5,0|0,2:0|2:0,2:0:0:0:
417,205,36507,6,1,L|416:139,1,52.5,0|0,2:0|2:0,2:0:0:0:
346,135,36663,2,1,L|292:134,1,52.5,0|0,2:0|2:0,2:0:0:0:
216,189,36819,2,1,L|215:120,1,52.5,2|0,2:0|2:0,2:0:0:0:
286,112,36975,2,1,L|344:113,1,52.5,0|0,2:0|2:0,2:0:0:0:
259,105,37132,2,0,L|187:108,1,52.5,0|0,2:0|2:0,2:0:0:0:
279,75,37288,2,0,L|333:73,1,52.5,0|0,2:0|2:0,2:0:0:0:
124,166,37444,2,1,L|64:162,1,52.5,2|0,2:0|2:0,2:0:0:0:
242,142,37600,2,1,L|311:145,1,52.5,0|0,2:0|2:0,2:0:0:0:
106,190,37757,6,1,L|106:133,1,52.5,0|0,2:0|2:0,2:0:0:0:
182,136,37913,2,1,L|179:78,1,52.5,0|0,2:0|2:0,2:0:0:0:
256,194,38069,2,0,L|258:98,1,52.5,2|0,2:0|2:0,2:0:0:0:
186,92,38225,2,0,L|110:91,1,52.5,0|0,2:0|2:0,2:0:0:0:
213,121,38382,2,1,L|273:124,1,52.5,0|0,2:0|2:0,2:0:0:0:
199,89,38538,2,1,L|127:92,1,52.5,0|0,2:0|2:0,2:0:0:0:
311,191,38694,2,0,L|372:191,1,52.5,2|0,2:0|2:0,2:0:0:0:
206,157,38850,2,0,L|151:157,1,52.5,0|0,2:0|2:0,2:0:0:0:
334,268,39007,6,1,L|495:268,1,157.5,0|0,2:0|2:0,2:0:0:0:
334,228,39319,2,1,L|132:227,1,157.5,2|0,2:0|2:0,2:0:0:0:
340,181,39632,2,0,L|444:181,1,105,0|0,2:0|2:0,2:0:0:0:
380,148,39866,1,0,2:0:0:0:
212,163,39944,2,1,L|67:163,1,105,2|0,2:0|2:0,2:0:0:0:
326,114,40257,6,0,L|388:114,2,52.5,0|0|0,2:0|2:0|2:0,2:0:0:0:
187,76,40569,2,1,L|336:76,1,105,2|0,2:0|2:0,2:0:0:0:
441,248,40882,2,0,L|446:103,1,105,0|0,2:0|2:0,2:0:0:0:
200,242,41194,2,0,L|194:97,1,105,2|0,2:0|2:0,2:0:0:0:
416,245,41507,6,1,P|467:218|398:173,1,157.5,0|0,2:0|2:0,2:0:0:0:
275,166,41819,2,0,L|148:166,1,105,2|0,2:0|2:0,2:0:0:0:
409,201,42132,2,0,P|461:183|407:126,1,157.5,0|0,2:0|2:0,2:0:0:0:
256,179,42444,2,1,P|201:149|264:98,1,157.5,2|0,2:0|2:0,2:0:0:0:
426,83,42757,6,1,L|311:83,2,105,0|0|3,2:0|2:0|2:0,2:0:0:0:
131,148,43225,2,0,L|198:148,1,52.5,0|0,2:0|2:0,2:0:0:0:
343,138,43382,2,0,L|229:138,1,105,2|0,2:0|2:0,2:0:0:0:
178,137,43616,1,0,2:0:0:0:
335,97,43694,2,0,L|463:97,1,105,2|0,2:0|2:0,2:0:0:0:
34,176,44007,6,0,L|156:176,1,105,12|0,2:0|2:0,2:0:0:0:
254,138,44319,2,0,L|124:138,1,105,8|0,2:0|2:0,2:0:0:0:
368,190,44632,2,1,L|501:190,2,105,8|8|0,2:0|2:0|2:0,2:0:0:0:
90,289,45100,6,0,L|85:166,1,105,8|0,2:0|2:0,2:0:0:0:
217,179,45413,2,1,L|108:179,2,105,8|8|0,2:0|2:0|2:0,2:0:0:0:
436,188,45882,2,0,L|324:188,1,105,8|0,2:0|2:0,2:0:0:0:
99,184,46194,2,0,L|242:184,1,105,8|8,2:0|2:0,2:0:0:0:
470,254,46507,6,0,L|352:254,1,105,8|0,2:0|2:0,2:0:0:0:
254,180,46819,2,0,L|378:180,1,105,8|0,2:0|2:0,2:0:0:0:
140,189,47132,2,1,L|268:189,1,105,8|8,2:0|2:0,2:0:0:0:
360,187,47444,1,0,2:0:0:0:
82,256,47600,6,0,L|81:143,1,105,8|0,2:0|2:0,2:0:0:0:
300,191,47913,6,1,L|191:191,1,105,8|8,2:0|2:0,2:0:0:0:
69,188,48225,2,1,L|136:188,1,52.5,8|8,2:0|2:0,2:0:0:0:
369,192,48382,6,1,L|240:192,1,105,8|8,2:0|2:0,2:0:0:0:
404,142,48694,2,1,L|296:142,1,105,8|8,2:0|2:0,2:0:0:0:
36,192,49007,6,0,L|151:192,1,105,8|0,2:0|2:0,2:0:0:0:
256,139,49319,2,0,L|141:139,1,105,8|0,2:0|2:0,2:0:0:0:
370,189,49632,2,1,L|476:189,2,105,8|8|0,2:0|2:0|2:0,2:0:0:0:
118,309,50100,6,0,L|110:197,1,105,8|0,2:0|2:0,2:0:0:0:
227,158,50413,2,1,L|122:158,1,105,8|8,2:0|2:0,2:0:0:0:
337,165,50725,2,0,L|444:165,2,105,0|8|0,2:0|2:0|2:0,2:0:0:0:
77,173,51194,2,0,L|193:173,1,105,8|8,2:0|2:0,2:0:0:0:
475,169,51507,6,0,L|356:169,1,105,8|0,2:0|2:0,2:0:0:0:
255,122,51819,2,0,L|382:122,1,105,8|0,2:0|2:0,2:0:0:0:
141,167,52132,2,1,L|18:167,2,105,8|8|0,2:0|2:0|2:0,2:0:0:0:
418,299,52600,2,0,L|417:177,1,105,8|0,2:0|2:0,2:0:0:0:
281,187,52913,6,1,L|393:187,1,105,8|8,2:0|2:0,2:0:0:0:
156,213,53225,2,1,L|214:213,1,52.5,10|8,2:0|2:0,2:0:0:0:
355,138,53382,1,8,2:0:0:0:
125,183,53538,2,1,L|62:183,1,52.5,8|8,2:0|2:0,2:0:0:0:
236,152,53694,2,1,L|81:152,1,105,8|8,2:0|2:0,2:0:0:0:
384,190,54007,6,1,L|451:192,1,52.5,8|0,2:0|2:0,2:0:0:0:
365,154,54163,2,1,L|296:152,1,52.5,0|0,2:0|2:0,2:0:0:0:
167,182,54319,2,0,L|166:124,1,52.5,8|0,2:0|2:0,2:0:0:0:
235,107,54475,2,0,L|315:102,1,52.5,0|0,2:0|2:0,2:0:0:0:
434,97,54632,2,1,L|379:98,1,52.5,8|0,2:0|2:0,2:0:0:0:
231,187,54788,2,1,L|227:112,1,52.5,8|0,2:0|2:0,2:0:0:0:
298,111,54944,2,1,L|386:112,1,52.5,0|0,2:0|2:0,2:0:0:0:
192,132,55100,2,0,L|137:133,1,52.5,8|0,2:0|2:0,2:0:0:0:
209,95,55257,6,0,L|263:96,1,52.5,0|0,2:0|2:0,2:0:0:0:
449,164,55413,2,1,L|390:164,1,52.5,8|0,2:0|2:0,2:0:0:0:
254,183,55569,2,0,L|190:179,1,52.5,8|0,2:0|2:0,2:0:0:0:
133,169,55725,2,0,L|195:169,1,52.5,0|0,2:0|2:0,2:0:0:0:
335,198,55882,2,1,L|331:134,1,52.5,8|0,2:0|2:0,2:0:0:0:
263,132,56038,2,1,L|171:135,1,52.5,0|0,2:0|2:0,2:0:0:0:
366,117,56194,2,0,L|423:114,1,52.5,8|0,2:0|2:0,2:0:0:0:
351,79,56350,2,0,L|297:82,1,52.5,0|0,2:0|2:0,2:0:0:0:
140,188,56507,6,1,L|85:187,1,52.5,8|0,2:0|2:0,2:0:0:0:
156,145,56663,2,1,L|234:140,1,52.5,0|0,2:0|2:0,2:0:0:0:
355,205,56819,2,1,L|353:145,1,52.5,8|0,2:0|2:0,2:0:0:0:
286,133,56975,2,1,L|229:133,1,52.5,0|0,2:0|2:0,2:0:0:0:
385,112,57132,2,1,L|447:111,1,52.5,8|0,2:0|2:0,2:0:0:0:
234,98,57288,2,0,L|171:97,1,52.5,8|0,2:0|2:0,2:0:0:0:
113,97,57444,2,0,L|172:97,1,52.5,0|0,2:0|2:0,2:0:0:0:
313,230,57600,2,1,L|312:143,1,52.5,8|0,2:0|2:0,2:0:0:0:
241,159,57757,6,1,L|141:163,1,52.5,0|0,2:0|2:0,2:0:0:0:
339,119,57913,2,1,L|394:119,1,52.5,8|8,2:0|2:0,2:0:0:0:
218,261,58069,2,1,L|218:151,1,105,8|8,2:0|2:0,2:0:0:0:
367,191,58382,2,1,L|261:191,1,105,8|8,2:0|2:0,2:0:0:0:
43,143,58694,2,1,L|188:143,1,105,8|8,2:0|2:0,2:0:0:0:
377,181,59007,6,1,L|379:124,1,52.5,8|0,2:0|2:0,2:0:0:0:
312,116,59163,2,1,L|235:114,1,52.5,0|0,2:0|2:0,2:0:0:0:
108,177,59319,2,1,L|50:177,1,52.5,8|0,2:0|2:0,2:0:0:0:
122,139,59475,2,1,L|210:136,1,52.5,0|0,2:0|2:0,2:0:0:0:
336,193,59632,2,1,L|411:190,1,52.5,8|0,2:0|2:0,2:0:0:0:
228,125,59788,2,1,L|165:123,1,52.5,8|0,2:0|2:0,2:0:0:0:
353,97,59944,2,0,L|430:98,1,52.5,8|0,2:0|2:0,2:0:0:0:
212,88,60100,2,0,L|150:90,1,52.5,8|0,2:0|2:0,2:0:0:0:
399,346,60257,6,0,P|458:309|416:235,1,157.5,0|0,2:0|2:0,2:0:0:0:
283,384,60569,2,1,P|35:198|462:246,1,1155,8|8,2:0|2:0,2:0:0:0:
157,255,62444,2,1,L|156:116,1,105,0|8,2:0|2:0,2:0:0:0:
306,186,62757,6,1,L|448:186,1,105,0|8,2:0|2:0,2:0:0:0:
343,153,62991,1,0,2:0:0:0:
167,281,63069,2,0,L|164:136,1,105,10|0,2:0|2:0,2:0:0:0:
231,169,63303,1,0,2:0:0:0:
417,157,63382,2,0,L|291:157,1,105,10|0,2:0|2:0,2:0:0:0:
376,123,63616,1,0,2:0:0:0:
203,137,63694,2,0,L|276:137,1,52.5,0|0,2:0|2:0,2:0:0:0:
403,103,63850,2,0,L|308:103,1,52.5,0|0,2:0|2:0,2:0:0:0:
173,195,64007,6,1,L|56:195,2,105,6|0|8,2:0|2:0|2:0,2:0:0:0:
392,183,64475,2,1,P|442:159|376:60,1,210,2|0,2:0|2:0,2:0:0:0:
221,233,64944,2,0,L|100:233,1,105,8|0,2:0|2:0,2:0:0:0:
406,190,65257,6,1,L|287:190,2,105,2|0|8,2:0|2:0|2:0,2:0:0:0:
148,291,65725,2,1,P|96:246|187:156,1,210,2|0,2:0|2:0,2:0:0:0:
324,79,66194,2,0,L|176:79,1,105,8|0,2:0|2:0,2:0:0:0:
441,268,66507,6,0,L|441:156,1,105,2|0,2:0|2:0,2:0:0:0:
380,164,66741,1,0,2:0:0:0:
318,173,66819,2,1,L|464:173,1,105,8|2,2:0|2:0,2:0:0:0:
187,300,67132,2,1,P|121:247|155:171,1,157.5,0|0,2:0|2:0,2:0:0:0:
298,202,67444,2,1,L|175:202,1,105,8|0,2:0|2:0,2:0:0:0:
421,273,67757,6,0,L|422:153,1,105,2|0,2:0|2:0,2:0:0:0:
359,164,67991,1,0,2:0:0:0:
202,149,68069,2,0,L|116:149,2,52.5,8|0|2,2:0|2:0|2:0,2:0:0:0:
423,294,68382,2,1,P|456:207|388:169,1,157.5,0|0,2:0|2:0,2:0:0:0:
263,170,68694,2,1,L|399:170,1,105,8|0,2:0|2:0,2:0:0:0:
146,186,69007,6,0,L|38:186,1,105,2|0,2:0|2:0,2:0:0:0:
104,155,69241,1,0,2:0:0:0:
261,136,69319,2,1,L|366:136,1,105,8|2,2:0|2:0,2:0:0:0:
144,277,69632,2,1,P|102:239|136:156,1,157.5,0|0,2:0|2:0,2:0:0:0:
303,191,69944,2,1,P|350:162|285:85,1,157.5,8|0,2:0|2:0,2:0:0:0:
166,114,70257,6,0,L|277:114,1,105,2|0,2:0|2:0,2:0:0:0:
208,93,70491,1,0,2:0:0:0:
57,183,70569,2,1,L|181:183,1,105,8|2,2:0|2:0,2:0:0:0:
393,333,70882,2,1,P|443:310|370:260,1,157.5,0|0,2:0|2:0,2:0:0:0:
232,247,71194,2,1,P|179:222|229:159,1,157.5,8|0,2:0|2:0,2:0:0:0:
376,152,71507,6,0,L|484:152,1,105,2|0,2:0|2:0,2:0:0:0:
313,116,71819,2,1,L|446:116,1,105,8|0,2:0|2:0,2:0:0:0:
159,322,72132,2,0,P|104:294|171:237,1,157.5,2|0,2:0|2:0,2:0:0:0:
326,192,72444,2,1,L|458:191,1,105,8|0,2:0|2:0,2:0:0:0:
264,143,72757,6,1,L|388:143,1,105,2|0,2:0|2:0,2:0:0:0:
149,193,73069,2,1,L|33:193,1,105,2|0,2:0|2:0,2:0:0:0:
319,324,73382,2,1,P|365:300|295:242,1,157.5,8|0,2:0|2:0,2:0:0:0:
170,188,73694,2,1,L|56:188,1,105,8|0,2:0|2:0,2:0:0:0:
324,157,74007,6,1,L|451:157,2,105,2|0|8,2:0|2:0|2:0,2:0:0:0:
93,284,74475,2,0,P|32:240|125:169,1,210,2|0,2:0|2:0,2:0:0:0:
251,166,74944,2,1,L|125:166,1,105,8|0,2:0|2:0,2:0:0:0:
365,118,75257,6,0,L|475:118,1,105,2|0,2:0|2:0,2:0:0:0:
417,135,75491,2,0,L|350:134,1,52.5,0|8,2:0|2:0,2:0:0:0:
143,217,75725,2,1,L|31:217,2,105,2|0|0,2:0|2:0|2:0,2:0:0:0:
300,153,76194,2,0,L|186:153,1,105,8|0,2:0|2:0,2:0:0:0:
418,176,76507,6,0,L|305:176,1,105,2|0,2:0|2:0,2:0:0:0:
245,153,76741,1,0,2:0:0:0:
313,176,76819,2,1,L|426:176,1,105,8|2,2:0|2:0,2:0:0:0:
154,303,77132,2,1,P|101:267|171:215,1,157.5,0|0,2:0|2:0,2:0:0:0:
300,203,77444,2,1,L|149:203,1,105,8|0,2:0|2:0,2:0:0:0:
417,257,77757,6,0,L|421:112,1,105,2|0,2:0|2:0,2:0:0:0:
357,148,77991,1,0,2:0:0:0:
188,140,78069,2,1,L|136:140,2,52.5,8|0|2,2:0|2:0|2:0,2:0:0:0:
410,302,78382,2,1,P|457:239|401:216,1,157.5,0|0,2:0|2:0,2:0:0:0:
241,187,78694,2,1,L|91:187,1,105,8|0,2:0|2:0,2:0:0:0:
396,174,79007,6,0,L|283:173,1,105,2|0,2:0|2:0,2:0:0:0:
223,135,79241,1,0,2:0:0:0:
291,173,79319,2,1,L|444:173,1,105,8|2,2:0|2:0,2:0:0:0:
238,267,79632,2,1,L|131:268,1,105,0|0,2:0|2:0,2:0:0:0:
199,227,79866,1,0,2:0:0:0:
350,211,79944,2,1,L|456:211,1,105,8|0,2:0|2:0,2:0:0:0:
233,176,80257,6,0,L|104:176,1,105,2|0,2:0|2:0,2:0:0:0:
191,132,80491,1,0,2:0:0:0:
254,123,80569,2,1,L|408:124,1,105,8|2,2:0|2:0,2:0:0:0:
136,265,80882,2,0,L|32:265,1,105,0|0,2:0|2:0,2:0:0:0:
96,224,81116,1,0,2:0:0:0:
264,199,81194,2,1,L|322:199,1,52.5,8|0,2:0|2:0,2:0:0:0:
145,188,81350,1,0,2:0:0:0:
366,227,81507,6,0,L|478:227,1,105,2|0,2:0|2:0,2:0:0:0:
404,200,81741,1,0,2:0:0:0:
255,148,81819,2,1,L|393:148,1,105,8|2,2:0|2:0,2:0:0:0:
139,200,82132,2,0,L|14:200,1,105,0|0,2:0|2:0,2:0:0:0:
101,152,82366,1,0,2:0:0:0:
296,189,82444,2,0,L|423:189,1,105,8|0,2:0|2:0,2:0:0:0:
334,153,82678,1,0,2:0:0:0:
185,189,82757,6,1,L|65:189,1,105,2|0,2:0|2:0,2:0:0:0:
298,130,83069,2,1,L|186:130,1,105,2|0,2:0|2:0,2:0:0:0:
413,104,83382,2,0,L|280:104,1,105,8|0,2:0|2:0,2:0:0:0:
371,73,83616,1,0,2:0:0:0:
214,111,83694,2,1,L|68:111,1,105,8|0,2:0|2:0,2:0:0:0:
353,184,84007,6,1,L|461:184,2,105,6|0|8,2:0|2:0|2:0,2:0:0:0:
133,305,84475,2,1,P|78:273|159:177,1,210,2|0,2:0|2:0,2:0:0:0:
294,180,84944,2,0,L|142:180,1,105,8|0,2:0|2:0,2:0:0:0:
432,206,85257,6,1,L|301:206,2,105,2|0|8,2:0|2:0|2:0,2:0:0:0:
203,303,85725,2,1,P|133:252|221:188,1,210,2|0,2:0|2:0,2:0:0:0:
359,179,86194,2,0,L|468:179,1,105,8|0,2:0|2:0,2:0:0:0:
211,193,86507,6,0,L|64:193,1,105,2|0,2:0|2:0,2:0:0:0:
171,163,86741,1,0,2:0:0:0:
236,148,86819,2,1,L|123:148,1,105,8|2,2:0|2:0,2:0:0:0:
388,291,87132,2,1,P|431:256|371:188,1,157.5,0|0,2:0|2:0,2:0:0:0:
303,178,87444,2,1,L|428:178,1,105,8|0,2:0|2:0,2:0:0:0:
186,184,87757,6,0,L|40:184,1,105,2|0,2:0|2:0,2:0:0:0:
146,147,87991,1,0,2:0:0:0:
314,135,88069,2,1,L|369:135,2,52.5,8|0|2,2:0|2:0|2:0,2:0:0:0:
93,298,88382,2,1,P|45:253|113:202,1,157.5,0|0,2:0|2:0,2:0:0:0:
176,189,88694,2,1,L|36:189,1,105,8|0,2:0|2:0,2:0:0:0:
333,192,89007,6,0,L|451:192,1,105,2|0,2:0|2:0,2:0:0:0:
374,151,89241,1,0,2:0:0:0:
219,179,89319,2,1,L|109:179,1,105,8|2,2:0|2:0,2:0:0:0:
336,287,89632,2,1,P|387:258|366:148,1,157.5,0|0,2:0|2:0,2:0:0:0:
219,194,89944,2,1,P|166:154|220:102,1,157.5,8|0,2:0|2:0,2:0:0:0:
366,127,90257,6,0,L|230:127,1,105,2|0,2:0|2:0,2:0:0:0:
325,91,90491,1,0,2:0:0:0:
473,97,90569,2,1,L|349:97,1,105,8|2,2:0|2:0,2:0:0:0:
146,290,90882,2,1,P|94:251|127:173,1,157.5,0|0,2:0|2:0,2:0:0:0:
271,193,91194,2,1,L|439:193,1,157.5,8|0,2:0|2:0,2:0:0:0:
234,158,91507,6,0,L|120:158,1,105,2|0,2:0|2:0,2:0:0:0:
286,127,91819,2,1,L|161:127,1,105,8|0,2:0|2:0,2:0:0:0:
403,290,92132,2,0,P|451:252|390:193,1,157.5,2|0,2:0|2:0,2:0:0:0:
231,186,92444,2,1,L|108:186,1,105,8|0,2:0|2:0,2:0:0:0:
248,143,92757,6,1,L|102:143,1,105,2|0,2:0|2:0,2:0:0:0:
363,143,93069,2,1,L|478:143,1,105,2|0,2:0|2:0,2:0:0:0:
204,297,93382,2,1,P|156:261|196:186,1,157.5,8|0,2:0|2:0,2:0:0:0:
345,194,93694,2,1,L|457:194,1,105,8|0,2:0|2:0,2:0:0:0:
195,159,94007,6,1,L|85:159,2,105,2|0|8,2:0|2:0|2:0,2:0:0:0:
415,312,94475,2,0,P|462:288|393:182,1,210,2|0,2:0|2:0,2:0:0:0:
255,170,94944,2,1,L|369:170,1,105,8|0,2:0|2:0,2:0:0:0:
141,228,95257,6,1,L|31:228,1,105,2|0,2:0|2:0,2:0:0:0:
89,152,95491,2,0,L|162:152,1,52.5,0|8,2:0|2:0,2:0:0:0:
385,310,95725,2,1,P|449:269|379:182,1,210,2|0,2:0|2:0,2:0:0:0:
231,168,96194,2,1,L|366:168,1,105,8|0,2:0|2:0,2:0:0:0:
114,156,96507,6,1,L|221:156,1,105,2|0,2:0|2:0,2:0:0:0:
287,138,96741,1,0,2:0:0:0:
219,156,96819,2,1,L|103:156,1,105,8|2,2:0|2:0,2:0:0:0:
350,306,97132,2,1,P|400:279|326:220,1,157.5,0|0,2:0|2:0,2:0:0:0:
208,188,97444,2,1,L|332:188,1,105,8|0,2:0|2:0,2:0:0:0:
155,156,97757,6,1,L|49:156,1,105,2|0,2:0|2:0,2:0:0:0:
117,123,97991,1,0,2:0:0:0:
274,125,98069,2,1,L|330:125,2,52.5,8|0|2,2:0|2:0|2:0,2:0:0:0:
52,271,98382,2,1,L|48:97,1,157.5,0|0,2:0|2:0,2:0:0:0:
216,185,98694,2,1,L|363:185,1,105,8|0,2:0|2:0,2:0:0:0:
99,149,99007,6,0,L|206:149,1,105,2|0,2:0|2:0,2:0:0:0:
272,133,99241,1,0,2:0:0:0:
204,149,99319,2,1,L|95:149,1,105,8|0,2:0|2:0,2:0:0:0:
321,203,99632,2,0,L|436:203,1,105,2|0,2:0|2:0,2:0:0:0:
359,167,99866,1,0,2:0:0:0:
212,191,99944,2,1,L|75:191,1,105,8|0,2:0|2:0,2:0:0:0:
360,190,100257,6,1,L|477:190,1,105,2|0,2:0|2:0,2:0:0:0:
412,148,100491,2,0,L|343:148,1,52.5,0|2,2:0|2:0,2:0:0:0:
137,181,100725,1,0,2:0:0:0:
357,197,100882,2,0,L|483:197,1,105,8|0,2:0|2:0,2:0:0:0:
396,161,101116,1,0,2:0:0:0:
247,160,101194,2,1,L|179:160,1,52.5,8|0,2:0|2:0,2:0:0:0:
361,123,101350,1,0,2:0:0:0:
139,187,101507,6,0,L|30:187,1,105,2|0,2:0|2:0,2:0:0:0:
100,148,101741,1,0,2:0:0:0:
257,194,101819,2,1,L|146:194,1,105,2|0,2:0|2:0,2:0:0:0:
310,158,102132,2,0,L|446:158,1,105,2|0,2:0|2:0,2:0:0:0:
350,118,102366,1,0,2:0:0:0:
183,166,102444,2,1,L|68:166,1,105,2|0,2:0|2:0,2:0:0:0:
145,127,102678,1,0,2:0:0:0:
346,182,102757,6,0,L|100:182,1,220.5,2|2,2:0|2:0,2:0:0:0:
406,115,103069,2,0,L|69:115,1,304.5,2|2,2:0|2:0,2:0:0:0:
322,188,103382,2,1,L|471:188,1,105,2|0,2:0|2:0,2:0:0:0:
361,151,103616,1,0,2:0:0:0:
206,182,103694,2,0,L|96:182,1,105,2|2,2:0|2:0,2:0:0:0:
428,323,104007,6,1,B|194:325|194:325|142:97|142:97|181:330,1,692.999999999999,6|0,2:0|2:0,2:0:0:0:
428,323,104632,6,1,B|194:325|194:325|142:97|142:97|181:330,1,692.999999999999,2|0,2:0|2:0,2:0:0:0:
434,195,105257,6,1,L|183:195,1,210,2|0,2:0|2:0,2:0:0:0:
340,190,105725,1,0,2:0:0:0:
52,195,105882,2,1,L|196:195,1,105,2|0,2:0|2:0,2:0:0:0:
304,152,106194,2,1,L|194:152,1,105,2|0,2:0|2:0,2:0:0:0:
431,193,106507,6,1,B|326:192|326:192|437:191,1,210,2|8,2:0|2:0,2:0:0:0:
129,188,106975,1,2,2:0:0:0:
259,158,107132,2,1,L|315:158,2,52.5,0|0|0,2:0|2:0|2:0,2:0:0:0:
112,122,107444,2,0,L|173:122,1,52.5,8|0,2:0|2:0,2:0:0:0:
217,122,107600,1,0,2:0:0:0:
451,137,107757,6,1,L|329:136,1,105,2|0,2:0|2:0,2:0:0:0:
482,92,108069,2,1,L|362:92,1,105,2|0,2:0|2:0,2:0:0:0:
157,190,108382,2,1,P|213:161|125:69,1,210,8|8,2:0|2:0,2:0:0:0:
56,163,108850,1,0,2:0:0:0:
363,215,109007,6,1,B|259:215|259:215|367:214,1,210,2|8,2:0|2:0,2:0:0:0:
146,165,109475,2,1,L|94:165,2,52.5,2|0|0,2:0|2:0|2:0,2:0:0:0:
294,155,109788,2,1,L|229:155,1,52.5,0|0,2:0|2:0,2:0:0:0:
86,116,109944,2,1,L|229:116,1,105,8|0,2:0|2:0,2:0:0:0:
413,186,110257,5,2,2:0:0:0:
151,195,110413,2,0,L|15:195,2,105,0|2|0,2:0|2:0|2:0,2:0:0:0:
373,201,110882,2,1,L|512:201,1,105,8|0,2:0|2:0,2:0:0:0:
321,193,111194,2,1,L|202:193,1,105,8|0,2:0|2:0,2:0:0:0:
366,313,111507,6,1,B|471:313|471:313|365:314,1,210,2|8,2:0|2:0,2:0:0:0:
123,207,111975,1,2,2:0:0:0:
255,189,112132,2,1,L|312:189,1,52.5,0|0,2:0|2:0,2:0:0:0:
149,156,112288,2,0,L|266:156,1,105,0|8,2:0|2:0,2:0:0:0:
473,116,112600,6,1,L|400:117,1,52.5,0|0,2:0|2:0,2:0:0:0:
261,121,112757,2,0,L|203:121,2,52.5,2|0|0,2:0|2:0|2:0,2:0:0:0:
480,189,113069,2,1,L|354:189,1,105,2|0,2:0|2:0,2:0:0:0:
317,189,113303,1,0,2:0:0:0:
165,251,113382,2,1,P|103:208|193:135,1,210,8|8,2:0|2:0,2:0:0:0:
298,101,113850,1,0,2:0:0:0:
78,182,114007,6,0,L|217:182,1,105,2|0,2:0|2:0,2:0:0:0:
403,149,114319,2,1,L|458:149,2,52.5,8|0|2,2:0|2:0|2:0,2:0:0:0:
263,122,114632,2,0,L|331:122,1,52.5,0|0,2:0|2:0,2:0:0:0:
368,121,114788,1,0,2:0:0:0:
150,182,114944,2,1,L|40:182,1,105,8|0,2:0|2:0,2:0:0:0:
340,185,115257,6,1,L|466:185,1,105,2|0,2:0|2:0,2:0:0:0:
288,164,115569,2,1,L|400:164,1,105,2|0,2:0|2:0,2:0:0:0:
119,163,115882,2,1,L|344:164,1,210,2|8,2:0|2:0,2:0:0:0:
448,140,116350,1,0,2:0:0:0:
195,174,116507,6,0,L|53:174,1,105,2|0,2:0|2:0,2:0:0:0:
247,122,116819,2,0,L|385:122,1,105,8|2,2:0|2:0,2:0:0:0:
286,81,117053,1,0,2:0:0:0:
126,117,117132,2,1,L|73:117,2,52.5,0|0|0,2:0|2:0|2:0,2:0:0:0:
346,184,117444,2,1,L|222:184,1,105,8|0,2:0|2:0,2:0:0:0:
391,289,117757,6,0,L|393:174,1,105,2|0,0:0|0:0,0:0:0:0:
244,146,118069,2,1,L|367:146,1,105,2|0,2:0|2:0,2:0:0:0:
111,318,118382,2,1,P|53:289|149:206,1,210,2|8,2:0|2:0,2:0:0:0:
227,148,118850,1,0,2:0:0:0:
447,193,119007,6,0,L|322:194,1,105,2|0,2:0|2:0,2:0:0:0:
121,201,119319,2,1,L|61:201,2,52.5,8|0|2,2:0|2:0|2:0,2:0:0:0:
269,166,119632,2,0,L|199:166,1,52.5,0|0,2:0|2:0,2:0:0:0:
164,168,119788,1,0,2:0:0:0:
463,189,119944,2,1,L|341:189,1,105,8|0,2:0|2:0,2:0:0:0:
210,127,120257,6,1,L|336:127,1,105,2|0,2:0|2:0,2:0:0:0:
167,204,120569,2,1,L|57:204,1,105,2|0,2:0|2:0,2:0:0:0:
326,307,120882,2,1,B|221:307|221:307|335:306,1,210,2|8,2:0|2:0,2:0:0:0:
432,143,121350,1,0,2:0:0:0:
210,183,121507,6,0,L|106:183,1,105,2|0,2:0|2:0,2:0:0:0:
379,176,121819,2,1,L|431:176,2,52.5,8|0|2,2:0|2:0|2:0,2:0:0:0:
136,157,122132,5,0,2:0:0:0:
356,143,122288,2,1,L|426:143,1,52.5,0|0,2:0|2:0,2:0:0:0:
339,124,122444,2,1,L|277:124,1,52.5,8|0,2:0|2:0,2:0:0:0:
356,143,122600,1,0,2:0:0:0:
113,142,122757,5,2,2:0:0:0:
388,288,122913,2,0,L|442:271,1,52.5,2|0,2:0|2:0,2:0:0:0:
461,195,123069,2,0,L|427:140,1,52.5,2|0,2:0|2:0,2:0:0:0:
374,111,123225,1,0,2:0:0:0:
152,187,123382,6,0,L|44:187,1,105,2|0,2:0|2:0,2:0:0:0:
205,154,123694,2,1,L|317:154,1,105,2|0,2:0|2:0,2:0:0:0:
78,317,124007,6,0,B|312:319|312:319|364:91|364:91|325:324,1,692.999999999999,6|0,2:0|2:0,2:0:0:0:
94,316,124632,6,1,B|328:318|328:318|380:90|380:90|341:323,1,692.999999999999,2|0,2:0|2:0,2:0:0:0:
100,193,125257,6,0,L|342:193,1,210,2|0,2:0|2:0,2:0:0:0:
195,145,125725,1,0,2:0:0:0:
480,178,125882,2,1,L|360:178,1,105,2|0,2:0|2:0,2:0:0:0:
228,117,126194,2,1,L|383:117,1,105,2|0,2:0|2:0,2:0:0:0:
113,281,126507,6,1,P|60:256|136:160,1,210,2|8,2:0|2:0,2:0:0:0:
424,178,126975,1,2,2:0:0:0:
292,139,127132,2,1,L|236:139,1,52.5,0|0,2:0|2:0,2:0:0:0:
292,139,127288,1,0,2:0:0:0:
430,108,127444,2,0,L|355:108,1,52.5,8|0,2:0|2:0,2:0:0:0:
325,108,127600,1,0,2:0:0:0:
89,192,127757,6,1,L|241:192,1,105,2|0,2:0|2:0,2:0:0:0:
40,152,128069,2,1,L|159:152,1,105,2|0,2:0|2:0,2:0:0:0:
365,315,128382,2,1,B|470:314|470:314|355:316,1,210,8|8,2:0|2:0,2:0:0:0:
467,136,128850,1,0,2:0:0:0:
164,296,129007,6,1,P|97:257|165:174,1,210,2|8,2:0|2:0,2:0:0:0:
379,159,129475,2,1,L|432:159,2,52.5,2|0|0,2:0|2:0|2:0,2:0:0:0:
241,132,129788,2,1,L|172:132,1,52.5,0|0,2:0|2:0,2:0:0:0:
341,98,129944,2,1,L|211:98,1,105,8|0,2:0|2:0,2:0:0:0:
473,193,130257,6,1,L|366:193,2,105,2|0|2,2:0|2:0|2:0,2:0:0:0:
358,140,130725,1,0,2:0:0:0:
136,195,130882,2,1,L|26:195,1,105,8|0,2:0|2:0,2:0:0:0:
180,146,131194,2,1,L|299:146,1,105,8|0,2:0|2:0,2:0:0:0:
133,318,131507,6,1,B|239:318|239:318|129:317,1,210,2|8,2:0|2:0,2:0:0:0:
432,191,131975,1,2,2:0:0:0:
296,163,132132,2,1,L|243:163,1,52.5,0|0,2:0|2:0,2:0:0:0:
404,122,132288,2,0,L|292:122,1,105,0|8,2:0|2:0,2:0:0:0:
79,209,132600,6,1,L|146:209,1,52.5,0|0,2:0|2:0,2:0:0:0:
294,196,132757,2,1,L|349:196,2,52.5,2|0|0,2:0|2:0|2:0,2:0:0:0:
53,191,133069,2,0,L|169:191,1,105,8|2,2:0|2:0,2:0:0:0:
221,181,133303,1,0,2:0:0:0:
365,324,133382,2,1,P|414:296|327:195,1,210,0|8,2:0|2:0,2:0:0:0:
232,158,133850,1,0,2:0:0:0:
454,161,134007,6,1,L|328:161,1,105,2|0,2:0|2:0,2:0:0:0:
127,161,134319,2,1,L|61:161,2,52.5,8|0|2,2:0|2:0|2:0,2:0:0:0:
265,121,134632,2,0,L|200:121,1,52.5,0|0,2:0|2:0,2:0:0:0:
159,123,134788,1,0,2:0:0:0:
377,180,134944,2,1,L|482:180,1,105,8|0,2:0|2:0,2:0:0:0:
219,183,135257,6,1,L|113:183,1,105,2|0,2:0|2:0,2:0:0:0:
273,147,135569,2,1,L|160:147,1,105,2|0,2:0|2:0,2:0:0:0:
411,128,135882,2,1,L|196:128,1,210,2|8,2:0|2:0,2:0:0:0:
76,128,136350,1,0,2:0:0:0:
337,190,136507,6,1,L|446:190,1,105,2|0,2:0|2:0,2:0:0:0:
290,160,136819,2,0,L|161:160,1,105,8|2,2:0|2:0,2:0:0:0:
250,124,137053,1,0,2:0:0:0:
418,113,137132,2,1,L|471:113,2,52.5,0|0|0,2:0|2:0|2:0,2:0:0:0:
198,182,137444,2,1,L|322:182,1,105,8|0,2:0|2:0,2:0:0:0:
152,167,137757,6,1,L|23:167,1,105,2|0,2:0|2:0,2:0:0:0:
115,117,137991,1,0,2:0:0:0:
276,103,138069,2,1,L|126:103,1,105,2|0,2:0|2:0,2:0:0:0:
444,268,138382,2,1,B|338:268|338:268|452:266,1,210,2|8,2:0|2:0,2:0:0:0:
325,141,138850,1,0,2:0:0:0:
104,253,139007,6,0,L|105:130,1,105,2|0,2:0|2:0,2:0:0:0:
325,141,139319,2,1,L|383:141,2,52.5,8|0|2,2:0|2:0|2:0,2:0:0:0:
188,136,139632,2,0,L|196:80,1,52.5,0|0,2:0|2:0,2:0:0:0:
263,81,139788,1,0,2:0:0:0:
44,186,139944,2,1,L|184:186,1,105,8|0,2:0|2:0,2:0:0:0:
300,166,140257,6,1,L|178:166,1,105,2|0,2:0|2:0,2:0:0:0:
343,124,140569,2,1,L|452:124,1,105,2|0,2:0|2:0,2:0:0:0:
168,278,140882,2,1,B|273:278|273:278|163:278,1,210,2|8,2:0|2:0,2:0:0:0:
56,127,141350,1,0,2:0:0:0:
341,187,141507,6,0,L|445:187,1,105,2|0,2:0|2:0,2:0:0:0:
163,195,141819,2,1,L|110:195,2,52.5,2|0|0,2:0|2:0|2:0,2:0:0:0:
385,159,142132,5,2,2:0:0:0:
249,137,142288,2,1,L|175:137,1,52.5,0|0,2:0|2:0,2:0:0:0:
355,98,142444,2,1,L|409:98,1,52.5,2|0,2:0|2:0,2:0:0:0:
355,98,142600,1,0,2:0:0:0:
133,193,142757,5,2,2:0:0:0:
272,255,142913,2,0,L|330:255,1,52.5,2|0,2:0|2:0,2:0:0:0:
166,164,143069,2,0,L|111:166,1,52.5,2|0,2:0|2:0,2:0:0:0:
166,164,143225,1,0,2:0:0:0:
401,182,143382,5,2,2:0:0:0:
181,123,143538,2,1,L|303:123,1,105,0|0,2:0|2:0,2:0:0:0:
66,97,143850,1,0,2:0:0:0:
256,192,144007,12,0,146975,2:0:0:0:
234,297,147132,6,0,P|88:214|164:58,1,367.5,0|0,2:0|2:0,2:0:0:0:
217,376,147757,2,0,P|402:201|161:32,1,630,0|0,2:0|2:0,2:0:0:0:
73,200,149007,2,0,L|55:238,2,26.25
413,181,149475,5,0,2:0:0:0:
189,185,149944,1,0,2:0:0:0:
425,280,150257,2,0,P|428:206|422:68,1,210,2|0,2:0|2:0,2:0:0:0:
142,179,150882,5,0,2:0:0:0:
383,170,151194,1,0,2:0:0:0:
136,289,151507,2,0,B|116:256|82:191|286:195|286:195|363:176|363:176|404:136|404:136|400:74|400:74|328:7,1,525,2|0,2:0|2:0,2:0:0:0:
179,146,152444,6,1,L|427:146,2,210,0|8|0,2:0|2:0|2:0,2:0:0:0:
389,188,153382,1,0,2:0:0:0:
139,188,153694,1,0,2:0:0:0:
338,303,154007,6,0,P|461:243|319:73,1,420,2|0,2:0|2:0,2:0:0:0:
116,191,154944,5,0,2:0:0:0:
376,192,155257,1,8,2:0:0:0:
177,192,155569,1,0,2:0:0:0:
313,183,155725,2,0,L|367:183,2,52.5,8|0|0,0:0|0:0|0:0,0:0:0:0:
78,191,156194,1,8,2:0:0:0:
351,193,156507,5,2,2:0:0:0:
213,197,156975,2,1,L|329:197,1,105,0|0,2:0|2:0,2:0:0:0:
93,191,157444,5,0,2:0:0:0:
394,192,157757,1,8,2:0:0:0:
154,176,158069,1,0,2:0:0:0:
285,181,158225,1,8,2:0:0:0:
154,176,158382,2,1,P|91:134|165:49,1,210,0|8,2:0|2:0,2:0:0:0:
408,192,159007,5,2,2:0:0:0:
107,183,159475,1,0,2:0:0:0:
326,191,159788,2,0,L|212:191,1,105,8|0,2:0|2:0,2:0:0:0:
386,191,160257,6,1,L|498:191,1,105,8|0,2:0|2:0,2:0:0:0:
428,174,160491,1,0,2:0:0:0:
323,153,160569,2,1,L|202:153,2,105,0|8|0,2:0|2:0|2:0,2:0:0:0:
451,183,161194,1,8,2:0:0:0:
150,181,161507,5,2,2:0:0:0:
388,183,161975,1,0,2:0:0:0:
185,185,162288,2,0,L|302:185,1,105,8|0,2:0|2:0,2:0:0:0:
84,174,162757,6,1,L|196:174,1,105,8|0,2:0|2:0,2:0:0:0:
341,211,163069,2,1,L|400:211,2,52.5,0|0|8,2:0|2:0|2:0,2:0:0:0:
186,185,163382,2,1,L|396:185,1,210,0|8,2:0|2:0,2:0:0:0:
155,271,164007,6,1,P|94:216|163:127,1,210,2|8,2:0|2:0,2:0:0:0:
387,193,164632,1,0,2:0:0:0:
108,193,164944,5,0,2:0:0:0:
224,192,165100,1,0,2:0:0:0:
339,191,165257,1,2,2:0:0:0:
66,186,165569,5,0,2:0:0:0:
182,187,165725,1,0,2:0:0:0:
66,186,165882,1,0,2:0:0:0:
365,167,166194,5,2,2:0:0:0:
247,161,166350,1,0,2:0:0:0:
365,305,166507,2,1,P|253:169|123:161,1,315,2|0,2:0|2:0,2:0:0:0:
281,152,167053,1,4,1:0:0:0:
256,192,167678,12,0,167698,2:0:0:0:
256,192,167913,12,0,167932,2:0:0:0:
110,191,168577,5,2,2:0:0:0:
255,191,168655,1,2,2:0:0:0:
400,193,168733,1,2,2:0:0:0:
165,253,168850,2,0,L|40:253,1,105,0|0,2:0|2:0,2:0:0:0:
312,204,169319,6,0,L|429:204,2,105,8|0|0,2:0|2:0|2:0,2:0:0:0:
194,190,169788,1,8,2:0:0:0:
333,252,169944,2,1,L|450:252,1,105,0|0,2:0|2:0,2:0:0:0:
164,264,170257,6,0,L|159:138,1,105,8|0,2:0|2:0,2:0:0:0:
286,164,170569,1,0,2:0:0:0:
412,125,170725,2,0,L|286:125,1,105,8|0,2:0|2:0,2:0:0:0:
172,134,171038,1,0,2:0:0:0:
436,195,171194,2,0,L|329:195,2,105,8|0|0,2:0|2:0|2:0,2:0:0:0:
183,209,171819,6,0,L|66:209,2,105,8|0|0,2:0|2:0|2:0,2:0:0:0:
301,195,172288,1,8,2:0:0:0:
162,257,172444,2,0,L|46:257,1,105,0|0,2:0|2:0,2:0:0:0:
331,269,172757,6,0,L|336:143,1,105,8|0,2:0|2:0,2:0:0:0:
209,169,173069,1,0,2:0:0:0:
83,130,173225,2,0,L|211:130,1,105,8|0,2:0|2:0,2:0:0:0:
323,139,173538,1,0,2:0:0:0:
59,200,173694,2,0,L|166:200,2,105,8|0|0,2:0|2:0|2:0,2:0:0:0:
333,287,174319,6,0,L|341:165,1,105,8|0,2:0|2:0,2:0:0:0:
213,186,174632,1,0,2:0:0:0:
87,197,174788,2,0,L|90:83,1,105,8|0,2:0|2:0,2:0:0:0:
221,97,175100,1,0,2:0:0:0:
443,183,175257,6,0,L|328:183,1,105,8|0,2:0|2:0,2:0:0:0:
211,197,175569,1,0,2:0:0:0:
350,201,175725,2,0,L|403:201,2,52.5,8|0|0,0:0|0:0|0:0,0:0:0:0:
217,95,176038,1,0,2:0:0:0:
86,183,176194,2,0,L|89:76,1,105,8|0,2:0|2:0,2:0:0:0:
384,117,176507,1,0,2:0:0:0:
154,285,176819,6,0,L|146:163,1,105,8|1,2:0|2:0,2:0:0:0:
274,184,177132,1,0,2:0:0:0:
400,195,177288,2,0,L|397:81,1,105,8|0,2:0|2:0,2:0:0:0:
266,95,177600,1,0,2:0:0:0:
44,181,177757,6,0,L|159:181,1,105,8|0,2:0|2:0,2:0:0:0:
276,195,178069,1,0,2:0:0:0:
137,199,178225,2,0,L|138:90,1,105,8|0,2:0|2:0,2:0:0:0:
270,93,178538,1,0,2:0:0:0:
401,181,178694,2,0,L|398:74,1,105,8|0,2:0|2:0,2:0:0:0:
103,112,179007,1,0,2:0:0:0:
354,192,179319,6,1,L|461:192,2,105,8|0|0,2:0|2:0|2:0,2:0:0:0:
217,218,179788,2,0,L|216:113,1,105,8|0,2:0|2:0,2:0:0:0:
342,103,180100,1,0,2:0:0:0:
120,198,180257,6,1,L|236:198,1,105,8|0,2:0|2:0,2:0:0:0:
351,198,180569,1,0,2:0:0:0:
226,177,180725,2,0,L|115:177,2,105,8|0|0,2:0|2:0|2:0,2:0:0:0:
363,184,181194,2,0,L|368:57,1,105,8|0,2:0|2:0,2:0:0:0:
117,136,181507,1,0,2:0:0:0:
348,190,181819,6,0,L|452:190,2,105,8|0|0,2:0|2:0|2:0,2:0:0:0:
211,216,182288,2,0,L|210:111,1,105,8|0,2:0|2:0,2:0:0:0:
336,101,182600,1,0,2:0:0:0:
114,196,182757,6,0,L|230:196,1,105,8|0,2:0|2:0,2:0:0:0:
345,196,183069,1,0,2:0:0:0:
219,169,183225,2,1,L|108:169,2,105,8|0|0,2:0|2:0|2:0,2:0:0:0:
438,281,183694,6,1,L|439:162,1,105,8|0,2:0|2:0,2:0:0:0:
217,196,184007,6,1,P|162:160|216:107,1,157.5,4|0,2:0|2:0,2:0:0:0:
283,88,184319,2,0,L|166:88,1,105,0|0,2:0|2:0,2:0:0:0:
397,255,184632,2,1,P|426:251|386:172,1,157.5,4|0,2:0|2:0,2:0:0:0:
324,164,184944,2,1,L|448:164,1,105,0|0,2:0|2:0,2:0:0:0:
120,162,185257,6,1,L|287:162,1,157.5,4|0,2:0|2:0,2:0:0:0:
349,156,185569,2,0,L|224:156,1,105,0|0,2:0|2:0,2:0:0:0:
464,134,185882,2,1,L|297:134,1,157.5,4|0,2:0|2:0,2:0:0:0:
235,128,186194,2,0,L|356:128,1,105,0|0,2:0|2:0,2:0:0:0:
102,328,186507,6,1,P|59:301|116:232,1,157.5,4|0,2:0|2:0,2:0:0:0:
252,200,186819,2,1,P|308:162|242:116,1,157.5,4|0,2:0|2:0,2:0:0:0:
410,323,187132,6,1,P|453:296|396:227,1,157.5,4|0,2:0|2:0,2:0:0:0:
260,195,187444,2,1,P|204:157|270:111,1,157.5,4|0,2:0|2:0,2:0:0:0:
107,162,187757,6,1,L|283:162,1,157.5,4|0,2:0|2:0,2:0:0:0:
431,113,188069,2,1,L|270:113,1,157.5,4|0,2:0|2:0,2:0:0:0:
127,294,188382,6,1,L|122:174,1,105,4|0,2:0|2:0,2:0:0:0:
400,192,188694,2,1,L|466:192,1,52.5,2|2,2:0|2:0,2:0:0:0:
314,150,188850,2,1,L|234:150,1,52.5,2|2,2:0|2:0,2:0:0:0:
121,311,189007,6,1,B|355:313|355:313|407:85|407:85|366:331,1,692.999999999999,6|0,2:0|2:0,2:0:0:0:
121,311,189632,6,1,B|355:313|355:313|230:120|230:120|366:319,1,692.999999999999,2|0,2:0|2:0,2:0:0:0:
95,190,190257,6,1,B|327:189|327:189|95:189,1,462.000014099122,2|0,2:0|2:0,2:0:0:0:
211,146,190725,1,0,2:0:0:0:
464,160,190882,2,1,L|350:160,1,105,2|0,2:0|2:0,2:0:0:0:
214,116,191194,2,1,L|345:116,1,105,2|0,2:0|2:0,2:0:0:0:
98,312,191507,6,1,P|45:280|117:185,1,210,2|8,2:0|2:0,2:0:0:0:
330,184,191975,1,2,2:0:0:0:
193,137,192132,2,1,L|141:137,2,52.5,0|0|0,2:0|2:0|2:0,2:0:0:0:
412,113,192444,2,1,L|467:113,2,52.5,8|0|0,2:0|2:0|2:0,2:0:0:0:
111,184,192757,6,1,L|241:184,1,105,2|0,2:0|2:0,2:0:0:0:
59,166,193069,2,1,L|167:166,1,105,2|0,2:0|2:0,2:0:0:0:
385,320,193382,2,1,B|278:320|278:320|385:320,1,210,8|8,2:0|2:0,2:0:0:0:
480,139,193850,1,0,2:0:0:0:
183,293,194007,6,0,P|111:242|196:183,1,210,2|8,2:0|2:0,2:0:0:0:
400,138,194475,2,1,L|455:138,2,52.5,2|0|0,2:0|2:0|2:0,2:0:0:0:
262,105,194788,2,1,L|319:105,1,52.5,0|0,2:0|2:0,2:0:0:0:
466,76,194944,2,1,L|328:76,1,105,8|0,2:0|2:0,2:0:0:0:
141,193,195257,5,2,2:0:0:0:
361,193,195413,2,0,L|469:193,2,105,0|2|0,2:0|2:0|2:0,2:0:0:0:
141,248,195882,2,1,L|16:248,1,105,8|0,2:0|2:0,2:0:0:0:
193,194,196194,2,1,L|305:194,1,105,8|0,2:0|2:0,2:0:0:0:
137,292,196507,6,1,B|241:292|241:292|132:291,1,210,2|8,2:0|2:0,2:0:0:0:
423,178,196975,1,2,2:0:0:0:
296,148,197132,2,1,L|241:149,1,52.5,0|0,2:0|2:0,2:0:0:0:
422,93,197288,2,0,L|294:93,1,105,0|8,2:0|2:0,2:0:0:0:
97,241,197600,6,1,L|99:181,1,52.5,0|0,2:0|2:0,2:0:0:0:
267,193,197757,2,1,L|362:193,2,52.5,2|0|0,2:0|2:0|2:0,2:0:0:0:
47,188,198069,2,1,L|187:188,1,105,2|0,2:0|2:0,2:0:0:0:
215,169,198303,1,0,2:0:0:0:
373,329,198382,2,1,P|426:302|361:201,1,210,8|8,2:0|2:0,2:0:0:0:
241,184,198850,1,0,2:0:0:0:
462,151,199007,6,0,L|346:151,1,105,2|0,2:0|2:0,2:0:0:0:
100,154,199319,2,1,L|46:154,2,52.5,8|0|2,2:0|2:0|2:0,2:0:0:0:
246,112,199632,2,0,L|187:112,1,52.5,0|0,2:0|2:0,2:0:0:0:
141,109,199788,1,0,2:0:0:0:
359,189,199944,2,1,L|471:189,1,105,8|0,2:0|2:0,2:0:0:0:
211,193,200257,6,1,L|94:193,1,105,2|0,2:0|2:0,2:0:0:0:
264,165,200569,2,1,L|155:165,1,105,2|0,2:0|2:0,2:0:0:0:
402,132,200882,2,1,L|181:132,1,210,2|8,2:0|2:0,2:0:0:0:
68,133,201350,1,0,2:0:0:0:
353,192,201507,6,0,L|471:192,1,105,2|0,2:0|2:0,2:0:0:0:
239,143,201819,2,0,L|129:143,1,105,8|2,2:0|2:0,2:0:0:0:
201,106,202053,1,0,2:0:0:0:
371,107,202132,2,1,L|441:107,2,52.5,0|0|0,2:0|2:0|2:0,2:0:0:0:
151,197,202444,2,1,L|260:197,1,105,8|0,2:0|2:0,2:0:0:0:
105,297,202757,6,0,L|100:173,1,105,2|0,0:0|0:0,0:0:0:0:
252,157,203069,2,1,L|138:157,1,105,2|0,2:0|2:0,2:0:0:0:
420,201,203382,2,1,B|315:201|315:201|426:200,1,210,2|8,2:0|2:0,2:0:0:0:
302,125,203850,1,0,2:0:0:0:
80,188,204007,6,0,L|224:188,1,105,2|0,2:0|2:0,2:0:0:0:
405,189,204319,2,1,L|466:189,2,52.5,8|0|2,2:0|2:0|2:0,2:0:0:0:
268,148,204632,2,0,L|332:148,1,52.5,0|0,2:0|2:0,2:0:0:0:
373,146,204788,1,0,2:0:0:0:
69,194,204944,2,1,L|176:194,1,105,8|0,2:0|2:0,2:0:0:0:
323,117,205257,6,1,L|180:117,1,105,2|0,2:0|2:0,2:0:0:0:
367,77,205569,2,1,L|487:77,1,105,2|0,2:0|2:0,2:0:0:0:
187,292,205882,2,1,B|292:293|292:293|187:294,1,210,2|8,2:0|2:0,2:0:0:0:
74,116,206350,1,0,2:0:0:0:
338,188,206507,6,0,L|457:188,1,105,2|0,2:0|2:0,2:0:0:0:
149,170,206819,2,1,L|96:170,2,52.5,8|0|2,2:0|2:0|2:0,2:0:0:0:
371,139,207132,5,0,2:0:0:0:
151,133,207288,2,1,L|86:133,1,52.5,0|0,2:0|2:0,2:0:0:0:
271,108,207444,2,1,L|326:108,2,52.5,8|0|0,2:0|2:0|2:0,2:0:0:0:
51,197,207757,5,2,2:0:0:0:
334,237,207913,2,1,L|396:237,1,52.5,2|0,2:0|2:0,2:0:0:0:
227,173,208069,1,2,2:0:0:0:
174,175,208147,2,0,L|119:175,1,52.5,0|0,2:0|2:0,2:0:0:0:
345,181,208382,6,0,L|464:181,1,105,2|0,2:0|2:0,2:0:0:0:
294,150,208694,2,1,L|177:150,1,105,2|0,2:0|2:0,2:0:0:0:
420,292,209007,6,1,B|186:294|186:294|134:66|134:66|173:299,1,692.999999999999,6|0,2:0|2:0,2:0:0:0:
420,292,209632,6,1,B|186:294|186:294|311:101|311:101|171:306,1,692.999999999999,2|0,2:0|2:0,2:0:0:0:
417,185,210257,6,1,B|185:185|185:185|419:185,1,462.000014099122,2|0,2:0|2:0,2:0:0:0:
300,145,210725,1,0,2:0:0:0:
47,166,210882,2,1,L|158:166,1,105,2|0,2:0|2:0,2:0:0:0:
306,127,211194,2,1,L|192:127,1,105,2|0,2:0|2:0,2:0:0:0:
422,313,211507,6,1,P|474:280|404:181,1,210,2|8,2:0|2:0,2:0:0:0:
108,185,211975,1,2,2:0:0:0:
238,148,212132,2,1,L|292:147,2,52.5,0|0|0,2:0|2:0|2:0,2:0:0:0:
101,109,212444,2,0,L|163:109,1,52.5,8|0,2:0|2:0,2:0:0:0:
207,105,212600,1,0,2:0:0:0:
438,193,212757,6,1,L|329:193,1,105,2|0,2:0|2:0,2:0:0:0:
482,142,213069,2,1,L|361:142,1,105,2|0,2:0|2:0,2:0:0:0:
155,266,213382,2,1,B|260:266|260:266|147:266,1,210,8|8,2:0|2:0,2:0:0:0:
44,114,213850,1,0,2:0:0:0:
329,307,214007,6,1,P|395:259|311:190,1,210,2|8,2:0|2:0,2:0:0:0:
103,179,214475,2,1,L|40:179,2,52.5,2|0|0,2:0|2:0|2:0,2:0:0:0:
357,131,214788,2,1,L|297:131,1,52.5,0|0,2:0|2:0,2:0:0:0:
162,105,214944,2,1,L|301:105,1,105,8|0,2:0|2:0,2:0:0:0:
45,215,215257,6,1,L|166:215,2,105,2|0|2,2:0|2:0|2:0,2:0:0:0:
162,143,215725,1,0,2:0:0:0:
384,192,215882,2,1,L|494:192,1,105,8|0,2:0|2:0,2:0:0:0:
269,146,216194,2,1,L|156:146,1,105,8|0,2:0|2:0,2:0:0:0:
386,317,216507,6,1,B|281:318|281:318|404:318,1,210,2|8,2:0|2:0,2:0:0:0:
120,193,216975,1,2,2:0:0:0:
246,148,217132,2,1,L|304:148,1,52.5,0|0,2:0|2:0,2:0:0:0:
441,111,217288,2,0,L|305:111,1,105,0|8,2:0|2:0,2:0:0:0:
471,60,217600,6,1,L|379:60,1,52.5,0|0,2:0|2:0,2:0:0:0:
242,100,217757,2,1,L|173:100,2,52.5,2|0|0,2:0|2:0|2:0,2:0:0:0:
462,188,218069,2,0,L|351:188,1,105,8|2,2:0|2:0,2:0:0:0:
294,188,218303,1,0,2:0:0:0:
139,317,218382,2,1,P|76:240|170:193,1,210,0|8,2:0|2:0,2:0:0:0:
272,158,218850,1,0,2:0:0:0:
50,182,219007,6,1,L|167:182,1,105,2|0,2:0|2:0,2:0:0:0:
403,179,219319,2,1,L|483:179,2,52.5,8|0|2,2:0|2:0|2:0,2:0:0:0:
267,116,219632,2,1,L|325:116,1,52.5,0|0,2:0|2:0,2:0:0:0:
372,112,219788,1,0,2:0:0:0:
153,169,219944,2,1,L|47:169,1,105,8|0,2:0|2:0,2:0:0:0:
334,186,220257,6,1,L|441:186,1,105,2|0,2:0|2:0,2:0:0:0:
283,158,220569,2,1,L|414:158,1,105,2|0,2:0|2:0,2:0:0:0:
108,152,220882,2,1,L|359:152,1,210,2|8,2:0|2:0,2:0:0:0:
436,135,221350,1,0,2:0:0:0:
183,196,221507,6,1,L|78:196,1,105,2|0,2:0|2:0,2:0:0:0:
296,195,221819,2,0,L|419:195,1,105,8|2,2:0|2:0,2:0:0:0:
333,145,222053,1,0,2:0:0:0:
166,141,222132,2,1,L|111:141,2,52.5,0|0|0,2:0|2:0|2:0,2:0:0:0:
386,123,222444,2,1,L|276:123,1,105,8|0,2:0|2:0,2:0:0:0:
431,303,222757,6,0,L|433:179,1,105,2|0,0:0|0:0,0:0:0:0:
282,175,223069,2,1,L|394:175,1,105,2|0,2:0|2:0,2:0:0:0:
150,317,223382,2,1,B|255:318|255:318|146:317,1,210,2|8,2:0|2:0,2:0:0:0:
46,154,223850,1,0,2:0:0:0:
275,173,224007,6,0,L|385:173,1,105,2|0,2:0|2:0,2:0:0:0:
102,160,224319,2,1,L|49:160,2,52.5,8|0|2,2:0|2:0|2:0,2:0:0:0:
323,138,224632,2,0,L|324:82,1,52.5,0|0,2:0|2:0,2:0:0:0:
254,86,224788,1,0,2:0:0:0:
472,193,224944,2,1,L|336:193,1,105,8|2,2:0|2:0,2:0:0:0:
216,168,225257,6,1,L|343:168,1,105,2|0,2:0|2:0,2:0:0:0:
171,133,225569,2,1,L|57:133,1,105,8|0,2:0|2:0,2:0:0:0:
309,297,225882,2,1,B|204:297|204:297|315:296,1,210,2|8,2:0|2:0,2:0:0:0:
421,139,226350,1,0,2:0:0:0:
199,180,226507,6,0,L|50:180,1,105,2|0,2:0|2:0,2:0:0:0:
346,116,226819,2,1,L|404:116,2,52.5,2|0|0,2:0|2:0|2:0,2:0:0:0:
124,127,227132,5,2,2:0:0:0:
260,158,227288,2,1,L|337:158,1,52.5,0|0,2:0|2:0,2:0:0:0:
174,125,227444,2,1,L|103:125,1,52.5,2|0,2:0|2:0,2:0:0:0:
281,83,227600,2,0,L|167:83,1,105,0|2,2:0|2:0,2:0:0:0:
398,206,227913,6,0,L|454:206,1,52.5,2|0,2:0|2:0,2:0:0:0:
306,172,228069,2,0,L|212:172,1,52.5,2|0,2:0|2:0,2:0:0:0:
400,129,228225,1,0,2:0:0:0:
49,189,228382,6,0,L|296:189,1,231.000007049561,2|0,2:0|2:0,2:0:0:0:
237,118,228694,2,1,L|500:118,1,231,2|0,2:0|2:0,2:0:0:0:
375,141,229007,2,1,B|142:140|142:140|139:372,1,461.999999999999,2|8,2:0|2:0,2:0:0:0:
240,348,229475,1,0,2:0:0:0:
473,188,229632,6,1,L|227:187,1,231,2|0,2:0|2:0,2:0:0:0:
273,117,229944,2,1,L|10:117,1,231,10|0,2:0|2:0,2:0:0:0:
141,111,230257,2,1,B|374:110|374:110|377:342,1,461.999999999999,2|8,2:0|2:0,2:0:0:0:
283,328,230725,1,0,2:0:0:0:
52,187,230882,6,1,L|286:187,1,231,2|0,2:0|2:0,2:0:0:0:
289,135,231194,2,1,L|23:135,1,231.000007049561,10|0,2:0|2:0,2:0:0:0:
343,123,231507,6,0,L|131:123,1,210,2|8,2:0|2:0,2:0:0:0:
355,169,231975,1,0,2:0:0:0:
228,158,232132,2,1,L|169:158,1,52.5,2|0,2:0|2:0,2:0:0:0:
39,140,232288,1,0,2:0:0:0:
258,92,232444,2,1,L|317:92,1,52.5,8|0,2:0|2:0,2:0:0:0:
449,118,232600,1,0,2:0:0:0:
227,193,232757,6,0,L|105:193,1,105,2|0,2:0|2:0,2:0:0:0:
342,163,233069,2,1,L|459:163,1,105,10|0,2:0|2:0,2:0:0:0:
224,286,233382,2,0,P|176:258|223:188,1,157.5,2|0,2:0|2:0,2:0:0:0:
359,149,233694,2,1,P|403:114|341:43,1,157.5,10|0,2:0|2:0,2:0:0:0:
209,173,234007,6,1,L|102:173,1,105,2|0,2:0|2:0,2:0:0:0:
366,182,234319,1,8,2:0:0:0:
239,130,234475,2,0,L|300:130,1,52.5,0|0,2:0|2:0,2:0:0:0:
431,117,234632,1,2,2:0:0:0:
212,120,234788,2,1,L|159:120,1,52.5,0|0,2:0|2:0,2:0:0:0:
318,94,234944,2,0,L|446:94,1,105,8|0,2:0|2:0,2:0:0:0:
275,182,235257,6,0,L|113:182,1,157.5,2|0,2:0|2:0,2:0:0:0:
267,125,235569,2,1,L|377:125,1,105,10|0,2:0|2:0,2:0:0:0:
149,296,235882,2,1,P|106:258|155:179,1,157.5,2|0,2:0|2:0,2:0:0:0:
303,193,236194,2,0,P|351:168|317:62,1,157.5,10|0,2:0|2:0,2:0:0:0:
203,151,236507,6,1,L|70:151,1,105,2|0,2:0|2:0,2:0:0:0:
360,147,236819,1,8,2:0:0:0:
234,115,236975,2,0,L|353:115,1,105,0|2,2:0|2:0,2:0:0:0:
393,100,237210,2,0,L|327:100,1,52.5
120,192,237444,5,8,2:0:0:0:
340,188,237600,2,0,L|407:188,1,52.5,0|0,2:0|2:0,2:0:0:0:
233,158,237757,2,1,L|158:158,2,52.5,2|0|0,2:0|2:0|2:0,2:0:0:0:
453,145,238069,6,0,L|342:145,1,105,10|0,2:0|2:0,2:0:0:0:
285,148,238303,1,0,0:0:0:0:
126,319,238382,2,1,P|81:273|153:210,1,157.5,2|0,2:0|2:0,2:0:0:0:
281,184,238694,2,0,L|105:184,1,157.5,10|0,2:0|2:0,2:0:0:0:
312,140,239007,6,0,L|421:140,1,105,2|0,2:0|2:0,2:0:0:0:
176,117,239319,2,0,L|122:117,2,52.5,8|0|0,2:0|2:0|2:0,2:0:0:0:
397,87,239632,2,1,L|463:87,2,52.5,2|0|0,2:0|2:0|2:0,2:0:0:0:
144,298,239944,2,0,P|92:261|163:197,1,157.5,8|0,2:0|2:0,2:0:0:0:
293,163,240257,6,1,L|182:163,1,105,2|0,2:0|2:0,2:0:0:0:
343,118,240569,2,1,L|218:117,1,105,10|0,2:0|2:0,2:0:0:0:
459,92,240882,2,1,L|210:92,1,210,2|10,2:0|2:0,2:0:0:0:
375,185,241350,1,0,2:0:0:0:
152,305,241507,6,1,P|107:273|161:205,1,157.5,2|0,2:0|2:0,2:0:0:0:
312,164,241819,2,0,L|181:163,1,105,8|0,2:0|2:0,2:0:0:0:
272,130,242053,1,0,2:0:0:0:
416,126,242132,2,0,L|469:126,2,52.5,2|0|0,2:0|2:0|2:0,2:0:0:0:
152,192,242444,6,1,L|293:192,1,105,8|0,2:0|2:0,2:0:0:0:
35,181,242757,2,0,L|158:181,1,105,2|0,2:0|2:0,2:0:0:0:
360,159,243069,2,1,L|222:159,1,105,10|0,2:0|2:0,2:0:0:0:
477,137,243382,2,1,L|249:137,1,210,2|10,2:0|2:0,2:0:0:0:
47,198,243850,1,0,2:0:0:0:
269,207,244007,6,1,L|394:208,1,105,2|0,2:0|2:0,2:0:0:0:
238,157,244319,2,0,L|176:157,1,52.5,8|0,2:0|2:0,2:0:0:0:
49,161,244475,1,0,2:0:0:0:
313,130,244632,1,2,2:0:0:0:
450,132,244710,1,0,2:0:0:0:
313,130,244788,1,0,2:0:0:0:
93,194,244944,6,0,L|214:195,1,105,8|0,2:0|2:0,2:0:0:0:
420,248,245257,2,1,L|422:137,1,105,2|0,2:0|2:0,2:0:0:0:
202,193,245569,6,1,L|341:193,1,105,10|0,2:0|2:0,2:0:0:0:
54,185,245882,2,1,L|266:185,1,210,2|10,2:0|2:0,2:0:0:0:
140,135,246350,1,0,2:0:0:0:
361,164,246507,6,1,L|466:164,1,105,2|0,2:0|2:0,2:0:0:0:
192,122,246819,2,0,L|136:123,2,52.5,8|0|0,2:0|2:0|2:0,2:0:0:0:
414,118,247132,5,2,2:0:0:0:
281,110,247288,2,1,L|336:110,1,52.5,0|0,2:0|2:0,2:0:0:0:
180,186,247444,2,0,L|111:186,2,52.5,8|0|0,2:0|2:0|2:0,2:0:0:0:
402,191,247757,5,2,2:0:0:0:
140,272,247913,2,1,L|71:272,1,52.5,0|0,2:0|2:0,2:0:0:0:
233,178,248069,2,0,L|292:178,2,52.5,8|0|0,2:0|2:0|2:0,2:0:0:0:
463,189,248382,6,1,L|219:189,1,231.000007049561,10|0,2:0|2:0,2:0:0:0:
275,118,248694,2,0,L|12:118,1,231,10|0,2:0|2:0,2:0:0:0:
138,138,249007,2,1,B|371:137|371:137|374:369,1,461.999999999999,2|8,2:0|2:0,2:0:0:0:
274,357,249475,1,0,2:0:0:0:
41,188,249632,6,1,L|287:187,1,231,2|0,2:0|2:0,2:0:0:0:
241,117,249944,2,1,L|504:117,1,231,10|0,2:0|2:0,2:0:0:0:
372,111,250257,2,1,B|139:110|139:110|136:342,1,461.999999999999,2|8,2:0|2:0,2:0:0:0:
229,328,250725,1,0,2:0:0:0:
460,187,250882,6,1,L|226:187,1,231,2|0,2:0|2:0,2:0:0:0:
224,148,251194,2,1,L|492:147,1,231,10|0,2:0|2:0,2:0:0:0:
169,106,251507,6,0,L|400:106,1,210,2|8,2:0|2:0,2:0:0:0:
115,199,251975,1,0,2:0:0:0:
250,164,252132,2,1,L|191:164,1,52.5,2|0,2:0|2:0,2:0:0:0:
59,161,252288,1,0,2:0:0:0:
331,121,252444,2,1,L|255:121,1,52.5,8|0,2:0|2:0,2:0:0:0:
138,119,252600,1,0,2:0:0:0:
358,192,252757,6,0,L|479:191,1,105,2|0,2:0|2:0,2:0:0:0:
241,184,253069,2,1,L|88:184,1,105,10|0,2:0|2:0,2:0:0:0:
360,308,253382,2,0,P|410:283|354:217,1,157.5,2|0,2:0|2:0,2:0:0:0:
221,215,253694,2,1,P|170:179|219:108,1,157.5,10|0,2:0|2:0,2:0:0:0:
351,91,254007,6,1,L|471:91,1,105,2|0,2:0|2:0,2:0:0:0:
162,173,254319,1,8,2:0:0:0:
297,133,254475,2,0,L|233:133,1,52.5,0|0,2:0|2:0,2:0:0:0:
103,121,254632,1,2,2:0:0:0:
324,105,254788,2,1,L|378:105,1,52.5,0|0,2:0|2:0,2:0:0:0:
219,81,254944,2,0,L|102:81,1,105,8|0,2:0|2:0,2:0:0:0:
263,186,255257,6,0,L|422:186,1,157.5,2|0,2:0|2:0,2:0:0:0:
270,127,255569,2,1,L|148:127,1,105,10|0,2:0|2:0,2:0:0:0:
387,290,255882,2,0,P|435:264|382:181,1,157.5,2|0,2:0|2:0,2:0:0:0:
243,224,256194,2,0,P|192:200|227:120,1,157.5,10|0,2:0|2:0,2:0:0:0:
365,97,256507,6,1,L|476:97,1,105,2|0,2:0|2:0,2:0:0:0:
176,193,256819,1,8,2:0:0:0:
292,158,256975,2,0,L|168:157,1,105,0|2,2:0|2:0,2:0:0:0:
132,149,257210,2,0,L|194:149,1,52.5,0|0,2:0|2:0,2:0:0:0:
407,148,257444,5,8,2:0:0:0:
187,110,257600,2,0,L|122:110,1,52.5,0|0,2:0|2:0,2:0:0:0:
296,100,257757,2,1,L|371:100,2,52.5,2|0|0,2:0|2:0|2:0,2:0:0:0:
76,194,258069,6,0,L|184:194,1,105,10|0,2:0|2:0,2:0:0:0:
244,197,258303,1,0,0:0:0:0:
401,300,258382,2,1,P|456:265|386:213,1,157.5,2|0,2:0|2:0,2:0:0:0:
242,190,258694,2,0,L|406:190,1,157.5,10|0,2:0|2:0,2:0:0:0:
226,146,259007,6,0,L|81:146,1,105,2|0,2:0|2:0,2:0:0:0:
341,121,259319,2,0,L|396:121,2,52.5,8|0|0,2:0|2:0|2:0,2:0:0:0:
119,104,259632,2,1,L|66:104,2,52.5,2|0|0,2:0|2:0|2:0,2:0:0:0:
392,329,259944,2,0,P|439:304|383:234,1,157.5,8|0,2:0|2:0,2:0:0:0:
236,193,260257,6,1,L|368:193,1,105,2|0,2:0|2:0,2:0:0:0:
185,188,260569,2,1,L|311:188,1,105,10|0,2:0|2:0,2:0:0:0:
68,185,260882,2,1,L|293:185,1,210,2|10,2:0|2:0,2:0:0:0:
154,131,261350,1,0,2:0:0:0:
381,303,261507,6,1,P|431:273|370:210,1,157.5,2|0,2:0|2:0,2:0:0:0:
237,148,261819,2,0,L|361:147,1,105,8|0,2:0|2:0,2:0:0:0:
276,112,262053,1,0,2:0:0:0:
122,112,262132,2,0,L|68:112,2,52.5,2|0|0,2:0|2:0|2:0,2:0:0:0:
358,187,262444,6,1,L|241:187,1,105,8|0,2:0|2:0,2:0:0:0:
475,168,262757,2,0,L|354:168,1,105,2|0,2:0|2:0,2:0:0:0:
150,170,263069,2,1,L|297:170,1,105,10|0,2:0|2:0,2:0:0:0:
34,167,263382,2,1,L|285:167,1,210,2|10,2:0|2:0,2:0:0:0:
463,171,263850,1,0,2:0:0:0:
161,134,264007,6,1,L|54:134,1,105,2|0,2:0|2:0,2:0:0:0:
276,109,264319,2,0,L|340:109,1,52.5,8|0,2:0|2:0,2:0:0:0:
466,102,264475,1,0,2:0:0:0:
223,183,264632,1,0,2:0:0:0:
85,184,264710,1,0,2:0:0:0:
223,183,264788,1,2,2:0:0:0:
443,192,264944,6,0,L|328:192,1,105,10|0,2:0|2:0,2:0:0:0:
118,281,265257,2,1,L|115:159,1,105,2|0,2:0|2:0,2:0:0:0:
336,160,265569,2,1,L|210:160,1,105,8|2,2:0|2:0,2:0:0:0:
453,149,265882,2,1,L|211:149,1,210,0|10,2:0|2:0,2:0:0:0:
368,119,266350,1,2,2:0:0:0:
146,183,266507,6,1,L|32:183,1,105,2|0,2:0|2:0,2:0:0:0:
329,162,266819,2,0,L|390:162,2,52.5,10|0|0,2:0|2:0|2:0,2:0:0:0:
107,124,267132,5,2,2:0:0:0:
242,98,267288,2,1,L|163:98,1,52.5,0|0,2:0|2:0,2:0:0:0:
359,89,267444,2,0,L|416:89,2,52.5,10|0|0,2:0|2:0|2:0,2:0:0:0:
140,96,267757,6,1,L|31:96,1,105,2|2,2:0|2:0,2:0:0:0:
280,188,268069,2,1,L|414:189,1,105,10|0,2:0|2:0,2:0:0:0:
322,153,268303,1,0,2:0:0:0:
162,139,268382,6,1,L|275:139,1,105,10|0,2:0|2:0,2:0:0:0:
327,139,268616,1,0,2:0:0:0:
170,94,268694,2,1,L|42:94,1,105,10|0,2:0|2:0,2:0:0:0:
387,186,269007,5,4,2:0:0:0:
251,195,269163,2,1,L|251:72,1,105,0|2,2:0|2:0,2:0:0:0:
395,143,269475,2,0,L|396:34,1,105,0|0,2:0|2:0,2:0:0:0:
174,198,269788,2,0,L|61:198,2,105,0|2|0,2:0|2:0|2:0,2:0:0:0:
69,198,270257,1,0,2:0:0:0:
351,253,270413,6,1,L|352:135,1,105,0|2,2:0|2:0,2:0:0:0:
204,181,270725,2,0,L|201:44,1,105,0|0,2:0|2:0,2:0:0:0:
423,92,271038,2,1,L|312:93,2,105,0|2|0,2:0|2:0|2:0,2:0:0:0:
318,92,271507,1,0,2:0:0:0:
97,248,271663,6,0,L|97:108,1,105,0|2,2:0|2:0,2:0:0:0:
244,224,271975,2,0,L|246:72,1,105,0|0,2:0|2:0,2:0:0:0:
467,94,272288,2,0,L|356:94,2,105,0|2|0,2:0|2:0|2:0,2:0:0:0:
362,94,272757,1,0,2:0:0:0:
140,254,272913,6,0,L|140:114,1,105,0|2,2:0|2:0,2:0:0:0:
288,192,273225,2,0,L|293:66,1,105,0|0,2:0|2:0,2:0:0:0:
71,98,273538,2,1,L|182:98,2,105,0|2|0,2:0|2:0|2:0,2:0:0:0:
176,98,274007,1,0,2:0:0:0:
399,234,274163,6,0,L|401:122,1,105,0|2,2:0|2:0,2:0:0:0:
265,112,274475,2,0,L|130:112,1,105,0|0,2:0|2:0,2:0:0:0:
382,100,274788,2,1,L|492:100,2,105,0|2|0,2:0|2:0|2:0,2:0:0:0:
487,100,275257,1,0,2:0:0:0:
192,268,275413,6,0,L|190:121,1,105,0|2,2:0|2:0,2:0:0:0:
328,140,275725,2,0,L|448:142,1,105,0|0,2:0|2:0,2:0:0:0:
211,133,276038,2,1,L|85:133,2,105,0|2|0,2:0|2:0|2:0,2:0:0:0:
106,133,276507,1,0,2:0:0:0:
368,181,276663,6,1,L|493:183,1,105,0|2,2:0|2:0,2:0:0:0:
316,129,276975,2,0,L|198:129,1,105,0|0,2:0|2:0,2:0:0:0:
434,105,277288,2,1,L|316:105,2,105,0|2|0,2:0|2:0|2:0,2:0:0:0:
329,105,277757,1,0,2:0:0:0:
106,176,277913,6,1,L|240:175,1,105,0|2,2:0|2:0,2:0:0:0:
366,159,278225,2,0,L|235:161,1,105,0|0,2:0|2:0,2:0:0:0:
39,149,278538,2,1,L|192:149,2,105,0|2|0,2:0|2:0|2:0,2:0:0:0:
144,149,279007,1,0,2:0:0:0:
384,251,279163,6,1,L|384:134,1,105,0|2,2:0|2:0,2:0:0:0:
237,181,279475,2,0,L|236:41,1,105,0|0,2:0|2:0,2:0:0:0:
458,84,279788,2,1,L|340:84,2,105,0|2|0,2:0|2:0|2:0,2:0:0:0:
353,84,280257,1,0,2:0:0:0:
133,225,280413,6,1,L|133:96,1,105,0|2,2:0|2:0,2:0:0:0:
280,205,280725,2,0,L|279:62,1,105,0|0,2:0|2:0,2:0:0:0:
58,192,281038,2,1,L|201:192,2,105,0|2|0,2:0|2:0|2:0,2:0:0:0:
163,192,281507,1,0,2:0:0:0:
382,261,281663,6,0,L|384:123,1,105,0|2,2:0|2:0,2:0:0:0:
250,170,281975,2,1,L|134:173,1,105,0|0,2:0|2:0,2:0:0:0:
367,112,282288,2,0,L|471:112,2,105,0|2|0,2:0|2:0|2:0,2:0:0:0:
472,112,282757,1,0,2:0:0:0:
189,230,282913,6,0,L|189:119,1,105,0|2,2:0|2:0,2:0:0:0:
325,84,283225,2,1,L|433:82,1,105,0|0,2:0|2:0,2:0:0:0:
208,178,283538,2,0,L|80:178,2,105,0|2|0,2:0|2:0|2:0,2:0:0:0:
103,178,284007,1,0,2:0:0:0:
364,180,284163,6,1,L|489:181,1,105,0|2,2:0|2:0,2:0:0:0:
323,129,284475,2,0,L|204:128,1,105,0|0,2:0|2:0,2:0:0:0:
440,107,284788,2,1,L|307:107,2,105,0|2|0,2:0|2:0|2:0,2:0:0:0:
335,107,285257,1,0,2:0:0:0:
117,196,285413,6,1,L|232:195,1,105,0|2,2:0|2:0,2:0:0:0:
367,160,285725,2,0,L|256:159,1,105,0|0,2:0|2:0,2:0:0:0:
42,163,286038,2,1,L|194:163,2,105,0|2|0,2:0|2:0|2:0,2:0:0:0:
147,163,286507,1,0,2:0:0:0:
384,293,286663,6,1,L|384:146,1,105,0|2,2:0|2:0,2:0:0:0:
246,167,286975,2,0,L|95:169,1,105,0|0,2:0|2:0,2:0:0:0:
363,111,287288,2,1,L|516:111,2,105,0|2|0,2:0|2:0|2:0,2:0:0:0:
140,96,287757,6,1,L|31:96,1,105,0|0,2:0|2:0,2:0:0:0:
280,188,288069,2,0,L|391:188,1,105,2|0,2:0|2:0,2:0:0:0:
322,153,288303,1,0,2:0:0:0:
164,139,288382,6,0,L|277:139,1,105,2|0,2:0|2:0,2:0:0:0:
329,139,288616,1,0,2:0:0:0:
172,94,288694,2,1,L|44:94,1,105,2|0,2:0|2:0,2:0:0:0:
360,190,289007,6,1,L|430:190,1,52.5,0|0,2:0|2:0,2:0:0:0:
344,151,289163,2,0,L|287:150,1,52.5,0|0,2:0|2:0,2:0:0:0:
213,174,289319,2,0,L|216:114,1,52.5,2|0,2:0|2:0,2:0:0:0:
286,91,289475,2,0,L|356:91,1,52.5,0|0,2:0|2:0,2:0:0:0:
171,189,289632,2,1,L|96:192,1,52.5,0|0,2:0|2:0,2:0:0:0:
273,133,289788,2,0,L|360:133,1,52.5,0|0,2:0|2:0,2:0:0:0:
167,104,289944,2,1,L|111:106,1,52.5,2|0,2:0|2:0,2:0:0:0:
185,67,290100,2,0,L|246:67,1,52.5,0|0,2:0|2:0,2:0:0:0:
410,213,290257,6,1,L|417:143,1,52.5,0|0,2:0|2:0,2:0:0:0:
344,160,290413,2,0,L|340:87,1,52.5,0|0,2:0|2:0,2:0:0:0:
417,92,290569,2,0,L|471:92,1,52.5,2|0,2:0|2:0,2:0:0:0:
401,58,290725,2,0,L|339:59,1,52.5,0|0,2:0|2:0,2:0:0:0:
197,205,290882,2,1,L|200:127,1,52.5,0|0,2:0|2:0,2:0:0:0:
345,121,291038,2,0,L|411:124,1,52.5,0|0,2:0|2:0,2:0:0:0:
240,117,291194,2,1,L|240:63,1,52.5,2|0,2:0|2:0,2:0:0:0:
387,61,291350,2,0,L|448:60,1,52.5,0|0,2:0|2:0,2:0:0:0:
192,174,291507,6,1,L|122:174,1,52.5,0|0,2:0|2:0,2:0:0:0:
208,135,291663,2,0,L|265:134,1,52.5,0|0,2:0|2:0,2:0:0:0:
339,159,291819,2,0,L|336:99,1,52.5,2|0,2:0|2:0,2:0:0:0:
266,76,291975,2,0,L|196:76,1,52.5,0|0,2:0|2:0,2:0:0:0:
381,173,292132,2,1,L|456:176,1,52.5,0|0,2:0|2:0,2:0:0:0:
279,117,292288,2,0,L|192:117,1,52.5,0|0,2:0|2:0,2:0:0:0:
385,88,292444,2,1,L|441:90,1,52.5,2|0,2:0|2:0,2:0:0:0:
367,51,292600,2,0,L|306:51,1,52.5,0|0,2:0|2:0,2:0:0:0:
121,219,292757,6,1,L|114:149,1,52.5,0|0,2:0|2:0,2:0:0:0:
189,164,292913,2,0,L|193:91,1,52.5,0|0,2:0|2:0,2:0:0:0:
114,98,293069,2,0,L|60:98,1,52.5,2|0,2:0|2:0,2:0:0:0:
130,64,293225,2,1,L|192:65,1,52.5,0|0,2:0|2:0,2:0:0:0:
334,211,293382,2,1,L|331:133,1,52.5,0|0,2:0|2:0,2:0:0:0:
186,127,293538,2,0,L|120:130,1,52.5,0|0,2:0|2:0,2:0:0:0:
280,124,293694,1,2,2:0:0:0:
417,128,293772,1,0,2:0:0:0:
280,124,293850,1,0,2:0:0:0:
143,124,293928,1,0,2:0:0:0:
291,183,294007,6,1,L|354:183,1,52.5,0|0,2:0|2:0,2:0:0:0:
274,157,294163,2,0,L|204:158,1,52.5,0|0,2:0|2:0,2:0:0:0:
301,133,294319,2,0,L|354:131,1,52.5,2|0,2:0|2:0,2:0:0:0:
285,106,294475,2,0,L|219:105,1,52.5,0|0,2:0|2:0,2:0:0:0:
86,186,294632,2,1,L|85:119,1,52.5,0|0,2:0|2:0,2:0:0:0:
239,142,294788,2,0,L|295:141,1,52.5,0|0,2:0|2:0,2:0:0:0:
145,111,294944,2,1,L|145:46,1,52.5,2|0,2:0|2:0,2:0:0:0:
294,59,295100,2,0,L|349:57,1,52.5,0|0,2:0|2:0,2:0:0:0:
199,182,295257,6,1,L|140:183,1,52.5,0|0,2:0|2:0,2:0:0:0:
216,149,295413,2,0,L|274:148,1,52.5,0|0,2:0|2:0,2:0:0:0:
192,119,295569,2,0,L|192:63,1,52.5,2|0,2:0|2:0,2:0:0:0:
115,89,295725,2,0,L|115:32,1,52.5,0|0,2:0|2:0,2:0:0:0:
265,110,295882,2,1,L|340:107,1,52.5,0|0,2:0|2:0,2:0:0:0:
159,52,296038,2,0,L|100:53,1,52.5,0|0,2:0|2:0,2:0:0:0:
257,64,296194,2,1,L|317:61,1,52.5,2|0,2:0|2:0,2:0:0:0:
456,42,296350,2,0,L|394:45,1,52.5,0|0,2:0|2:0,2:0:0:0:
226,185,296507,6,1,L|165:185,1,52.5,0|0,2:0|2:0,2:0:0:0:
242,156,296663,2,0,L|305:156,1,52.5,0|0,2:0|2:0,2:0:0:0:
218,131,296819,2,0,L|219:68,1,52.5,2|0,2:0|2:0,2:0:0:0:
142,103,296975,2,0,L|141:47,1,52.5,0|0,2:0|2:0,2:0:0:0:
316,182,297132,2,1,L|401:183,1,52.5,0|0,2:0|2:0,2:0:0:0:
214,150,297288,2,0,L|158:149,1,52.5,0|0,2:0|2:0,2:0:0:0:
320,131,297444,2,1,L|320:66,1,52.5,2|0,2:0|2:0,2:0:0:0:
171,79,297600,2,0,L|116:77,1,52.5,0|0,2:0|2:0,2:0:0:0:
313,182,297757,6,1,L|372:183,1,52.5,0|0,2:0|2:0,2:0:0:0:
296,149,297913,2,0,L|238:148,1,52.5,0|0,2:0|2:0,2:0:0:0:
320,117,298069,2,0,L|320:61,1,52.5,2|0,2:0|2:0,2:0:0:0:
396,91,298225,2,1,L|396:34,1,52.5,0|0,2:0|2:0,2:0:0:0:
247,110,298382,2,1,L|172:107,1,52.5,0|0,2:0|2:0,2:0:0:0:
353,52,298538,2,0,L|412:53,1,52.5,0|0,2:0|2:0,2:0:0:0:
248,70,298694,1,2,2:0:0:0:
111,69,298772,1,0,2:0:0:0:
248,59,298850,1,0,2:0:0:0:
385,82,298928,1,0,2:0:0:0:
152,190,299007,6,1,L|82:190,1,52.5,0|0,2:0|2:0,2:0:0:0:
168,151,299163,2,1,L|225:150,1,52.5,0|0,2:0|2:0,2:0:0:0:
299,173,299319,2,0,L|296:113,1,52.5,2|0,2:0|2:0,2:0:0:0:
226,90,299475,2,0,L|156:90,1,52.5,0|0,2:0|2:0,2:0:0:0:
341,189,299632,2,1,L|416:192,1,52.5,0|0,2:0|2:0,2:0:0:0:
239,133,299788,2,1,L|152:133,1,52.5,0|0,2:0|2:0,2:0:0:0:
345,104,299944,2,0,L|401:106,1,52.5,2|0,2:0|2:0,2:0:0:0:
327,67,300100,2,0,L|266:67,1,52.5,0|0,2:0|2:0,2:0:0:0:
102,213,300257,6,1,L|95:143,1,52.5,0|0,2:0|2:0,2:0:0:0:
170,158,300413,2,1,L|174:85,1,52.5,0|0,2:0|2:0,2:0:0:0:
95,92,300569,2,0,L|41:92,1,52.5,2|0,2:0|2:0,2:0:0:0:
111,58,300725,2,0,L|173:59,1,52.5,0|0,2:0|2:0,2:0:0:0:
315,205,300882,2,1,L|312:127,1,52.5,0|0,2:0|2:0,2:0:0:0:
167,121,301038,2,1,L|101:124,1,52.5,0|0,2:0|2:0,2:0:0:0:
272,117,301194,2,1,L|272:63,1,52.5,2|0,2:0|2:0,2:0:0:0:
125,61,301350,2,1,L|64:60,1,52.5,0|0,2:0|2:0,2:0:0:0:
320,174,301507,6,0,L|390:174,1,52.5,0|0,2:0|2:0,2:0:0:0:
304,135,301663,2,0,L|247:134,1,52.5,0|0,2:0|2:0,2:0:0:0:
173,158,301819,2,1,L|176:98,1,52.5,2|0,2:0|2:0,2:0:0:0:
246,75,301975,2,1,L|316:75,1,52.5,0|0,2:0|2:0,2:0:0:0:
131,173,302132,2,0,L|56:176,1,52.5,0|0,2:0|2:0,2:0:0:0:
233,117,302288,2,0,L|320:117,1,52.5,0|0,2:0|2:0,2:0:0:0:
127,88,302444,2,1,L|71:90,1,52.5,2|0,2:0|2:0,2:0:0:0:
145,51,302600,2,1,L|206:51,1,52.5,0|0,2:0|2:0,2:0:0:0:
391,219,302757,6,0,L|398:149,1,52.5,0|0,2:0|2:0,2:0:0:0:
323,164,302913,2,0,L|319:91,1,52.5,0|0,2:0|2:0,2:0:0:0:
398,98,303069,2,1,L|452:98,1,52.5,2|0,2:0|2:0,2:0:0:0:
382,64,303225,2,1,L|320:65,1,52.5,0|0,2:0|2:0,2:0:0:0:
178,211,303382,2,0,L|181:133,1,52.5,0|0,2:0|2:0,2:0:0:0:
326,127,303538,2,0,L|392:130,1,52.5,0|0,2:0|2:0,2:0:0:0:
231,111,303694,1,2,2:0:0:0:
94,110,303772,1,0,2:0:0:0:
231,111,303850,1,0,2:0:0:0:
368,111,303928,1,0,2:0:0:0:
221,183,304007,6,1,L|158:183,1,52.5,0|0,2:0|2:0,2:0:0:0:
238,157,304163,2,0,L|308:158,1,52.5,0|0,2:0|2:0,2:0:0:0:
211,133,304319,2,0,L|158:131,1,52.5,2|0,2:0|2:0,2:0:0:0:
227,106,304475,2,0,L|293:105,1,52.5,0|0,2:0|2:0,2:0:0:0:
426,186,304632,2,1,L|427:119,1,52.5,0|0,2:0|2:0,2:0:0:0:
273,142,304788,2,0,L|217:141,1,52.5,0|0,2:0|2:0,2:0:0:0:
367,111,304944,2,1,L|367:46,1,52.5,2|0,2:0|2:0,2:0:0:0:
218,59,305100,2,0,L|163:57,1,52.5,0|0,2:0|2:0,2:0:0:0:
313,182,305257,6,1,L|372:183,1,52.5,0|0,2:0|2:0,2:0:0:0:
296,149,305413,2,1,L|238:148,1,52.5,0|0,2:0|2:0,2:0:0:0:
320,118,305569,2,0,L|320:62,1,52.5,2|0,2:0|2:0,2:0:0:0:
396,87,305725,2,0,L|396:30,1,52.5,0|0,2:0|2:0,2:0:0:0:
247,110,305882,2,1,L|172:107,1,52.5,0|0,2:0|2:0,2:0:0:0:
353,52,306038,2,1,L|412:53,1,52.5,0|0,2:0|2:0,2:0:0:0:
255,64,306194,2,0,L|195:61,1,52.5,2|0,2:0|2:0,2:0:0:0:
56,42,306350,2,0,L|118:45,1,52.5,0|0,2:0|2:0,2:0:0:0:
272,184,306507,6,1,L|331:185,1,52.5,0|0,2:0|2:0,2:0:0:0:
256,165,306663,2,1,L|200:161,1,52.5,0|0,2:0|2:0,2:0:0:0:
280,80,306819,2,0,L|280:28,1,52.5,2|0,2:0|2:0,2:0:0:0:
357,130,306975,2,0,L|357:59,1,52.5,0|0,2:0|2:0,2:0:0:0:
205,182,307132,2,1,L|120:183,1,52.5,0|0,2:0|2:0,2:0:0:0:
223,164,307288,2,1,L|279:163,1,52.5,0|0,2:0|2:0,2:0:0:0:
128,135,307444,2,0,L|128:70,1,52.5,2|0,2:0|2:0,2:0:0:0:
288,69,307600,2,0,L|343:67,1,52.5,0|0,2:0|2:0,2:0:0:0:
191,167,307757,6,1,L|132:168,1,52.5,0|0,2:0|2:0,2:0:0:0:
296,129,307913,2,0,L|354:128,1,52.5,0|0,2:0|2:0,2:0:0:0:
167,136,308069,6,0,L|180:78,1,52.5,2|0,2:0|2:0,2:0:0:0:
318,71,308225,2,1,L|388:73,1,52.5,0|0,2:0|2:0,2:0:0:0:
198,171,308382,2,0,L|195:95,1,52.5,2|0,2:0|2:0,2:0:0:0:
335,137,308538,1,0,2:0:0:0:
472,152,308616,1,0,2:0:0:0:
258,155,308694,2,1,L|183:155,1,52.5,2|0,2:0|2:0,2:0:0:0:
349,157,308850,1,0,2:0:0:0:
207,195,308928,1,0,2:0:0:0:
64,172,309007,6,1,P|48:113|116:55,1,157.5,0|0,2:0|2:0,2:0:0:0:
258,63,309319,2,0,L|36:63,1,220.5,2|0,2:0|2:0,2:0:0:0:
159,58,309632,1,0,2:0:0:0:
379,193,309788,2,1,L|497:193,2,105,0|2|0,2:0|2:0|2:0,2:0:0:0:
256,208,310257,6,1,P|240:149|308:91,1,157.5,0|0,2:0|2:0,2:0:0:0:
450,100,310569,2,0,L|228:100,1,220.5,2|0,2:0|2:0,2:0:0:0:
352,65,310882,1,0,2:0:0:0:
132,188,311038,2,1,L|12:188,2,105,0|2|0,2:0|2:0|2:0,2:0:0:0:
256,208,311507,6,1,P|272:149|204:91,1,157.5,0|0,2:0|2:0,2:0:0:0:
62,99,311819,2,0,L|284:99,1,220.5,2|0,2:0|2:0,2:0:0:0:
404,103,312132,1,0,2:0:0:0:
185,154,312288,2,1,L|75:154,2,105,0|2|0,2:0|2:0|2:0,2:0:0:0:
405,219,312757,6,1,P|421:160|353:102,1,157.5,0|0,2:0|2:0,2:0:0:0:
211,110,313069,2,0,L|433:110,1,220.5,2|0,2:0|2:0,2:0:0:0:
310,201,313382,1,0,2:0:0:0:
91,218,313538,2,1,L|206:218,1,105,0|2,2:0|2:0,2:0:0:0:
311,85,313850,1,0,2:0:0:0:
80,218,314007,6,1,P|64:159|132:101,1,157.5,0|0,2:0|2:0,2:0:0:0:
274,109,314319,2,0,L|52:109,1,220.5,2|0,2:0|2:0,2:0:0:0:
180,190,314632,1,0,2:0:0:0:
399,176,314788,2,1,L|257:176,1,105,0|2,2:0|2:0,2:0:0:0:
179,127,315100,1,0,2:0:0:0:
406,222,315257,6,1,P|422:163|354:105,1,157.5,0|0,2:0|2:0,2:0:0:0:
212,113,315569,2,0,L|434:113,1,220.5,2|0,2:0|2:0,2:0:0:0:
311,67,315882,1,0,2:0:0:0:
63,204,316038,2,0,L|61:84,1,105,0|2,2:0|2:0,2:0:0:0:
177,96,316350,1,0,2:0:0:0:
397,215,316507,6,1,P|413:156|345:98,1,157.5,0|0,2:0|2:0,2:0:0:0:
203,106,316819,2,0,L|425:106,1,220.5,2|0,2:0|2:0,2:0:0:0:
301,187,317132,1,0,2:0:0:0:
81,189,317288,2,1,L|191:189,2,105,0|2|1,2:0|2:0|2:0,2:0:0:0:
303,243,317757,6,1,P|319:184|251:126,1,157.5,0|0,2:0|2:0,2:0:0:0:
109,134,318069,2,0,L|331:134,1,220.5,2|0,2:0|2:0,2:0:0:0:
450,128,318382,1,0,2:0:0:0:
226,166,318538,2,1,L|102:166,2,105,0|2|0,2:0|2:0|2:0,2:0:0:0:
448,172,319007,6,1,P|464:113|396:55,1,157.5,0|0,2:0|2:0,2:0:0:0:
254,63,319319,2,0,L|476:63,1,220.5,2|0,2:0|2:0,2:0:0:0:
353,58,319632,1,0,2:0:0:0:
133,193,319788,2,1,L|25:193,2,105,0|2|0,2:0|2:0|2:0,2:0:0:0:
256,208,320257,6,1,P|272:149|204:91,1,157.5,0|0,2:0|2:0,2:0:0:0:
62,99,320569,2,0,L|284:99,1,220.5,2|0,2:0|2:0,2:0:0:0:
160,64,320882,1,0,2:0:0:0:
380,188,321038,2,1,L|501:188,2,105,0|2|0,2:0|2:0|2:0,2:0:0:0:
256,208,321507,6,1,P|240:149|308:91,1,157.5,0|0,2:0|2:0,2:0:0:0:
450,99,321819,2,0,L|228:99,1,220.5,2|0,2:0|2:0,2:0:0:0:
108,103,322132,1,0,2:0:0:0:
328,107,322288,2,1,L|441:107,2,105,0|2|0,2:0|2:0|2:0,2:0:0:0:
107,219,322757,6,1,P|91:160|159:102,1,157.5,0|0,2:0|2:0,2:0:0:0:
301,110,323069,2,0,L|79:110,1,220.5,2|0,2:0|2:0,2:0:0:0:
202,201,323382,1,0,2:0:0:0:
421,195,323538,2,1,L|288:195,1,105,0|2,2:0|2:0,2:0:0:0:
201,87,323850,1,0,2:0:0:0:
432,218,324007,6,1,P|448:159|380:101,1,157.5,0|0,2:0|2:0,2:0:0:0:
238,109,324319,2,0,L|460:109,1,220.5,2|0,2:0|2:0,2:0:0:0:
332,190,324632,1,0,2:0:0:0:
113,145,324788,2,1,L|241:145,1,105,0|2,2:0|2:0,2:0:0:0:
333,128,325100,1,0,2:0:0:0:
106,222,325257,6,1,P|90:163|158:105,1,157.5,0|0,2:0|2:0,2:0:0:0:
300,113,325569,2,0,L|78:113,1,220.5,2|0,2:0|2:0,2:0:0:0:
201,67,325882,1,0,2:0:0:0:
447,173,326038,2,0,L|451:56,1,105,0|2,2:0|2:0,2:0:0:0:
335,68,326350,1,0,2:0:0:0:
115,215,326507,6,1,P|99:156|167:98,1,157.5,0|0,2:0|2:0,2:0:0:0:
309,106,326819,2,0,L|87:106,1,220.5,2|0,2:0|2:0,2:0:0:0:
211,187,327132,1,0,2:0:0:0:
431,189,327288,2,1,L|321:189,2,105,0|2|0,2:0|2:0|2:0,2:0:0:0:
95,116,327757,6,1,L|229:117,1,105,0|0,2:0|2:0,2:0:0:0:
137,81,327991,1,0,2:0:0:0:
294,135,328069,2,0,L|178:135,1,105,2|0,2:0|2:0,2:0:0:0:
129,136,328303,1,0,2:0:0:0:
288,107,328382,6,0,L|416:107,1,105,2|0,2:0|2:0,2:0:0:0:
325,67,328616,1,0,2:0:0:0:
148,81,328694,2,1,L|33:81,1,105,2|0,2:0|2:0,2:0:0:0:
272,184,329007,6,1,L|393:184,1,105,0|0,2:0|2:0,2:0:0:0:
239,145,329319,2,0,L|104:145,1,105,2|0,2:0|2:0,2:0:0:0:
239,145,329632,1,0,2:0:0:0:
457,168,329788,6,1,L|307:168,2,105,0|2|0,2:0|2:0|2:0,2:0:0:0:
312,174,330257,2,1,L|172:174,1,105,0|0,2:0|2:0,2:0:0:0:
350,147,330569,2,0,L|480:148,1,105,2|0,2:0|2:0,2:0:0:0:
350,147,330882,1,0,2:0:0:0:
130,203,331038,6,1,L|257:203,2,105,0|2|0,2:0|2:0|2:0,2:0:0:0:
277,170,331507,2,1,L|152:170,1,105,0|0,2:0|2:0,2:0:0:0:
37,108,331819,2,0,L|186:108,1,105,2|0,2:0|2:0,2:0:0:0:
247,113,332132,1,0,2:0:0:0:
465,172,332288,6,1,L|312:172,2,105,0|2|0,2:0|2:0|2:0,2:0:0:0:
318,185,332757,2,1,L|196:185,1,105,0|0,2:0|2:0,2:0:0:0:
357,139,333069,2,0,L|508:139,1,105,2|0,2:0|2:0,2:0:0:0:
357,139,333382,1,0,2:0:0:0:
139,203,333538,6,1,L|257:203,2,105,0|2|0,2:0|2:0|2:0,2:0:0:0:
287,227,334007,2,1,L|289:78,1,105,0|0,2:0|2:0,2:0:0:0:
133,119,334319,2,0,L|133:244,1,105,2|0,2:0|2:0,2:0:0:0:
243,234,334632,1,0,2:0:0:0:
461,197,334788,6,1,L|311:197,2,105,0|2|0,2:0|2:0|2:0,2:0:0:0:
311,254,335257,2,1,L|313:103,1,105,0|0,2:0|2:0,2:0:0:0:
466,164,335569,2,0,L|468:35,1,105,2|0,2:0|2:0,2:0:0:0:
358,62,335882,1,0,2:0:0:0:
139,197,336038,6,1,L|253:197,2,105,0|2|0,2:0|2:0|2:0,2:0:0:0:
289,264,336507,2,1,L|288:140,1,105,0|0,2:0|2:0,2:0:0:0:
151,114,336819,2,0,L|23:114,1,105,2|0,2:0|2:0,2:0:0:0:
151,114,337132,1,0,2:0:0:0:
370,186,337288,6,1,L|231:186,2,105,0|2|0,2:0|2:0|2:0,2:0:0:0:
225,255,337757,2,1,L|224:124,1,105,0|0,2:0|2:0,2:0:0:0:
361,135,338069,2,0,L|503:135,1,105,2|0,2:0|2:0,2:0:0:0:
361,135,338382,1,0,2:0:0:0:
130,193,338538,6,1,L|249:193,2,105,0|2|0,2:0|2:0|2:0,2:0:0:0:
278,178,339007,2,1,L|399:178,1,105,0|0,2:0|2:0,2:0:0:0:
244,146,339319,2,0,L|111:146,1,105,2|0,2:0|2:0,2:0:0:0:
244,146,339632,1,0,2:0:0:0:
465,175,339788,6,1,L|317:175,2,105,0|2|0,2:0|2:0|2:0,2:0:0:0:
313,191,340257,2,1,L|173:191,1,105,0|0,2:0|2:0,2:0:0:0:
365,166,340569,2,0,L|493:166,1,105,2|0,2:0|2:0,2:0:0:0:
365,166,340882,1,0,2:0:0:0:
134,182,341038,6,1,L|260:183,2,105,0|2|0,2:0|2:0|2:0,2:0:0:0:
283,159,341507,2,1,L|158:159,1,105,0|0,2:0|2:0,2:0:0:0:
44,98,341819,2,0,L|196:98,1,105,2|0,2:0|2:0,2:0:0:0:
255,93,342132,1,0,2:0:0:0:
473,142,342288,6,1,L|321:142,2,105,0|2|0,2:0|2:0|2:0,2:0:0:0:
321,147,342757,2,1,L|196:147,1,105,0|0,2:0|2:0,2:0:0:0:
361,103,343069,2,0,L|512:103,1,105,2|0,2:0|2:0,2:0:0:0:
361,103,343382,1,0,2:0:0:0:
139,207,343538,6,1,L|257:207,2,105,0|2|0,2:0|2:0|2:0,2:0:0:0:
287,228,344007,2,1,L|289:79,1,105,0|0,2:0|2:0,2:0:0:0:
135,116,344319,2,0,L|135:241,1,105,2|0,2:0|2:0,2:0:0:0:
244,226,344632,1,0,2:0:0:0:
462,210,344788,6,1,L|310:210,2,105,0|2|0,2:0|2:0|2:0,2:0:0:0:
317,273,345257,2,1,L|319:122,1,105,0|0,2:0|2:0,2:0:0:0:
468,176,345569,2,0,L|470:47,1,105,2|0,2:0|2:0,2:0:0:0:
361,72,345882,1,0,2:0:0:0:
141,196,346038,6,1,L|257:196,2,105,0|2|0,2:0|2:0|2:0,2:0:0:0:
294,259,346507,2,1,L|293:135,1,105,0|0,2:0|2:0,2:0:0:0:
156,109,346819,2,0,L|27:109,1,105,2|0,2:0|2:0,2:0:0:0:
156,109,347132,1,0,2:0:0:0:
392,204,347288,6,1,L|252:204,2,105,0|2|0,2:0|2:0|2:0,2:0:0:0:
243,140,347757,2,1,L|134:140,1,105,0|0,2:0|2:0,2:0:0:0:
358,187,348069,6,0,L|244:187,1,105,2|0,2:0|2:0,2:0:0:0:
191,179,348303,1,0,2:0:0:0:
358,139,348382,2,0,L|470:139,1,105,2|0,2:0|2:0,2:0:0:0:
294,109,348616,1,0,2:0:0:0:
125,333,348694,1,6,2:0:0:0:
