osu file format v14

[General]
AudioFilename: audio.mp3
AudioLeadIn: 0
PreviewTime: -1
Countdown: 1
SampleSet: None
StackLeniency: 0.7
Mode: 0
LetterboxInBreaks: 0
WidescreenStoryboard: 0

[Editor]
Bookmarks: 24535
DistanceSpacing: 2.7
BeatDivisor: 4
GridSize: 8
TimelineZoom: 1

[Metadata]
Title:Der Wald(kors k Remix)
TitleUnicode:Der Wald(kors k Remix)
Artist:remixed by kors k
ArtistUnicode:エレハモニカ remixed by kors k
Creator:Clicks
Version:Insane
Source:
Tags:
BeatmapID:1863423
BeatmapSetID:891425

[Difficulty]
HPDrainRate:3
CircleSize:3
OverallDifficulty:8
ApproachRate:9.6
SliderMultiplier:2
SliderTickRate:1

[Events]
//Background and Video events
0,0,"516406.jpg",0,0
//Break Periods
//Storyboard Layer 0 (Background)
//Storyboard Layer 1 (Fail)
//Storyboard Layer 2 (Pass)
//Storyboard Layer 3 (Foreground)
//Storyboard Sound Samples

[TimingPoints]
-347,352.941176470588,4,1,0,100,1,0
334,-66.6666666666667,4,1,0,100,0,0
23652,-50,4,1,0,100,0,0
34947,-133.333333333333,4,1,0,100,0,0
36358,-100,4,1,0,100,0,0
37770,-50,4,1,0,100,0,0
42005,-100,4,1,0,100,0,0
49417,-50,4,1,0,100,0,0
50476,-100,4,1,0,100,0,0

[HitObjects]
73,87,1064,6,0,L|218:152,1,150.000005722046
314,207,1417,2,0,L|156:280,1,150.000005722046
391,41,1770,2,0,L|491:158,1,150.000005722046
328,142,2123,2,0,L|245:281,1,150.000005722046
161,134,2476,5,0,0:0:0:0:
161,134,2652,1,0,0:0:0:0:
338,228,2829,1,0,0:0:0:0:
335,222,3005,1,0,0:0:0:0:
155,318,3182,1,0,0:0:0:0:
155,318,3358,1,0,0:0:0:0:
394,319,3535,1,0,0:0:0:0:
394,319,3711,1,0,0:0:0:0:
342,51,3888,6,0,L|250:196,1,150.000005722046
124,174,4241,2,0,L|242:341,1,150.000005722046
358,289,4594,1,0,0:0:0:0:
258,165,4770,1,0,0:0:0:0:
437,152,4947,1,0,0:0:0:0:
287,232,5123,1,0,0:0:0:0:
437,152,5300,6,0,L|287:62,1,150.000005722046
75,150,5652,2,0,L|222:66,1,150.000005722046
256,36,6005,1,0,0:0:0:0:
256,213,6182,1,0,0:0:0:0:
256,213,6270,1,0,0:0:0:0:
256,213,6358,1,0,0:0:0:0:
256,36,6535,1,0,0:0:0:0:
254,346,6711,6,0,L|235:157,1,150
258,38,7064,2,0,L|277:227,1,150
143,187,7417,1,0,0:0:0:0:
356,192,7594,1,0,0:0:0:0:
261,79,7770,1,0,0:0:0:0:
256,292,7947,1,0,0:0:0:0:
39,193,8123,6,0,L|237:168,1,150.000005722046
473,193,8476,2,0,L|324:174,1,150.000005722046
254,22,8829,1,0,0:0:0:0:
254,348,9005,1,0,0:0:0:0:
374,70,9182,1,0,0:0:0:0:
144,300,9358,1,0,0:0:0:0:
426,189,9535,6,0,L|300:55,1,150.000005722046
188,80,9888,2,0,L|86:189,1,150.000005722046
426,194,10241,2,0,L|300:329,1,150.000005722046
188,303,10594,2,0,L|86:194,1,150.000005722046
258,194,10947,2,0,L|373:78,1,150.000005722046
258,194,11300,2,0,L|143:78,1,150.000005722046
363,296,11652,1,0,0:0:0:0:
253,194,11829,1,0,0:0:0:0:
253,194,11917,1,0,0:0:0:0:
253,194,12005,1,0,0:0:0:0:
363,296,12182,1,0,0:0:0:0:
149,296,12358,6,0,L|248:108,1,150.000005722046
363,88,12711,2,0,L|264:276,1,150.000005722046
121,92,13064,1,0,0:0:0:0:
121,92,13241,1,0,0:0:0:0:
391,92,13417,1,0,0:0:0:0:
391,92,13594,1,0,0:0:0:0:
255,319,13770,5,0,0:0:0:0:
255,190,13947,1,0,0:0:0:0:
255,319,14123,5,0,0:0:0:0:
254,71,14300,1,0,0:0:0:0:
255,190,14476,5,0,0:0:0:0:
144,98,14652,1,0,0:0:0:0:
255,190,14829,5,0,0:0:0:0:
368,98,15005,1,0,0:0:0:0:
368,286,15182,5,0,0:0:0:0:
256,287,15358,1,0,0:0:0:0:
470,288,15535,1,0,0:0:0:0:
151,286,15711,1,0,0:0:0:0:
154,64,15888,2,0,L|377:73,1,150.000005722046
396,282,16241,2,0,L|223:293,1,150.000005722046
144,98,16594,5,0,0:0:0:0:
256,97,16770,1,0,0:0:0:0:
42,96,16947,1,0,0:0:0:0:
361,98,17123,1,0,0:0:0:0:
358,320,17300,1,0,0:0:0:0:
255,189,17476,1,0,0:0:0:0:
255,189,17564,1,0,0:0:0:0:
255,189,17652,1,0,0:0:0:0:
358,320,17829,1,0,0:0:0:0:
134,293,18005,6,0,L|257:184,1,150.000005722046
378,91,18358,2,0,L|255:200,1,150.000005722046
378,293,18711,2,0,L|255:184,1,150.000005722046
134,91,19064,2,0,L|257:200,1,150.000005722046
246,190,19417,5,0,0:0:0:0:
133,92,19594,1,0,0:0:0:0:
246,190,19770,5,0,0:0:0:0:
359,91,19947,1,0,0:0:0:0:
246,193,20123,5,0,0:0:0:0:
133,292,20300,1,0,0:0:0:0:
246,194,20476,5,0,0:0:0:0:
359,293,20653,1,0,0:0:0:0:
170,30,20829,6,0,L|26:123,1,150.000005722046
342,30,21182,2,0,L|486:123,1,150.000005722046
255,332,21535,2,0,L|250:137,1,150.000005722046
255,12,21888,1,0,0:0:0:0:
255,12,22064,1,0,0:0:0:0:
114,220,22241,1,0,0:0:0:0:
255,12,22417,1,0,0:0:0:0:
358,329,22594,1,0,0:0:0:0:
217,121,22770,1,0,0:0:0:0:
450,25,22947,1,0,0:0:0:0:
309,233,23123,1,0,0:0:0:0:
309,233,23300,6,0,P|255:163|257:227,1,225.000008583069
63,61,23652,2,0,P|121:57|195:82,1,100
278,185,23829,2,0,P|220:189|146:164,1,100
57,266,24005,2,0,P|53:208|78:134,1,100
184,81,24182,2,0,P|188:139|163:213,1,100
328,81,24358,2,0,P|324:139|349:213,1,100
246,290,24535,2,0,P|250:232|225:158,1,100
144,212,24711,2,0,P|140:154|165:80,1,100
368,212,24888,2,0,P|372:154|347:80,1,100
343,27,25064,2,0,P|347:85|322:159,1,100
198,238,25241,2,0,P|241:200|276:130,1,100
340,207,25417,2,0,P|381:234|413:273,1,100
424,286,25594,2,0,P|382:313|350:352,1,100
172,207,25770,2,0,P|130:234|98:273,1,100
88,286,25947,2,0,P|129:313|161:352,1,100
161,352,26123,2,0,P|253:309|259:248,1,100
350,352,26300,2,0,P|259:309|253:248,1,100
221,84,26476,6,0,B|152:228,1,100
291,84,26652,6,0,B|360:228,1,100
154,140,26829,6,0,B|207:290,1,100
357,140,27005,6,0,B|304:290,1,100
212,324,27182,6,0,B|128:147,1,100
299,324,27358,6,0,B|383:147,1,100
131,255,27535,6,0,B|196:70,1,100
380,255,27711,6,0,B|315:70,1,100
167,35,27888,2,0,P|120:49|83:82,1,100
42,173,28064,2,0,P|79:205|126:219,1,100
248,182,28241,2,0,P|244:132|220:89,1,100
331,66,28417,2,0,P|334:115|358:158,1,100
453,218,28594,2,0,L|333:269,1,100
269,275,28770,2,0,L|195:126,1,100
191,99,28947,2,0,L|312:28,1,100
362,12,29123,2,0,L|429:103,1,100
467,195,29300,6,0,P|451:227|339:253,1,100
312,276,29476,6,0,P|328:308|440:334,1,100
397,260,29652,6,0,P|441:237|467:195,1,100
463,107,29829,6,0,P|419:84|393:41,1,100
246,103,30005,6,0,P|289:80|315:37,1,100
392,236,30182,6,0,L|481:155,1,100
313,240,30358,6,0,P|287:197|265:223,3,100
61,44,30711,2,0,L|217:88,1,100
303,132,30888,2,0,L|125:186,1,100
67,241,31064,2,0,L|213:287,1,100
343,307,31241,2,0,L|204:370,1,100
166,127,31417,2,0,P|219:173|206:253,1,100
152,306,31594,2,0,P|99:260|112:180,1,100
83,161,31770,2,0,P|103:122|129:154,3,100
367,62,32123,6,0,P|420:125|513:120,1,100
426,242,32300,6,0,P|383:267|358:310,1,100
153,310,32476,6,0,P|128:267|86:242,1,100
77,130,32652,6,0,P|120:104|145:62,1,100
254,21,32829,2,0,P|218:61|227:168,1,100
258,245,33005,2,0,P|294:205|285:98,1,100
234,71,33182,2,0,P|180:73|110:155,1,100
78,232,33358,2,0,P|127:230|170:205,1,100
455,58,33535,6,0,L|283:92,1,100
57,58,33711,6,0,L|229:92,1,100
492,154,33888,6,0,L|322:112,1,100
19,154,34064,6,0,L|189:112,1,100
486,258,34241,6,0,L|408:195,1,100
25,258,34417,6,0,L|162:148,1,100
259,99,34594,2,0,P|250:206|198:217,1,100
253,285,34770,2,0,P|261:177|313:166,1,100
419,71,34947,6,0,B|379:69|379:69|342:115,1,75.0000028610231
248,151,35300,6,0,B|288:149|288:149|325:195,1,75.0000028610231
426,127,35652,6,0,B|396:153|396:153|402:212,1,75.0000028610231
316,228,36005,6,0,B|345:254|345:254|339:313,1,75.0000028610231
461,329,36358,2,0,L|424:233,1,100
358,125,36711,2,0,L|321:221,1,100
51,329,37064,2,0,L|88:233,1,100
154,125,37417,2,0,L|191:221,1,100
262,329,37770,6,0,P|305:300|317:228,1,100
250,55,37947,6,0,P|207:84|195:156,1,100
163,293,38123,6,0,P|214:303|273:260,1,100
348,90,38300,6,0,P|297:80|238:123,1,100
119,198,38476,6,0,P|148:240|220:253,1,100
393,186,38653,6,0,P|364:143|292:131,1,100
154,99,38829,6,0,P|144:150|187:209,1,100
250,329,39182,6,0,P|207:300|195:228,1,100
262,55,39359,6,0,P|305:84|317:156,1,100
348,293,39535,6,0,P|297:303|238:260,1,100
163,90,39712,6,0,P|214:80|273:123,1,100
393,198,39888,6,0,P|364:240|292:253,1,100
119,186,40065,6,0,P|148:143|220:131,1,100
357,99,40241,6,0,P|367:150|324:209,1,100
90,57,40594,5,0,0:0:0:0:
90,57,40770,1,0,0:0:0:0:
269,126,40947,5,0,0:0:0:0:
269,126,41123,1,0,0:0:0:0:
94,253,41300,1,0,0:0:0:0:
94,253,41476,1,0,0:0:0:0:
290,327,41652,1,0,0:0:0:0:
290,327,41829,1,0,0:0:0:0:
338,90,42005,6,0,B|327:141|327:141|264:178,1,100
125,206,42358,2,0,B|169:176|169:176|215:189,1,100
358,274,42711,2,0,B|306:263|306:263|282:222,1,100
338,90,43064,2,0,L|264:178,1,100
74,57,43417,5,0,0:0:0:0:
82,105,43505,1,0,0:0:0:0:
116,140,43593,1,0,0:0:0:0:
165,148,43681,1,0,0:0:0:0:
209,127,43769,1,0,0:0:0:0:
241,100,43858,1,0,0:0:0:0:
279,69,43946,1,0,0:0:0:0:
327,71,44034,1,0,0:0:0:0:
363,104,44122,1,0,0:0:0:0:
367,153,44210,1,0,0:0:0:0:
338,193,44299,1,0,0:0:0:0:
319,214,44388,1,0,0:0:0:0:
269,220,44476,1,0,0:0:0:0:
220,211,44564,1,0,0:0:0:0:
176,188,44652,1,0,0:0:0:0:
146,154,44741,1,0,0:0:0:0:
256,192,44829,12,0,46152,0:0:0:0:
93,134,46241,5,0,0:0:0:0:
161,87,46329,1,0,0:0:0:0:
104,153,46417,5,0,0:0:0:0:
172,106,46505,1,0,0:0:0:0:
116,175,46594,5,0,0:0:0:0:
184,128,46682,1,0,0:0:0:0:
127,194,46770,5,0,0:0:0:0:
195,147,46858,1,0,0:0:0:0:
139,214,46947,5,0,0:0:0:0:
207,167,47035,1,0,0:0:0:0:
150,233,47123,5,0,0:0:0:0:
218,186,47211,1,0,0:0:0:0:
168,269,47300,2,0,L|90:349,1,100
344,269,47652,2,0,L|422:349,1,100
247,334,48005,2,0,L|259:187,1,100
334,143,48358,5,0,0:0:0:0:
266,190,48446,1,0,0:0:0:0:
323,124,48534,5,0,0:0:0:0:
255,171,48622,1,0,0:0:0:0:
311,102,48711,5,0,0:0:0:0:
243,149,48799,1,0,0:0:0:0:
300,83,48887,5,0,0:0:0:0:
232,130,48975,1,0,0:0:0:0:
288,63,49064,5,0,0:0:0:0:
220,110,49152,1,0,0:0:0:0:
277,44,49240,5,0,0:0:0:0:
209,91,49328,1,0,0:0:0:0:
176,45,49417,2,0,P|113:67|86:114,1,100
149,176,49594,2,0,P|212:154|239:107,1,100
282,57,49770,2,0,P|350:70|391:152,1,100
393,214,49947,2,0,P|325:201|284:119,1,100
246,109,50123,2,0,P|217:149|213:198,1,100
265,275,50300,2,0,P|293:234|297:185,1,100
372,55,50476,6,0,L|242:102,1,100
140,55,50829,2,0,L|270:102,1,100
372,329,51182,6,0,L|242:282,1,100
140,329,51535,2,0,L|270:282,1,100
343,67,51888,2,0,P|389:135|192:188,1,350
28,61,52594,2,0,P|182:62|159:215,1,350
110,126,53300,1,0,0:0:0:0:
271,63,53476,1,0,0:0:0:0:
43,39,53652,1,0,0:0:0:0:
201,108,53828,1,0,0:0:0:0:
57,233,54005,1,0,0:0:0:0:
215,302,54181,1,0,0:0:0:0:
71,125,54357,1,0,0:0:0:0:
134,284,54533,1,0,0:0:0:0:
402,126,54711,1,0,0:0:0:0:
241,63,54887,1,0,0:0:0:0:
469,39,55063,1,0,0:0:0:0:
311,108,55239,1,0,0:0:0:0:
455,233,55416,1,0,0:0:0:0:
297,302,55592,1,0,0:0:0:0:
441,125,55768,1,0,0:0:0:0:
378,284,55944,1,0,0:0:0:0:
155,68,56123,5,0,0:0:0:0:
383,242,56300,1,0,0:0:0:0:
272,32,56476,5,0,0:0:0:0:
310,317,56653,1,0,0:0:0:0:
380,91,56829,5,0,0:0:0:0:
97,308,57006,1,0,0:0:0:0:
415,208,57182,5,0,0:0:0:0:
61,133,57359,1,0,0:0:0:0:
296,91,57535,5,0,0:0:0:0:
213,91,57623,1,0,0:0:0:0:
298,111,57711,5,0,0:0:0:0:
215,113,57799,1,0,0:0:0:0:
301,136,57888,5,0,0:0:0:0:
218,138,57976,1,0,0:0:0:0:
302,158,58064,5,0,0:0:0:0:
220,159,58152,1,0,0:0:0:0:
304,181,58241,5,0,0:0:0:0:
221,183,58329,1,0,0:0:0:0:
306,203,58417,5,0,0:0:0:0:
223,204,58505,1,0,0:0:0:0:
259,331,58594,2,0,L|375:268,1,100
274,187,58947,2,0,L|158:250,1,100
196,101,59300,2,0,L|312:38,1,100
296,293,59652,5,0,0:0:0:0:
213,293,59740,1,0,0:0:0:0:
298,273,59828,5,0,0:0:0:0:
215,271,59916,1,0,0:0:0:0:
301,248,60005,5,0,0:0:0:0:
218,246,60093,1,0,0:0:0:0:
302,226,60181,5,0,0:0:0:0:
220,225,60269,1,0,0:0:0:0:
304,203,60358,5,0,0:0:0:0:
221,201,60446,1,0,0:0:0:0:
306,181,60534,5,0,0:0:0:0:
223,180,60622,1,0,0:0:0:0:
308,155,60711,5,0,0:0:0:0:
225,155,60799,1,0,0:0:0:0:
310,135,60887,5,0,0:0:0:0:
227,133,60975,1,0,0:0:0:0:
313,110,61064,5,0,0:0:0:0:
230,108,61152,1,0,0:0:0:0:
314,88,61240,5,0,0:0:0:0:
232,87,61328,1,0,0:0:0:0:
316,65,61417,5,0,0:0:0:0:
233,63,61505,1,0,0:0:0:0:
318,43,61593,5,0,0:0:0:0:
235,42,61681,1,0,0:0:0:0:
