osu file format v14

[General]
AudioFilename: audio.mp3
AudioLeadIn: 0
PreviewTime: 65152
Countdown: 0
SampleSet: Soft
StackLeniency: 0.7
Mode: 3
LetterboxInBreaks: 0
SpecialStyle: 0
WidescreenStoryboard: 0

[Editor]
DistanceSpacing: 1.6
BeatDivisor: 4
GridSize: 8
TimelineZoom: 1.6

[Metadata]
Title:The 6th KAC DJ TOTTO's SELECTION
TitleUnicode:The 6th KAC DJ TOTTO's SELECTION
Artist:remixed by DJ TOTTO Gt.TATSUYA
ArtistUnicode:remixed by DJ TOTTO Gt.TATSUYA
Creator:Rivals_7
Version:HARD
Source:REFLEC BEAT 悠久のリフレシア
Tags:video game instrumental MAX MAXIMIZER RoughSketch REVET D-crew chaplet ARACHNE Disable Mark Rebellio collete -Spring- VOLZZA 2 Yukyuu no Reflesia jubeat saucer konami arcade championship
BeatmapID:1253569
BeatmapSetID:592476

[Difficulty]
HPDrainRate:7.5
CircleSize:4
OverallDifficulty:7.5
ApproachRate:5
SliderMultiplier:1.4
SliderTickRate:1

[Events]
//Background and Video events
0,0,"81417-fire-fujiwara-no-mokou-touhou-mx-1920x1080-anime-wallpaper.jpg",0,0
//Break Periods
//Storyboard Layer 0 (Background)
//Storyboard Layer 1 (Fail)
//Storyboard Layer 2 (Pass)
//Storyboard Layer 3 (Foreground)
//Storyboard Layer 4 (Overlay)
//Storyboard Sound Samples
Sample,62990,0,"Clap.wav",60
Sample,63297,0,"Clap.wav",60
Sample,63605,0,"Clap.wav",60

[TimingPoints]
2168,300,4,2,1,60,1,0
2168,-85.4700854700855,4,2,1,60,0,0
11768,-85.4700854700855,4,2,1,60,0,1
15368,-85.4700854700855,4,2,1,60,0,0
16568,-85.4700854700855,4,2,1,60,0,1
21368,-85.4700854700855,4,2,1,60,0,0
32302,335.195530726257,4,2,1,60,1,0
32302,-76.3358778625954,4,2,1,60,0,0
55095,337.078651685393,4,2,1,60,1,0
55095,-76.3358778625954,4,2,1,60,0,0
55769,331.491712707182,4,2,1,60,1,8
55769,-77.5193798449612,4,2,1,60,0,0
56431,326.086956521739,4,2,1,60,1,0
56431,-78.740157480315,4,2,1,60,0,0
57083,324.324324324324,4,2,1,60,1,8
57083,-79.3650793650794,4,2,1,60,0,0
57731,312.5,4,2,1,60,1,0
57731,-81.9672131147541,4,2,1,60,0,0
58356,317.460317460317,4,2,1,60,1,8
58356,-80.6451612903226,4,2,1,60,0,0
58990,300,4,2,1,60,1,0
58990,-85.4700854700855,4,2,1,60,0,0
59440,324.324324324324,4,2,1,60,1,8
59440,-79.3650793650794,4,2,1,60,0,0
59606,307.692307692308,4,2,1,60,1,8
59606,-83.3333333333333,4,2,1,60,0,0
60221,307.692307692308,4,2,1,60,1,0
60221,-83.3333333333333,4,2,1,60,0,0
65152,307.692307692308,4,2,1,60,1,0
65152,-83.3333333333333,4,2,1,60,0,1
84844,256.410256410256,4,2,1,60,1,0
116638,-100,4,2,1,60,0,1
117664,-100,4,2,1,60,0,0

[HitObjects]
64,192,2168,5,0,0:0:0:60:Clap.wav
448,192,2168,1,0,0:0:0:60:soft-hitfinish2.wav
192,192,2268,1,0,0:0:0:0:
320,192,2368,1,0,0:0:0:0:
448,192,2468,1,0,0:0:0:0:
64,192,2668,1,0,0:0:0:0:
448,192,2768,1,0,0:0:0:0:
64,192,2968,1,0,0:0:0:0:
320,192,3068,1,0,0:0:0:0:
320,192,3268,1,0,0:0:0:0:
192,192,3368,1,0,0:0:0:0:
320,192,3568,1,0,0:0:0:0:
448,192,3668,1,0,0:0:0:0:
64,192,3768,1,0,0:0:0:0:
192,192,3868,1,0,0:0:0:0:
448,192,3968,1,0,0:0:0:0:
320,192,4068,1,0,0:0:0:0:
64,192,4168,1,0,0:0:0:0:
192,192,4268,1,0,0:0:0:0:
320,192,4368,1,0,0:0:0:0:
448,192,4468,1,0,0:0:0:0:
64,192,4568,1,0,0:0:0:60:Clap.wav
320,192,4568,1,0,0:0:0:60:soft-hitfinish2.wav
192,192,4668,1,0,0:0:0:0:
448,192,4768,1,0,0:0:0:0:
320,192,4868,1,0,0:0:0:0:
192,192,4968,1,0,0:0:0:0:
448,192,5068,1,0,0:0:0:0:
320,192,5168,1,0,0:0:0:0:
64,192,5268,1,0,0:0:0:0:
192,192,5368,1,0,0:0:0:0:
320,192,5468,1,0,0:0:0:0:
448,192,5568,1,0,0:0:0:0:
192,192,5668,1,0,0:0:0:0:
64,192,5768,128,0,6368:0:0:0:0:
448,192,6368,128,0,6968:0:0:0:0:
64,192,6968,1,0,0:0:0:60:Clap.wav
320,192,6968,1,0,0:0:0:60:soft-hitfinish2.wav
192,192,7068,1,0,0:0:0:0:
320,192,7168,1,0,0:0:0:0:
64,192,7268,1,0,0:0:0:0:
448,192,7468,1,0,0:0:0:0:
320,192,7568,1,0,0:0:0:0:
192,192,7668,1,0,0:0:0:0:
448,192,7768,1,0,0:0:0:0:
320,192,7868,1,0,0:0:0:0:
192,192,8068,1,0,0:0:0:0:
320,192,8168,1,0,0:0:0:0:
64,192,8268,1,0,0:0:0:0:
192,192,8368,1,0,0:0:0:0:
448,192,8468,1,0,0:0:0:0:
320,192,8568,1,0,0:0:0:0:
192,192,8668,1,0,0:0:0:0:
448,192,8768,1,0,0:0:0:0:
320,192,8868,1,0,0:0:0:0:
192,192,8968,1,0,0:0:0:0:
448,192,9068,1,0,0:0:0:0:
64,192,9168,1,0,0:0:0:0:
192,192,9268,1,0,0:0:0:0:
320,192,9368,128,0,10568:0:0:0:0:
192,192,10568,1,0,0:0:0:60:Kick.wav
448,192,10668,1,0,0:0:0:60:Kick.wav
448,192,10868,1,0,0:0:0:60:Kick.wav
448,192,11068,1,0,0:0:0:60:Kick.wav
64,192,11168,1,0,0:0:0:60:Kick.wav
320,192,11268,1,0,0:0:0:0:
192,192,11368,1,0,0:0:0:0:
448,192,11468,1,0,0:0:0:60:Clap.wav
320,192,11568,1,0,0:0:0:0:
192,192,11668,1,0,0:0:0:0:
64,192,11768,1,0,0:0:0:60:soft-hitfinish2.wav
448,192,11768,1,0,0:0:0:60:Kick.wav
64,192,11968,1,0,0:0:0:0:
320,192,12068,1,0,0:0:0:60:Clap.wav
448,192,12068,1,0,0:0:0:0:
320,192,12268,1,0,0:0:0:0:
64,192,12368,1,0,0:0:0:60:Kick.wav
192,192,12368,1,0,0:0:0:0:
192,192,12568,1,0,0:0:0:0:
320,192,12668,1,0,0:0:0:60:Clap.wav
448,192,12668,1,0,0:0:0:0:
448,192,12868,1,0,0:0:0:0:
64,192,12968,1,0,0:0:0:60:Kick.wav
320,192,12968,1,0,0:0:0:0:
448,192,13168,1,0,0:0:0:0:
192,192,13268,1,0,0:0:0:60:Clap.wav
320,192,13268,1,0,0:0:0:0:
64,192,13368,1,0,0:0:0:0:
448,192,13468,1,0,0:0:0:0:
192,192,13568,1,0,0:0:0:60:Kick.wav
64,192,13668,1,0,0:0:0:0:
320,192,13768,1,0,0:0:0:0:
192,192,13868,1,0,0:0:0:60:Clap.wav
448,192,13868,1,0,0:0:0:0:
64,192,13968,1,0,0:0:0:0:
448,192,14068,1,0,0:0:0:0:
192,192,14168,1,0,0:0:0:60:Kick.wav
320,192,14268,1,0,0:0:0:0:
448,192,14368,1,0,0:0:0:0:
64,192,14468,1,0,0:0:0:60:Clap.wav
192,192,14468,1,0,0:0:0:0:
320,192,14568,1,0,0:0:0:0:
448,192,14668,1,0,0:0:0:0:
64,192,14768,1,0,0:0:0:60:Kick.wav
192,192,14868,1,0,0:0:0:0:
448,192,14968,1,0,0:0:0:0:
64,192,15068,1,0,0:0:0:60:Clap.wav
192,192,15068,1,0,0:0:0:0:
320,192,15168,1,0,0:0:0:0:
192,192,15268,1,0,0:0:0:0:
320,192,15368,1,0,0:0:0:60:Clap.wav
448,192,15368,1,0,0:0:0:0:
64,192,15568,1,0,0:0:0:60:Clap.wav
192,192,15568,1,0,0:0:0:0:
320,192,15768,1,0,0:0:0:60:Clap.wav
448,192,15768,1,0,0:0:0:0:
64,192,15968,1,0,0:0:0:60:Clap.wav
192,192,15968,1,0,0:0:0:0:
320,192,16168,1,0,0:0:0:60:Clap.wav
448,192,16168,1,0,0:0:0:0:
64,192,16368,1,0,0:0:0:60:Clap.wav
192,192,16368,1,0,0:0:0:0:
320,192,16568,1,0,0:0:0:60:Kick.wav
448,192,16568,1,0,0:0:0:60:soft-hitfinish2.wav
64,192,16768,1,0,0:0:0:0:
192,192,16868,1,0,0:0:0:60:Clap.wav
448,192,16868,1,0,0:0:0:0:
64,192,16968,1,0,0:0:0:0:
448,192,17068,1,0,0:0:0:0:
192,192,17168,1,0,0:0:0:60:Kick.wav
64,192,17368,1,0,0:0:0:0:
320,192,17468,1,0,0:0:0:60:Clap.wav
448,192,17468,1,0,0:0:0:0:
320,192,17668,1,0,0:0:0:0:
64,192,17768,1,0,0:0:0:60:soft-hitfinish2.wav
448,192,17768,1,0,0:0:0:60:Kick.wav
192,192,17968,1,0,0:0:0:0:
320,192,18068,1,0,0:0:0:60:Clap.wav
448,192,18068,1,0,0:0:0:0:
192,192,18168,1,0,0:0:0:0:
320,192,18268,1,0,0:0:0:0:
64,192,18368,1,0,0:0:0:60:soft-hitfinish2.wav
448,192,18368,1,0,0:0:0:60:Kick.wav
64,192,18568,1,0,0:0:0:0:
192,192,18668,1,0,0:0:0:60:Clap.wav
448,192,18668,1,0,0:0:0:0:
192,192,18868,1,0,0:0:0:60:Kick.wav
64,192,18968,1,0,0:0:0:60:soft-hitfinish2.wav
448,192,18968,1,0,0:0:0:60:Kick.wav
320,192,19168,1,0,0:0:0:0:
64,192,19268,1,0,0:0:0:60:Clap.wav
448,192,19268,1,0,0:0:0:0:
192,192,19368,1,0,0:0:0:0:
320,192,19468,1,0,0:0:0:0:
64,192,19568,1,0,0:0:0:60:soft-hitfinish2.wav
448,192,19568,1,0,0:0:0:60:Kick.wav
320,192,19868,1,0,0:0:0:60:Clap.wav
448,192,19868,1,0,0:0:0:0:
192,192,19968,1,0,0:0:0:0:
448,192,20068,1,0,0:0:0:60:Kick.wav
64,192,20168,1,0,0:0:0:60:soft-hitfinish2.wav
320,192,20168,1,0,0:0:0:60:Kick.wav
192,192,20268,1,0,0:0:0:0:
448,192,20368,1,0,0:0:0:60:Kick.wav
192,192,20468,1,0,0:0:0:60:soft-hitfinish2.wav
320,192,20468,1,0,0:0:0:60:Clap.wav
64,192,20568,1,0,0:0:0:0:
448,192,20668,1,0,0:0:0:60:Kick.wav
64,192,20768,1,0,0:0:0:60:soft-hitfinish2.wav
192,192,20768,1,0,0:0:0:60:Clap.wav
320,192,20868,1,0,0:0:0:60:Kick.wav
192,192,20968,1,0,0:0:0:60:Kick.wav
64,192,21068,1,0,0:0:0:60:soft-hitfinish2.wav
448,192,21068,128,0,21368:0:0:0:60:Kick.wav
64,192,21368,1,0,0:0:0:60:Kick.wav
320,192,21368,1,0,0:0:0:0:
192,192,21468,1,0,0:0:0:0:
320,192,21568,1,0,0:0:0:0:
448,192,21668,1,0,0:0:0:0:
192,192,21768,1,0,0:0:0:0:
64,192,21968,1,0,0:0:0:60:soft-hitfinish2.wav
320,192,21968,1,0,0:0:0:60:Clap.wav
448,192,22068,1,0,0:0:0:0:
192,192,22168,1,0,0:0:0:0:
320,192,22268,1,0,0:0:0:0:
64,192,22368,1,0,0:0:0:0:
320,192,22568,1,0,0:0:0:60:soft-hitfinish2.wav
448,192,22568,1,0,0:0:0:60:Clap.wav
192,192,22668,1,0,0:0:0:0:
64,192,22768,1,0,0:0:0:0:
448,192,22868,1,0,0:0:0:60:Kick.wav
320,192,22968,1,0,0:0:0:0:
64,192,23068,1,0,0:0:0:0:
320,192,23168,1,0,0:0:0:60:soft-hitfinish2.wav
448,192,23168,1,0,0:0:0:60:Clap.wav
192,192,23268,1,0,0:0:0:0:
64,192,23368,1,0,0:0:0:0:
448,192,23468,128,0,23768:0:0:0:0:
64,192,23768,1,0,0:0:0:60:soft-hitfinish2.wav
320,192,23768,1,0,0:0:0:60:Kick.wav
192,192,23868,1,0,0:0:0:0:
320,192,23968,1,0,0:0:0:0:
64,192,24068,1,0,0:0:0:0:
192,192,24168,1,0,0:0:0:0:
64,192,24368,1,0,0:0:0:60:soft-hitfinish2.wav
448,192,24368,1,0,0:0:0:60:Clap.wav
320,192,24468,1,0,0:0:0:0:
192,192,24568,1,0,0:0:0:0:
448,192,24668,1,0,0:0:0:0:
320,192,24768,1,0,0:0:0:0:
64,192,24968,128,0,25268:0:0:0:60:Kick.wav
320,192,25268,1,0,0:0:0:60:Clap.wav
448,192,25268,1,0,0:0:0:0:
64,192,25568,1,0,0:0:0:0:
320,192,25668,1,0,0:0:0:0:
192,192,25768,1,0,0:0:0:0:
448,192,25868,1,0,0:0:0:0:
64,192,25968,1,0,0:0:0:0:
192,192,26068,1,0,0:0:0:0:
320,192,26168,1,0,0:0:0:60:soft-hitfinish2.wav
448,192,26168,1,0,0:0:0:60:Clap.wav
64,192,26268,1,0,0:0:0:0:
192,192,26368,1,0,0:0:0:0:
320,192,26468,1,0,0:0:0:60:Kick.wav
192,192,26568,1,0,0:0:0:0:
64,192,26768,1,0,0:0:0:60:soft-hitfinish2.wav
448,192,26768,1,0,0:0:0:60:Clap.wav
320,192,26868,1,0,0:0:0:0:
64,192,26968,1,0,0:0:0:0:
192,192,27068,1,0,0:0:0:0:
448,192,27168,1,0,0:0:0:0:
192,192,27368,128,0,27968:0:0:0:0:
448,192,27968,1,0,0:0:0:60:Kick.wav
64,192,28068,1,0,0:0:0:60:Kick.wav
448,192,28168,1,0,0:0:0:60:Kick.wav
192,192,28268,1,0,0:0:0:60:Clap.wav
320,192,28368,1,0,0:0:0:60:Clap.wav
192,192,28468,1,0,0:0:0:60:Clap.wav
64,192,28568,1,0,0:0:0:60:soft-hitfinish2.wav
448,192,28568,1,0,0:0:0:60:Clap.wav
320,192,28668,1,0,0:0:0:0:
192,192,28768,1,0,0:0:0:0:
64,192,28868,1,0,0:0:0:60:Kick.wav
192,192,29068,1,0,0:0:0:0:
320,192,29168,1,0,0:0:0:60:soft-hitfinish2.wav
448,192,29168,1,0,0:0:0:60:Clap.wav
64,192,29268,1,0,0:0:0:0:
192,192,29368,1,0,0:0:0:0:
320,192,29468,1,0,0:0:0:60:Kick.wav
320,192,29668,1,0,0:0:0:60:Kick.wav
64,192,29768,1,0,0:0:0:60:soft-hitfinish2.wav
448,192,29768,1,0,0:0:0:60:Clap.wav
192,192,29868,1,0,0:0:0:60:Kick.wav
448,192,29968,1,0,0:0:0:60:Kick.wav
64,192,30068,1,0,0:0:0:60:Kick.wav
320,192,30068,1,0,0:0:0:0:
192,192,30168,1,0,0:0:0:60:Kick.wav
448,192,30268,1,0,0:0:0:60:Kick.wav
192,192,30368,1,0,0:0:0:60:soft-hitfinish2.wav
320,192,30368,1,0,0:0:0:60:Kick.wav
64,192,30468,1,0,0:0:0:60:Kick.wav
448,192,30568,1,0,0:0:0:60:Kick.wav
64,192,30668,128,0,30968:0:0:0:60:Kick.wav
320,192,30668,1,0,0:0:0:0:
192,192,30968,1,0,0:0:0:60:soft-hitfinish2.wav
448,192,30968,1,0,0:0:0:60:Kick.wav
64,192,32302,1,0,0:0:0:60:Clap.wav
192,192,32302,1,0,0:0:0:0:
64,192,32553,1,0,0:0:0:60:Clap.wav
192,192,32553,1,0,0:0:0:0:
320,192,32804,1,0,0:0:0:60:Clap.wav
448,192,32804,1,0,0:0:0:0:
64,192,32972,1,0,0:0:0:60:Clap.wav
192,192,32972,1,0,0:0:0:0:
320,192,33139,1,0,0:0:0:60:Clap.wav
448,192,33139,1,0,0:0:0:0:
64,192,33307,1,0,0:0:0:60:Clap.wav
192,192,33307,1,0,0:0:0:60:soft-hitfinish2.wav
192,192,33642,1,0,0:0:0:60:Clap.wav
448,192,33642,128,0,33810:0:0:0:60:soft-hitfinish2.wav
320,192,33894,1,0,0:0:0:0:
64,192,33977,1,0,0:0:0:60:Kick.wav
192,192,33977,1,0,0:0:0:0:
320,192,34145,128,0,34313:0:0:0:0:
64,192,34313,1,0,0:0:0:60:Clap.wav
448,192,34313,1,0,0:0:0:0:
192,192,34480,1,0,0:0:0:0:
320,192,34648,1,0,0:0:0:60:Kick.wav
448,192,34648,1,0,0:0:0:0:
64,192,34815,1,0,0:0:0:0:
320,192,34983,128,0,35151:0:0:0:60:Kick.wav
448,192,34983,1,0,0:0:0:0:
64,192,35234,1,0,0:0:0:0:
192,192,35318,1,0,0:0:0:60:Kick.wav
448,192,35318,1,0,0:0:0:0:
320,192,35486,128,0,35653:0:0:0:0:
64,192,35653,1,0,0:0:0:60:Clap.wav
192,192,35653,1,0,0:0:0:0:
448,192,35821,1,0,0:0:0:0:
64,192,35989,1,0,0:0:0:60:Kick.wav
320,192,35989,1,0,0:0:0:0:
192,192,36156,1,0,0:0:0:0:
64,192,36324,1,0,0:0:0:60:Kick.wav
320,192,36324,128,0,36491:0:0:0:0:
192,192,36575,1,0,0:0:0:0:
64,192,36659,1,0,0:0:0:60:Kick.wav
448,192,36659,1,0,0:0:0:0:
192,192,36827,128,0,36994:0:0:0:0:
320,192,36994,1,0,0:0:0:60:Clap.wav
448,192,36994,1,0,0:0:0:0:
64,192,37162,1,0,0:0:0:0:
192,192,37329,1,0,0:0:0:60:Kick.wav
320,192,37329,1,0,0:0:0:0:
448,192,37497,1,0,0:0:0:0:
192,192,37665,128,0,37832:0:0:0:60:Kick.wav
320,192,37665,1,0,0:0:0:0:
448,192,37916,1,0,0:0:0:0:
64,192,38000,1,0,0:0:0:60:Kick.wav
320,192,38000,1,0,0:0:0:0:
192,192,38167,128,0,38335:0:0:0:0:
448,192,38335,128,0,38670:0:0:0:60:Clap.wav
64,192,38503,128,0,38670:0:0:0:0:
320,192,38670,128,0,39005:0:0:0:60:Kick.wav
64,192,39005,1,0,0:0:0:60:soft-hitfinish2.wav
192,192,39005,128,0,39173:0:0:0:60:Clap.wav
448,192,39257,1,0,0:0:0:0:
64,192,39341,1,0,0:0:0:60:Kick.wav
320,192,39341,1,0,0:0:0:0:
192,192,39508,128,0,39676:0:0:0:0:
320,192,39676,1,0,0:0:0:60:Clap.wav
448,192,39676,1,0,0:0:0:0:
64,192,39843,1,0,0:0:0:0:
192,192,40011,1,0,0:0:0:60:Kick.wav
448,192,40011,1,0,0:0:0:0:
320,192,40179,1,0,0:0:0:0:
192,192,40346,128,0,40514:0:0:0:60:Kick.wav
448,192,40346,1,0,0:0:0:0:
64,192,40598,1,0,0:0:0:0:
320,192,40681,1,0,0:0:0:60:Kick.wav
448,192,40681,1,0,0:0:0:0:
192,192,40849,128,0,41017:0:0:0:0:
64,192,41017,1,0,0:0:0:60:Clap.wav
320,192,41017,1,0,0:0:0:0:
448,192,41184,1,0,0:0:0:0:
64,192,41352,1,0,0:0:0:60:Kick.wav
192,192,41352,1,0,0:0:0:0:
448,192,41519,1,0,0:0:0:60:Kick.wav
64,192,41687,1,0,0:0:0:60:Clap.wav
320,192,41687,1,0,0:0:0:0:
192,192,41855,1,0,0:0:0:60:Clap.wav
448,192,41855,1,0,0:0:0:0:
64,192,42022,128,0,42190:0:0:0:60:Kick.wav
320,192,42022,128,0,42190:0:0:0:0:
320,192,42357,1,0,0:0:0:60:Clap.wav
64,192,42441,1,0,0:0:0:60:Clap.wav
448,192,42525,1,0,0:0:0:60:Clap.wav
64,192,42609,1,0,0:0:0:60:Clap.wav
320,192,42693,1,0,0:0:0:60:Kick.wav
448,192,42693,128,0,42860:0:0:0:0:
64,192,42860,128,0,43028:0:0:0:0:
192,192,43028,1,0,0:0:0:60:Clap.wav
320,192,43028,1,0,0:0:0:0:
64,192,43279,1,0,0:0:0:60:Clap.wav
448,192,43279,1,0,0:0:0:0:
192,192,43531,1,0,0:0:0:60:Clap.wav
320,192,43531,1,0,0:0:0:0:
64,192,43698,1,0,0:0:0:60:Clap.wav
448,192,43698,1,0,0:0:0:0:
192,192,43866,1,0,0:0:0:60:Clap.wav
320,192,44033,1,0,0:0:0:60:Clap.wav
448,192,44033,1,0,0:0:0:0:
64,192,44201,1,0,0:0:0:60:Clap.wav
192,192,44201,1,0,0:0:0:0:
320,192,44369,128,0,44536:0:0:0:60:Clap.wav
448,192,44369,1,0,0:0:0:60:soft-hitfinish2.wav
64,192,44620,1,0,0:0:0:0:
192,192,44704,1,0,0:0:0:60:Kick.wav
448,192,44704,1,0,0:0:0:0:
320,192,44871,128,0,45039:0:0:0:0:
64,192,45039,1,0,0:0:0:60:Clap.wav
448,192,45039,1,0,0:0:0:0:
192,192,45207,1,0,0:0:0:0:
320,192,45290,1,0,0:0:0:0:
64,192,45374,1,0,0:0:0:60:Kick.wav
448,192,45374,1,0,0:0:0:0:
192,192,45458,1,0,0:0:0:0:
320,192,45542,1,0,0:0:0:0:
64,192,45709,1,0,0:0:0:60:Kick.wav
320,192,45709,128,0,45877:0:0:0:0:
192,192,45961,1,0,0:0:0:0:
64,192,46045,1,0,0:0:0:60:Kick.wav
448,192,46045,1,0,0:0:0:0:
320,192,46212,128,0,46380:0:0:0:0:
64,192,46380,1,0,0:0:0:60:Clap.wav
192,192,46380,1,0,0:0:0:0:
448,192,46547,1,0,0:0:0:0:
320,192,46631,1,0,0:0:0:0:
64,192,46715,1,0,0:0:0:60:Kick.wav
192,192,46715,1,0,0:0:0:0:
448,192,46799,1,0,0:0:0:0:
320,192,46883,1,0,0:0:0:0:
64,192,47050,1,0,0:0:0:60:soft-hitfinish2.wav
448,192,47050,128,0,47218:0:0:0:60:Kick.wav
192,192,47302,1,0,0:0:0:0:
64,192,47385,1,0,0:0:0:60:Kick.wav
320,192,47385,1,0,0:0:0:0:
448,192,47553,1,0,0:0:0:0:
192,192,47720,1,0,0:0:0:60:Clap.wav
448,192,47720,128,0,47888:0:0:0:0:
320,192,47972,1,0,0:0:0:0:
64,192,48056,1,0,0:0:0:60:Kick.wav
192,192,48056,1,0,0:0:0:0:
448,192,48223,1,0,0:0:0:0:
320,192,48391,1,0,0:0:0:60:Clap.wav
448,192,48391,128,0,48558:0:0:0:0:
64,192,48642,1,0,0:0:0:0:
192,192,48726,1,0,0:0:0:60:Kick.wav
320,192,48726,1,0,0:0:0:0:
448,192,48894,128,0,49061:0:0:0:0:
64,192,49061,128,0,49396:0:0:0:60:Kick.wav
320,192,49396,1,0,0:0:0:60:Kick.wav
192,192,49480,1,0,0:0:0:60:Kick.wav
448,192,49564,1,0,0:0:0:60:Kick.wav
64,192,49648,1,0,0:0:0:60:Kick.wav
320,192,49732,128,0,49899:0:0:0:60:Clap.wav
448,192,49732,1,0,0:0:0:60:soft-hitfinish2.wav
64,192,49983,1,0,0:0:0:0:
192,192,50067,1,0,0:0:0:60:Kick.wav
448,192,50067,1,0,0:0:0:0:
320,192,50234,128,0,50402:0:0:0:60:Kick.wav
64,192,50402,1,0,0:0:0:60:Clap.wav
192,192,50402,1,0,0:0:0:0:
448,192,50570,1,0,0:0:0:60:Kick.wav
320,192,50653,1,0,0:0:0:0:
64,192,50737,1,0,0:0:0:60:Kick.wav
192,192,50737,1,0,0:0:0:0:
320,192,50821,1,0,0:0:0:0:
64,192,50905,1,0,0:0:0:60:Kick.wav
192,192,51072,128,0,51240:0:0:0:60:Kick.wav
448,192,51072,1,0,0:0:0:0:
448,192,51324,1,0,0:0:0:0:
64,192,51408,1,0,0:0:0:60:Kick.wav
320,192,51408,1,0,0:0:0:0:
192,192,51575,128,0,51743:0:0:0:60:Kick.wav
64,192,51743,1,0,0:0:0:60:Clap.wav
448,192,51743,1,0,0:0:0:0:
320,192,51910,1,0,0:0:0:60:Kick.wav
192,192,51994,1,0,0:0:0:60:Kick.wav
64,192,52078,1,0,0:0:0:60:Kick.wav
448,192,52078,1,0,0:0:0:0:
320,192,52162,1,0,0:0:0:0:
192,192,52246,1,0,0:0:0:60:Kick.wav
64,192,52413,1,0,0:0:0:60:soft-hitfinish2.wav
448,192,52413,1,0,0:0:0:60:Clap.wav
320,192,52497,1,0,0:0:0:60:Kick.wav
320,192,52665,1,0,0:0:0:60:Kick.wav
64,192,52748,1,0,0:0:0:60:Kick.wav
192,192,52748,1,0,0:0:0:0:
448,192,52916,1,0,0:0:0:60:Kick.wav
64,192,53084,1,0,0:0:0:60:soft-hitfinish2.wav
448,192,53084,1,0,0:0:0:60:Clap.wav
192,192,53167,1,0,0:0:0:60:Kick.wav
192,192,53335,1,0,0:0:0:60:Kick.wav
320,192,53419,1,0,0:0:0:60:Kick.wav
448,192,53419,1,0,0:0:0:0:
192,192,53586,1,0,0:0:0:60:Kick.wav
64,192,53754,1,0,0:0:0:60:Clap.wav
448,192,53754,1,0,0:0:0:0:
64,192,53922,1,0,0:0:0:60:Clap.wav
448,192,53922,1,0,0:0:0:0:
320,192,54089,128,0,54173:0:0:0:60:Kick.wav
192,192,54257,128,0,54341:0:0:0:60:Kick.wav
320,192,54424,1,0,0:0:0:60:Clap.wav
448,192,54424,1,0,0:0:0:0:
192,192,54508,1,0,0:0:0:60:Clap.wav
448,192,54592,1,0,0:0:0:60:Clap.wav
64,192,54676,1,0,0:0:0:60:Clap.wav
320,192,54760,1,0,0:0:0:60:Clap.wav
448,192,54760,1,0,0:0:0:0:
64,192,54843,1,0,0:0:0:60:Clap.wav
320,192,54927,1,0,0:0:0:60:Clap.wav
192,192,55011,1,0,0:0:0:60:Clap.wav
64,192,55095,1,0,0:0:0:60:Clap.wav
448,192,55095,128,0,56431:0:0:0:60:soft-hitfinish2.wav
192,192,56431,128,0,57731:0:0:0:0:
320,192,57731,128,0,58990:0:0:0:0:
64,192,58990,128,0,59913:0:0:0:0:
448,192,59913,128,0,60221:0:0:0:0:
64,192,60221,1,0,0:0:0:60:soft-hitfinish2.wav
192,192,60221,1,0,0:0:0:60:Clap.wav
192,192,60451,1,0,0:0:0:0:
192,192,60682,1,0,0:0:0:0:
320,192,60836,1,0,0:0:0:60:soft-hitfinish2.wav
448,192,60836,1,0,0:0:0:60:Clap.wav
448,192,60990,1,0,0:0:0:0:
448,192,61144,1,0,0:0:0:0:
448,192,61297,1,0,0:0:0:0:
64,192,61451,1,0,0:0:0:60:soft-hitfinish2.wav
192,192,61451,1,0,0:0:0:60:Clap.wav
192,192,61682,1,0,0:0:0:0:
192,192,61913,1,0,0:0:0:0:
320,192,62067,1,0,0:0:0:60:soft-hitfinish2.wav
448,192,62067,1,0,0:0:0:60:Clap.wav
320,192,62221,1,0,0:0:0:0:
320,192,62374,1,0,0:0:0:0:
320,192,62528,1,0,0:0:0:0:
64,192,62682,1,0,0:0:0:60:soft-hitfinish2.wav
448,192,62682,1,0,0:0:0:60:Clap.wav
192,192,62759,1,0,0:0:0:0:
320,192,62836,1,0,0:0:0:0:
448,192,62913,1,0,0:0:0:0:
64,192,62990,1,0,0:0:0:60:soft-hitfinish2.wav
192,192,63067,1,0,0:0:0:0:
320,192,63144,1,0,0:0:0:0:
448,192,63221,1,0,0:0:0:0:
192,192,63297,1,0,0:0:0:60:soft-hitfinish2.wav
64,192,63374,1,0,0:0:0:0:
448,192,63451,1,0,0:0:0:0:
320,192,63528,1,0,0:0:0:0:
192,192,63605,1,0,0:0:0:60:soft-hitfinish2.wav
64,192,63682,1,0,0:0:0:0:
448,192,63759,1,0,0:0:0:0:
192,192,63836,1,0,0:0:0:0:
64,192,63913,1,0,0:0:0:0:
320,192,64067,1,0,0:0:0:0:
320,192,64374,1,0,0:0:0:0:
64,192,64528,128,0,64682:0:0:0:0:
448,192,64836,128,0,65152:0:0:0:0:
64,192,65152,1,0,0:0:0:60:soft-hitfinish2.wav
320,192,65152,1,0,0:0:0:60:Clap.wav
192,192,65305,1,0,0:0:0:0:
320,192,65459,1,0,0:0:0:60:Kick.wav
448,192,65459,1,0,0:0:0:0:
64,192,65613,1,0,0:0:0:0:
192,192,65767,1,0,0:0:0:60:Kick.wav
320,192,65767,1,0,0:0:0:0:
448,192,65921,1,0,0:0:0:0:
64,192,66075,1,0,0:0:0:60:Kick.wav
192,192,66075,1,0,0:0:0:0:
320,192,66228,1,0,0:0:0:0:
64,192,66382,1,0,0:0:0:60:Kick.wav
448,192,66382,1,0,0:0:0:0:
192,192,66536,1,0,0:0:0:0:
64,192,66690,1,0,0:0:0:60:Kick.wav
320,192,66690,1,0,0:0:0:0:
448,192,66844,1,0,0:0:0:0:
64,192,66998,1,0,0:0:0:60:Kick.wav
192,192,66998,1,0,0:0:0:0:
448,192,67152,1,0,0:0:0:0:
192,192,67305,1,0,0:0:0:60:Kick.wav
320,192,67305,1,0,0:0:0:0:
64,192,67459,1,0,0:0:0:60:Kick.wav
448,192,67459,1,0,0:0:0:0:
192,192,67613,1,0,0:0:0:60:Kick.wav
320,192,67613,1,0,0:0:0:0:
64,192,67767,1,0,0:0:0:0:
320,192,67921,1,0,0:0:0:60:Kick.wav
448,192,67921,1,0,0:0:0:0:
192,192,68075,1,0,0:0:0:0:
64,192,68228,1,0,0:0:0:60:Kick.wav
448,192,68228,1,0,0:0:0:0:
320,192,68382,1,0,0:0:0:0:
192,192,68536,1,0,0:0:0:60:Kick.wav
448,192,68536,1,0,0:0:0:0:
320,192,68690,1,0,0:0:0:0:
64,192,68844,1,0,0:0:0:60:Kick.wav
192,192,68844,1,0,0:0:0:0:
192,192,68998,1,0,0:0:0:60:Kick.wav
320,192,68998,1,0,0:0:0:0:
64,192,69152,1,0,0:0:0:60:Kick.wav
448,192,69152,1,0,0:0:0:0:
192,192,69305,1,0,0:0:0:0:
320,192,69459,1,0,0:0:0:60:Kick.wav
448,192,69459,1,0,0:0:0:0:
64,192,69536,1,0,0:0:0:60:Kick.wav
448,192,69613,1,0,0:0:0:60:Kick.wav
320,192,69690,1,0,0:0:0:60:Kick.wav
64,192,69767,1,0,0:0:0:60:Kick.wav
192,192,69767,1,0,0:0:0:0:
320,192,69921,1,0,0:0:0:60:Kick.wav
448,192,69921,1,0,0:0:0:0:
64,192,70075,1,0,0:0:0:60:Kick.wav
192,192,70075,1,0,0:0:0:0:
320,192,70228,1,0,0:0:0:0:
64,192,70382,1,0,0:0:0:60:Kick.wav
448,192,70382,1,0,0:0:0:0:
192,192,70536,1,0,0:0:0:0:
64,192,70690,1,0,0:0:0:60:Kick.wav
320,192,70690,1,0,0:0:0:0:
448,192,70844,1,0,0:0:0:0:
192,192,70998,1,0,0:0:0:60:Kick.wav
320,192,70998,1,0,0:0:0:0:
64,192,71152,1,0,0:0:0:60:Kick.wav
448,192,71152,1,0,0:0:0:0:
192,192,71305,1,0,0:0:0:60:Kick.wav
320,192,71305,128,0,71613:0:0:0:0:
64,192,71613,1,0,0:0:0:60:Kick.wav
448,192,71613,1,0,0:0:0:0:
192,192,71767,1,0,0:0:0:0:
320,192,71921,1,0,0:0:0:60:Kick.wav
448,192,71921,1,0,0:0:0:0:
192,192,72075,1,0,0:0:0:0:
64,192,72228,1,0,0:0:0:60:Kick.wav
448,192,72228,1,0,0:0:0:0:
192,192,72382,1,0,0:0:0:60:Kick.wav
320,192,72382,1,0,0:0:0:0:
64,192,72536,128,0,72844:0:0:0:60:Kick.wav
448,192,72536,1,0,0:0:0:0:
320,192,72844,1,0,0:0:0:60:Kick.wav
448,192,72844,1,0,0:0:0:0:
192,192,72998,1,0,0:0:0:0:
64,192,73152,1,0,0:0:0:60:Kick.wav
320,192,73152,1,0,0:0:0:0:
448,192,73305,1,0,0:0:0:0:
64,192,73459,1,0,0:0:0:60:Kick.wav
192,192,73459,1,0,0:0:0:0:
448,192,73613,1,0,0:0:0:60:Kick.wav
320,192,73690,1,0,0:0:0:60:Kick.wav
192,192,73767,1,0,0:0:0:60:Kick.wav
64,192,73921,1,0,0:0:0:60:Kick.wav
192,192,73998,1,0,0:0:0:60:Kick.wav
320,192,74075,1,0,0:0:0:60:Kick.wav
448,192,74228,1,0,0:0:0:60:Kick.wav
320,192,74305,1,0,0:0:0:60:Kick.wav
64,192,74382,1,0,0:0:0:60:Kick.wav
192,192,74536,1,0,0:0:0:60:Kick.wav
64,192,74690,1,0,0:0:0:60:soft-hitfinish2.wav
448,192,74690,1,0,0:0:0:60:Kick.wav
192,192,74844,1,0,0:0:0:0:
320,192,74998,1,0,0:0:0:0:
64,192,75203,1,0,0:0:0:0:
192,192,75305,1,0,0:0:0:60:soft-hitfinish2.wav
448,192,75305,1,0,0:0:0:60:Clap.wav
320,192,75613,1,0,0:0:0:60:Kick.wav
448,192,75613,1,0,0:0:0:0:
192,192,75716,1,0,0:0:0:0:
64,192,75818,1,0,0:0:0:0:
320,192,75921,1,0,0:0:0:60:Kick.wav
448,192,75921,1,0,0:0:0:0:
64,192,76023,1,0,0:0:0:0:
320,192,76228,1,0,0:0:0:60:Kick.wav
448,192,76228,1,0,0:0:0:0:
64,192,76434,1,0,0:0:0:0:
192,192,76536,1,0,0:0:0:60:Kick.wav
448,192,76536,1,0,0:0:0:0:
320,192,76639,1,0,0:0:0:0:
64,192,76844,1,0,0:0:0:0:
192,192,76946,1,0,0:0:0:0:
448,192,77049,1,0,0:0:0:0:
320,192,77152,128,0,77459:0:0:0:0:
64,192,77459,1,0,0:0:0:60:Kick.wav
192,192,77459,1,0,0:0:0:0:
448,192,77562,1,0,0:0:0:0:
192,192,77664,1,0,0:0:0:0:
64,192,77767,1,0,0:0:0:60:Kick.wav
320,192,77767,1,0,0:0:0:0:
448,192,77869,1,0,0:0:0:0:
64,192,78075,1,0,0:0:0:60:Kick.wav
192,192,78075,1,0,0:0:0:0:
448,192,78177,1,0,0:0:0:0:
320,192,78280,1,0,0:0:0:0:
64,192,78382,1,0,0:0:0:60:Kick.wav
192,192,78382,1,0,0:0:0:0:
448,192,78485,1,0,0:0:0:0:
192,192,78587,1,0,0:0:0:60:Kick.wav
64,192,78690,1,0,0:0:0:60:Kick.wav
448,192,78690,1,0,0:0:0:0:
320,192,78793,1,0,0:0:0:0:
192,192,78895,1,0,0:0:0:60:Kick.wav
64,192,78998,1,0,0:0:0:60:Kick.wav
448,192,78998,1,0,0:0:0:0:
320,192,79100,1,0,0:0:0:0:
64,192,79203,1,0,0:0:0:60:Kick.wav
448,192,79305,1,0,0:0:0:0:
320,192,79408,1,0,0:0:0:0:
192,192,79510,1,0,0:0:0:0:
64,192,79613,128,0,79921:0:0:0:0:
192,192,79921,1,0,0:0:0:60:soft-hitfinish2.wav
448,192,79921,1,0,0:0:0:60:Clap.wav
320,192,80075,1,0,0:0:0:60:Kick.wav
192,192,80152,1,0,0:0:0:60:Kick.wav
64,192,80228,1,0,0:0:0:60:Kick.wav
448,192,80228,1,0,0:0:0:0:
448,192,80459,1,0,0:0:0:0:
320,192,80536,1,0,0:0:0:60:Kick.wav
64,192,80613,1,0,0:0:0:0:
192,192,80690,1,0,0:0:0:0:
192,192,80844,128,0,81152:0:0:0:60:Kick.wav
448,192,80844,128,0,81152:0:0:0:0:
64,192,81152,1,0,0:0:0:60:Kick.wav
320,192,81152,1,0,0:0:0:0:
192,192,81382,1,0,0:0:0:0:
320,192,81459,1,0,0:0:0:60:Kick.wav
448,192,81459,1,0,0:0:0:0:
64,192,81613,1,0,0:0:0:0:
192,192,81767,1,0,0:0:0:60:Kick.wav
448,192,81767,1,0,0:0:0:0:
192,192,81921,1,0,0:0:0:60:Kick.wav
320,192,81921,1,0,0:0:0:0:
64,192,82075,128,0,82382:0:0:0:60:Kick.wav
320,192,82075,128,0,82382:0:0:0:0:
192,192,82382,1,0,0:0:0:60:Kick.wav
448,192,82382,1,0,0:0:0:0:
320,192,82536,128,0,82690:0:0:0:60:Kick.wav
64,192,82690,1,0,0:0:0:60:Kick.wav
448,192,82690,1,0,0:0:0:0:
192,192,82844,128,0,82998:0:0:0:60:Kick.wav
320,192,82998,1,0,0:0:0:60:Kick.wav
448,192,82998,1,0,0:0:0:0:
64,192,83152,128,0,83305:0:0:0:60:Kick.wav
192,192,83305,1,0,0:0:0:60:Kick.wav
448,192,83305,1,0,0:0:0:0:
320,192,83459,128,0,83613:0:0:0:60:Kick.wav
64,192,83613,1,0,0:0:0:60:Kick.wav
192,192,83613,1,0,0:0:0:0:
320,192,83818,1,0,0:0:0:60:Kick.wav
448,192,83818,1,0,0:0:0:0:
64,192,84023,1,0,0:0:0:60:Kick.wav
192,192,84023,1,0,0:0:0:0:
320,192,84228,1,0,0:0:0:60:Kick.wav
448,192,84228,1,0,0:0:0:0:
64,192,84434,1,0,0:0:0:60:Kick.wav
192,192,84434,1,0,0:0:0:0:
320,192,84639,1,0,0:0:0:60:Kick.wav
448,192,84639,1,0,0:0:0:0:
192,192,84844,1,0,0:0:0:60:Clap.wav
64,192,84844,128,0,86895:0:0:0:60:soft-hitfinish2.wav
448,192,86895,1,0,0:0:0:60:Kick.wav
320,192,86980,1,0,0:0:0:60:Kick.wav
64,192,87066,1,0,0:0:0:60:Kick.wav
192,192,87151,1,0,0:0:0:60:Kick.wav
448,192,87237,1,0,0:0:0:60:Kick.wav
320,192,87322,1,0,0:0:0:60:Kick.wav
192,192,87408,1,0,0:0:0:60:Kick.wav
64,192,87493,1,0,0:0:0:60:Kick.wav
320,192,87579,1,0,0:0:0:60:Kick.wav
448,192,87664,1,0,0:0:0:60:Kick.wav
192,192,87749,1,0,0:0:0:60:Kick.wav
64,192,87835,1,0,0:0:0:60:Kick.wav
320,192,87920,1,0,0:0:0:60:Kick.wav
448,192,88006,1,0,0:0:0:60:Kick.wav
64,192,88091,1,0,0:0:0:60:Kick.wav
192,192,88177,1,0,0:0:0:60:Kick.wav
448,192,88262,1,0,0:0:0:60:Kick.wav
320,192,88348,1,0,0:0:0:60:Kick.wav
64,192,88433,128,0,88946:0:0:0:0:
320,192,88946,1,0,0:0:0:60:Kick.wav
448,192,88946,1,0,0:0:0:0:
64,192,89074,1,0,0:0:0:60:Kick.wav
192,192,89074,1,0,0:0:0:0:
64,192,89331,1,0,0:0:0:60:Kick.wav
192,192,89331,1,0,0:0:0:0:
320,192,89459,1,0,0:0:0:60:Kick.wav
448,192,89459,1,0,0:0:0:0:
320,192,89715,1,0,0:0:0:60:Kick.wav
448,192,89715,1,0,0:0:0:0:
64,192,89843,1,0,0:0:0:60:Kick.wav
192,192,89843,1,0,0:0:0:0:
64,192,90100,1,0,0:0:0:60:Kick.wav
192,192,90100,1,0,0:0:0:0:
320,192,90228,1,0,0:0:0:60:Kick.wav
448,192,90228,1,0,0:0:0:0:
64,192,90485,1,0,0:0:0:60:Kick.wav
192,192,90485,128,0,90741:0:0:0:0:
320,192,90741,128,0,90997:0:0:0:60:Kick.wav
448,192,90741,1,0,0:0:0:0:
64,192,90997,1,0,0:0:0:60:Kick.wav
192,192,90997,1,0,0:0:0:0:
320,192,91126,1,0,0:0:0:60:Kick.wav
448,192,91126,1,0,0:0:0:0:
64,192,91254,1,0,0:0:0:60:Kick.wav
192,192,91254,1,0,0:0:0:0:
320,192,91382,1,0,0:0:0:60:Kick.wav
448,192,91382,1,0,0:0:0:0:
64,192,91638,1,0,0:0:0:60:Kick.wav
192,192,91638,1,0,0:0:0:0:
320,192,91767,1,0,0:0:0:60:Kick.wav
448,192,91767,1,0,0:0:0:0:
64,192,91895,1,0,0:0:0:60:Kick.wav
192,192,91895,1,0,0:0:0:0:
320,192,92151,1,0,0:0:0:60:Kick.wav
448,192,92151,1,0,0:0:0:0:
64,192,92279,1,0,0:0:0:60:Kick.wav
192,192,92279,1,0,0:0:0:0:
320,192,92408,1,0,0:0:0:60:Kick.wav
448,192,92408,1,0,0:0:0:0:
64,192,92536,128,0,92792:0:0:0:0:
320,192,92792,1,0,0:0:0:0:
448,192,92792,128,0,93049:0:0:0:0:
64,192,93049,1,0,0:0:0:60:soft-hitfinish2.wav
192,192,93049,1,0,0:0:0:60:Kick.wav
320,192,93177,1,0,0:0:0:0:
64,192,93305,1,0,0:0:0:60:Kick.wav
448,192,93305,1,0,0:0:0:0:
192,192,93433,1,0,0:0:0:0:
320,192,93561,1,0,0:0:0:60:Kick.wav
448,192,93561,1,0,0:0:0:0:
64,192,93690,1,0,0:0:0:0:
192,192,93818,1,0,0:0:0:60:Kick.wav
448,192,93818,1,0,0:0:0:0:
320,192,93946,1,0,0:0:0:0:
64,192,94074,1,0,0:0:0:60:Kick.wav
192,192,94074,1,0,0:0:0:0:
448,192,94202,1,0,0:0:0:0:
192,192,94331,1,0,0:0:0:60:Kick.wav
320,192,94331,1,0,0:0:0:0:
64,192,94459,1,0,0:0:0:0:
320,192,94587,1,0,0:0:0:60:Kick.wav
448,192,94587,1,0,0:0:0:0:
192,192,94715,1,0,0:0:0:0:
64,192,94843,1,0,0:0:0:60:Kick.wav
448,192,94843,1,0,0:0:0:0:
320,192,94908,1,0,0:0:0:60:Kick.wav
192,192,94972,1,0,0:0:0:60:Kick.wav
64,192,95036,1,0,0:0:0:60:Kick.wav
320,192,95100,1,0,0:0:0:60:soft-hitfinish2.wav
448,192,95100,1,0,0:0:0:60:Kick.wav
192,192,95228,1,0,0:0:0:0:
64,192,95356,1,0,0:0:0:60:Kick.wav
448,192,95356,1,0,0:0:0:0:
320,192,95485,1,0,0:0:0:0:
64,192,95613,1,0,0:0:0:60:Kick.wav
192,192,95613,1,0,0:0:0:0:
320,192,95741,1,0,0:0:0:0:
64,192,95869,1,0,0:0:0:60:Kick.wav
448,192,95869,1,0,0:0:0:0:
192,192,95997,1,0,0:0:0:0:
320,192,96126,1,0,0:0:0:60:Kick.wav
448,192,96126,1,0,0:0:0:0:
64,192,96254,1,0,0:0:0:0:
192,192,96382,1,0,0:0:0:60:Kick.wav
320,192,96382,1,0,0:0:0:0:
448,192,96510,1,0,0:0:0:0:
64,192,96638,1,0,0:0:0:60:Kick.wav
192,192,96638,1,0,0:0:0:0:
320,192,96767,1,0,0:0:0:60:Kick.wav
192,192,96831,1,0,0:0:0:60:Kick.wav
64,192,96895,1,0,0:0:0:60:Kick.wav
448,192,96895,1,0,0:0:0:0:
320,192,97023,1,0,0:0:0:60:Kick.wav
448,192,97023,1,0,0:0:0:0:
64,192,97151,1,0,0:0:0:60:soft-hitfinish2.wav
192,192,97151,1,0,0:0:0:60:Kick.wav
320,192,97279,1,0,0:0:0:0:
64,192,97408,1,0,0:0:0:60:Kick.wav
448,192,97408,1,0,0:0:0:0:
192,192,97536,1,0,0:0:0:0:
320,192,97664,1,0,0:0:0:60:Kick.wav
448,192,97664,1,0,0:0:0:0:
64,192,97792,1,0,0:0:0:0:
192,192,97920,1,0,0:0:0:60:Kick.wav
320,192,97920,1,0,0:0:0:0:
448,192,98049,1,0,0:0:0:0:
64,192,98177,1,0,0:0:0:60:Kick.wav
192,192,98177,1,0,0:0:0:0:
320,192,98305,1,0,0:0:0:0:
64,192,98433,1,0,0:0:0:60:Kick.wav
448,192,98433,1,0,0:0:0:0:
192,192,98561,1,0,0:0:0:0:
320,192,98690,1,0,0:0:0:60:Kick.wav
448,192,98690,1,0,0:0:0:0:
192,192,98818,1,0,0:0:0:0:
64,192,98946,1,0,0:0:0:60:Kick.wav
448,192,98946,1,0,0:0:0:0:
320,192,99010,1,0,0:0:0:60:Kick.wav
64,192,99074,1,0,0:0:0:60:Kick.wav
192,192,99138,1,0,0:0:0:60:Kick.wav
448,192,99202,1,0,0:0:0:60:Kick.wav
320,192,99267,1,0,0:0:0:60:Kick.wav
192,192,99331,1,0,0:0:0:0:
448,192,99395,1,0,0:0:0:0:
64,192,99459,128,0,99715:0:0:0:0:
320,192,99715,1,0,0:0:0:60:Kick.wav
448,192,99715,1,0,0:0:0:0:
192,192,99779,1,0,0:0:0:60:Kick.wav
64,192,99843,1,0,0:0:0:60:Kick.wav
320,192,99908,1,0,0:0:0:60:Kick.wav
448,192,99972,128,0,100228:0:0:0:0:
64,192,100228,1,0,0:0:0:60:Kick.wav
192,192,100228,1,0,0:0:0:0:
320,192,100292,1,0,0:0:0:60:Kick.wav
448,192,100356,1,0,0:0:0:60:Kick.wav
64,192,100420,1,0,0:0:0:60:Kick.wav
192,192,100485,1,0,0:0:0:60:Kick.wav
448,192,100549,1,0,0:0:0:60:Kick.wav
320,192,100613,1,0,0:0:0:60:Kick.wav
192,192,100677,1,0,0:0:0:60:Kick.wav
64,192,100741,1,0,0:0:0:60:Kick.wav
320,192,100869,1,0,0:0:0:60:Kick.wav
448,192,100869,1,0,0:0:0:0:
192,192,100997,128,0,101254:0:0:0:0:
64,192,101254,1,0,0:0:0:60:soft-hitfinish2.wav
448,192,101254,1,0,0:0:0:60:Clap.wav
320,192,101382,1,0,0:0:0:0:
64,192,101510,1,0,0:0:0:60:Kick.wav
192,192,101510,1,0,0:0:0:0:
448,192,101638,1,0,0:0:0:60:Kick.wav
192,192,101767,1,0,0:0:0:60:Kick.wav
320,192,101767,1,0,0:0:0:0:
64,192,101895,1,0,0:0:0:60:Kick.wav
320,192,102023,1,0,0:0:0:60:Kick.wav
448,192,102023,1,0,0:0:0:0:
192,192,102151,1,0,0:0:0:60:Kick.wav
64,192,102279,1,0,0:0:0:60:Kick.wav
448,192,102279,1,0,0:0:0:0:
320,192,102408,1,0,0:0:0:60:Kick.wav
192,192,102536,1,0,0:0:0:60:Kick.wav
448,192,102536,1,0,0:0:0:0:
320,192,102664,1,0,0:0:0:60:Kick.wav
64,192,102792,128,0,103049:0:0:0:0:
320,192,103049,1,0,0:0:0:60:Kick.wav
448,192,103049,128,0,103305:0:0:0:0:
64,192,103305,1,0,0:0:0:60:soft-hitfinish2.wav
192,192,103305,1,0,0:0:0:60:Clap.wav
448,192,103433,1,0,0:0:0:0:
192,192,103561,1,0,0:0:0:60:Kick.wav
320,192,103561,1,0,0:0:0:0:
64,192,103690,1,0,0:0:0:60:Kick.wav
320,192,103818,1,0,0:0:0:60:Kick.wav
448,192,103818,1,0,0:0:0:0:
192,192,103946,1,0,0:0:0:60:Kick.wav
64,192,104074,1,0,0:0:0:60:Kick.wav
448,192,104074,1,0,0:0:0:0:
320,192,104202,1,0,0:0:0:60:Kick.wav
64,192,104331,1,0,0:0:0:60:Kick.wav
192,192,104331,1,0,0:0:0:0:
320,192,104459,1,0,0:0:0:60:Kick.wav
192,192,104587,1,0,0:0:0:60:Kick.wav
448,192,104587,1,0,0:0:0:0:
64,192,104715,1,0,0:0:0:60:Kick.wav
320,192,104843,1,0,0:0:0:60:Kick.wav
448,192,104843,1,0,0:0:0:0:
64,192,104908,1,0,0:0:0:60:Kick.wav
192,192,104972,1,0,0:0:0:60:Kick.wav
320,192,105036,1,0,0:0:0:60:Kick.wav
64,192,105100,1,0,0:0:0:60:Kick.wav
448,192,105100,1,0,0:0:0:0:
192,192,105356,1,0,0:0:0:60:soft-hitfinish2.wav
320,192,105356,1,0,0:0:0:60:Clap.wav
448,192,105485,1,0,0:0:0:0:
64,192,105613,1,0,0:0:0:60:Kick.wav
192,192,105613,1,0,0:0:0:0:
448,192,105741,1,0,0:0:0:60:Kick.wav
192,192,105869,1,0,0:0:0:60:Kick.wav
320,192,105869,1,0,0:0:0:0:
64,192,105997,1,0,0:0:0:60:Kick.wav
320,192,106126,1,0,0:0:0:60:Kick.wav
448,192,106126,1,0,0:0:0:0:
192,192,106254,1,0,0:0:0:60:Kick.wav
64,192,106382,1,0,0:0:0:60:Kick.wav
448,192,106382,1,0,0:0:0:0:
320,192,106510,1,0,0:0:0:60:Kick.wav
64,192,106638,1,0,0:0:0:60:Kick.wav
192,192,106638,1,0,0:0:0:0:
448,192,106767,1,0,0:0:0:60:Kick.wav
320,192,106895,128,0,107151:0:0:0:0:
64,192,107151,1,0,0:0:0:60:Kick.wav
192,192,107151,1,0,0:0:0:0:
320,192,107279,1,0,0:0:0:60:Kick.wav
448,192,107279,1,0,0:0:0:0:
64,192,107408,1,0,0:0:0:60:Kick.wav
192,192,107408,1,0,0:0:0:0:
320,192,107472,1,0,0:0:0:60:Kick.wav
448,192,107536,1,0,0:0:0:60:Kick.wav
192,192,107600,1,0,0:0:0:60:Kick.wav
320,192,107664,1,0,0:0:0:60:Kick.wav
64,192,107728,1,0,0:0:0:60:Kick.wav
192,192,107792,1,0,0:0:0:60:Kick.wav
448,192,107856,1,0,0:0:0:60:Kick.wav
320,192,107920,1,0,0:0:0:60:Kick.wav
192,192,107985,1,0,0:0:0:60:Kick.wav
64,192,108049,1,0,0:0:0:60:Kick.wav
320,192,108113,1,0,0:0:0:60:Kick.wav
192,192,108177,1,0,0:0:0:60:Kick.wav
448,192,108241,1,0,0:0:0:60:Kick.wav
320,192,108305,1,0,0:0:0:60:Kick.wav
192,192,108369,1,0,0:0:0:60:Kick.wav
448,192,108433,1,0,0:0:0:60:Kick.wav
320,192,108497,1,0,0:0:0:0:
64,192,108561,1,0,0:0:0:0:
192,192,108626,1,0,0:0:0:0:
320,192,108690,128,0,108946:0:0:0:0:
64,192,108946,128,0,109202:0:0:0:0:
320,192,109202,1,0,0:0:0:60:Clap.wav
448,192,109202,1,0,0:0:0:0:
64,192,109459,1,0,0:0:0:60:Clap.wav
192,192,109459,1,0,0:0:0:0:
320,192,109587,1,0,0:0:0:60:Clap.wav
448,192,109587,1,0,0:0:0:0:
64,192,109843,1,0,0:0:0:60:Clap.wav
192,192,109908,1,0,0:0:0:60:Clap.wav
320,192,109972,1,0,0:0:0:60:Clap.wav
448,192,109972,1,0,0:0:0:0:
64,192,110100,1,0,0:0:0:60:Clap.wav
192,192,110100,1,0,0:0:0:0:
320,192,110356,1,0,0:0:0:60:Clap.wav
448,192,110356,1,0,0:0:0:0:
64,192,110485,1,0,0:0:0:60:Clap.wav
192,192,110485,1,0,0:0:0:0:
448,192,110613,1,0,0:0:0:60:Clap.wav
192,192,110677,1,0,0:0:0:60:Clap.wav
64,192,110741,1,0,0:0:0:60:Clap.wav
320,192,110869,1,0,0:0:0:60:Clap.wav
448,192,110869,1,0,0:0:0:0:
64,192,110997,1,0,0:0:0:60:Clap.wav
192,192,110997,1,0,0:0:0:0:
192,192,111190,1,0,0:0:0:60:Clap.wav
320,192,111190,1,0,0:0:0:0:
320,192,111382,1,0,0:0:0:60:Clap.wav
448,192,111382,1,0,0:0:0:0:
64,192,111638,1,0,0:0:0:60:Clap.wav
192,192,111638,1,0,0:0:0:0:
448,192,111895,1,0,0:0:0:60:Clap.wav
64,192,111959,1,0,0:0:0:60:Clap.wav
320,192,112023,1,0,0:0:0:60:Clap.wav
64,192,112151,1,0,0:0:0:60:Clap.wav
448,192,112151,1,0,0:0:0:0:
192,192,112408,1,0,0:0:0:60:Clap.wav
320,192,112408,1,0,0:0:0:0:
64,192,112536,1,0,0:0:0:60:Clap.wav
448,192,112536,1,0,0:0:0:0:
192,192,112664,1,0,0:0:0:60:Clap.wav
320,192,112664,1,0,0:0:0:0:
64,192,112792,1,0,0:0:0:60:Clap.wav
448,192,112792,1,0,0:0:0:0:
192,192,112920,1,0,0:0:0:60:Clap.wav
320,192,112920,1,0,0:0:0:0:
64,192,113049,1,0,0:0:0:60:Clap.wav
448,192,113049,1,0,0:0:0:0:
192,192,113305,1,0,0:0:0:0:
320,192,113305,128,0,113561:0:0:0:0:
64,192,113561,1,0,0:0:0:60:Clap.wav
448,192,113561,1,0,0:0:0:0:
192,192,113690,1,0,0:0:0:60:Clap.wav
320,192,113690,1,0,0:0:0:0:
64,192,113946,1,0,0:0:0:60:Clap.wav
448,192,114010,1,0,0:0:0:60:Clap.wav
192,192,114074,1,0,0:0:0:60:Clap.wav
320,192,114202,1,0,0:0:0:60:Clap.wav
448,192,114202,1,0,0:0:0:0:
64,192,114459,1,0,0:0:0:60:Clap.wav
192,192,114459,1,0,0:0:0:0:
320,192,114587,1,0,0:0:0:60:Clap.wav
448,192,114587,1,0,0:0:0:0:
64,192,114715,1,0,0:0:0:60:Clap.wav
192,192,114779,1,0,0:0:0:60:Clap.wav
320,192,114843,1,0,0:0:0:60:Clap.wav
448,192,114843,1,0,0:0:0:0:
64,192,114972,1,0,0:0:0:60:Clap.wav
192,192,114972,1,0,0:0:0:0:
320,192,115100,1,0,0:0:0:60:Clap.wav
448,192,115100,1,0,0:0:0:0:
192,192,115292,1,0,0:0:0:60:Clap.wav
320,192,115292,1,0,0:0:0:0:
64,192,115485,1,0,0:0:0:60:Clap.wav
192,192,115485,1,0,0:0:0:0:
448,192,115613,128,0,115869:0:0:0:0:
64,192,115869,1,0,0:0:0:60:Kick.wav
192,192,115933,1,0,0:0:0:0:
448,192,115997,1,0,0:0:0:0:
320,192,116061,1,0,0:0:0:0:
64,192,116126,1,0,0:0:0:60:Clap.wav
192,192,116126,1,0,0:0:0:0:
320,192,116254,1,0,0:0:0:60:Clap.wav
448,192,116254,1,0,0:0:0:0:
192,192,116382,1,0,0:0:0:60:Kick.wav
64,192,116638,1,0,0:0:0:60:Clap.wav
192,192,116702,1,0,0:0:0:60:Clap.wav
448,192,116767,1,0,0:0:0:60:Clap.wav
320,192,116831,1,0,0:0:0:60:Clap.wav
64,192,116895,1,0,0:0:0:60:Clap.wav
192,192,116959,1,0,0:0:0:60:Clap.wav
448,192,117023,1,0,0:0:0:60:Clap.wav
320,192,117087,1,0,0:0:0:60:Clap.wav
64,192,117151,1,0,0:0:0:60:Clap.wav
192,192,117215,1,0,0:0:0:60:Clap.wav
448,192,117279,1,0,0:0:0:60:Clap.wav
320,192,117343,1,0,0:0:0:60:Clap.wav
64,192,117408,1,0,0:0:0:60:Clap.wav
192,192,117472,1,0,0:0:0:60:Clap.wav
448,192,117536,1,0,0:0:0:60:Clap.wav
320,192,117600,1,0,0:0:0:60:Clap.wav
64,192,117664,128,0,120741:0:0:0:60:Clap.wav
192,192,117664,1,0,0:0:0:60:soft-hitfinish2.wav
