osu file format v14

[General]
AudioFilename: audio.mp3
AudioLeadIn: 0
PreviewTime: 54615
Countdown: 0
SampleSet: Soft
StackLeniency: 0.7
Mode: 3
LetterboxInBreaks: 0
SpecialStyle: 0
WidescreenStoryboard: 1

[Editor]
DistanceSpacing: 1.1
BeatDivisor: 4
GridSize: 16
TimelineZoom: 0.8999999

[Metadata]
Title:White Canvas (feat. Aitsuki Nakuru) (osu! edit)
TitleUnicode:White Canvas (feat. 藍月なくる) (osu! edit)
Artist:rejection
ArtistUnicode:rejection
Creator:Syrion-
Version:byad's Easy
Source:
Tags:by-ad ilham virtue- drum-hitnomal dudehacker fa featured artist japanese pop jpop j-pop electronic MRX-074 encore Emotional Vocal Pop 02 M3-2020秋 fall M3-46 muse dash MEGAREX THE FUTURE
BeatmapID:3872758
BeatmapSetID:1881077

[Difficulty]
HPDrainRate:6.5
CircleSize:5
OverallDifficulty:6.5
ApproachRate:5
SliderMultiplier:1.4
SliderTickRate:1

[Events]
//Background and Video events
0,0,"d4de770771ac8bb38cede9cb99d8e91cf390c3f2_s2_n2.jpg",0,0
//Break Periods
//Storyboard Layer 0 (Background)
//Storyboard Layer 1 (Fail)
//Storyboard Layer 2 (Pass)
//Storyboard Layer 3 (Foreground)
//Storyboard Layer 4 (Overlay)
//Storyboard Sound Samples
Sample,49044,0,"LR_Clap Reverb.wav",70
Sample,62758,0,"Clap Hand.wav",70
Sample,76473,0,"Clap Hand.wav",70

[TimingPoints]
1473,428.571428571429,4,2,2,50,1,0
56330,-100.0,4,2,2,50,0,1
68330,-100.0,4,2,2,50,0,0
70473,-100.0,4,2,2,50,0,1
83758,-100.0,4,2,2,50,0,0

[HitObjects]
358,192,615,1,8,0:0:0:0:
153,192,937,1,8,0:0:0:0:
460,192,1258,1,2,0:0:0:0:
51,192,1473,1,2,0:0:0:0:
256,192,1473,1,4,0:0:0:0:
358,192,1687,1,0,0:0:0:0:
460,192,1901,1,8,0:0:0:0:
256,192,2330,1,2,0:0:0:0:
153,192,2544,1,0,0:0:0:0:
51,192,2758,1,8,0:0:0:0:
256,192,3187,1,2,0:0:0:0:
358,192,3401,1,0,0:0:0:0:
460,192,3615,1,8,0:0:0:0:
153,192,4044,1,2,0:0:0:0:
256,192,4258,1,0,0:0:0:0:
358,192,4473,1,8,0:0:0:0:
460,192,4901,1,2,0:0:0:0:
256,192,5115,1,0,0:0:0:0:
51,192,5330,1,8,0:0:0:0:
153,192,5758,1,2,0:0:0:0:
256,192,5973,1,0,0:0:0:0:
358,192,6187,1,8,0:0:0:0:
256,192,6615,1,2,0:0:0:0:
358,192,6830,1,0,0:0:0:0:
460,192,7044,1,8,0:0:0:0:
256,192,7473,1,2,0:0:0:0:
153,192,7687,1,0,0:0:0:70:Clap Hand.wav
51,192,7901,1,0,0:0:0:70:Clap Hand.wav
460,192,7901,1,0,0:0:0:0:
256,192,8330,1,2,0:0:0:0:
358,192,8544,1,0,0:0:0:0:
153,192,8758,1,8,0:0:0:0:
256,192,9187,1,2,0:0:0:0:
358,192,9401,1,0,0:0:0:0:
460,192,9615,1,8,0:0:0:0:
256,192,10044,1,2,0:0:0:0:
153,192,10258,1,0,0:0:0:0:
51,192,10473,1,8,0:0:0:0:
460,192,10901,1,2,0:0:0:0:
358,192,11115,1,0,0:0:0:0:
256,192,11330,1,8,0:0:0:0:
51,192,11758,1,2,0:0:0:0:
153,192,11973,1,0,0:0:0:0:
358,192,12187,1,8,0:0:0:0:
460,192,12615,1,2,0:0:0:0:
358,192,12830,1,0,0:0:0:0:
153,192,13044,1,8,0:0:0:0:
51,192,13473,1,10,0:0:0:0:
256,192,13473,1,4,0:0:0:0:
358,192,13794,1,10,0:0:0:0:
460,192,13794,1,4,0:0:0:0:
153,192,14115,1,6,0:0:0:0:
256,192,14115,1,8,0:0:0:0:
358,192,14437,1,2,0:0:0:0:
153,192,14758,1,2,0:0:0:0:
256,192,14973,1,2,0:0:0:0:
51,192,15187,1,2,0:0:0:0:
460,192,15187,1,0,0:0:0:0:
256,192,15615,1,0,0:0:0:70:LR_Snare Hit.wav
153,192,15830,1,0,0:0:0:0:
51,192,16258,1,0,0:0:0:0:
256,192,16473,1,0,0:0:0:70:LR_Snare Hit.wav
460,192,16687,1,0,0:0:0:0:
153,192,17115,1,0,0:0:0:0:
256,192,17330,1,0,0:0:0:70:LR_Snare Hit.wav
358,192,17544,1,0,0:0:0:0:
460,192,17973,1,0,0:0:0:0:
256,192,18187,1,0,0:0:0:70:LR_Snare Hit.wav
51,192,18401,1,0,0:0:0:0:
358,192,18615,1,0,0:0:0:0:
256,192,19258,1,0,0:0:0:0:
51,192,19473,1,0,0:0:0:0:
256,192,19901,1,0,0:0:0:70:LR_Snare Hit.wav
460,192,20330,1,0,0:0:0:0:
358,192,20758,1,0,0:0:0:70:LR_Snare Hit.wav
51,192,21187,1,0,0:0:0:0:
256,192,21401,1,0,0:0:0:0:
460,192,21615,1,0,0:0:0:70:LR_Snare Hit.wav
153,192,21830,1,0,0:0:0:0:
51,192,22044,1,2,0:0:0:0:
358,192,22044,1,0,0:0:0:0:
256,192,22473,1,0,0:0:0:70:LR_Snare Hit.wav
358,192,22687,1,0,0:0:0:0:
256,192,23115,1,0,0:0:0:0:
51,192,23330,1,0,0:0:0:70:LR_Snare Hit.wav
460,192,23544,1,0,0:0:0:0:
153,192,23973,1,0,0:0:0:0:
256,192,24187,1,0,0:0:0:70:LR_Snare Hit.wav
358,192,24401,1,0,0:0:0:0:
51,192,24830,1,0,0:0:0:0:
256,192,25044,1,0,0:0:0:70:LR_Snare Hit.wav
460,192,25258,1,0,0:0:0:0:
153,192,25473,1,0,0:0:0:0:
256,192,26115,1,0,0:0:0:0:
460,192,26544,1,0,0:0:0:0:
256,192,26973,1,0,0:0:0:0:
51,192,27187,1,2,0:0:0:0:
153,192,27187,1,4,0:0:0:0:
358,192,27508,1,6,0:0:0:0:
153,192,27830,1,6,0:0:0:0:
460,192,28044,1,2,0:0:0:0:
256,192,28258,1,0,0:0:0:70:LR_Snare Hit.wav
51,192,28473,1,0,0:0:0:70:LR_Snare Hit.wav
358,192,28687,1,0,0:0:0:70:LR_Snare Hit.wav
153,192,28901,1,2,0:0:0:0:
460,192,28901,1,0,0:0:0:0:
256,192,29330,1,0,0:0:0:70:LR_Snare Hit.wav
460,192,29544,1,0,0:0:0:0:
153,192,29973,1,0,0:0:0:0:
256,192,30187,1,0,0:0:0:70:LR_Snare Hit.wav
358,192,30401,1,0,0:0:0:0:
460,192,30830,1,0,0:0:0:0:
256,192,31044,1,0,0:0:0:70:LR_Snare Hit.wav
51,192,31473,1,0,0:0:0:0:
153,192,31687,1,0,0:0:0:0:
256,192,31901,1,0,0:0:0:70:LR_Snare Hit.wav
358,192,32115,1,0,0:0:0:0:
51,192,32330,1,2,0:0:0:0:
460,192,32330,1,0,0:0:0:0:
358,192,32973,1,0,0:0:0:0:
153,192,33187,1,0,0:0:0:0:
51,192,33615,1,0,0:0:0:70:LR_Snare Hit.wav
460,192,34044,1,0,0:0:0:0:
256,192,34473,1,0,0:0:0:70:LR_Snare Hit.wav
460,192,34901,1,0,0:0:0:0:
358,192,35115,1,0,0:0:0:70:Clap Hand.wav
256,192,35330,1,0,0:0:0:70:Clap Hand.wav
153,192,35544,1,0,0:0:0:0:
51,192,35758,1,2,0:0:0:0:
358,192,35758,1,0,0:0:0:0:
460,192,36187,1,0,0:0:0:70:LR_Snare Hit.wav
256,192,36401,1,0,0:0:0:0:
51,192,36830,1,0,0:0:0:0:
153,192,37044,1,0,0:0:0:70:LR_Snare Hit.wav
358,192,37258,1,0,0:0:0:0:
460,192,37687,1,0,0:0:0:0:
256,192,37901,1,0,0:0:0:70:LR_Snare Hit.wav
51,192,38115,1,0,0:0:0:0:
358,192,38330,1,0,0:0:0:0:
153,192,38758,1,0,0:0:0:70:LR_Snare Hit.wav
256,192,38973,1,0,0:0:0:0:
358,192,39187,1,2,0:0:0:0:
460,192,39187,1,0,0:0:0:0:
256,192,39830,1,0,0:0:0:0:
51,192,40044,1,0,0:0:0:0:
460,192,40687,1,0,0:0:0:0:
153,192,40901,1,2,0:0:0:0:
256,192,40901,1,4,0:0:0:0:
460,192,41223,1,6,0:0:0:0:
51,192,41544,1,6,0:0:0:0:
256,192,41758,1,2,0:0:0:0:
153,192,41973,1,0,0:0:0:70:LR_Snare Hit.wav
51,192,42187,1,0,0:0:0:70:Clap Hand.wav
358,192,42401,1,8,0:0:0:0:
153,192,42615,128,2,44330:0:0:0:0:
460,192,42615,1,4,0:0:0:0:
51,192,44330,1,2,0:0:0:0:
358,192,44330,128,0,46044:0:0:0:0:
153,192,46044,1,2,0:0:0:0:
460,192,46473,1,0,0:0:0:0:
51,192,46901,1,0,0:0:0:0:
358,192,47330,1,0,0:0:0:0:
256,192,47758,128,0,48187:0:0:0:70:LR_Clap Low Drop.wav
51,192,48187,128,0,48615:0:0:0:0:
256,192,48615,128,0,49044:0:0:0:70:LR_Clap Reverb.wav
460,192,49044,128,8,49473:0:0:0:0:
51,192,49473,128,2,51187:0:0:0:0:
358,192,49473,1,0,0:0:0:0:
256,192,49901,1,2,0:0:0:0:
153,192,50330,1,2,0:0:0:0:
358,192,50758,1,2,0:0:0:0:
256,192,51187,128,2,52901:0:0:0:0:
460,192,51187,1,4,0:0:0:0:
153,192,51615,1,2,0:0:0:0:
51,192,52044,1,2,0:0:0:0:
358,192,52473,1,2,0:0:0:0:
51,192,52901,1,2,0:0:0:0:
460,192,52901,128,4,53330:0:0:0:0:
358,192,53330,128,0,53758:0:0:0:70:LR_Drum Rpd x2.wav
256,192,53758,128,0,54187:0:0:0:70:LR_Drum Rpd x2.wav
153,192,54187,128,2,54615:0:0:0:0:
51,192,54615,1,2,0:0:0:0:
460,192,54615,1,0,0:0:0:0:
256,192,54937,1,2,0:0:0:0:
460,192,55258,1,2,0:0:0:0:
256,192,55473,1,0,0:0:0:70:LR_Drum Rpd x2.wav
256,192,55901,1,0,0:0:0:0:
51,192,56330,1,2,0:0:0:0:
358,192,56330,1,4,0:0:0:0:
153,192,56758,1,8,0:0:0:0:
256,192,56973,1,0,0:0:0:0:
358,192,57187,1,2,0:0:0:0:
256,192,57615,1,8,0:0:0:0:
358,192,57830,1,0,0:0:0:0:
460,192,58044,1,2,0:0:0:0:
256,192,58365,1,0,0:0:0:0:
51,192,58687,1,0,0:0:0:0:
460,192,58901,1,2,0:0:0:0:
51,192,59330,1,8,0:0:0:0:
256,192,59544,1,0,0:0:0:0:
460,192,59758,128,2,60187:0:0:0:0:
256,192,60187,128,8,60615:0:0:0:0:
51,192,60615,128,2,61044:0:0:0:0:
256,192,61044,128,8,61473:0:0:0:0:
153,192,61473,1,2,0:0:0:0:
460,192,61473,128,0,63187:0:0:0:0:
358,192,61901,1,8,0:0:0:0:
51,192,62330,1,2,0:0:0:0:
256,192,62758,1,8,0:0:0:0:
51,192,63187,1,2,0:0:0:0:
358,192,63187,128,0,63615:0:0:0:0:
256,192,63615,128,8,64044:0:0:0:0:
153,192,64044,128,2,64473:0:0:0:0:
460,192,64473,1,8,0:0:0:0:
51,192,64901,128,2,65330:0:0:0:0:
256,192,65330,128,8,65758:0:0:0:0:
460,192,65758,128,2,66187:0:0:0:0:
51,192,66187,1,8,0:0:0:0:
153,192,66615,1,2,0:0:0:0:
358,192,66937,1,0,0:0:0:0:
256,192,67258,128,0,67687:0:0:0:0:
51,192,67687,1,0,0:0:0:0:
358,192,67901,1,8,0:0:0:0:
51,192,68330,1,2,0:0:0:0:
153,192,68651,1,2,0:0:0:0:
256,192,68973,1,2,0:0:0:0:
460,192,69187,1,2,0:0:0:0:
153,192,69830,1,8,0:0:0:0:
51,192,70044,1,2,0:0:0:0:
460,192,70044,1,4,0:0:0:0:
153,192,70473,1,2,0:0:0:0:
358,192,70473,1,4,0:0:0:0:
256,192,70901,1,2,0:0:0:0:
153,192,71330,1,8,0:0:0:0:
358,192,71544,1,0,0:0:0:0:
51,192,71758,1,2,0:0:0:0:
256,192,72080,1,0,0:0:0:0:
460,192,72401,1,0,0:0:0:0:
153,192,72615,1,2,0:0:0:0:
460,192,73044,1,8,0:0:0:0:
256,192,73258,1,0,0:0:0:0:
51,192,73473,128,2,73901:0:0:0:0:
256,192,73901,128,8,74330:0:0:0:0:
460,192,74330,128,2,74758:0:0:0:0:
256,192,74758,128,8,75187:0:0:0:0:
51,192,75187,128,2,76901:0:0:0:0:
358,192,75187,1,0,0:0:0:0:
460,192,75615,1,8,0:0:0:0:
256,192,76044,1,2,0:0:0:0:
460,192,76473,1,8,0:0:0:0:
153,192,76901,128,2,77330:0:0:0:0:
358,192,76901,1,0,0:0:0:0:
256,192,77330,128,8,77758:0:0:0:0:
51,192,77758,1,2,0:0:0:0:
460,192,77758,128,0,78187:0:0:0:0:
153,192,78187,1,8,0:0:0:0:
256,192,78615,128,2,79044:0:0:0:0:
153,192,79044,128,8,79473:0:0:0:0:
51,192,79473,128,2,79901:0:0:0:0:
358,192,79901,1,8,0:0:0:0:
153,192,80330,128,2,80651:0:0:0:0:
256,192,80651,1,0,0:0:0:0:
460,192,80973,128,0,81401:0:0:0:0:
358,192,81401,1,0,0:0:0:0:
153,192,81615,1,8,0:0:0:0:
51,192,82044,1,2,0:0:0:0:
358,192,82044,1,4,0:0:0:0:
153,192,82365,1,6,0:0:0:0:
51,192,82687,1,2,0:0:0:0:
358,192,82687,1,4,0:0:0:0:
256,192,82901,128,2,83330:0:0:0:0:
460,192,83330,128,0,83758:0:0:0:70:LR_Drum Rpd x2.wav
51,192,83758,1,4,0:0:0:0:
358,192,83758,1,0,0:0:0:0:
153,192,84401,1,0,0:0:0:0:
358,192,84830,1,0,0:0:0:0:
256,192,85044,1,0,0:0:0:70:LR_Drum Rpd x2.wav
153,192,85258,1,0,0:0:0:70:LR_Drum Rpd x2.wav
51,192,85473,1,2,0:0:0:0:
460,192,85473,1,4,0:0:0:0:
256,192,85901,1,8,0:0:0:0:
153,192,86330,1,2,0:0:0:0:
358,192,86544,1,0,0:0:0:0:
460,192,86758,1,8,0:0:0:0:
256,192,87187,1,2,0:0:0:0:
153,192,87401,1,0,0:0:0:0:
51,192,87615,1,8,0:0:0:0:
460,192,88044,1,2,0:0:0:0:
256,192,88258,1,0,0:0:0:0:
51,192,88473,1,8,0:0:0:0:
153,192,88901,1,2,0:0:0:0:
256,192,89115,1,0,0:0:0:0:
358,192,89330,1,8,0:0:0:0:
460,192,89758,1,2,0:0:0:0:
358,192,89973,1,0,0:0:0:0:
256,192,90187,1,8,0:0:0:0:
51,192,90615,1,2,0:0:0:0:
256,192,90830,1,0,0:0:0:0:
460,192,91044,1,8,0:0:0:0:
256,192,91473,1,2,0:0:0:0:
358,192,91687,1,0,0:0:0:70:Clap Hand.wav
51,192,91901,1,0,0:0:0:70:Clap Hand.wav
460,192,91901,1,0,0:0:0:0:
256,192,92330,1,2,0:0:0:0:
358,192,92544,1,0,0:0:0:0:
460,192,92758,1,8,0:0:0:0:
256,192,93187,1,2,0:0:0:0:
153,192,93401,1,0,0:0:0:0:
51,192,93615,1,8,0:0:0:0:
256,192,94044,1,2,0:0:0:0:
358,192,94258,1,0,0:0:0:0:
153,192,94473,1,8,0:0:0:0:
460,192,94901,1,2,0:0:0:0:
358,192,95115,1,0,0:0:0:0:
256,192,95330,1,8,0:0:0:0:
51,192,95758,1,2,0:0:0:0:
153,192,95973,1,0,0:0:0:0:
358,192,96187,1,8,0:0:0:0:
256,192,96615,1,2,0:0:0:0:
460,192,97044,1,8,0:0:0:0:
153,192,97473,1,10,0:0:0:0:
256,192,97473,1,4,0:0:0:0:
51,192,97794,1,14,0:0:0:0:
256,192,98115,1,14,0:0:0:0:
358,192,98330,1,2,0:0:0:0:
460,192,98330,1,0,0:0:0:0:
256,192,98758,1,2,0:0:0:0:
51,192,99187,1,4,0:0:0:0:
358,192,99187,1,2,0:0:0:0:
153,192,99401,1,0,0:0:0:0:
256,192,99615,1,8,0:0:0:0:
460,192,100044,1,2,0:0:0:0:
358,192,100258,1,0,0:0:0:0:
153,192,100473,1,8,0:0:0:0:
256,192,100901,1,2,0:0:0:0:
153,192,101115,1,0,0:0:0:0:
51,192,101330,1,8,0:0:0:0:
358,192,101758,1,2,0:0:0:0:
153,192,101973,1,0,0:0:0:0:
256,192,102187,1,8,0:0:0:0:
51,192,102615,1,2,0:0:0:0:
256,192,102830,1,0,0:0:0:0:
460,192,103044,1,8,0:0:0:0:
358,192,103473,1,2,0:0:0:0:
153,192,103687,1,0,0:0:0:0:
256,192,103901,1,8,0:0:0:0:
460,192,104330,1,2,0:0:0:0:
256,192,104544,1,0,0:0:0:0:
51,192,104758,1,8,0:0:0:0:
256,192,105187,1,2,0:0:0:0:
153,192,105401,1,0,0:0:0:70:Clap Hand.wav
51,192,105615,1,0,0:0:0:70:Clap Hand.wav
460,192,105615,1,0,0:0:0:0:
358,192,106044,1,2,0:0:0:0:
256,192,106258,1,0,0:0:0:0:
153,192,106473,1,8,0:0:0:0:
256,192,106901,1,2,0:0:0:0:
358,192,107115,1,0,0:0:0:0:
460,192,107330,1,8,0:0:0:0:
51,192,107758,1,2,0:0:0:0:
153,192,107973,1,0,0:0:0:0:
256,192,108187,1,8,0:0:0:0:
153,192,108615,1,2,0:0:0:0:
358,192,108830,1,0,0:0:0:0:
460,192,109044,1,8,0:0:0:0:
256,192,109473,128,2,109901:0:0:0:0:
51,192,109901,128,8,110330:0:0:0:0:
460,192,110330,128,2,110758:0:0:0:0:
256,192,110758,128,8,111187:0:0:0:0:
51,192,111187,1,6,0:0:0:0:
153,192,111187,1,8,0:0:0:0:
358,192,111508,1,10,0:0:0:0:
460,192,111508,1,4,0:0:0:0:
51,192,111830,1,12,0:0:0:0:
153,192,111830,1,2,0:0:0:0:
358,192,112044,1,2,0:0:0:0:
256,192,112258,1,2,0:0:0:0:
153,192,112473,1,2,0:0:0:0:
460,192,112687,1,2,0:0:0:0:
