osu file format v14

[General]
AudioFilename: audio.mp3
AudioLeadIn: 0
PreviewTime: 54615
Countdown: 0
SampleSet: Soft
StackLeniency: 0.7
Mode: 3
LetterboxInBreaks: 0
SpecialStyle: 0
WidescreenStoryboard: 1

[Editor]
DistanceSpacing: 1.1
BeatDivisor: 4
GridSize: 16
TimelineZoom: 1.7

[Metadata]
Title:White Canvas (feat. Aitsuki Nakuru) (osu! edit)
TitleUnicode:White Canvas (feat. 藍月なくる) (osu! edit)
Artist:rejection
ArtistUnicode:rejection
Creator:Syrion-
Version:Scenery
Source:
Tags:by-ad ilham virtue- drum-hitnomal dudehacker fa featured artist japanese pop jpop j-pop electronic MRX-074 encore Emotional Vocal Pop 02 M3-2020秋 fall M3-46 muse dash MEGAREX THE FUTURE
BeatmapID:4117912
BeatmapSetID:1881077

[Difficulty]
HPDrainRate:8.5
CircleSize:5
OverallDifficulty:7.5
ApproachRate:5
SliderMultiplier:1.4
SliderTickRate:1

[Events]
//Background and Video events
0,0,"d4de770771ac8bb38cede9cb99d8e91cf390c3f2_s2_n2.jpg",0,0
//Break Periods
//Storyboard Layer 0 (Background)
//Storyboard Layer 1 (Fail)
//Storyboard Layer 2 (Pass)
//Storyboard Layer 3 (Foreground)
//Storyboard Layer 4 (Overlay)
//Storyboard Sound Samples

[TimingPoints]
1473,428.571428571429,4,2,2,50,1,0
56330,-100.0,4,2,2,50,0,1
68330,-100.0,4,2,2,50,0,0
70044,-20.0,4,2,2,50,0,0
70071,-1000.0,4,2,2,50,0,0
70258,-500.0,4,2,2,50,0,0
70277,-303.030303030303,4,2,2,50,0,0
70296,-217.391304347826,4,2,2,50,0,0
70314,-169.491525423729,4,2,2,50,0,0
70333,-138.888888888889,4,2,2,50,0,0
70352,-117.647058823529,4,2,2,50,0,0
70371,-102.040816326531,4,2,2,50,0,0
70390,-90.0900900900901,4,2,2,50,0,0
70408,-80.6451612903226,4,2,2,50,0,0
70427,-72.992700729927,4,2,2,50,0,0
70446,-66.6666666666667,4,2,2,50,0,0
70473,-100.0,4,2,2,50,0,1
83758,-100.0,4,2,2,50,0,0

[HitObjects]
51,192,615,128,8,1365:0:0:0:0:
153,192,615,1,0,0:0:0:0:
460,192,615,1,0,0:0:0:0:
358,192,830,1,0,0:0:0:70:LR_Drum Rpd x2.wav
460,192,830,1,0,0:0:0:0:
153,192,937,1,8,0:0:0:0:
256,192,937,1,0,0:0:0:0:
358,192,1044,1,0,0:0:0:70:LR_Drum Rpd x2.wav
460,192,1044,1,0,0:0:0:0:
153,192,1151,1,0,0:0:0:70:LR_Drum Rpd x2.wav
256,192,1151,1,0,0:0:0:0:
460,192,1258,1,2,0:0:0:0:
153,192,1365,1,2,0:0:0:0:
358,192,1365,1,0,0:0:0:0:
51,192,1473,1,2,0:0:0:0:
256,192,1473,1,4,0:0:0:0:
460,192,1473,1,0,0:0:0:0:
51,192,1687,128,0,1794:0:0:0:0:
153,192,1687,128,0,1794:0:0:0:0:
51,192,1901,128,8,2115:0:0:0:0:
153,192,1901,128,0,2115:0:0:0:0:
460,192,1901,1,0,0:0:0:0:
256,192,2115,128,0,2223:0:0:0:0:
460,192,2115,128,0,2330:0:0:0:0:
51,192,2223,128,0,2330:0:0:0:0:
358,192,2223,128,0,2330:0:0:0:0:
153,192,2330,1,2,0:0:0:0:
256,192,2330,1,0,0:0:0:0:
358,192,2437,1,0,0:0:0:0:
256,192,2544,128,0,2651:0:0:0:0:
460,192,2544,128,0,2651:0:0:0:0:
51,192,2651,1,0,0:0:0:0:
153,192,2758,128,8,2865:0:0:0:0:
358,192,2758,128,0,2865:0:0:0:0:
460,192,2758,1,0,0:0:0:0:
51,192,2973,128,0,3294:0:0:0:0:
460,192,2973,128,0,3080:0:0:0:0:
153,192,3080,128,0,3294:0:0:0:0:
256,192,3080,128,0,3294:0:0:0:0:
358,192,3187,1,2,0:0:0:0:
460,192,3187,1,0,0:0:0:0:
358,192,3401,128,0,3615:0:0:0:0:
460,192,3508,128,0,3615:0:0:0:0:
153,192,3615,1,8,0:0:0:0:
256,192,3615,1,0,0:0:0:0:
51,192,3723,128,0,4580:0:0:0:0:
358,192,3723,128,0,3830:0:0:0:0:
153,192,3830,128,0,4365:0:0:0:0:
460,192,3830,128,0,3937:0:0:0:0:
256,192,3937,128,0,4151:0:0:0:0:
358,192,4044,128,2,4151:0:0:0:0:
460,192,4044,128,0,4151:0:0:0:0:
256,192,4258,128,0,4365:0:0:0:0:
358,192,4258,128,0,4365:0:0:0:0:
153,192,4473,128,8,4580:0:0:0:0:
256,192,4473,128,0,4580:0:0:0:0:
460,192,4473,1,0,0:0:0:0:
51,192,4687,128,0,4794:0:0:0:0:
153,192,4687,128,0,4794:0:0:0:0:
51,192,4901,1,2,0:0:0:0:
358,192,4901,128,0,5008:0:0:0:0:
460,192,4901,128,0,5008:0:0:0:0:
153,192,5115,128,0,5223:0:0:0:0:
256,192,5115,128,0,5223:0:0:0:0:
51,192,5330,128,8,5437:0:0:0:0:
460,192,5330,128,0,5544:0:0:0:0:
256,192,5437,128,0,5544:0:0:0:0:
358,192,5437,128,0,5544:0:0:0:0:
51,192,5544,1,0,0:0:0:0:
153,192,5651,128,0,5758:0:0:0:0:
256,192,5651,128,0,5758:0:0:0:0:
51,192,5758,1,2,0:0:0:0:
358,192,5758,1,0,0:0:0:0:
460,192,5758,1,0,0:0:0:0:
256,192,5865,1,0,0:0:0:0:
51,192,5973,128,0,6080:0:0:0:0:
153,192,5973,128,0,6080:0:0:0:0:
460,192,6080,1,0,0:0:0:0:
51,192,6187,1,8,0:0:0:0:
153,192,6187,128,0,6294:0:0:0:0:
256,192,6187,128,0,6294:0:0:0:0:
256,192,6401,128,0,6508:0:0:0:0:
358,192,6401,128,0,6508:0:0:0:0:
153,192,6615,1,2,0:0:0:0:
358,192,6615,128,0,6723:0:0:0:0:
460,192,6615,128,0,6723:0:0:0:0:
51,192,6830,128,0,7044:0:0:0:0:
153,192,6937,128,0,7044:0:0:0:0:
256,192,6937,128,0,7044:0:0:0:0:
358,192,7044,1,8,0:0:0:0:
460,192,7044,1,0,0:0:0:0:
51,192,7258,128,0,7365:0:0:0:0:
153,192,7258,128,0,7365:0:0:0:0:
460,192,7365,1,0,0:0:0:0:
51,192,7473,1,2,0:0:0:0:
153,192,7473,1,0,0:0:0:0:
256,192,7473,1,0,0:0:0:0:
358,192,7580,128,0,7794:0:0:0:0:
460,192,7580,128,0,7794:0:0:0:0:
51,192,7687,1,0,0:0:0:70:Clap Hand.wav
153,192,7687,1,0,0:0:0:0:
51,192,7901,1,0,0:0:0:70:Clap Hand.wav
153,192,7901,1,0,0:0:0:0:
256,192,7901,128,0,8008:0:0:0:0:
460,192,7901,128,0,8223:0:0:0:0:
51,192,8115,128,0,8223:0:0:0:0:
358,192,8115,128,0,8223:0:0:0:0:
51,192,8330,1,2,0:0:0:0:
358,192,8330,1,0,0:0:0:0:
460,192,8330,1,0,0:0:0:0:
256,192,8544,128,0,8651:0:0:0:0:
460,192,8544,128,0,8651:0:0:0:0:
153,192,8758,1,8,0:0:0:0:
256,192,8758,128,0,8973:0:0:0:0:
460,192,8758,128,0,8973:0:0:0:0:
51,192,8973,128,0,9187:0:0:0:0:
358,192,8973,128,0,9080:0:0:0:0:
153,192,9080,128,0,9187:0:0:0:0:
256,192,9187,1,2,0:0:0:0:
358,192,9187,1,0,0:0:0:0:
460,192,9187,1,0,0:0:0:0:
153,192,9294,1,0,0:0:0:0:
51,192,9401,128,0,9508:0:0:0:0:
256,192,9401,128,0,9508:0:0:0:0:
153,192,9615,128,8,9723:0:0:0:0:
358,192,9615,128,0,9723:0:0:0:0:
460,192,9615,1,0,0:0:0:0:
51,192,9830,128,0,9937:0:0:0:0:
460,192,9830,128,0,10044:0:0:0:0:
256,192,9937,128,0,10044:0:0:0:0:
358,192,9937,128,0,10044:0:0:0:0:
51,192,10044,1,2,0:0:0:0:
153,192,10044,1,0,0:0:0:0:
153,192,10258,128,0,10365:0:0:0:0:
256,192,10365,128,0,10473:0:0:0:0:
51,192,10473,128,8,10580:0:0:0:0:
358,192,10473,128,0,10580:0:0:0:0:
460,192,10473,128,0,10580:0:0:0:0:
256,192,10580,128,0,10687:0:0:0:0:
51,192,10687,128,0,10794:0:0:0:0:
153,192,10687,128,0,10794:0:0:0:0:
460,192,10794,128,0,10901:0:0:0:0:
51,192,10901,1,2,0:0:0:0:
256,192,10901,128,0,11008:0:0:0:0:
358,192,10901,128,0,11008:0:0:0:0:
153,192,11008,1,0,0:0:0:0:
256,192,11115,1,0,0:0:0:0:
358,192,11223,128,0,11437:0:0:0:0:
460,192,11223,128,0,11437:0:0:0:0:
51,192,11330,1,8,0:0:0:0:
153,192,11330,1,0,0:0:0:0:
256,192,11330,1,0,0:0:0:0:
51,192,11544,128,0,11865:0:0:0:0:
358,192,11544,128,0,11651:0:0:0:0:
153,192,11758,128,2,11865:0:0:0:0:
256,192,11758,128,0,11865:0:0:0:0:
460,192,11758,1,0,0:0:0:0:
358,192,11973,1,0,0:0:0:0:
51,192,12080,128,0,12294:0:0:0:0:
153,192,12080,128,0,12294:0:0:0:0:
256,192,12187,1,8,0:0:0:0:
358,192,12187,1,0,0:0:0:0:
460,192,12187,1,0,0:0:0:0:
460,192,12401,128,0,12723:0:0:0:0:
358,192,12508,128,0,12723:0:0:0:0:
51,192,12615,128,2,12937:0:0:0:0:
153,192,12615,128,0,12937:0:0:0:0:
256,192,12615,1,0,0:0:0:0:
460,192,12830,128,0,12937:0:0:0:0:
51,192,13044,1,8,0:0:0:0:
358,192,13044,128,0,13151:0:0:0:0:
460,192,13044,128,0,13151:0:0:0:0:
256,192,13258,128,0,13365:0:0:0:0:
358,192,13258,128,0,13365:0:0:0:0:
51,192,13473,128,8,13687:0:0:0:0:
153,192,13473,128,2,13687:0:0:0:0:
256,192,13473,128,4,13687:0:0:0:0:
460,192,13473,1,0,0:0:0:0:
358,192,13687,1,0,0:0:0:0:
51,192,13794,1,2,0:0:0:0:
153,192,13794,128,8,14008:0:0:0:0:
256,192,13794,128,4,14008:0:0:0:0:
460,192,13794,128,0,14008:0:0:0:0:
153,192,14115,1,4,0:0:0:0:
256,192,14115,128,2,14330:0:0:0:0:
358,192,14115,128,8,14330:0:0:0:0:
460,192,14115,128,0,14330:0:0:0:0:
51,192,14330,1,2,0:0:0:0:
153,192,14330,1,0,0:0:0:0:
358,192,14437,128,2,14651:0:0:0:0:
460,192,14437,128,0,14651:0:0:0:0:
51,192,14544,1,2,0:0:0:0:
256,192,14544,1,0,0:0:0:0:
153,192,14651,1,2,0:0:0:0:
256,192,14758,128,2,14865:0:0:0:0:
358,192,14758,128,0,14865:0:0:0:0:
153,192,14973,128,2,15080:0:0:0:0:
256,192,14973,128,0,15080:0:0:0:0:
51,192,15187,1,2,0:0:0:0:
153,192,15187,1,0,0:0:0:0:
460,192,15187,1,0,0:0:0:0:
153,192,15401,1,0,0:0:0:0:
256,192,15401,128,0,15508:0:0:0:0:
460,192,15508,1,0,0:0:0:0:
51,192,15615,1,0,0:0:0:70:LR_Snare Hit.wav
256,192,15615,1,0,0:0:0:0:
358,192,15615,128,0,15723:0:0:0:0:
358,192,15830,1,0,0:0:0:0:
460,192,15830,128,0,16044:0:0:0:0:
256,192,15937,1,0,0:0:0:0:
153,192,16044,1,0,0:0:0:0:
256,192,16258,128,0,16365:0:0:0:0:
460,192,16258,1,0,0:0:0:0:
358,192,16365,1,0,0:0:0:0:
51,192,16473,1,0,0:0:0:70:LR_Snare Hit.wav
153,192,16473,128,0,16580:0:0:0:0:
256,192,16473,1,0,0:0:0:0:
51,192,16687,128,0,16901:0:0:0:0:
460,192,16687,1,0,0:0:0:0:
358,192,16794,1,0,0:0:0:0:
256,192,16901,1,0,0:0:0:0:
51,192,17115,1,0,0:0:0:0:
460,192,17115,128,0,17223:0:0:0:0:
153,192,17223,1,0,0:0:0:0:
256,192,17330,1,0,0:0:0:70:LR_Snare Hit.wav
358,192,17330,128,0,17437:0:0:0:0:
460,192,17330,1,0,0:0:0:0:
153,192,17544,1,0,0:0:0:0:
256,192,17544,128,0,17651:0:0:0:0:
460,192,17651,1,0,0:0:0:0:
51,192,17758,1,0,0:0:0:0:
153,192,17758,128,0,17865:0:0:0:0:
51,192,17973,128,0,18080:0:0:0:0:
358,192,17973,1,0,0:0:0:0:
256,192,18080,1,0,0:0:0:0:
153,192,18187,128,0,18294:0:0:0:70:LR_Snare Hit.wav
358,192,18187,1,0,0:0:0:0:
460,192,18187,1,0,0:0:0:0:
51,192,18401,1,0,0:0:0:0:
256,192,18401,128,0,18508:0:0:0:0:
460,192,18508,1,0,0:0:0:0:
153,192,18615,1,0,0:0:0:0:
358,192,18615,128,0,19044:0:0:0:0:
256,192,18830,1,0,0:0:0:0:
153,192,18937,1,0,0:0:0:0:
51,192,19044,1,0,0:0:0:70:LR_Snare Hit.wav
256,192,19044,1,0,0:0:0:0:
460,192,19044,1,0,0:0:0:0:
51,192,19258,128,0,19794:0:0:0:0:
153,192,19365,1,0,0:0:0:0:
256,192,19473,1,0,0:0:0:0:
460,192,19473,128,0,19794:0:0:0:0:
358,192,19687,1,0,0:0:0:0:
256,192,19794,1,0,0:0:0:0:
51,192,19901,1,0,0:0:0:70:LR_Snare Hit.wav
153,192,19901,1,0,0:0:0:0:
358,192,19901,128,0,20223:0:0:0:0:
51,192,20115,1,0,0:0:0:0:
153,192,20223,1,0,0:0:0:0:
256,192,20330,128,0,20651:0:0:0:0:
358,192,20330,1,0,0:0:0:0:
460,192,20544,1,0,0:0:0:0:
358,192,20651,1,0,0:0:0:0:
51,192,20758,1,0,0:0:0:70:LR_Snare Hit.wav
153,192,20758,128,0,21080:0:0:0:0:
256,192,20758,1,0,0:0:0:0:
460,192,20973,1,0,0:0:0:0:
358,192,21080,1,0,0:0:0:0:
51,192,21187,128,0,21294:0:0:0:0:
256,192,21187,1,0,0:0:0:0:
153,192,21401,128,0,21508:0:0:0:0:
460,192,21401,1,0,0:0:0:0:
358,192,21508,1,0,0:0:0:0:
51,192,21615,1,0,0:0:0:70:LR_Snare Hit.wav
153,192,21615,1,0,0:0:0:0:
256,192,21615,128,0,21723:0:0:0:0:
358,192,21830,128,0,22044:0:0:0:0:
256,192,21937,1,0,0:0:0:0:
51,192,22044,1,2,0:0:0:0:
153,192,22044,1,0,0:0:0:0:
51,192,22258,128,0,22365:0:0:0:0:
358,192,22258,1,0,0:0:0:0:
256,192,22365,1,0,0:0:0:0:
51,192,22473,1,0,0:0:0:70:LR_Snare Hit.wav
153,192,22473,128,0,22580:0:0:0:0:
460,192,22473,1,0,0:0:0:0:
256,192,22687,128,0,22901:0:0:0:0:
358,192,22687,1,0,0:0:0:0:
460,192,22794,1,0,0:0:0:0:
51,192,22901,1,0,0:0:0:0:
256,192,23115,1,0,0:0:0:0:
460,192,23115,128,0,23223:0:0:0:0:
153,192,23223,1,0,0:0:0:0:
51,192,23330,1,0,0:0:0:70:LR_Snare Hit.wav
358,192,23330,128,0,23437:0:0:0:0:
460,192,23330,1,0,0:0:0:0:
153,192,23544,1,0,0:0:0:0:
256,192,23544,128,0,23758:0:0:0:0:
51,192,23651,1,0,0:0:0:0:
460,192,23758,1,0,0:0:0:0:
51,192,23973,128,0,24080:0:0:0:0:
256,192,23973,1,0,0:0:0:0:
358,192,24080,1,0,0:0:0:0:
51,192,24187,1,0,0:0:0:70:LR_Snare Hit.wav
153,192,24187,128,0,24294:0:0:0:0:
460,192,24187,1,0,0:0:0:0:
256,192,24401,128,0,24508:0:0:0:0:
358,192,24401,1,0,0:0:0:0:
51,192,24508,1,0,0:0:0:0:
153,192,24615,1,0,0:0:0:0:
358,192,24615,128,0,24723:0:0:0:0:
256,192,24830,128,0,24937:0:0:0:0:
460,192,24830,1,0,0:0:0:0:
358,192,24937,1,0,0:0:0:0:
51,192,25044,1,0,0:0:0:70:LR_Snare Hit.wav
153,192,25044,128,0,25151:0:0:0:0:
256,192,25044,1,0,0:0:0:0:
51,192,25258,128,0,25365:0:0:0:0:
256,192,25258,1,0,0:0:0:0:
358,192,25365,1,0,0:0:0:0:
51,192,25473,1,0,0:0:0:0:
460,192,25473,128,0,25794:0:0:0:0:
153,192,25687,1,0,0:0:0:0:
256,192,25794,1,0,0:0:0:0:
51,192,25901,1,0,0:0:0:70:LR_Snare Hit.wav
358,192,25901,1,0,0:0:0:0:
460,192,25901,1,0,0:0:0:0:
153,192,26115,128,0,26223:0:0:0:0:
358,192,26115,1,0,0:0:0:0:
460,192,26223,1,0,0:0:0:0:
51,192,26330,1,0,0:0:0:0:
256,192,26330,128,0,26437:0:0:0:0:
153,192,26544,1,0,0:0:0:0:
358,192,26544,128,0,26865:0:0:0:0:
256,192,26651,1,0,0:0:0:0:
51,192,26758,1,0,0:0:0:70:LR_Snare Hit.wav
153,192,26758,1,0,0:0:0:0:
460,192,26758,1,0,0:0:0:0:
256,192,26973,1,0,0:0:0:0:
460,192,26973,128,0,27080:0:0:0:0:
153,192,27080,1,0,0:0:0:0:
51,192,27187,1,2,0:0:0:0:
256,192,27187,1,4,0:0:0:0:
358,192,27187,128,0,27294:0:0:0:0:
460,192,27187,1,0,0:0:0:0:
153,192,27401,1,0,0:0:0:0:
256,192,27401,128,0,27508:0:0:0:0:
51,192,27508,1,2,0:0:0:0:
358,192,27508,1,4,0:0:0:0:
460,192,27508,1,0,0:0:0:0:
153,192,27615,128,0,27723:0:0:0:0:
256,192,27615,1,0,0:0:0:0:
51,192,27830,128,2,27937:0:0:0:0:
256,192,27830,1,4,0:0:0:0:
358,192,27830,1,0,0:0:0:0:
460,192,27830,1,0,0:0:0:0:
153,192,28044,128,2,28151:0:0:0:0:
256,192,28044,1,0,0:0:0:0:
460,192,28044,1,0,0:0:0:0:
51,192,28151,1,0,0:0:0:0:
358,192,28151,1,0,0:0:0:0:
153,192,28258,1,0,0:0:0:70:LR_Snare Hit.wav
256,192,28258,128,0,28365:0:0:0:0:
460,192,28258,1,0,0:0:0:0:
51,192,28473,1,0,0:0:0:70:LR_Snare Hit.wav
358,192,28473,128,0,28580:0:0:0:0:
460,192,28473,1,0,0:0:0:0:
256,192,28580,1,0,0:0:0:0:
51,192,28687,1,0,0:0:0:70:LR_Snare Hit.wav
153,192,28687,1,0,0:0:0:0:
460,192,28687,128,0,28901:0:0:0:0:
51,192,28794,1,0,0:0:0:70:LR_Snare Hit.wav
153,192,28794,1,0,0:0:0:0:
256,192,28901,1,2,0:0:0:0:
358,192,28901,1,0,0:0:0:0:
256,192,29115,128,0,29223:0:0:0:0:
460,192,29115,1,0,0:0:0:0:
51,192,29223,1,0,0:0:0:0:
153,192,29330,128,0,29437:0:0:0:70:LR_Snare Hit.wav
256,192,29330,1,0,0:0:0:0:
358,192,29330,1,0,0:0:0:0:
460,192,29437,1,0,0:0:0:0:
51,192,29544,128,0,29758:0:0:0:0:
153,192,29544,1,0,0:0:0:0:
256,192,29651,1,0,0:0:0:0:
358,192,29758,1,0,0:0:0:0:
460,192,29865,1,0,0:0:0:0:
51,192,29973,1,0,0:0:0:0:
256,192,29973,128,0,30080:0:0:0:0:
153,192,30080,1,0,0:0:0:0:
256,192,30187,1,0,0:0:0:70:LR_Snare Hit.wav
358,192,30187,128,0,30294:0:0:0:0:
460,192,30187,1,0,0:0:0:0:
51,192,30401,1,0,0:0:0:0:
460,192,30401,128,0,30615:0:0:0:0:
358,192,30508,1,0,0:0:0:0:
256,192,30615,1,0,0:0:0:0:
153,192,30723,1,0,0:0:0:0:
51,192,30830,128,0,30937:0:0:0:0:
460,192,30830,1,0,0:0:0:0:
358,192,30937,1,0,0:0:0:0:
51,192,31044,1,0,0:0:0:70:LR_Snare Hit.wav
153,192,31044,128,0,31151:0:0:0:0:
256,192,31044,1,0,0:0:0:0:
460,192,31151,1,0,0:0:0:0:
256,192,31258,128,0,31365:0:0:0:0:
358,192,31258,1,0,0:0:0:0:
51,192,31365,1,0,0:0:0:0:
358,192,31473,128,0,31580:0:0:0:0:
460,192,31473,1,0,0:0:0:0:
256,192,31580,1,0,0:0:0:0:
51,192,31687,1,0,0:0:0:0:
460,192,31687,128,0,31794:0:0:0:0:
153,192,31794,1,0,0:0:0:0:
51,192,31901,1,0,0:0:0:70:LR_Snare Hit.wav
256,192,31901,1,0,0:0:0:0:
358,192,31901,128,0,32008:0:0:0:0:
256,192,32115,128,0,32223:0:0:0:0:
460,192,32115,1,0,0:0:0:0:
358,192,32223,1,0,0:0:0:0:
51,192,32330,1,2,0:0:0:0:
153,192,32330,128,0,32758:0:0:0:0:
358,192,32544,1,0,0:0:0:0:
256,192,32651,1,0,0:0:0:0:
51,192,32758,1,0,0:0:0:70:LR_Snare Hit.wav
358,192,32758,1,0,0:0:0:0:
460,192,32758,1,0,0:0:0:0:
153,192,32973,1,0,0:0:0:0:
460,192,32973,128,0,33508:0:0:0:0:
256,192,33080,1,0,0:0:0:0:
51,192,33187,128,0,33508:0:0:0:0:
358,192,33187,1,0,0:0:0:0:
153,192,33294,1,0,0:0:0:0:
256,192,33401,1,0,0:0:0:0:
358,192,33508,1,0,0:0:0:0:
51,192,33615,1,0,0:0:0:70:LR_Snare Hit.wav
153,192,33615,128,0,33937:0:0:0:0:
460,192,33615,1,0,0:0:0:0:
256,192,33723,1,0,0:0:0:0:
358,192,33830,1,0,0:0:0:0:
460,192,33937,1,0,0:0:0:0:
51,192,34044,1,0,0:0:0:0:
256,192,34044,128,0,34365:0:0:0:0:
358,192,34258,1,0,0:0:0:0:
51,192,34365,1,0,0:0:0:0:
153,192,34473,1,0,0:0:0:70:LR_Snare Hit.wav
358,192,34473,128,0,34794:0:0:0:0:
460,192,34473,1,0,0:0:0:0:
256,192,34687,1,0,0:0:0:0:
153,192,34794,1,0,0:0:0:0:
358,192,34901,1,0,0:0:0:0:
460,192,34901,128,0,35008:0:0:0:0:
256,192,35008,1,0,0:0:0:0:
51,192,35115,1,0,0:0:0:70:Clap Hand.wav
153,192,35115,1,0,0:0:0:0:
358,192,35115,128,0,35223:0:0:0:0:
460,192,35223,1,0,0:0:0:0:
51,192,35330,1,0,0:0:0:70:Clap Hand.wav
153,192,35330,1,0,0:0:0:0:
256,192,35330,128,0,35437:0:0:0:0:
358,192,35437,1,0,0:0:0:0:
153,192,35544,128,0,35758:0:0:0:0:
256,192,35544,1,0,0:0:0:0:
460,192,35651,1,0,0:0:0:0:
51,192,35758,1,2,0:0:0:0:
358,192,35758,1,0,0:0:0:0:
256,192,35865,1,0,0:0:0:0:
153,192,35973,1,0,0:0:0:0:
460,192,35973,128,0,36080:0:0:0:0:
256,192,36080,1,0,0:0:0:0:
51,192,36187,1,0,0:0:0:70:LR_Snare Hit.wav
358,192,36187,128,0,36294:0:0:0:0:
460,192,36187,1,0,0:0:0:0:
153,192,36294,1,0,0:0:0:0:
256,192,36401,128,0,36615:0:0:0:0:
358,192,36401,1,0,0:0:0:0:
153,192,36508,1,0,0:0:0:0:
51,192,36615,1,0,0:0:0:0:
460,192,36723,1,0,0:0:0:0:
51,192,36830,128,0,36937:0:0:0:0:
358,192,36830,1,0,0:0:0:0:
256,192,36937,1,0,0:0:0:0:
51,192,37044,1,0,0:0:0:70:LR_Snare Hit.wav
153,192,37044,128,0,37151:0:0:0:0:
460,192,37044,1,0,0:0:0:0:
153,192,37258,1,0,0:0:0:0:
256,192,37258,128,0,37473:0:0:0:0:
358,192,37365,1,0,0:0:0:0:
460,192,37473,1,0,0:0:0:0:
51,192,37580,1,0,0:0:0:0:
153,192,37687,1,0,0:0:0:0:
460,192,37687,128,0,37794:0:0:0:0:
256,192,37794,1,0,0:0:0:0:
51,192,37901,1,0,0:0:0:70:LR_Snare Hit.wav
358,192,37901,128,0,38008:0:0:0:0:
460,192,37901,1,0,0:0:0:0:
153,192,38008,1,0,0:0:0:0:
256,192,38115,128,0,38223:0:0:0:0:
358,192,38115,1,0,0:0:0:0:
51,192,38223,1,0,0:0:0:0:
153,192,38330,128,0,38437:0:0:0:0:
460,192,38330,1,0,0:0:0:0:
358,192,38437,1,0,0:0:0:0:
51,192,38544,1,0,0:0:0:0:
256,192,38544,128,0,38651:0:0:0:0:
153,192,38651,1,0,0:0:0:0:
256,192,38758,1,0,0:0:0:70:LR_Snare Hit.wav
358,192,38758,128,0,38865:0:0:0:0:
460,192,38758,1,0,0:0:0:0:
256,192,38973,1,0,0:0:0:0:
460,192,38973,128,0,39080:0:0:0:0:
153,192,39080,1,0,0:0:0:0:
51,192,39187,128,2,39508:0:0:0:0:
460,192,39187,1,0,0:0:0:0:
358,192,39401,1,0,0:0:0:0:
256,192,39508,1,0,0:0:0:0:
51,192,39615,1,0,0:0:0:70:LR_Snare Hit.wav
153,192,39615,1,0,0:0:0:0:
460,192,39615,1,0,0:0:0:0:
51,192,39830,1,0,0:0:0:0:
358,192,39830,128,0,39937:0:0:0:0:
153,192,39937,1,0,0:0:0:0:
256,192,40044,128,0,40151:0:0:0:0:
358,192,40044,1,0,0:0:0:0:
460,192,40151,1,0,0:0:0:0:
153,192,40258,128,0,40580:0:0:0:0:
358,192,40258,1,0,0:0:0:0:
256,192,40365,1,0,0:0:0:0:
51,192,40473,1,0,0:0:0:70:LR_Snare Hit.wav
358,192,40473,1,0,0:0:0:0:
460,192,40473,1,0,0:0:0:0:
256,192,40580,1,0,0:0:0:0:
51,192,40687,128,0,40794:0:0:0:0:
460,192,40687,1,0,0:0:0:0:
358,192,40794,1,0,0:0:0:0:
51,192,40901,1,2,0:0:0:0:
153,192,40901,128,4,41008:0:0:0:0:
256,192,40901,1,0,0:0:0:0:
460,192,40901,1,0,0:0:0:0:
256,192,41115,128,0,41223:0:0:0:0:
358,192,41115,1,0,0:0:0:0:
51,192,41223,1,2,0:0:0:0:
153,192,41223,1,4,0:0:0:0:
460,192,41223,1,0,0:0:0:0:
256,192,41330,1,0,0:0:0:0:
358,192,41330,128,0,41437:0:0:0:0:
51,192,41544,1,2,0:0:0:0:
153,192,41544,1,4,0:0:0:0:
358,192,41544,1,0,0:0:0:0:
460,192,41544,128,0,41651:0:0:0:0:
51,192,41758,1,2,0:0:0:0:
256,192,41758,1,0,0:0:0:0:
358,192,41758,128,0,41865:0:0:0:0:
153,192,41865,1,0,0:0:0:70:LR_Snare Hit.wav
256,192,41973,128,0,42080:0:0:0:70:LR_Snare Hit.wav
358,192,41973,1,0,0:0:0:0:
460,192,41973,1,0,0:0:0:0:
51,192,42080,1,2,0:0:0:0:
153,192,42187,128,0,42294:0:0:0:70:Clap Hand.wav
256,192,42187,1,0,0:0:0:0:
460,192,42187,1,0,0:0:0:0:
51,192,42401,128,8,42508:0:0:0:0:
153,192,42401,1,0,0:0:0:0:
358,192,42401,1,0,0:0:0:0:
51,192,42615,128,2,44223:0:0:0:0:
153,192,42615,128,4,44223:0:0:0:0:
256,192,42615,128,0,43794:0:0:0:0:
358,192,42615,128,0,43365:0:0:0:0:
460,192,42615,128,0,42937:0:0:0:0:
460,192,43044,128,0,44223:0:0:0:0:
358,192,43473,128,0,44223:0:0:0:0:
256,192,43901,128,0,44223:0:0:0:0:
51,192,44330,128,2,44865:0:0:0:0:
153,192,44330,128,0,45080:0:0:0:0:
256,192,44330,128,0,45508:0:0:0:0:
358,192,44330,128,0,45723:0:0:0:0:
460,192,44330,128,0,45937:0:0:0:0:
51,192,44973,128,0,45937:0:0:0:0:
153,192,45187,128,0,45937:0:0:0:0:
256,192,45615,128,0,45937:0:0:0:0:
358,192,45830,128,0,46794:0:0:0:0:
51,192,46044,128,2,46365:0:0:0:0:
153,192,46044,128,0,46365:0:0:0:0:
256,192,46044,128,0,46365:0:0:0:0:
460,192,46044,128,0,46794:0:0:0:0:
153,192,46473,128,0,46794:0:0:0:0:
256,192,46473,128,0,46794:0:0:0:0:
256,192,46901,128,0,47223:0:0:0:0:
358,192,46901,128,0,47223:0:0:0:0:
51,192,47115,128,0,47223:0:0:0:0:
153,192,47330,128,0,47437:0:0:0:0:
358,192,47330,128,0,47651:0:0:0:0:
460,192,47330,128,0,47651:0:0:0:0:
256,192,47544,128,0,47651:0:0:0:0:
51,192,47758,128,0,48080:0:0:0:70:LR_Clap Low Drop.wav
460,192,47758,1,0,0:0:0:0:
358,192,47812,1,0,0:0:0:70:LR_Clap Low Drop.wav
256,192,47865,1,0,0:0:0:70:LR_Clap Low Drop.wav
153,192,47919,1,0,0:0:0:70:LR_Clap Low Drop.wav
358,192,47973,1,0,0:0:0:70:LR_Clap Low Drop.wav
460,192,47973,1,0,0:0:0:0:
358,192,48080,1,0,0:0:0:70:LR_Clap Low Drop.wav
460,192,48080,1,0,0:0:0:0:
153,192,48187,128,0,48508:0:0:0:0:
358,192,48294,1,0,0:0:0:70:LR_Clap Low Drop.wav
460,192,48294,1,0,0:0:0:0:
358,192,48401,1,0,0:0:0:70:LR_Clap Low Drop.wav
460,192,48401,1,0,0:0:0:0:
51,192,48508,1,0,0:0:0:70:LR_Clap Low Drop.wav
256,192,48508,1,0,0:0:0:0:
358,192,48615,128,0,48937:0:0:0:70:LR_Clap Reverb.wav
460,192,48615,1,0,0:0:0:0:
51,192,48687,1,0,0:0:0:70:LR_Clap Reverb.wav
153,192,48758,1,0,0:0:0:70:LR_Clap Reverb.wav
256,192,48830,128,0,48937:0:0:0:70:LR_Clap Reverb.wav
153,192,49044,128,8,49151:0:0:0:0:
358,192,49044,1,0,0:0:0:70:LR_Clap Reverb.wav
460,192,49044,1,0,0:0:0:0:
51,192,49258,128,2,49365:0:0:0:0:
256,192,49258,1,4,0:0:0:0:
358,192,49258,1,0,0:0:0:0:
51,192,49473,1,2,0:0:0:0:
153,192,49473,1,0,0:0:0:0:
256,192,49473,1,0,0:0:0:0:
460,192,49473,128,0,50008:0:0:0:0:
153,192,49687,1,0,0:0:0:70:LR_Drum Rpd x2.wav
51,192,49901,1,2,0:0:0:0:
256,192,49901,1,0,0:0:0:0:
358,192,49901,1,0,0:0:0:0:
51,192,50115,128,0,50544:0:0:0:70:LR_Drum Rpd x2.wav
256,192,50115,1,0,0:0:0:0:
153,192,50330,128,2,50544:0:0:0:0:
358,192,50330,1,0,0:0:0:0:
460,192,50330,1,0,0:0:0:0:
358,192,50544,1,0,0:0:0:70:LR_Drum Rpd x2.wav
51,192,50758,1,2,0:0:0:0:
256,192,50758,1,0,0:0:0:0:
460,192,50758,128,0,51080:0:0:0:0:
256,192,50973,1,0,0:0:0:70:LR_Drum Rpd x2.wav
51,192,51187,1,2,0:0:0:0:
153,192,51187,1,4,0:0:0:0:
358,192,51187,128,0,51508:0:0:0:0:
460,192,51187,1,0,0:0:0:0:
153,192,51401,1,0,0:0:0:70:LR_Drum Rpd x2.wav
51,192,51615,1,2,0:0:0:0:
256,192,51615,128,0,51723:0:0:0:0:
460,192,51615,1,0,0:0:0:0:
358,192,51723,1,0,0:0:0:70:LR_Drum Rpd x2.wav
153,192,51830,128,0,51937:0:0:0:70:LR_Drum Rpd x2.wav
256,192,51830,1,0,0:0:0:0:
460,192,51937,1,0,0:0:0:70:LR_Drum Rpd x2.wav
51,192,52044,128,2,52473:0:0:0:0:
153,192,52044,1,0,0:0:0:0:
358,192,52044,1,0,0:0:0:0:
256,192,52151,1,0,0:0:0:70:LR_Drum Rpd x2.wav
358,192,52258,1,0,0:0:0:70:LR_Drum Rpd x2.wav
153,192,52365,1,0,0:0:0:70:LR_Drum Rpd x2.wav
256,192,52473,1,2,0:0:0:0:
358,192,52473,1,0,0:0:0:0:
460,192,52473,1,0,0:0:0:0:
51,192,52580,1,0,0:0:0:70:LR_Drum Rpd x2.wav
153,192,52687,1,0,0:0:0:70:LR_Drum Rpd x2.wav
460,192,52687,128,0,53223:0:0:0:0:
256,192,52794,1,0,0:0:0:70:LR_Drum Rpd x2.wav
51,192,52901,1,2,0:0:0:0:
153,192,52901,1,4,0:0:0:0:
358,192,52901,128,0,53223:0:0:0:0:
51,192,53115,1,0,0:0:0:70:LR_Drum Rpd x2.wav
256,192,53115,1,0,0:0:0:0:
153,192,53223,1,0,0:0:0:70:LR_Drum Rpd x2.wav
51,192,53330,128,0,53865:0:0:0:70:LR_Drum Rpd x2.wav
358,192,53330,1,0,0:0:0:0:
256,192,53437,1,0,0:0:0:70:LR_Drum Rpd x2.wav
460,192,53437,1,0,0:0:0:0:
153,192,53544,128,0,53865:0:0:0:70:LR_Drum Rpd x2.wav
358,192,53544,1,0,0:0:0:0:
256,192,53651,1,0,0:0:0:70:LR_Drum Rpd x2.wav
358,192,53758,1,0,0:0:0:70:LR_Drum Rpd x2.wav
460,192,53758,1,0,0:0:0:0:
256,192,53865,1,0,0:0:0:70:LR_Drum Rpd x2.wav
51,192,53973,1,0,0:0:0:70:LR_Drum Rpd x2.wav
358,192,53973,1,0,0:0:0:0:
460,192,53973,128,0,54080:0:0:0:0:
153,192,54080,1,0,0:0:0:70:LR_Drum Rpd x2.wav
256,192,54080,1,0,0:0:0:0:
51,192,54187,1,2,0:0:0:0:
358,192,54187,128,0,54294:0:0:0:0:
460,192,54187,1,0,0:0:0:0:
153,192,54294,1,2,0:0:0:0:
51,192,54401,1,2,0:0:0:0:
256,192,54401,128,0,54508:0:0:0:0:
460,192,54401,1,0,0:0:0:0:
358,192,54508,1,2,0:0:0:0:
51,192,54615,128,2,54830:0:0:0:0:
153,192,54615,128,0,54830:0:0:0:0:
460,192,54615,128,0,55044:0:0:0:0:
51,192,54937,128,2,55151:0:0:0:0:
256,192,54937,128,0,55151:0:0:0:0:
51,192,55258,128,2,55365:0:0:0:0:
153,192,55258,128,0,55365:0:0:0:0:
358,192,55258,128,0,55365:0:0:0:0:
51,192,55473,1,0,0:0:0:70:LR_Drum Rpd x2.wav
460,192,55473,128,0,55687:0:0:0:0:
153,192,55526,1,0,0:0:0:70:LR_Drum Rpd x2.wav
358,192,55526,1,0,0:0:0:0:
256,192,55580,1,0,0:0:0:70:LR_Drum Rpd x2.wav
51,192,55794,128,0,56008:0:0:0:0:
153,192,55794,1,0,0:0:0:0:
256,192,55901,1,0,0:0:0:0:
358,192,56008,1,0,0:0:0:70:LR_Drum Rpd x2.wav
460,192,56008,1,0,0:0:0:0:
358,192,56115,1,0,0:0:0:70:LR_Drum Rpd x2.wav
460,192,56115,128,0,56544:0:0:0:0:
51,192,56223,1,0,0:0:0:70:LR_Drum Rpd x2.wav
153,192,56223,1,0,0:0:0:0:
51,192,56330,128,2,56437:0:0:0:0:
153,192,56330,128,4,56437:0:0:0:0:
358,192,56330,128,0,56544:0:0:0:0:
256,192,56437,128,0,56544:0:0:0:0:
51,192,56544,128,0,56651:0:0:0:0:
460,192,56651,128,0,56758:0:0:0:0:
51,192,56758,128,8,56865:0:0:0:0:
153,192,56758,128,0,56865:0:0:0:0:
358,192,56758,128,0,56865:0:0:0:0:
256,192,56865,128,0,56973:0:0:0:0:
153,192,56973,128,0,57080:0:0:0:0:
460,192,56973,128,0,57080:0:0:0:0:
358,192,57080,128,0,57187:0:0:0:0:
51,192,57187,128,2,57294:0:0:0:0:
153,192,57187,128,0,57294:0:0:0:0:
256,192,57187,128,0,57401:0:0:0:0:
460,192,57294,128,0,57401:0:0:0:0:
358,192,57401,128,0,57508:0:0:0:0:
256,192,57508,128,0,57615:0:0:0:0:
51,192,57615,128,8,57723:0:0:0:0:
358,192,57615,128,0,57723:0:0:0:0:
460,192,57615,128,0,57723:0:0:0:0:
153,192,57723,128,0,57830:0:0:0:0:
256,192,57830,128,0,57937:0:0:0:0:
358,192,57830,128,0,57937:0:0:0:0:
51,192,57937,128,0,58044:0:0:0:0:
153,192,58044,128,2,58151:0:0:0:0:
256,192,58044,128,0,58365:0:0:0:0:
460,192,58044,128,0,58151:0:0:0:0:
358,192,58151,128,0,58258:0:0:0:0:
51,192,58258,128,0,58365:0:0:0:0:
460,192,58258,128,0,58365:0:0:0:0:
153,192,58365,128,0,58473:0:0:0:0:
358,192,58365,128,0,58473:0:0:0:0:
51,192,58473,128,8,58580:0:0:0:0:
256,192,58473,128,0,58580:0:0:0:0:
460,192,58473,128,0,58580:0:0:0:0:
153,192,58580,128,0,58687:0:0:0:0:
256,192,58687,128,0,58794:0:0:0:0:
358,192,58687,128,0,58794:0:0:0:0:
51,192,58794,128,0,58901:0:0:0:0:
153,192,58901,128,2,59008:0:0:0:0:
358,192,58901,128,0,59008:0:0:0:0:
460,192,58901,128,0,59115:0:0:0:0:
256,192,59008,128,0,59115:0:0:0:0:
51,192,59115,128,0,59223:0:0:0:0:
153,192,59223,128,0,59330:0:0:0:0:
51,192,59330,128,8,59437:0:0:0:0:
256,192,59330,128,0,59437:0:0:0:0:
358,192,59330,128,0,59437:0:0:0:0:
460,192,59437,128,0,59544:0:0:0:0:
153,192,59544,128,0,59651:0:0:0:0:
256,192,59544,128,0,59651:0:0:0:0:
51,192,59651,128,0,59758:0:0:0:0:
153,192,59758,128,2,59865:0:0:0:0:
358,192,59758,128,0,59865:0:0:0:0:
460,192,59758,128,0,59865:0:0:0:0:
256,192,59865,128,0,59973:0:0:0:0:
51,192,59973,128,0,60080:0:0:0:0:
153,192,59973,128,0,60080:0:0:0:0:
460,192,60080,128,0,60187:0:0:0:0:
51,192,60187,128,8,60294:0:0:0:0:
153,192,60187,128,0,60723:0:0:0:0:
358,192,60187,128,0,60294:0:0:0:0:
256,192,60294,128,0,60401:0:0:0:0:
51,192,60401,128,0,60723:0:0:0:0:
460,192,60401,128,0,60508:0:0:0:0:
358,192,60508,128,0,60615:0:0:0:0:
256,192,60615,128,2,60723:0:0:0:0:
460,192,60615,128,0,60723:0:0:0:0:
358,192,60723,128,0,60830:0:0:0:0:
51,192,60830,128,0,60937:0:0:0:0:
256,192,60830,128,0,60937:0:0:0:0:
153,192,60937,128,0,61044:0:0:0:0:
256,192,61044,128,8,61151:0:0:0:0:
358,192,61044,128,0,61151:0:0:0:0:
460,192,61044,128,0,61151:0:0:0:0:
153,192,61151,128,0,61258:0:0:0:0:
51,192,61258,128,0,61473:0:0:0:0:
460,192,61258,128,0,62223:0:0:0:0:
153,192,61365,128,0,61580:0:0:0:0:
256,192,61473,128,2,61687:0:0:0:0:
358,192,61473,128,0,61580:0:0:0:0:
51,192,61580,128,0,61794:0:0:0:0:
153,192,61687,128,0,61794:0:0:0:0:
358,192,61687,128,0,61794:0:0:0:0:
256,192,61794,128,0,61901:0:0:0:0:
51,192,61901,128,8,62008:0:0:0:0:
153,192,61901,128,0,62115:0:0:0:0:
358,192,61901,128,0,62008:0:0:0:0:
256,192,62008,128,0,62223:0:0:0:0:
51,192,62115,128,0,62437:0:0:0:0:
358,192,62115,128,0,62330:0:0:0:0:
153,192,62223,128,0,62437:0:0:0:0:
256,192,62330,128,2,62865:0:0:0:0:
460,192,62330,128,0,62544:0:0:0:0:
51,192,62544,1,0,0:0:0:70:Clap Hand.wav
153,192,62544,1,0,0:0:0:0:
358,192,62544,128,0,62865:0:0:0:0:
51,192,62758,1,8,0:0:0:0:
153,192,62758,1,0,0:0:0:70:Clap Hand.wav
460,192,62758,128,0,62865:0:0:0:0:
153,192,62973,128,0,63080:0:0:0:0:
256,192,62973,128,0,63080:0:0:0:0:
358,192,63080,128,0,63187:0:0:0:0:
51,192,63187,128,2,63294:0:0:0:0:
256,192,63187,128,0,63294:0:0:0:0:
460,192,63187,128,0,63294:0:0:0:0:
153,192,63294,128,0,63401:0:0:0:0:
256,192,63401,128,0,63508:0:0:0:0:
358,192,63401,128,0,63508:0:0:0:0:
51,192,63508,128,0,63615:0:0:0:0:
153,192,63615,128,8,63723:0:0:0:0:
358,192,63615,128,0,63723:0:0:0:0:
460,192,63615,128,0,63723:0:0:0:0:
256,192,63723,128,0,63830:0:0:0:0:
51,192,63830,128,0,64151:0:0:0:0:
460,192,63830,128,0,63937:0:0:0:0:
358,192,63937,128,0,64044:0:0:0:0:
153,192,64044,128,2,64151:0:0:0:0:
256,192,64044,128,0,64151:0:0:0:0:
460,192,64044,128,0,64151:0:0:0:0:
358,192,64151,128,0,64258:0:0:0:0:
51,192,64258,128,0,64365:0:0:0:0:
460,192,64258,128,0,64473:0:0:0:0:
153,192,64365,128,0,64473:0:0:0:0:
358,192,64365,128,0,64473:0:0:0:0:
51,192,64473,128,8,64580:0:0:0:0:
256,192,64473,128,0,64580:0:0:0:0:
358,192,64580,128,0,64687:0:0:0:0:
153,192,64687,128,0,64794:0:0:0:0:
460,192,64687,128,0,64794:0:0:0:0:
51,192,64794,128,0,64901:0:0:0:0:
153,192,64901,128,2,65008:0:0:0:0:
256,192,64901,128,0,65008:0:0:0:0:
358,192,64901,128,0,65008:0:0:0:0:
460,192,65008,128,0,65115:0:0:0:0:
51,192,65115,128,0,65223:0:0:0:0:
256,192,65115,128,0,65223:0:0:0:0:
358,192,65223,128,0,65330:0:0:0:0:
51,192,65330,128,8,65437:0:0:0:0:
153,192,65330,128,0,65437:0:0:0:0:
460,192,65330,128,0,65437:0:0:0:0:
358,192,65437,128,0,65544:0:0:0:0:
153,192,65544,128,0,65651:0:0:0:0:
256,192,65544,128,0,65651:0:0:0:0:
460,192,65651,128,0,65758:0:0:0:0:
51,192,65758,128,2,65865:0:0:0:0:
256,192,65758,128,0,65865:0:0:0:0:
358,192,65758,128,0,65865:0:0:0:0:
153,192,65865,128,0,65973:0:0:0:0:
358,192,65973,128,0,66080:0:0:0:0:
460,192,65973,128,0,66187:0:0:0:0:
51,192,66080,128,0,66187:0:0:0:0:
256,192,66080,128,0,66187:0:0:0:0:
153,192,66187,128,8,66294:0:0:0:0:
358,192,66187,128,0,66294:0:0:0:0:
256,192,66294,128,0,66401:0:0:0:0:
51,192,66401,128,0,66830:0:0:0:0:
460,192,66401,128,0,66508:0:0:0:0:
358,192,66508,128,0,66615:0:0:0:0:
153,192,66615,128,2,66723:0:0:0:0:
256,192,66615,128,0,66830:0:0:0:0:
460,192,66615,128,0,66723:0:0:0:0:
358,192,66723,128,0,66830:0:0:0:0:
153,192,66830,128,0,66937:0:0:0:0:
256,192,66937,128,0,67044:0:0:0:0:
358,192,66937,128,0,67151:0:0:0:0:
51,192,67044,128,8,67151:0:0:0:0:
153,192,67044,128,0,67151:0:0:0:0:
460,192,67044,128,0,67151:0:0:0:0:
256,192,67151,128,0,67258:0:0:0:0:
51,192,67258,128,0,67365:0:0:0:0:
460,192,67258,128,0,67580:0:0:0:0:
153,192,67365,128,0,67473:0:0:0:0:
51,192,67473,128,2,67580:0:0:0:0:
256,192,67473,128,0,67580:0:0:0:0:
358,192,67473,128,0,67580:0:0:0:0:
153,192,67580,128,0,67687:0:0:0:0:
358,192,67687,128,0,67794:0:0:0:0:
460,192,67687,128,0,67794:0:0:0:0:
51,192,67794,128,0,67901:0:0:0:0:
153,192,67901,128,8,68008:0:0:0:0:
256,192,67901,128,0,68008:0:0:0:0:
358,192,67901,128,0,68008:0:0:0:0:
460,192,68008,128,0,68115:0:0:0:0:
51,192,68115,128,0,68223:0:0:0:0:
153,192,68115,128,0,68223:0:0:0:0:
51,192,68330,128,2,68865:0:0:0:0:
256,192,68330,128,0,68544:0:0:0:0:
358,192,68330,128,0,68544:0:0:0:0:
153,192,68651,128,2,68865:0:0:0:0:
256,192,68651,128,0,68865:0:0:0:0:
358,192,68758,128,0,68865:0:0:0:0:
460,192,68865,128,0,68973:0:0:0:0:
51,192,68973,128,2,69080:0:0:0:0:
153,192,68973,128,0,69080:0:0:0:0:
256,192,68973,128,0,69080:0:0:0:0:
358,192,69080,128,0,69187:0:0:0:0:
51,192,69187,128,2,69294:0:0:0:0:
460,192,69187,128,0,69294:0:0:0:0:
153,192,69294,1,0,0:0:0:70:LR_Drum Rpd x2.wav
358,192,69294,128,0,69401:0:0:0:0:
51,192,69401,1,0,0:0:0:70:LR_Drum Rpd x2.wav
256,192,69401,128,0,69508:0:0:0:0:
153,192,69508,128,0,69615:0:0:0:70:LR_Drum Rpd x2.wav
460,192,69508,1,0,0:0:0:0:
51,192,69615,128,0,69723:0:0:0:70:LR_Drum Rpd x2.wav
358,192,69615,1,0,0:0:0:0:
256,192,69723,1,0,0:0:0:70:LR_Drum Rpd x2.wav
460,192,69723,128,0,69830:0:0:0:0:
51,192,69830,1,8,0:0:0:0:
153,192,69830,1,0,0:0:0:0:
358,192,69830,1,0,0:0:0:0:
51,192,70044,1,2,0:0:0:0:
153,192,70044,1,4,0:0:0:0:
256,192,70044,1,0,0:0:0:0:
460,192,70044,1,0,0:0:0:0:
51,192,70473,128,2,70580:0:0:0:0:
153,192,70473,128,4,70580:0:0:0:0:
358,192,70473,128,0,70580:0:0:0:0:
460,192,70473,128,0,70580:0:0:0:0:
256,192,70580,128,0,70687:0:0:0:0:
153,192,70687,128,0,70794:0:0:0:0:
460,192,70687,128,0,70794:0:0:0:0:
358,192,70794,128,0,70901:0:0:0:0:
51,192,70901,128,2,71008:0:0:0:0:
153,192,70901,128,0,71008:0:0:0:0:
256,192,70901,128,0,71115:0:0:0:0:
460,192,71008,128,0,71115:0:0:0:0:
358,192,71115,128,0,71223:0:0:0:0:
256,192,71223,128,0,71330:0:0:0:0:
153,192,71330,128,8,71437:0:0:0:0:
358,192,71330,128,0,71437:0:0:0:0:
460,192,71330,128,0,71437:0:0:0:0:
51,192,71437,128,0,71544:0:0:0:0:
256,192,71544,128,0,71651:0:0:0:0:
358,192,71544,128,0,71651:0:0:0:0:
460,192,71651,128,0,71758:0:0:0:0:
51,192,71758,128,2,71865:0:0:0:0:
153,192,71758,128,0,72080:0:0:0:0:
256,192,71758,128,0,71865:0:0:0:0:
358,192,71865,128,0,71973:0:0:0:0:
256,192,71973,128,0,72080:0:0:0:0:
460,192,71973,128,0,72080:0:0:0:0:
51,192,72080,128,0,72187:0:0:0:0:
358,192,72080,128,0,72187:0:0:0:0:
153,192,72187,128,8,72294:0:0:0:0:
256,192,72187,128,0,72294:0:0:0:0:
460,192,72187,128,0,72294:0:0:0:0:
51,192,72294,128,0,72401:0:0:0:0:
153,192,72401,128,0,72508:0:0:0:0:
358,192,72401,128,0,72508:0:0:0:0:
256,192,72508,128,0,72615:0:0:0:0:
51,192,72615,128,2,72830:0:0:0:0:
153,192,72615,128,0,72723:0:0:0:0:
460,192,72615,128,0,72723:0:0:0:0:
358,192,72723,128,0,72830:0:0:0:0:
256,192,72830,128,0,72937:0:0:0:0:
460,192,72937,128,0,73044:0:0:0:0:
51,192,73044,128,8,73151:0:0:0:0:
153,192,73044,128,0,73151:0:0:0:0:
358,192,73044,128,0,73151:0:0:0:0:
460,192,73151,128,0,73258:0:0:0:0:
51,192,73258,128,0,73365:0:0:0:0:
256,192,73258,128,0,73365:0:0:0:0:
153,192,73365,128,0,73473:0:0:0:0:
256,192,73473,128,2,73580:0:0:0:0:
358,192,73473,128,0,73580:0:0:0:0:
460,192,73473,128,0,73580:0:0:0:0:
51,192,73580,128,0,73687:0:0:0:0:
153,192,73687,128,0,73794:0:0:0:0:
256,192,73687,128,0,73794:0:0:0:0:
460,192,73794,128,0,73901:0:0:0:0:
51,192,73901,128,8,74008:0:0:0:0:
153,192,73901,128,0,74008:0:0:0:0:
358,192,73901,128,0,74008:0:0:0:0:
256,192,74008,128,0,74115:0:0:0:0:
51,192,74115,128,0,74223:0:0:0:0:
358,192,74115,128,0,74437:0:0:0:0:
153,192,74223,128,0,74330:0:0:0:0:
51,192,74330,128,2,74437:0:0:0:0:
256,192,74330,128,0,74437:0:0:0:0:
460,192,74330,128,0,74437:0:0:0:0:
153,192,74437,128,0,74544:0:0:0:0:
256,192,74544,128,0,74651:0:0:0:0:
358,192,74544,128,0,74651:0:0:0:0:
51,192,74651,128,0,74758:0:0:0:0:
153,192,74758,128,8,74865:0:0:0:0:
256,192,74758,128,0,74865:0:0:0:0:
460,192,74758,128,0,74865:0:0:0:0:
358,192,74865,128,0,74973:0:0:0:0:
51,192,74973,128,0,75937:0:0:0:0:
460,192,74973,128,0,75187:0:0:0:0:
358,192,75080,128,0,75294:0:0:0:0:
153,192,75187,128,2,75294:0:0:0:0:
256,192,75187,128,0,75401:0:0:0:0:
460,192,75294,128,0,75508:0:0:0:0:
153,192,75401,128,0,75508:0:0:0:0:
358,192,75401,128,0,75508:0:0:0:0:
256,192,75508,128,0,75615:0:0:0:0:
153,192,75615,128,8,75723:0:0:0:0:
358,192,75615,128,0,75830:0:0:0:0:
460,192,75615,128,0,75723:0:0:0:0:
256,192,75723,128,0,75937:0:0:0:0:
153,192,75830,128,0,76044:0:0:0:0:
460,192,75830,128,0,76151:0:0:0:0:
358,192,75937,128,0,76151:0:0:0:0:
51,192,76044,128,2,76258:0:0:0:0:
256,192,76044,128,0,76580:0:0:0:0:
153,192,76258,128,0,76580:0:0:0:70:Clap Hand.wav
358,192,76258,1,0,0:0:0:0:
460,192,76258,1,0,0:0:0:0:
51,192,76473,128,8,76580:0:0:0:0:
358,192,76473,1,0,0:0:0:70:Clap Hand.wav
460,192,76473,1,0,0:0:0:0:
256,192,76687,128,0,76794:0:0:0:0:
358,192,76687,128,0,76794:0:0:0:0:
153,192,76794,128,0,76901:0:0:0:0:
51,192,76901,128,2,77008:0:0:0:0:
256,192,76901,128,0,77008:0:0:0:0:
460,192,76901,128,0,77008:0:0:0:0:
358,192,77008,128,0,77115:0:0:0:0:
153,192,77115,128,0,77223:0:0:0:0:
256,192,77115,128,0,77223:0:0:0:0:
460,192,77223,128,0,77330:0:0:0:0:
51,192,77330,128,8,77437:0:0:0:0:
153,192,77330,128,0,77437:0:0:0:0:
358,192,77330,128,0,77437:0:0:0:0:
256,192,77437,128,0,77544:0:0:0:0:
51,192,77544,128,0,77651:0:0:0:0:
460,192,77544,128,0,77865:0:0:0:0:
153,192,77651,128,0,77758:0:0:0:0:
51,192,77758,128,2,77865:0:0:0:0:
256,192,77758,128,0,77865:0:0:0:0:
358,192,77758,128,0,77865:0:0:0:0:
153,192,77865,128,0,77973:0:0:0:0:
51,192,77973,128,0,78187:0:0:0:0:
460,192,77973,128,0,78080:0:0:0:0:
256,192,78080,128,0,78187:0:0:0:0:
358,192,78080,128,0,78187:0:0:0:0:
153,192,78187,128,8,78294:0:0:0:0:
460,192,78187,128,0,78294:0:0:0:0:
358,192,78294,128,0,78401:0:0:0:0:
51,192,78401,128,0,78508:0:0:0:0:
256,192,78401,128,0,78508:0:0:0:0:
153,192,78508,128,0,78615:0:0:0:0:
358,192,78508,128,0,78615:0:0:0:0:
51,192,78615,128,2,78723:0:0:0:0:
256,192,78615,128,0,78723:0:0:0:0:
460,192,78615,128,0,78723:0:0:0:0:
153,192,78723,128,0,78830:0:0:0:0:
358,192,78830,128,0,78937:0:0:0:0:
460,192,78830,128,0,78937:0:0:0:0:
256,192,78937,128,0,79044:0:0:0:0:
51,192,79044,128,8,79151:0:0:0:0:
153,192,79044,128,0,79151:0:0:0:0:
460,192,79044,128,0,79151:0:0:0:0:
358,192,79151,128,0,79258:0:0:0:0:
153,192,79258,128,0,79365:0:0:0:0:
256,192,79258,128,0,79365:0:0:0:0:
460,192,79365,128,0,79473:0:0:0:0:
51,192,79473,128,2,79580:0:0:0:0:
153,192,79473,128,0,79580:0:0:0:0:
358,192,79473,128,0,79580:0:0:0:0:
256,192,79580,128,0,79687:0:0:0:0:
51,192,79687,128,0,79794:0:0:0:0:
460,192,79687,128,0,79901:0:0:0:0:
153,192,79794,128,0,79901:0:0:0:0:
358,192,79794,128,0,79901:0:0:0:0:
51,192,79901,128,8,80008:0:0:0:0:
256,192,79901,128,0,80008:0:0:0:0:
358,192,80008,128,0,80115:0:0:0:0:
51,192,80115,128,0,80544:0:0:0:0:
153,192,80115,128,0,80223:0:0:0:0:
256,192,80223,128,0,80330:0:0:0:0:
153,192,80330,128,2,80437:0:0:0:0:
358,192,80330,128,0,80437:0:0:0:0:
460,192,80330,128,0,80544:0:0:0:0:
256,192,80437,128,0,80544:0:0:0:0:
153,192,80544,128,0,80651:0:0:0:0:
358,192,80651,128,0,80865:0:0:0:0:
460,192,80651,128,0,80758:0:0:0:0:
51,192,80758,128,8,80865:0:0:0:0:
256,192,80758,128,0,80865:0:0:0:0:
153,192,80865,128,0,80973:0:0:0:0:
256,192,80973,128,0,81294:0:0:0:0:
358,192,80973,128,0,81080:0:0:0:0:
51,192,81080,128,0,81187:0:0:0:0:
153,192,81187,128,2,81294:0:0:0:0:
460,192,81187,128,0,81294:0:0:0:0:
358,192,81294,128,0,81401:0:0:0:0:
153,192,81401,128,0,81615:0:0:0:0:
256,192,81401,128,0,81508:0:0:0:0:
460,192,81508,128,0,81615:0:0:0:0:
51,192,81615,128,8,81723:0:0:0:0:
256,192,81615,128,0,81723:0:0:0:0:
358,192,81615,128,0,81723:0:0:0:0:
153,192,81723,128,0,81830:0:0:0:0:
256,192,81830,128,0,81937:0:0:0:0:
358,192,81830,128,0,81937:0:0:0:0:
51,192,81937,128,0,82044:0:0:0:0:
153,192,82044,1,2,0:0:0:0:
256,192,82044,128,4,82258:0:0:0:0:
358,192,82044,128,0,82258:0:0:0:0:
460,192,82044,128,0,83223:0:0:0:0:
51,192,82258,1,0,0:0:0:70:LR_Drum Rpd x2.wav
153,192,82365,128,2,82580:0:0:0:0:
256,192,82365,128,4,82580:0:0:0:0:
358,192,82365,1,0,0:0:0:0:
51,192,82687,128,2,82901:0:0:0:0:
153,192,82687,128,4,82901:0:0:0:0:
256,192,82687,1,0,0:0:0:0:
256,192,82901,1,2,0:0:0:0:
358,192,82901,1,0,0:0:0:0:
51,192,83008,1,0,0:0:0:70:LR_Drum Rpd x2.wav
153,192,83115,1,0,0:0:0:70:LR_Drum Rpd x2.wav
358,192,83115,1,0,0:0:0:0:
256,192,83223,1,0,0:0:0:70:LR_Drum Rpd x2.wav
51,192,83330,1,0,0:0:0:70:LR_Drum Rpd x2.wav
460,192,83330,1,0,0:0:0:0:
153,192,83437,1,0,0:0:0:70:LR_Drum Rpd x2.wav
358,192,83437,1,0,0:0:0:0:
256,192,83544,1,0,0:0:0:70:LR_Drum Rpd x2.wav
51,192,83758,128,4,84294:0:0:0:0:
256,192,83758,128,0,84294:0:0:0:0:
460,192,83758,128,0,84294:0:0:0:0:
153,192,84401,128,0,84615:0:0:0:0:
460,192,84615,1,0,0:0:0:0:
358,192,84723,1,0,0:0:0:70:LR_Drum Rpd x2.wav
51,192,84830,128,0,85258:0:0:0:0:
153,192,84937,1,0,0:0:0:70:LR_Drum Rpd x2.wav
358,192,84937,1,0,0:0:0:0:
256,192,85044,1,0,0:0:0:70:LR_Drum Rpd x2.wav
460,192,85044,128,0,85258:0:0:0:0:
153,192,85258,1,0,0:0:0:70:LR_Drum Rpd x2.wav
358,192,85258,1,0,0:0:0:0:
51,192,85473,1,2,0:0:0:0:
153,192,85473,1,4,0:0:0:0:
256,192,85473,1,0,0:0:0:0:
460,192,85473,1,0,0:0:0:0:
358,192,85687,128,0,85794:0:0:0:0:
460,192,85687,128,0,85794:0:0:0:0:
51,192,85901,1,8,0:0:0:0:
358,192,85901,128,0,86115:0:0:0:0:
460,192,85901,128,0,86115:0:0:0:0:
51,192,86115,128,0,86330:0:0:0:0:
256,192,86115,128,0,86223:0:0:0:0:
153,192,86223,128,0,86330:0:0:0:0:
460,192,86223,128,0,86330:0:0:0:0:
256,192,86330,1,2,0:0:0:0:
358,192,86330,1,0,0:0:0:0:
153,192,86437,1,0,0:0:0:0:
51,192,86544,128,0,86651:0:0:0:0:
256,192,86544,128,0,86651:0:0:0:0:
460,192,86651,1,0,0:0:0:0:
51,192,86758,1,8,0:0:0:0:
153,192,86758,128,0,86865:0:0:0:0:
358,192,86758,128,0,86865:0:0:0:0:
51,192,86973,128,0,87080:0:0:0:0:
460,192,86973,128,0,87294:0:0:0:0:
256,192,87080,128,0,87294:0:0:0:0:
358,192,87080,128,0,87294:0:0:0:0:
51,192,87187,1,2,0:0:0:0:
153,192,87187,1,0,0:0:0:0:
153,192,87401,128,0,87615:0:0:0:0:
51,192,87508,128,0,87615:0:0:0:0:
256,192,87615,1,8,0:0:0:0:
358,192,87615,1,0,0:0:0:0:
153,192,87723,128,0,87830:0:0:0:0:
460,192,87723,128,0,88580:0:0:0:0:
51,192,87830,128,0,87937:0:0:0:0:
358,192,87830,128,0,88365:0:0:0:0:
256,192,87937,128,0,88151:0:0:0:0:
51,192,88044,128,2,88151:0:0:0:0:
153,192,88044,128,0,88151:0:0:0:0:
153,192,88258,128,0,88365:0:0:0:0:
256,192,88258,128,0,88365:0:0:0:0:
51,192,88473,1,8,0:0:0:0:
256,192,88473,128,0,88580:0:0:0:0:
358,192,88473,128,0,88580:0:0:0:0:
358,192,88687,128,0,88794:0:0:0:0:
460,192,88687,128,0,88794:0:0:0:0:
51,192,88901,128,2,89008:0:0:0:0:
153,192,88901,128,0,89008:0:0:0:0:
460,192,88901,1,0,0:0:0:0:
256,192,89115,128,0,89223:0:0:0:0:
358,192,89115,128,0,89223:0:0:0:0:
51,192,89330,128,8,89544:0:0:0:0:
460,192,89330,128,0,89437:0:0:0:0:
153,192,89437,128,0,89544:0:0:0:0:
256,192,89437,128,0,89544:0:0:0:0:
460,192,89544,1,0,0:0:0:0:
256,192,89651,128,0,89758:0:0:0:0:
358,192,89651,128,0,89758:0:0:0:0:
51,192,89758,1,2,0:0:0:0:
153,192,89758,1,0,0:0:0:0:
460,192,89758,1,0,0:0:0:0:
256,192,89865,1,0,0:0:0:0:
358,192,89973,128,0,90080:0:0:0:0:
460,192,89973,128,0,90080:0:0:0:0:
51,192,90080,1,0,0:0:0:0:
256,192,90187,128,8,90294:0:0:0:0:
358,192,90187,128,0,90294:0:0:0:0:
460,192,90187,1,0,0:0:0:0:
153,192,90401,128,0,90508:0:0:0:0:
256,192,90401,128,0,90508:0:0:0:0:
51,192,90615,128,2,90723:0:0:0:0:
153,192,90615,128,0,90723:0:0:0:0:
358,192,90615,1,0,0:0:0:0:
460,192,90830,128,0,91044:0:0:0:0:
256,192,90937,128,0,91044:0:0:0:0:
358,192,90937,128,0,91044:0:0:0:0:
51,192,91044,1,8,0:0:0:0:
153,192,91044,1,0,0:0:0:0:
358,192,91258,128,0,91365:0:0:0:0:
460,192,91258,128,0,91365:0:0:0:0:
51,192,91365,1,0,0:0:0:0:
256,192,91473,1,2,0:0:0:0:
358,192,91473,1,0,0:0:0:0:
460,192,91473,1,0,0:0:0:0:
51,192,91580,128,0,91794:0:0:0:0:
153,192,91580,128,0,91794:0:0:0:0:
358,192,91687,1,0,0:0:0:70:Clap Hand.wav
460,192,91687,1,0,0:0:0:0:
51,192,91901,128,0,92223:0:0:0:70:Clap Hand.wav
256,192,91901,128,0,92008:0:0:0:0:
358,192,91901,1,0,0:0:0:0:
460,192,91901,1,0,0:0:0:0:
153,192,92115,128,0,92223:0:0:0:0:
460,192,92115,128,0,92223:0:0:0:0:
51,192,92330,1,2,0:0:0:0:
153,192,92330,1,0,0:0:0:0:
460,192,92330,1,0,0:0:0:0:
51,192,92544,128,0,92651:0:0:0:0:
256,192,92544,128,0,92651:0:0:0:0:
51,192,92758,128,8,92973:0:0:0:0:
256,192,92758,128,0,92973:0:0:0:0:
358,192,92758,1,0,0:0:0:0:
153,192,92973,128,0,93080:0:0:0:0:
460,192,92973,128,0,93187:0:0:0:0:
358,192,93080,128,0,93187:0:0:0:0:
51,192,93187,1,2,0:0:0:0:
153,192,93187,1,0,0:0:0:0:
256,192,93187,1,0,0:0:0:0:
358,192,93294,1,0,0:0:0:0:
256,192,93401,128,0,93508:0:0:0:0:
460,192,93401,128,0,93508:0:0:0:0:
51,192,93615,1,8,0:0:0:0:
153,192,93615,128,0,93723:0:0:0:0:
358,192,93615,128,0,93723:0:0:0:0:
51,192,93830,128,0,94044:0:0:0:0:
460,192,93830,128,0,93937:0:0:0:0:
153,192,93937,128,0,94044:0:0:0:0:
256,192,93937,128,0,94044:0:0:0:0:
358,192,94044,1,2,0:0:0:0:
460,192,94044,1,0,0:0:0:0:
358,192,94258,128,0,94365:0:0:0:0:
256,192,94365,128,0,94473:0:0:0:0:
51,192,94473,128,8,94580:0:0:0:0:
153,192,94473,128,0,94580:0:0:0:0:
460,192,94473,128,0,94580:0:0:0:0:
256,192,94580,128,0,94687:0:0:0:0:
358,192,94687,128,0,94794:0:0:0:0:
460,192,94687,128,0,94794:0:0:0:0:
51,192,94794,128,0,94901:0:0:0:0:
153,192,94901,128,2,95008:0:0:0:0:
256,192,94901,128,0,95008:0:0:0:0:
460,192,94901,1,0,0:0:0:0:
358,192,95008,1,0,0:0:0:0:
256,192,95115,1,0,0:0:0:0:
51,192,95223,128,0,95437:0:0:0:0:
153,192,95223,128,0,95437:0:0:0:0:
256,192,95330,1,8,0:0:0:0:
358,192,95330,1,0,0:0:0:0:
460,192,95330,1,0,0:0:0:0:
153,192,95544,128,0,95651:0:0:0:0:
460,192,95544,128,0,95865:0:0:0:0:
51,192,95758,128,2,96294:0:0:0:0:
256,192,95758,128,0,95865:0:0:0:0:
358,192,95758,128,0,95865:0:0:0:0:
153,192,95973,128,0,96080:0:0:0:0:
358,192,95973,128,0,96080:0:0:0:0:
153,192,96187,128,8,96294:0:0:0:0:
256,192,96187,128,0,96294:0:0:0:0:
460,192,96187,128,0,96508:0:0:0:0:
51,192,96401,128,0,96508:0:0:0:0:
358,192,96401,128,0,96508:0:0:0:0:
51,192,96615,1,2,0:0:0:0:
153,192,96615,1,0,0:0:0:0:
460,192,96615,1,0,0:0:0:0:
256,192,96723,1,0,0:0:0:0:
153,192,96830,128,0,96937:0:0:0:0:
358,192,96830,128,0,96937:0:0:0:0:
51,192,97044,1,8,0:0:0:0:
153,192,97044,1,0,0:0:0:0:
460,192,97044,1,0,0:0:0:0:
256,192,97258,128,0,97365:0:0:0:0:
460,192,97258,128,0,97580:0:0:0:0:
51,192,97473,128,8,97580:0:0:0:0:
153,192,97473,128,2,97580:0:0:0:0:
256,192,97473,1,4,0:0:0:0:
358,192,97473,1,0,0:0:0:0:
358,192,97687,128,0,97794:0:0:0:0:
460,192,97687,128,0,97794:0:0:0:0:
51,192,97794,1,10,0:0:0:0:
153,192,97794,1,4,0:0:0:0:
256,192,97901,128,0,98008:0:0:0:0:
358,192,97901,128,0,98008:0:0:0:0:
460,192,97901,1,0,0:0:0:0:
51,192,98115,1,2,0:0:0:0:
153,192,98115,128,8,98223:0:0:0:0:
256,192,98115,128,4,98223:0:0:0:0:
358,192,98115,1,0,0:0:0:0:
51,192,98330,128,2,98651:0:0:0:0:
358,192,98330,1,0,0:0:0:0:
460,192,98330,128,0,98437:0:0:0:0:
256,192,98437,1,2,0:0:0:0:
153,192,98544,1,2,0:0:0:0:
358,192,98544,128,0,98651:0:0:0:0:
256,192,98651,1,2,0:0:0:0:
460,192,98651,1,0,0:0:0:0:
51,192,98758,128,2,98865:0:0:0:0:
153,192,98758,128,0,98865:0:0:0:0:
153,192,98973,128,2,99080:0:0:0:0:
256,192,98973,128,0,99080:0:0:0:0:
51,192,99187,1,4,0:0:0:0:
256,192,99187,1,2,0:0:0:0:
358,192,99187,1,0,0:0:0:0:
460,192,99187,1,0,0:0:0:0:
51,192,99401,128,0,99508:0:0:0:0:
153,192,99401,128,0,99508:0:0:0:0:
51,192,99615,128,8,99830:0:0:0:0:
153,192,99615,128,0,99830:0:0:0:0:
460,192,99615,1,0,0:0:0:0:
256,192,99830,128,0,99937:0:0:0:0:
460,192,99830,128,0,100044:0:0:0:0:
51,192,99937,128,0,100044:0:0:0:0:
358,192,99937,128,0,100044:0:0:0:0:
153,192,100044,1,2,0:0:0:0:
256,192,100044,1,0,0:0:0:0:
358,192,100151,1,0,0:0:0:0:
256,192,100258,128,0,100365:0:0:0:0:
460,192,100258,128,0,100365:0:0:0:0:
51,192,100365,1,0,0:0:0:0:
153,192,100473,128,8,100580:0:0:0:0:
358,192,100473,128,0,100580:0:0:0:0:
460,192,100473,1,0,0:0:0:0:
51,192,100687,128,0,101008:0:0:0:0:
460,192,100687,128,0,100794:0:0:0:0:
153,192,100794,128,0,101008:0:0:0:0:
256,192,100794,128,0,101008:0:0:0:0:
358,192,100901,1,2,0:0:0:0:
460,192,100901,1,0,0:0:0:0:
358,192,101115,128,0,101330:0:0:0:0:
460,192,101223,128,0,101330:0:0:0:0:
153,192,101330,1,8,0:0:0:0:
256,192,101330,1,0,0:0:0:0:
51,192,101437,128,0,102294:0:0:0:0:
358,192,101437,128,0,101544:0:0:0:0:
153,192,101544,128,0,102080:0:0:0:0:
460,192,101544,128,0,101651:0:0:0:0:
256,192,101651,128,0,101865:0:0:0:0:
358,192,101758,128,2,101865:0:0:0:0:
460,192,101758,128,0,101865:0:0:0:0:
256,192,101973,128,0,102080:0:0:0:0:
358,192,101973,128,0,102080:0:0:0:0:
153,192,102187,128,8,102294:0:0:0:0:
256,192,102187,128,0,102294:0:0:0:0:
460,192,102187,1,0,0:0:0:0:
51,192,102401,128,0,102508:0:0:0:0:
153,192,102401,128,0,102508:0:0:0:0:
51,192,102615,1,2,0:0:0:0:
358,192,102615,128,0,102723:0:0:0:0:
460,192,102615,128,0,102723:0:0:0:0:
153,192,102830,128,0,102937:0:0:0:0:
256,192,102830,128,0,102937:0:0:0:0:
51,192,103044,128,8,103151:0:0:0:0:
460,192,103044,128,0,103258:0:0:0:0:
256,192,103151,128,0,103258:0:0:0:0:
358,192,103151,128,0,103258:0:0:0:0:
51,192,103258,1,0,0:0:0:0:
153,192,103365,128,0,103473:0:0:0:0:
256,192,103365,128,0,103473:0:0:0:0:
51,192,103473,1,2,0:0:0:0:
358,192,103473,1,0,0:0:0:0:
460,192,103473,1,0,0:0:0:0:
256,192,103580,1,0,0:0:0:0:
51,192,103687,128,0,103794:0:0:0:0:
153,192,103687,128,0,103794:0:0:0:0:
460,192,103794,1,0,0:0:0:0:
51,192,103901,1,8,0:0:0:0:
153,192,103901,128,0,104008:0:0:0:0:
256,192,103901,128,0,104008:0:0:0:0:
256,192,104115,128,0,104223:0:0:0:0:
358,192,104115,128,0,104223:0:0:0:0:
153,192,104330,1,2,0:0:0:0:
358,192,104330,128,0,104437:0:0:0:0:
460,192,104330,128,0,104437:0:0:0:0:
51,192,104544,128,0,104758:0:0:0:0:
153,192,104651,128,0,104758:0:0:0:0:
256,192,104651,128,0,104758:0:0:0:0:
358,192,104758,1,8,0:0:0:0:
460,192,104758,1,0,0:0:0:0:
51,192,104973,128,0,105080:0:0:0:0:
153,192,104973,128,0,105080:0:0:0:0:
460,192,105080,1,0,0:0:0:0:
51,192,105187,1,2,0:0:0:0:
153,192,105187,1,0,0:0:0:0:
256,192,105187,1,0,0:0:0:0:
358,192,105294,128,0,105508:0:0:0:0:
460,192,105294,128,0,105508:0:0:0:0:
51,192,105401,1,0,0:0:0:70:Clap Hand.wav
153,192,105401,1,0,0:0:0:0:
51,192,105615,1,0,0:0:0:70:Clap Hand.wav
153,192,105615,1,0,0:0:0:0:
256,192,105615,128,0,105723:0:0:0:0:
460,192,105615,128,0,105937:0:0:0:0:
51,192,105830,128,0,105937:0:0:0:0:
358,192,105830,128,0,105937:0:0:0:0:
51,192,106044,1,2,0:0:0:0:
358,192,106044,1,0,0:0:0:0:
460,192,106044,1,0,0:0:0:0:
256,192,106258,128,0,106365:0:0:0:0:
460,192,106258,128,0,106365:0:0:0:0:
153,192,106473,1,8,0:0:0:0:
256,192,106473,128,0,106687:0:0:0:0:
460,192,106473,128,0,106687:0:0:0:0:
51,192,106687,128,0,106901:0:0:0:0:
358,192,106687,128,0,106794:0:0:0:0:
153,192,106794,128,0,106901:0:0:0:0:
256,192,106901,1,2,0:0:0:0:
358,192,106901,1,0,0:0:0:0:
460,192,106901,1,0,0:0:0:0:
153,192,107008,1,0,0:0:0:0:
51,192,107115,128,0,107223:0:0:0:0:
256,192,107115,128,0,107223:0:0:0:0:
153,192,107330,128,8,107437:0:0:0:0:
358,192,107330,128,0,107437:0:0:0:0:
460,192,107330,1,0,0:0:0:0:
51,192,107544,128,0,107651:0:0:0:0:
460,192,107544,128,0,107758:0:0:0:0:
256,192,107651,128,0,107758:0:0:0:0:
358,192,107651,128,0,107758:0:0:0:0:
51,192,107758,1,2,0:0:0:0:
153,192,107758,1,0,0:0:0:0:
153,192,107973,128,0,108080:0:0:0:0:
256,192,108080,128,0,108187:0:0:0:0:
51,192,108187,128,8,108294:0:0:0:0:
358,192,108187,128,0,108294:0:0:0:0:
460,192,108187,128,0,108294:0:0:0:0:
256,192,108294,128,0,108401:0:0:0:0:
51,192,108401,128,0,108508:0:0:0:0:
153,192,108401,128,0,108508:0:0:0:0:
460,192,108508,128,0,108615:0:0:0:0:
51,192,108615,1,2,0:0:0:0:
256,192,108615,128,0,108723:0:0:0:0:
358,192,108615,128,0,108723:0:0:0:0:
153,192,108723,1,0,0:0:0:0:
256,192,108830,1,0,0:0:0:0:
358,192,108937,128,0,109151:0:0:0:0:
460,192,108937,128,0,109151:0:0:0:0:
51,192,109044,1,8,0:0:0:0:
153,192,109044,1,0,0:0:0:0:
256,192,109044,1,0,0:0:0:0:
51,192,109258,128,0,109580:0:0:0:0:
358,192,109258,128,0,109365:0:0:0:0:
153,192,109473,128,2,109580:0:0:0:0:
256,192,109473,128,0,109580:0:0:0:0:
460,192,109473,1,0,0:0:0:0:
358,192,109687,1,0,0:0:0:0:
51,192,109794,128,0,110008:0:0:0:0:
153,192,109794,128,0,110008:0:0:0:0:
256,192,109901,1,8,0:0:0:0:
358,192,109901,1,0,0:0:0:0:
460,192,109901,1,0,0:0:0:0:
460,192,110115,128,0,110437:0:0:0:0:
358,192,110223,128,0,110437:0:0:0:0:
51,192,110330,128,2,110651:0:0:0:0:
153,192,110330,128,0,110651:0:0:0:0:
256,192,110330,1,0,0:0:0:0:
460,192,110544,128,0,110651:0:0:0:0:
51,192,110758,1,8,0:0:0:0:
358,192,110758,128,0,110865:0:0:0:0:
460,192,110758,128,0,110865:0:0:0:0:
256,192,110973,128,0,111080:0:0:0:0:
358,192,110973,128,0,111080:0:0:0:0:
51,192,111187,128,4,111401:0:0:0:0:
153,192,111187,128,2,111401:0:0:0:0:
256,192,111187,128,8,111401:0:0:0:0:
460,192,111187,1,0,0:0:0:0:
358,192,111401,1,0,0:0:0:0:
51,192,111508,1,8,0:0:0:0:
153,192,111508,128,2,111723:0:0:0:0:
256,192,111508,128,4,111723:0:0:0:0:
460,192,111508,128,0,111723:0:0:0:0:
153,192,111830,1,4,0:0:0:0:
256,192,111830,128,8,112044:0:0:0:0:
358,192,111830,128,2,112044:0:0:0:0:
460,192,111830,128,0,112044:0:0:0:0:
51,192,112044,1,2,0:0:0:0:
153,192,112044,1,0,0:0:0:0:
358,192,112151,128,2,112365:0:0:0:0:
460,192,112151,128,0,112365:0:0:0:0:
51,192,112258,1,2,0:0:0:0:
256,192,112258,1,0,0:0:0:0:
153,192,112365,1,2,0:0:0:0:
256,192,112473,128,2,112580:0:0:0:0:
358,192,112473,128,0,112580:0:0:0:0:
153,192,112687,128,2,112901:0:0:0:0:
256,192,112687,128,0,112901:0:0:0:0:
