osu file format v14

[General]
AudioFilename: audio.mp3
AudioLeadIn: 0
PreviewTime: 54615
Countdown: 0
SampleSet: Soft
StackLeniency: 0.7
Mode: 3
LetterboxInBreaks: 0
SpecialStyle: 0
WidescreenStoryboard: 1

[Editor]
DistanceSpacing: 1.1
BeatDivisor: 4
GridSize: 16
TimelineZoom: 1.7

[Metadata]
Title:White Canvas (feat. Aitsuki Nakuru) (osu! edit)
TitleUnicode:White Canvas (feat. 藍月なくる) (osu! edit)
Artist:rejection
ArtistUnicode:rejection
Creator:Syrion-
Version:DH's Normal
Source:
Tags:by-ad ilham virtue- drum-hitnomal dudehacker fa featured artist japanese pop jpop j-pop electronic MRX-074 encore Emotional Vocal Pop 02 M3-2020秋 fall M3-46 muse dash MEGAREX THE FUTURE
BeatmapID:3872761
BeatmapSetID:1881077

[Difficulty]
HPDrainRate:7
CircleSize:5
OverallDifficulty:7
ApproachRate:5
SliderMultiplier:1.4
SliderTickRate:1

[Events]
//Background and Video events
0,0,"d4de770771ac8bb38cede9cb99d8e91cf390c3f2_s2_n2.jpg",0,0
//Break Periods
//Storyboard Layer 0 (Background)
//Storyboard Layer 1 (Fail)
//Storyboard Layer 2 (Pass)
//Storyboard Layer 3 (Foreground)
//Storyboard Layer 4 (Overlay)
//Storyboard Sound Samples

[TimingPoints]
1473,428.571428571429,4,2,2,50,1,0
56330,-100.0,4,2,2,50,0,1
68330,-100.0,4,2,2,50,0,0
70473,-100.0,4,2,2,50,0,1
83758,-100.0,4,2,2,50,0,0

[HitObjects]
51,192,615,1,8,0:0:0:0:
358,192,615,1,0,0:0:0:0:
256,192,830,1,0,0:0:0:70:LR_Drum Rpd x2.wav
51,192,937,1,8,0:0:0:0:
153,192,937,1,0,0:0:0:0:
460,192,1044,1,0,0:0:0:70:LR_Drum Rpd x2.wav
153,192,1258,1,2,0:0:0:0:
358,192,1473,1,2,0:0:0:0:
460,192,1473,1,4,0:0:0:0:
256,192,1687,1,0,0:0:0:0:
256,192,1901,1,8,0:0:0:0:
460,192,1901,1,0,0:0:0:0:
358,192,2115,1,0,0:0:0:0:
256,192,2223,1,0,0:0:0:0:
51,192,2330,1,2,0:0:0:0:
153,192,2330,1,0,0:0:0:0:
460,192,2544,1,0,0:0:0:0:
256,192,2758,1,8,0:0:0:0:
358,192,2758,1,0,0:0:0:0:
51,192,2973,1,0,0:0:0:0:
358,192,3080,1,0,0:0:0:0:
51,192,3187,1,2,0:0:0:0:
153,192,3187,1,0,0:0:0:0:
460,192,3401,1,0,0:0:0:0:
153,192,3615,1,8,0:0:0:0:
256,192,3615,1,0,0:0:0:0:
358,192,3830,1,0,0:0:0:0:
256,192,3937,1,0,0:0:0:0:
51,192,4044,1,2,0:0:0:0:
460,192,4044,1,0,0:0:0:0:
153,192,4258,1,0,0:0:0:0:
256,192,4473,1,8,0:0:0:0:
358,192,4473,1,0,0:0:0:0:
460,192,4687,1,0,0:0:0:0:
51,192,4901,1,2,0:0:0:0:
153,192,4901,1,0,0:0:0:0:
358,192,5115,1,0,0:0:0:0:
153,192,5330,1,8,0:0:0:0:
460,192,5330,1,0,0:0:0:0:
256,192,5437,1,0,0:0:0:0:
358,192,5651,1,0,0:0:0:0:
51,192,5758,1,2,0:0:0:0:
153,192,5758,1,0,0:0:0:0:
256,192,5973,1,0,0:0:0:0:
153,192,6187,1,8,0:0:0:0:
460,192,6187,1,0,0:0:0:0:
358,192,6401,1,0,0:0:0:0:
51,192,6615,1,2,0:0:0:0:
256,192,6615,1,0,0:0:0:0:
153,192,6830,1,0,0:0:0:0:
256,192,7044,1,8,0:0:0:0:
460,192,7044,1,0,0:0:0:0:
358,192,7258,1,0,0:0:0:0:
51,192,7473,1,2,0:0:0:0:
153,192,7473,1,0,0:0:0:0:
358,192,7687,1,0,0:0:0:70:Clap Hand.wav
460,192,7687,1,0,0:0:0:0:
358,192,7901,1,0,0:0:0:70:Clap Hand.wav
460,192,7901,1,0,0:0:0:0:
153,192,8115,1,0,0:0:0:0:
51,192,8330,1,2,0:0:0:0:
256,192,8330,1,0,0:0:0:0:
460,192,8544,1,0,0:0:0:0:
153,192,8758,1,8,0:0:0:0:
460,192,8758,1,0,0:0:0:0:
358,192,8973,1,0,0:0:0:0:
460,192,9080,1,0,0:0:0:0:
51,192,9187,1,2,0:0:0:0:
153,192,9187,1,0,0:0:0:0:
256,192,9401,1,0,0:0:0:0:
358,192,9615,1,8,0:0:0:0:
460,192,9615,1,0,0:0:0:0:
51,192,9830,1,0,0:0:0:0:
153,192,9937,1,0,0:0:0:0:
256,192,10044,1,2,0:0:0:0:
358,192,10044,1,0,0:0:0:0:
460,192,10258,1,0,0:0:0:0:
153,192,10473,1,8,0:0:0:0:
358,192,10473,1,0,0:0:0:0:
51,192,10687,1,0,0:0:0:0:
256,192,10901,1,2,0:0:0:0:
460,192,10901,1,0,0:0:0:0:
153,192,11115,1,0,0:0:0:0:
358,192,11223,1,0,0:0:0:0:
51,192,11330,1,8,0:0:0:0:
256,192,11330,1,0,0:0:0:0:
460,192,11544,1,0,0:0:0:0:
153,192,11758,1,2,0:0:0:0:
358,192,11758,1,0,0:0:0:0:
51,192,11973,1,0,0:0:0:0:
460,192,12080,1,0,0:0:0:0:
153,192,12187,1,8,0:0:0:0:
256,192,12187,1,0,0:0:0:0:
358,192,12401,1,0,0:0:0:0:
256,192,12508,1,0,0:0:0:0:
51,192,12615,1,2,0:0:0:0:
153,192,12615,1,0,0:0:0:0:
51,192,12830,1,0,0:0:0:0:
358,192,13044,1,8,0:0:0:0:
460,192,13044,1,0,0:0:0:0:
153,192,13258,1,0,0:0:0:0:
256,192,13473,1,10,0:0:0:0:
460,192,13473,1,4,0:0:0:0:
153,192,13794,1,10,0:0:0:0:
358,192,13794,1,4,0:0:0:0:
51,192,14115,1,6,0:0:0:0:
256,192,14115,1,8,0:0:0:0:
153,192,14330,1,2,0:0:0:0:
358,192,14330,1,0,0:0:0:0:
460,192,14437,128,2,14758:0:0:0:0:
51,192,14758,128,2,14973:0:0:0:0:
256,192,14973,128,2,15187:0:0:0:0:
358,192,15187,1,2,0:0:0:0:
460,192,15187,1,0,0:0:0:0:
153,192,15401,128,0,15830:0:0:0:0:
358,192,15615,128,0,16044:0:0:0:70:LR_Snare Hit.wav
256,192,15830,128,0,16044:0:0:0:0:
51,192,16258,128,0,16687:0:0:0:0:
460,192,16473,128,0,16901:0:0:0:70:LR_Snare Hit.wav
256,192,16687,128,0,16901:0:0:0:0:
153,192,17115,128,0,17330:0:0:0:0:
358,192,17330,128,0,17758:0:0:0:70:LR_Snare Hit.wav
51,192,17544,128,0,17758:0:0:0:0:
256,192,17758,128,0,18187:0:0:0:0:
460,192,17973,128,0,18187:0:0:0:0:
153,192,18187,128,0,18615:0:0:0:70:LR_Snare Hit.wav
358,192,18401,128,0,18830:0:0:0:0:
51,192,18615,128,0,18830:0:0:0:0:
153,192,19258,128,0,19687:0:0:0:0:
460,192,19473,128,0,19687:0:0:0:0:
256,192,19901,128,0,20330:0:0:0:70:LR_Snare Hit.wav
51,192,20330,128,0,20973:0:0:0:0:
358,192,20758,128,0,20973:0:0:0:70:LR_Snare Hit.wav
358,192,21187,128,0,21615:0:0:0:0:
153,192,21401,128,0,21615:0:0:0:0:
256,192,21615,128,0,21830:0:0:0:70:LR_Snare Hit.wav
460,192,21830,128,0,22044:0:0:0:0:
51,192,22044,1,2,0:0:0:0:
153,192,22044,1,0,0:0:0:0:
358,192,22258,128,0,22687:0:0:0:0:
153,192,22473,128,0,22901:0:0:0:70:LR_Snare Hit.wav
256,192,22687,128,0,22901:0:0:0:0:
460,192,23115,128,0,23544:0:0:0:0:
51,192,23330,128,0,23758:0:0:0:70:LR_Snare Hit.wav
256,192,23544,128,0,23758:0:0:0:0:
358,192,23973,128,0,24187:0:0:0:0:
153,192,24187,128,0,24615:0:0:0:70:LR_Snare Hit.wav
460,192,24401,128,0,24615:0:0:0:0:
256,192,24615,128,0,25044:0:0:0:0:
51,192,24830,128,0,25044:0:0:0:0:
358,192,25044,128,0,25473:0:0:0:70:LR_Snare Hit.wav
153,192,25258,128,0,25687:0:0:0:0:
460,192,25473,128,0,25687:0:0:0:0:
358,192,26115,128,0,26544:0:0:0:0:
256,192,26544,128,0,26973:0:0:0:0:
51,192,26973,128,0,27187:0:0:0:0:
256,192,27187,1,2,0:0:0:0:
460,192,27187,1,4,0:0:0:0:
153,192,27508,1,2,0:0:0:0:
358,192,27508,1,4,0:0:0:0:
256,192,27830,1,2,0:0:0:0:
460,192,27830,1,4,0:0:0:0:
51,192,28044,1,2,0:0:0:0:
153,192,28044,1,0,0:0:0:0:
358,192,28258,1,0,0:0:0:70:LR_Snare Hit.wav
256,192,28473,1,0,0:0:0:70:LR_Snare Hit.wav
153,192,28687,1,0,0:0:0:70:LR_Snare Hit.wav
358,192,28794,1,0,0:0:0:70:LR_Snare Hit.wav
51,192,28901,1,2,0:0:0:0:
256,192,28901,1,0,0:0:0:0:
153,192,29115,128,0,29544:0:0:0:0:
460,192,29330,128,0,29758:0:0:0:70:LR_Snare Hit.wav
358,192,29544,128,0,29758:0:0:0:0:
358,192,29973,128,0,30401:0:0:0:0:
51,192,30187,128,0,30615:0:0:0:70:LR_Snare Hit.wav
153,192,30401,128,0,30615:0:0:0:0:
153,192,30830,128,0,31044:0:0:0:0:
358,192,31044,128,0,31473:0:0:0:70:LR_Snare Hit.wav
51,192,31258,128,0,31473:0:0:0:0:
256,192,31473,128,0,31901:0:0:0:0:
460,192,31687,128,0,31901:0:0:0:0:
153,192,31901,128,0,32330:0:0:0:70:LR_Snare Hit.wav
358,192,32115,128,0,32330:0:0:0:0:
51,192,32330,1,2,0:0:0:0:
460,192,32330,1,0,0:0:0:0:
256,192,32973,128,0,33401:0:0:0:0:
51,192,33187,128,0,33401:0:0:0:0:
358,192,33615,128,0,34044:0:0:0:70:LR_Snare Hit.wav
460,192,34044,128,0,34687:0:0:0:0:
153,192,34473,128,0,34687:0:0:0:70:LR_Snare Hit.wav
153,192,34901,128,0,35330:0:0:0:0:
358,192,35115,128,0,35330:0:0:0:70:Clap Hand.wav
256,192,35330,128,0,35544:0:0:0:70:Clap Hand.wav
51,192,35544,128,0,35758:0:0:0:0:
358,192,35758,1,2,0:0:0:0:
460,192,35758,1,0,0:0:0:0:
153,192,35973,128,0,36401:0:0:0:0:
460,192,36187,128,0,36615:0:0:0:70:LR_Snare Hit.wav
358,192,36401,128,0,36615:0:0:0:0:
358,192,36830,128,0,37258:0:0:0:0:
51,192,37044,128,0,37473:0:0:0:70:LR_Snare Hit.wav
153,192,37258,128,0,37473:0:0:0:0:
153,192,37687,128,0,37901:0:0:0:0:
358,192,37901,128,0,38330:0:0:0:70:LR_Snare Hit.wav
51,192,38115,128,0,38330:0:0:0:0:
256,192,38330,128,0,38758:0:0:0:0:
460,192,38544,128,0,38758:0:0:0:0:
153,192,38758,128,0,39187:0:0:0:70:LR_Snare Hit.wav
358,192,38973,128,0,39187:0:0:0:0:
51,192,39187,1,2,0:0:0:0:
460,192,39187,1,0,0:0:0:0:
256,192,39830,128,0,40258:0:0:0:0:
51,192,40044,128,0,40258:0:0:0:0:
358,192,40258,128,0,40687:0:0:0:0:
153,192,40687,128,0,40901:0:0:0:0:
256,192,40901,1,2,0:0:0:0:
460,192,40901,1,4,0:0:0:0:
51,192,41223,1,2,0:0:0:0:
358,192,41223,1,4,0:0:0:0:
153,192,41544,1,2,0:0:0:0:
256,192,41544,1,4,0:0:0:0:
358,192,41758,1,2,0:0:0:0:
460,192,41758,1,0,0:0:0:0:
153,192,41973,1,0,0:0:0:70:LR_Snare Hit.wav
256,192,42187,1,0,0:0:0:70:Clap Hand.wav
358,192,42401,1,8,0:0:0:0:
51,192,42615,128,2,44330:0:0:0:0:
153,192,42615,128,4,44330:0:0:0:0:
460,192,42615,1,0,0:0:0:0:
358,192,44330,128,2,46044:0:0:0:0:
460,192,44330,128,0,46044:0:0:0:0:
153,192,46044,128,2,46473:0:0:0:0:
460,192,46473,128,0,46901:0:0:0:0:
256,192,46901,128,0,47330:0:0:0:0:
51,192,47330,128,0,47758:0:0:0:0:
358,192,47758,128,0,47973:0:0:0:70:LR_Clap Low Drop.wav
460,192,47973,1,0,0:0:0:70:LR_Clap Low Drop.wav
153,192,48080,1,0,0:0:0:70:LR_Clap Low Drop.wav
51,192,48294,1,0,0:0:0:70:LR_Clap Low Drop.wav
256,192,48401,1,0,0:0:0:70:LR_Clap Low Drop.wav
460,192,48508,1,0,0:0:0:70:LR_Clap Low Drop.wav
153,192,48615,128,0,48830:0:0:0:70:LR_Clap Reverb.wav
358,192,48830,1,0,0:0:0:70:LR_Clap Reverb.wav
51,192,49044,1,8,0:0:0:0:
153,192,49044,1,0,0:0:0:70:LR_Clap Reverb.wav
358,192,49258,1,2,0:0:0:0:
460,192,49258,1,4,0:0:0:0:
51,192,49473,1,2,0:0:0:0:
256,192,49473,1,0,0:0:0:0:
153,192,49901,1,2,0:0:0:0:
358,192,49901,1,0,0:0:0:0:
256,192,50330,1,2,0:0:0:0:
358,192,50330,1,0,0:0:0:0:
256,192,50758,1,2,0:0:0:0:
460,192,50758,1,0,0:0:0:0:
51,192,51187,1,2,0:0:0:0:
153,192,51187,1,4,0:0:0:0:
460,192,51187,1,0,0:0:0:0:
153,192,51615,1,2,0:0:0:0:
358,192,51615,1,0,0:0:0:0:
256,192,52044,1,2,0:0:0:0:
358,192,52044,1,0,0:0:0:0:
51,192,52473,1,2,0:0:0:0:
256,192,52473,1,0,0:0:0:0:
51,192,52901,1,2,0:0:0:0:
358,192,52901,1,4,0:0:0:0:
460,192,52901,1,0,0:0:0:0:
256,192,53115,1,0,0:0:0:70:LR_Drum Rpd x2.wav
153,192,53330,1,0,0:0:0:70:LR_Drum Rpd x2.wav
358,192,53544,1,0,0:0:0:70:LR_Drum Rpd x2.wav
51,192,53758,1,0,0:0:0:70:LR_Drum Rpd x2.wav
256,192,53973,1,0,0:0:0:70:LR_Drum Rpd x2.wav
460,192,54187,1,2,0:0:0:0:
153,192,54401,1,2,0:0:0:0:
51,192,54615,1,2,0:0:0:0:
358,192,54615,1,0,0:0:0:0:
153,192,54937,1,2,0:0:0:0:
460,192,54937,1,0,0:0:0:0:
256,192,55258,1,2,0:0:0:0:
358,192,55258,1,0,0:0:0:0:
51,192,55473,1,0,0:0:0:70:LR_Drum Rpd x2.wav
153,192,55794,1,0,0:0:0:0:
256,192,56115,1,0,0:0:0:70:LR_Drum Rpd x2.wav
51,192,56330,1,2,0:0:0:0:
358,192,56330,1,4,0:0:0:0:
460,192,56330,128,0,56544:0:0:0:0:
51,192,56758,1,8,0:0:0:0:
153,192,56758,128,0,57187:0:0:0:0:
358,192,56973,128,0,57401:0:0:0:0:
256,192,57187,128,2,57401:0:0:0:0:
51,192,57615,128,8,58044:0:0:0:0:
460,192,57615,1,0,0:0:0:0:
256,192,57830,128,0,58258:0:0:0:0:
460,192,58044,128,2,58258:0:0:0:0:
153,192,58258,1,0,0:0:0:0:
358,192,58365,128,0,58687:0:0:0:0:
153,192,58687,128,0,59115:0:0:0:0:
256,192,58901,128,2,59115:0:0:0:0:
460,192,58901,1,0,0:0:0:0:
51,192,59330,128,8,59544:0:0:0:0:
358,192,59330,1,0,0:0:0:0:
358,192,59544,128,0,59758:0:0:0:0:
51,192,59758,1,2,0:0:0:0:
153,192,59758,128,0,60187:0:0:0:0:
460,192,59973,128,0,60187:0:0:0:0:
51,192,60187,1,8,0:0:0:0:
256,192,60187,128,0,60401:0:0:0:0:
358,192,60401,128,0,60830:0:0:0:0:
153,192,60615,1,2,0:0:0:0:
51,192,60830,128,0,61258:0:0:0:0:
460,192,61044,128,8,61258:0:0:0:0:
153,192,61258,128,0,61473:0:0:0:0:
256,192,61473,1,2,0:0:0:0:
358,192,61473,128,0,61901:0:0:0:0:
51,192,61901,128,8,62330:0:0:0:0:
153,192,61901,1,0,0:0:0:0:
358,192,62330,1,2,0:0:0:0:
460,192,62330,128,0,62544:0:0:0:0:
153,192,62544,128,0,62758:0:0:0:70:Clap Hand.wav
256,192,62544,1,0,0:0:0:0:
358,192,62758,128,8,62973:0:0:0:0:
460,192,62758,1,0,0:0:0:70:Clap Hand.wav
256,192,62973,128,0,63187:0:0:0:0:
51,192,63187,1,2,0:0:0:0:
460,192,63187,1,0,0:0:0:0:
153,192,63401,1,0,0:0:0:0:
358,192,63615,1,8,0:0:0:0:
460,192,63615,1,0,0:0:0:0:
51,192,63830,1,0,0:0:0:0:
256,192,64044,1,2,0:0:0:0:
358,192,64044,1,0,0:0:0:0:
153,192,64258,1,0,0:0:0:0:
460,192,64365,1,0,0:0:0:0:
51,192,64473,1,8,0:0:0:0:
358,192,64473,1,0,0:0:0:0:
256,192,64687,1,0,0:0:0:0:
153,192,64901,1,2,0:0:0:0:
460,192,64901,1,0,0:0:0:0:
358,192,65115,1,0,0:0:0:0:
51,192,65330,1,8,0:0:0:0:
256,192,65330,1,0,0:0:0:0:
460,192,65544,1,0,0:0:0:0:
153,192,65758,1,2,0:0:0:0:
358,192,65758,1,0,0:0:0:0:
460,192,65973,1,0,0:0:0:0:
51,192,66080,1,0,0:0:0:0:
256,192,66187,1,8,0:0:0:0:
358,192,66187,1,0,0:0:0:0:
153,192,66401,1,0,0:0:0:0:
51,192,66615,1,2,0:0:0:0:
460,192,66615,1,0,0:0:0:0:
256,192,66937,1,0,0:0:0:0:
358,192,67044,1,8,0:0:0:0:
460,192,67044,1,0,0:0:0:0:
153,192,67258,1,0,0:0:0:0:
51,192,67473,1,2,0:0:0:0:
460,192,67473,1,0,0:0:0:0:
358,192,67687,1,0,0:0:0:0:
153,192,67901,1,8,0:0:0:0:
256,192,67901,1,0,0:0:0:0:
460,192,68115,1,0,0:0:0:0:
51,192,68330,1,2,0:0:0:0:
358,192,68330,1,0,0:0:0:0:
256,192,68651,1,2,0:0:0:0:
460,192,68651,1,0,0:0:0:0:
153,192,68973,1,2,0:0:0:0:
358,192,68973,1,0,0:0:0:0:
51,192,69187,128,2,69401:0:0:0:0:
256,192,69187,1,0,0:0:0:0:
460,192,69401,128,0,69615:0:0:0:70:LR_Drum Rpd x2.wav
153,192,69615,128,0,69830:0:0:0:70:LR_Drum Rpd x2.wav
256,192,69830,128,8,70044:0:0:0:0:
51,192,70044,1,2,0:0:0:0:
358,192,70044,1,4,0:0:0:0:
460,192,70044,1,0,0:0:0:0:
51,192,70473,1,2,0:0:0:0:
153,192,70473,1,4,0:0:0:0:
358,192,70473,128,0,70901:0:0:0:0:
153,192,70687,128,0,71115:0:0:0:0:
256,192,70901,128,2,71115:0:0:0:0:
51,192,71330,1,8,0:0:0:0:
460,192,71330,128,0,71758:0:0:0:0:
256,192,71544,128,0,71973:0:0:0:0:
51,192,71758,128,2,71973:0:0:0:0:
358,192,71973,1,0,0:0:0:0:
153,192,72080,128,0,72401:0:0:0:0:
358,192,72401,128,0,72830:0:0:0:0:
51,192,72615,1,2,0:0:0:0:
256,192,72615,128,0,72830:0:0:0:0:
153,192,73044,1,8,0:0:0:0:
460,192,73044,128,0,73258:0:0:0:0:
153,192,73258,128,0,73473:0:0:0:0:
358,192,73473,128,2,73901:0:0:0:0:
460,192,73473,1,0,0:0:0:0:
51,192,73687,128,0,73901:0:0:0:0:
256,192,73901,128,8,74115:0:0:0:0:
460,192,73901,1,0,0:0:0:0:
153,192,74115,128,0,74544:0:0:0:0:
358,192,74330,1,2,0:0:0:0:
460,192,74544,128,0,74973:0:0:0:0:
51,192,74758,128,8,74973:0:0:0:0:
358,192,74973,128,0,75187:0:0:0:0:
153,192,75187,128,2,75615:0:0:0:0:
256,192,75187,1,0,0:0:0:0:
358,192,75615,1,8,0:0:0:0:
460,192,75615,128,0,76044:0:0:0:0:
51,192,76044,128,2,76258:0:0:0:0:
153,192,76044,1,0,0:0:0:0:
256,192,76258,1,0,0:0:0:70:Clap Hand.wav
358,192,76258,128,0,76473:0:0:0:0:
51,192,76473,1,8,0:0:0:0:
153,192,76473,128,0,76687:0:0:0:70:Clap Hand.wav
256,192,76687,128,0,76901:0:0:0:0:
51,192,76901,1,2,0:0:0:0:
460,192,76901,1,0,0:0:0:0:
358,192,77115,1,0,0:0:0:0:
51,192,77330,1,8,0:0:0:0:
153,192,77330,1,0,0:0:0:0:
460,192,77544,1,0,0:0:0:0:
153,192,77758,1,2,0:0:0:0:
256,192,77758,1,0,0:0:0:0:
358,192,77973,1,0,0:0:0:0:
51,192,78080,1,0,0:0:0:0:
153,192,78187,1,8,0:0:0:0:
460,192,78187,1,0,0:0:0:0:
256,192,78401,1,0,0:0:0:0:
358,192,78508,1,0,0:0:0:0:
51,192,78615,1,2,0:0:0:0:
460,192,78615,1,0,0:0:0:0:
153,192,78830,1,0,0:0:0:0:
256,192,79044,1,8,0:0:0:0:
460,192,79044,1,0,0:0:0:0:
51,192,79258,1,0,0:0:0:0:
153,192,79473,1,2,0:0:0:0:
358,192,79473,1,0,0:0:0:0:
460,192,79687,1,0,0:0:0:0:
153,192,79794,1,0,0:0:0:0:
256,192,79901,1,8,0:0:0:0:
358,192,79901,1,0,0:0:0:0:
358,192,80115,128,0,80330:0:0:0:0:
51,192,80330,128,2,80651:0:0:0:0:
153,192,80651,128,0,80973:0:0:0:0:
256,192,80973,128,0,81401:0:0:0:0:
51,192,81187,1,2,0:0:0:0:
358,192,81401,128,0,81615:0:0:0:0:
153,192,81615,1,8,0:0:0:0:
460,192,81615,1,0,0:0:0:0:
51,192,81830,128,0,82044:0:0:0:0:
153,192,82044,1,2,0:0:0:0:
358,192,82044,1,4,0:0:0:0:
256,192,82365,1,2,0:0:0:0:
460,192,82365,1,4,0:0:0:0:
358,192,82687,1,2,0:0:0:0:
460,192,82687,1,4,0:0:0:0:
51,192,82901,1,2,0:0:0:0:
256,192,82901,1,0,0:0:0:0:
460,192,83115,1,0,0:0:0:70:LR_Drum Rpd x2.wav
153,192,83223,1,0,0:0:0:70:LR_Drum Rpd x2.wav
358,192,83330,1,0,0:0:0:70:LR_Drum Rpd x2.wav
256,192,83544,1,0,0:0:0:70:LR_Drum Rpd x2.wav
51,192,83758,1,4,0:0:0:0:
153,192,83758,1,0,0:0:0:0:
256,192,84401,128,0,84830:0:0:0:0:
51,192,84830,1,0,0:0:0:0:
358,192,85044,1,0,0:0:0:70:LR_Drum Rpd x2.wav
256,192,85258,1,0,0:0:0:70:LR_Drum Rpd x2.wav
153,192,85473,1,2,0:0:0:0:
460,192,85473,1,4,0:0:0:0:
358,192,85687,1,0,0:0:0:0:
51,192,85901,1,8,0:0:0:0:
358,192,85901,1,0,0:0:0:0:
153,192,86115,1,0,0:0:0:0:
460,192,86223,1,0,0:0:0:0:
51,192,86330,1,2,0:0:0:0:
256,192,86330,1,0,0:0:0:0:
358,192,86544,1,0,0:0:0:0:
153,192,86758,1,8,0:0:0:0:
460,192,86758,1,0,0:0:0:0:
358,192,86973,1,0,0:0:0:0:
51,192,87080,1,0,0:0:0:0:
256,192,87187,1,2,0:0:0:0:
460,192,87187,1,0,0:0:0:0:
153,192,87401,1,0,0:0:0:0:
358,192,87615,1,8,0:0:0:0:
460,192,87615,1,0,0:0:0:0:
256,192,87723,1,0,0:0:0:0:
51,192,87937,1,0,0:0:0:0:
256,192,88044,1,2,0:0:0:0:
358,192,88044,1,0,0:0:0:0:
153,192,88258,1,0,0:0:0:0:
358,192,88473,1,8,0:0:0:0:
460,192,88473,1,0,0:0:0:0:
256,192,88687,1,0,0:0:0:0:
51,192,88901,1,2,0:0:0:0:
153,192,88901,1,0,0:0:0:0:
358,192,89115,1,0,0:0:0:0:
153,192,89330,1,8,0:0:0:0:
460,192,89330,1,0,0:0:0:0:
256,192,89437,1,0,0:0:0:0:
358,192,89651,1,0,0:0:0:0:
51,192,89758,1,2,0:0:0:0:
460,192,89758,1,0,0:0:0:0:
153,192,89973,1,0,0:0:0:0:
256,192,90187,1,8,0:0:0:0:
358,192,90187,1,0,0:0:0:0:
153,192,90401,1,0,0:0:0:0:
51,192,90615,1,2,0:0:0:0:
460,192,90615,1,0,0:0:0:0:
358,192,90830,1,0,0:0:0:0:
153,192,90937,1,0,0:0:0:0:
256,192,91044,1,8,0:0:0:0:
460,192,91044,1,0,0:0:0:0:
51,192,91258,1,0,0:0:0:0:
153,192,91473,1,2,0:0:0:0:
460,192,91473,1,0,0:0:0:0:
256,192,91687,1,0,0:0:0:70:Clap Hand.wav
358,192,91687,1,0,0:0:0:0:
256,192,91901,1,0,0:0:0:70:Clap Hand.wav
358,192,91901,1,0,0:0:0:0:
153,192,92115,1,0,0:0:0:0:
51,192,92330,1,2,0:0:0:0:
460,192,92330,1,0,0:0:0:0:
358,192,92544,1,0,0:0:0:0:
51,192,92758,1,8,0:0:0:0:
358,192,92758,1,0,0:0:0:0:
153,192,92973,1,0,0:0:0:0:
256,192,93080,1,0,0:0:0:0:
358,192,93187,1,2,0:0:0:0:
460,192,93187,1,0,0:0:0:0:
153,192,93401,1,0,0:0:0:0:
51,192,93615,1,8,0:0:0:0:
460,192,93615,1,0,0:0:0:0:
153,192,93830,1,0,0:0:0:0:
358,192,93937,1,0,0:0:0:0:
51,192,94044,1,2,0:0:0:0:
256,192,94044,1,0,0:0:0:0:
460,192,94258,1,0,0:0:0:0:
153,192,94473,1,8,0:0:0:0:
358,192,94473,1,0,0:0:0:0:
256,192,94687,1,0,0:0:0:0:
51,192,94901,1,2,0:0:0:0:
358,192,94901,1,0,0:0:0:0:
153,192,95115,1,0,0:0:0:0:
460,192,95223,1,0,0:0:0:0:
51,192,95330,1,8,0:0:0:0:
256,192,95330,1,0,0:0:0:0:
358,192,95544,1,0,0:0:0:0:
153,192,95758,1,2,0:0:0:0:
460,192,95758,1,0,0:0:0:0:
256,192,95973,1,0,0:0:0:0:
51,192,96187,1,8,0:0:0:0:
358,192,96187,1,0,0:0:0:0:
153,192,96401,1,0,0:0:0:0:
358,192,96615,1,2,0:0:0:0:
460,192,96615,1,0,0:0:0:0:
256,192,96830,128,0,97044:0:0:0:0:
153,192,97258,128,0,97473:0:0:0:0:
358,192,97473,1,10,0:0:0:0:
460,192,97473,1,4,0:0:0:0:
51,192,97794,1,10,0:0:0:0:
256,192,97794,1,4,0:0:0:0:
153,192,98115,1,10,0:0:0:0:
460,192,98115,1,4,0:0:0:0:
256,192,98330,1,2,0:0:0:0:
358,192,98330,128,0,98758:0:0:0:0:
153,192,98758,128,2,98973:0:0:0:0:
51,192,98973,128,2,99187:0:0:0:0:
256,192,99187,1,4,0:0:0:0:
358,192,99187,1,2,0:0:0:0:
460,192,99187,1,0,0:0:0:0:
153,192,99401,1,0,0:0:0:0:
153,192,99615,1,8,0:0:0:0:
460,192,99615,1,0,0:0:0:0:
358,192,99830,1,0,0:0:0:0:
51,192,99937,1,0,0:0:0:0:
256,192,100044,1,2,0:0:0:0:
460,192,100044,1,0,0:0:0:0:
153,192,100258,1,0,0:0:0:0:
51,192,100473,1,8,0:0:0:0:
358,192,100473,1,0,0:0:0:0:
153,192,100687,1,0,0:0:0:0:
460,192,100794,1,0,0:0:0:0:
51,192,100901,1,2,0:0:0:0:
256,192,100901,1,0,0:0:0:0:
358,192,101115,1,0,0:0:0:0:
51,192,101330,1,8,0:0:0:0:
153,192,101330,1,0,0:0:0:0:
460,192,101544,1,0,0:0:0:0:
358,192,101651,1,0,0:0:0:0:
153,192,101758,1,2,0:0:0:0:
256,192,101758,1,0,0:0:0:0:
358,192,101973,1,0,0:0:0:0:
51,192,102187,1,8,0:0:0:0:
153,192,102187,1,0,0:0:0:0:
256,192,102401,1,0,0:0:0:0:
358,192,102615,1,2,0:0:0:0:
460,192,102615,1,0,0:0:0:0:
153,192,102830,1,0,0:0:0:0:
51,192,103044,1,8,0:0:0:0:
358,192,103044,1,0,0:0:0:0:
256,192,103151,1,0,0:0:0:0:
153,192,103365,1,0,0:0:0:0:
51,192,103473,1,2,0:0:0:0:
460,192,103473,1,0,0:0:0:0:
358,192,103687,1,0,0:0:0:0:
153,192,103901,1,8,0:0:0:0:
256,192,103901,1,0,0:0:0:0:
358,192,104115,1,0,0:0:0:0:
51,192,104330,1,2,0:0:0:0:
460,192,104330,1,0,0:0:0:0:
153,192,104544,1,0,0:0:0:0:
358,192,104651,1,0,0:0:0:0:
51,192,104758,1,8,0:0:0:0:
256,192,104758,1,0,0:0:0:0:
460,192,104973,1,0,0:0:0:0:
51,192,105187,1,2,0:0:0:0:
358,192,105187,1,0,0:0:0:0:
153,192,105401,1,0,0:0:0:70:Clap Hand.wav
256,192,105401,1,0,0:0:0:0:
153,192,105615,1,0,0:0:0:70:Clap Hand.wav
256,192,105615,1,0,0:0:0:0:
358,192,105830,1,0,0:0:0:0:
51,192,106044,1,2,0:0:0:0:
460,192,106044,1,0,0:0:0:0:
153,192,106258,1,0,0:0:0:0:
153,192,106473,1,8,0:0:0:0:
358,192,106473,1,0,0:0:0:0:
460,192,106687,1,0,0:0:0:0:
51,192,106794,1,0,0:0:0:0:
256,192,106901,1,2,0:0:0:0:
358,192,106901,1,0,0:0:0:0:
153,192,107115,1,0,0:0:0:0:
51,192,107330,1,8,0:0:0:0:
460,192,107330,1,0,0:0:0:0:
358,192,107544,1,0,0:0:0:0:
153,192,107651,1,0,0:0:0:0:
256,192,107758,1,2,0:0:0:0:
460,192,107758,1,0,0:0:0:0:
51,192,107973,1,0,0:0:0:0:
153,192,108187,1,8,0:0:0:0:
358,192,108187,1,0,0:0:0:0:
256,192,108401,1,0,0:0:0:0:
358,192,108615,1,2,0:0:0:0:
460,192,108615,1,0,0:0:0:0:
51,192,108830,1,0,0:0:0:0:
153,192,108937,1,0,0:0:0:0:
256,192,109044,1,8,0:0:0:0:
460,192,109044,1,0,0:0:0:0:
153,192,109258,1,0,0:0:0:0:
51,192,109473,1,2,0:0:0:0:
358,192,109473,1,0,0:0:0:0:
256,192,109687,1,0,0:0:0:0:
153,192,109794,1,0,0:0:0:0:
358,192,109901,1,8,0:0:0:0:
460,192,109901,1,0,0:0:0:0:
358,192,110115,1,0,0:0:0:0:
256,192,110223,1,0,0:0:0:0:
51,192,110330,1,2,0:0:0:0:
153,192,110330,1,0,0:0:0:0:
256,192,110544,128,0,110758:0:0:0:0:
358,192,110758,128,8,110973:0:0:0:0:
460,192,110973,128,0,111187:0:0:0:0:
51,192,111187,1,6,0:0:0:0:
153,192,111187,1,8,0:0:0:0:
256,192,111508,1,10,0:0:0:0:
460,192,111508,1,4,0:0:0:0:
51,192,111830,1,12,0:0:0:0:
358,192,111830,1,2,0:0:0:0:
256,192,112044,1,2,0:0:0:0:
460,192,112044,1,0,0:0:0:0:
153,192,112151,128,2,112473:0:0:0:0:
358,192,112473,128,2,112901:0:0:0:0:
256,192,112687,128,2,112901:0:0:0:0:
