osu file format v14

[General]
AudioFilename: audio.mp3
AudioLeadIn: 0
PreviewTime: 55151
Countdown: 0
SampleSet: Soft
StackLeniency: 0.3
Mode: 0
LetterboxInBreaks: 0
WidescreenStoryboard: 1

[Editor]
DistanceSpacing: 1.1
BeatDivisor: 4
GridSize: 4
TimelineZoom: 2.3

[Metadata]
Title:White Canvas (feat. Aitsuki Nakuru) (osu! edit)
TitleUnicode:White Canvas (feat. 藍月なくる) (osu! edit)
Artist:rejection
ArtistUnicode:rejection
Creator:Ogura Yui
Version:Stella
Source:
Tags:yuuma fa featured artist mpg mappers' guild japanese pop jpop j-pop electronic
BeatmapID:3267000
BeatmapSetID:1599605

[Difficulty]
HPDrainRate:5
CircleSize:4.5
OverallDifficulty:8
ApproachRate:9.2
SliderMultiplier:2.4
SliderTickRate:1

[Events]
//Background and Video events
0,0,"E_IrCyyVUAEdp3h.jpg",0,0
//Break Periods
//Storyboard Layer 0 (Background)
//Storyboard Layer 1 (Fail)
//Storyboard Layer 2 (Pass)
//Storyboard Layer 3 (Foreground)
//Storyboard Layer 4 (Overlay)
//Storyboard Sound Samples

[TimingPoints]
1473,428.571428571429,4,2,1,80,1,0
7687,-83.3333333333333,4,2,1,80,0,0
8330,-100,4,2,1,80,0,0
13473,-50,4,2,1,80,0,0
14758,-100,4,2,1,80,0,0
15187,-142.857142857143,4,2,1,60,0,0
27187,-83.3333333333333,4,2,1,70,0,0
28901,-100,4,2,1,60,0,0
40901,-50,4,2,1,60,0,0
41758,-100,4,2,1,60,0,0
42615,-142.857142857143,4,2,1,60,0,0
49044,-66.6666666666667,4,2,1,60,0,0
49473,-125,4,2,1,70,0,0
52901,-111.111111111111,4,2,1,70,0,0
54615,-50,4,2,1,70,0,0
55258,-100,4,2,1,70,0,0
56330,-66.6666666666667,4,2,1,80,0,1
62544,-55.5555555555556,4,2,1,80,0,1
63187,-66.6666666666667,4,2,1,80,0,1
68330,-50,4,2,1,80,0,1
69187,-100,4,2,1,80,0,1
70473,-66.6666666666667,4,2,1,80,0,1
76258,-55.5555555555556,4,2,1,80,0,1
76901,-66.6666666666667,4,2,1,80,0,1
82044,-50,4,2,1,80,0,1
83330,-100,4,2,1,80,0,1
83758,-125,4,2,1,80,0,0
85473,-100,4,2,1,80,0,0
91687,-83.3333333333333,4,2,1,80,0,0
92544,-100,4,2,1,80,0,0
97473,-50,4,2,1,80,0,0
98330,-100,4,2,1,80,0,0
99187,-100,4,2,1,80,0,0
105401,-83.3333333333333,4,2,1,80,0,0
106258,-100,4,2,1,80,0,0
111187,-50,4,2,1,80,0,0
112044,-100,4,2,1,80,0,0

[Colours]
Combo1 : 0,255,255
Combo2 : 79,101,187

[HitObjects]
76,29,1473,5,6,3:2:0:0:
57,159,1687,2,0,P|97:155|136:131,1,60,2|0,0:0|0:0,0:0:0:0:
199,39,1901,2,0,P|182:75|183:121,1,60,10|0,0:0|0:0,0:0:0:0:
231,221,2115,1,2,0:0:0:0:
231,221,2223,1,0,0:0:0:0:
231,221,2330,6,0,P|207:188|167:166,1,60,2|0,3:2|0:0,0:0:0:0:
48,254,2544,2,0,L|114:237,1,60,2|0,0:0|0:0,0:0:0:0:
167,319,2758,2,0,L|237:303,1,60,10|0,0:0|0:0,0:0:0:0:
319,240,2973,1,2,0:0:0:0:
319,240,3080,1,2,0:0:0:0:
319,240,3187,6,0,P|356:300|315:377,1,120,2|2,3:2|0:0,0:0:0:0:
226,219,3508,1,2,0:0:0:0:
226,219,3615,2,0,L|237:146,1,60,10|0,0:0|0:0,0:0:0:0:
332,51,3830,2,0,L|344:118,1,60,2|2,0:0|0:0,0:0:0:0:
204,223,4044,6,0,L|221:95,1,120,2|2,3:2|0:0,0:0:0:0:
135,34,4365,1,2,0:0:0:0:
135,34,4473,2,0,P|101:38|74:66,1,60,10|0,0:0|0:0,0:0:0:0:
55,173,4687,2,0,P|101:170|123:148,1,60,2|0,0:0|0:0,0:0:0:0:
233,46,4901,6,0,P|222:73|222:119,1,60,2|0,3:2|0:0,0:0:0:0:
265,237,5115,2,0,P|276:193|271:162,1,60,2|0,0:0|0:0,0:0:0:0:
130,242,5330,1,10,0:0:0:0:
132,300,5437,1,2,0:0:0:0:
168,347,5544,1,2,0:0:0:0:
225,362,5651,1,2,0:0:0:0:
306,348,5758,6,0,L|373:335,1,60,2|0,3:2|0:0,0:0:0:0:
463,259,5973,2,0,L|397:248,1,60,2|0,0:0|0:0,0:0:0:0:
296,178,6187,2,0,L|366:166,1,60,10|0,0:0|0:0,0:0:0:0:
482,274,6401,2,0,L|416:263,1,60,2|0,0:0|0:0,0:0:0:0:
235,318,6615,6,0,B|224:256|224:256|235:228|235:228|201:186|237:125,1,180,2|2,3:2|0:0,0:0:0:0:
254,68,7044,1,10,0:0:0:0:
355,167,7258,1,2,0:0:0:0:
173,82,7473,1,0,3:2:0:0:
173,82,7580,1,0,0:0:0:0:
246,37,7687,6,0,P|257:71|245:126,1,71.9999978027344,10|0,0:0|0:0,0:0:0:0:
95,123,7901,2,0,P|84:89|96:34,1,71.9999978027344,10|0,0:0|0:0,0:0:0:0:
255,6,8115,2,0,P|290:78|270:141,1,143.999995605469,2|2,0:0|3:2,0:0:0:0:
119,228,8544,6,0,L|43:208,1,60,2|0,0:0|0:0,0:0:0:0:
185,292,8758,2,0,L|205:367,1,60,10|0,0:0|0:0,0:0:0:0:
208,203,8973,1,2,0:0:0:0:
208,203,9080,1,2,0:0:0:0:
208,203,9187,6,0,L|263:147,1,60,2|0,3:2|0:0,0:0:0:0:
398,152,9401,2,0,L|322:131,1,60,2|0,0:0|0:0,0:0:0:0:
262,16,9615,2,0,L|282:91,1,60,10|0,0:0|0:0,0:0:0:0:
315,225,9830,1,2,0:0:0:0:
315,225,9937,1,2,0:0:0:0:
315,225,10044,6,0,B|382:233|354:156|462:181,1,120,2|2,3:2|0:0,0:0:0:0:
496,216,10365,1,2,0:0:0:0:
496,216,10473,2,0,P|504:242|497:278,1,60,10|0,0:0|0:0,0:0:0:0:
362,316,10687,2,0,P|397:292|439:296,1,60,2|0,0:0|0:0,0:0:0:0:
486,369,10901,6,0,P|414:308|419:262,1,120,2|2,3:2|0:0,0:0:0:0:
353,216,11223,1,2,0:0:0:0:
353,216,11330,2,0,P|328:239|282:250,1,60,10|0,0:0|0:0,0:0:0:0:
214,234,11544,2,0,P|191:223|169:186,1,60,2|0,0:0|0:0,0:0:0:0:
257,59,11758,6,0,P|289:116|253:177,1,120,2|2,3:2|0:0,0:0:0:0:
166,98,12080,1,2,0:0:0:0:
166,98,12187,2,0,P|125:80|83:93,1,60,10|0,0:0|0:0,0:0:0:0:
33,176,12401,1,2,0:0:0:0:
111,160,12508,1,2,0:0:0:0:
33,176,12615,6,0,L|21:111,1,60,2|0,3:2|0:0,0:0:0:0:
173,38,12830,2,0,L|164:107,1,60,2|0,0:0|0:0,0:0:0:0:
123,218,13044,2,0,L|104:125,1,60,10|0,0:0|0:0,0:0:0:0:
264,0,13258,2,0,L|254:82,1,60,2|0,0:0|0:0,0:0:0:0:
291,266,13473,6,0,B|302:218|350:204|353:235|386:176|389:129|355:108|285:110|282:161,1,240,4|0,3:2|0:0,0:0:0:0:
291,266,13794,2,0,B|267:222|217:222|222:253|174:205|159:161|185:131|253:114|270:162,1,240,6|0,3:2|0:0,0:0:0:0:
291,266,14115,1,6,3:2:0:0:
367,357,14330,5,2,3:2:0:0:
402,364,14437,1,2,3:2:0:0:
436,350,14544,1,2,3:2:0:0:
453,317,14651,1,2,3:2:0:0:
472,244,14758,6,0,P|451:198|431:180,1,60,2|0,3:2|0:0,0:0:0:0:
499,117,14973,2,0,P|464:102|420:106,1,60,2|0,3:2|0:0,0:0:0:0:
364,150,15187,1,2,3:2:0:0:
236,110,15401,5,2,0:0:0:0:
268,232,15615,1,2,0:0:0:0:
147,200,15830,2,0,L|60:213,1,83.9999974365235,2|0,0:0|0:0,0:0:0:0:
236,110,16258,5,2,0:0:0:0:
268,232,16473,1,2,0:0:0:0:
364,150,16687,2,0,L|451:137,1,83.9999974365235,2|0,0:0|0:0,0:0:0:0:
255,32,17115,6,0,P|232:85|243:128,1,83.9999974365235,2|0,0:0|0:0,0:0:0:0:
235,109,17544,1,2,0:0:0:0:
268,231,17758,1,2,0:0:0:0:
291,162,17973,1,2,0:0:0:0:
246,304,18187,1,2,0:0:0:0:
268,231,18401,1,2,0:0:0:0:
304,355,18615,6,0,P|239:318|139:313,1,167.999994873047,2|0,0:0|0:0,0:0:0:0:
55,332,19258,1,2,0:0:0:0:
113,217,19473,2,0,P|175:180|161:84,2,167.999994873047,2|2|2,0:0|0:0|0:0,0:0:0:0:
113,217,20758,2,0,L|88:116,1,83.9999974365235,2|0,0:0|0:0,0:0:0:0:
35,250,21187,1,2,0:0:0:0:
169,92,21401,1,2,0:0:0:0:
254,126,21615,1,2,0:0:0:0:
328,69,21830,1,2,0:0:0:0:
430,170,22044,1,0,3:0:0:0:
316,207,22258,5,2,0:0:0:0:
408,299,22473,1,2,0:0:0:0:
278,330,22687,2,0,L|184:314,1,83.9999974365235,2|0,0:0|0:0,0:0:0:0:
316,207,23115,5,2,0:0:0:0:
408,299,23330,1,2,0:0:0:0:
430,170,23544,2,0,L|524:154,1,83.9999974365235,2|0,0:0|0:0,0:0:0:0:
316,207,23973,5,0,0:0:0:0:
272,135,24187,1,0,0:0:0:0:
304,56,24401,1,0,0:0:0:0:
200,19,24615,5,0,0:0:0:0:
148,145,24830,1,0,0:0:0:0:
215,266,25044,1,0,0:0:0:0:
133,148,25258,1,0,0:0:0:0:
188,15,25473,6,0,B|282:-2|249:101|368:77,1,167.999994873047,2|0,0:0|0:0,0:0:0:0:
414,17,26115,1,2,0:0:0:0:
344,161,26330,1,2,0:0:0:0:
426,182,26544,2,0,P|400:95|299:97,1,167.999994873047,2|2,0:0|0:0,0:0:0:0:
229,155,27187,6,0,P|242:232|288:325,1,143.999995605469,6|0,3:2|0:0,0:0:0:0:
117,112,27508,2,0,P|84:187|28:255,1,143.999995605469,6|0,3:2|0:0,0:0:0:0:
205,34,27830,1,6,3:2:0:0:
351,155,28044,6,0,P|386:176|441:169,1,71.9999978027344,2|0,3:2|0:0,0:0:0:0:
386,50,28258,2,0,P|351:29|296:36,1,71.9999978027344,2|0,0:0|0:0,0:0:0:0:
416,177,28473,2,0,P|437:142|430:87,1,71.9999978027344,10|0,0:0|0:0,0:0:0:0:
320,27,28687,2,0,P|299:62|306:117,1,71.9999978027344,10|8,0:0|0:0,0:0:0:0:
359,244,28901,1,6,3:2:0:0:
206,160,29115,6,0,P|178:137|135:131,1,60,2|0,0:0|0:0,0:0:0:0:
87,239,29330,2,0,P|126:229|145:206,1,60,2|0,0:0|0:0,0:0:0:0:
90,59,29544,2,0,P|80:166|104:182,1,120,2|0,0:0|0:0,0:0:0:0:
183,330,29973,5,2,0:0:0:0:
183,330,30080,1,0,0:0:0:0:
183,330,30187,2,0,L|247:318,1,60,2|0,0:0|0:0,0:0:0:0:
383,249,30401,2,0,L|259:229,1,120,2|0,0:0|0:0,0:0:0:0:
180,69,30830,5,2,0:0:0:0:
180,69,30937,1,0,0:0:0:0:
180,69,31044,2,0,P|224:53|250:62,1,60,2|0,0:0|0:0,0:0:0:0:
343,116,31258,2,0,P|308:133|268:128,1,60,2|0,0:0|0:0,0:0:0:0:
93,102,31473,6,0,L|102:35,1,60,2|0,0:0|0:0,0:0:0:0:
182,168,31687,1,2,0:0:0:0:
182,168,31794,1,0,0:0:0:0:
182,168,31901,2,0,L|175:238,1,60,2|0,0:0|0:0,0:0:0:0:
44,262,32115,2,0,L|51:185,1,60,2|0,0:0|0:0,0:0:0:0:
125,332,32330,6,0,P|223:323|248:273,1,120,2|2,3:2|0:0,0:0:0:0:
283,241,32651,1,2,0:0:0:0:
283,241,32758,2,0,P|249:221|213:218,1,60,2|0,0:0|0:0,0:0:0:0:
323,339,32973,2,0,P|355:359|406:355,1,60,2|0,0:0|0:0,0:0:0:0:
465,239,33187,6,0,P|472:168|483:116,1,120,2|2,0:0|0:0,0:0:0:0:
357,133,33508,1,2,0:0:0:0:
357,133,33615,2,0,P|395:101|418:89,1,60,2|0,0:0|0:0,0:0:0:0:
314,23,33830,2,0,P|344:17|374:19,1,60,2|2,0:0|0:0,0:0:0:0:
273,166,34044,6,0,P|186:150|167:88,1,120,2|2,0:0|0:0,0:0:0:0:
100,69,34365,1,2,0:0:0:0:
193,33,34473,2,0,L|161:206,1,120,0|2,0:0|0:0,0:0:0:0:
91,216,34794,1,2,0:0:0:0:
178,261,34901,6,0,L|187:320,1,60,2|0,0:0|0:0,0:0:0:0:
316,223,35115,2,0,L|259:201,1,60,10|0,0:0|0:0,0:0:0:0:
279,361,35330,2,0,L|325:322,1,60,10|0,0:0|0:0,0:0:0:0:
258,281,35544,1,2,0:0:0:0:
96,308,35758,1,2,3:2:0:0:
51,98,35973,6,0,P|85:108|108:133,1,60,2|0,0:0|0:0,0:0:0:0:
174,76,36187,2,0,P|188:132|182:157,1,60,2|0,0:0|0:0,0:0:0:0:
278,133,36401,2,0,P|253:196|195:227,1,120,2|0,0:0|0:0,0:0:0:0:
31,299,36830,5,2,0:0:0:0:
31,299,36937,1,0,0:0:0:0:
31,299,37044,2,0,L|20:218,1,60,2|0,0:0|0:0,0:0:0:0:
102,124,37258,2,0,L|116:250,1,120,2|0,0:0|0:0,0:0:0:0:
213,327,37687,5,2,0:0:0:0:
213,327,37794,1,0,0:0:0:0:
213,327,37901,2,0,P|258:314|280:286,1,60,2|0,0:0|0:0,0:0:0:0:
334,360,38115,2,0,P|356:318|352:283,1,60,2|0,0:0|0:0,0:0:0:0:
300,132,38330,6,0,P|277:173|281:208,1,60,2|0,0:0|0:0,0:0:0:0:
442,297,38544,2,0,P|429:252|401:230,1,60,2|0,0:0|0:0,0:0:0:0:
421,165,38758,2,0,P|376:178|354:206,1,60,2|0,0:0|0:0,0:0:0:0:
300,132,38973,2,0,P|277:173|281:208,1,60,2|0,0:0|0:0,0:0:0:0:
442,297,39187,6,0,P|482:249|480:160,1,120,2|2,0:0|0:0,0:0:0:0:
461,93,39508,1,2,0:0:0:0:
461,93,39615,2,0,L|393:83,1,60,2|0,0:0|0:0,0:0:0:0:
241,147,39830,2,0,L|306:130,1,60,2|0,0:0|0:0,0:0:0:0:
398,214,40044,5,2,0:0:0:0:
398,214,40151,1,2,0:0:0:0:
398,214,40258,2,0,L|373:273,1,60,2|0,0:0|0:0,0:0:0:0:
247,322,40473,2,0,L|232:250,1,60,2|0,0:0|0:0,0:0:0:0:
110,228,40687,1,2,0:0:0:0:
227,58,40901,6,0,B|216:106|168:120|165:89|132:148|129:195|163:216|233:214|236:163,1,240,6|0,3:2|0:0,0:0:0:0:
227,58,41223,2,0,B|251:102|301:102|296:71|344:119|359:163|333:193|265:210|248:162,1,240,6|0,3:2|0:0,0:0:0:0:
227,58,41544,1,6,3:2:0:0:
254,262,41758,5,2,3:2:0:0:
312,269,41865,1,2,3:2:0:0:
365,242,41973,1,2,3:2:0:0:
395,191,42080,1,2,3:2:0:0:
417,120,42187,2,0,L|404:49,1,60,10|0,0:0|0:0,0:0:0:0:
263,0,42401,2,0,L|249:78,1,60,10|0,0:0|0:0,0:0:0:0:
147,142,42615,6,0,B|44:189|-26:145|-15:71|50:19|140:28|158:78|118:223|81:155|38:222|61:275|117:326|117:326|86:290|104:235,1,587.999982055665,6|0,3:2|0:0,0:0:0:0:
241,157,44330,6,0,B|288:128|362:146|400:200|399:252|377:295|333:335|333:335|291:247|180:231|180:231|215:274|185:332,1,587.999982055665,6|0,0:0|0:0,0:0:0:0:
107,156,46044,6,0,B|125:105|125:105|237:80,2,167.999994873047,2|2|2,0:0|0:0|0:0,0:0:0:0:
26,210,47115,2,0,L|13:127,2,83.9999974365235,2|2|2,0:0|0:0|0:0,0:0:0:0:
102,288,47758,6,0,L|137:281,4,20.9999993591309,2|2|2|2|2,1:2|1:2|1:2|1:2|1:2,0:0:0:0:
202,221,48080,1,2,1:2:0:0:
243,213,48187,1,2,0:0:0:0:
328,277,48294,1,2,1:2:0:0:
328,277,48401,2,0,L|389:263,1,41.9999987182618,2|2,1:2|1:2,0:0:0:0:
355,145,48615,2,0,L|359:112,6,20.9999993591309,2|2|2|2|2|2|2,1:2|1:2|1:2|1:2|1:2|1:2|1:2,0:0:0:0:
243,213,49044,6,0,L|224:116,1,90.0000034332277,10|0,0:0|0:0,0:0:0:0:
75,67,49258,2,0,L|61:159,1,90.0000034332277,10|0,0:0|0:0,0:0:0:0:
92,326,49473,6,0,P|209:308|228:236,1,192,6|2,3:2|3:2,0:0:0:0:
215,146,50115,1,2,0:0:0:0:
371,252,50330,2,0,P|341:205|284:188,1,96,2|0,3:2|0:0,0:0:0:0:
66,143,50758,2,0,P|96:190|153:207,1,96,2|0,3:2|0:0,0:0:0:0:
226,51,51187,6,0,B|165:163|273:127|209:253,1,192,6|2,3:2|3:2,0:0:0:0:
296,104,51830,1,2,0:0:0:0:
302,258,52044,2,0,P|347:243|380:209,1,96,2|0,3:2|0:0,0:0:0:0:
383,81,52473,2,0,P|305:94|282:123,1,96,2|0,3:2|0:0,0:0:0:0:
131,205,52901,5,6,3:2:0:0:
39,190,53115,2,0,L|51:254,1,53.9999983520508,2|2,1:2|1:2,0:0:0:0:
198,322,53330,2,0,L|207:268,1,53.9999983520508,2|2,1:2|1:2,0:0:0:0:
333,172,53544,5,0,1:2:0:0:
321,120,53651,1,0,1:2:0:0:
279,88,53758,1,0,1:2:0:0:
226,90,53865,1,0,1:2:0:0:
183,120,53973,2,0,L|193:188,1,53.9999983520508,2|2,1:2|1:2,0:0:0:0:
344,308,54187,5,10,0:0:0:0:
355,238,54294,1,10,0:0:0:0:
368,169,54401,1,10,0:0:0:0:
380,100,54508,1,10,0:0:0:0:
240,45,54615,6,0,B|232:12|164:29|138:59|153:103|201:151|196:120|246:120|267:158,1,240,6|0,3:2|0:0,0:0:0:0:
261,43,54937,2,0,B|259:8|329:6|363:27|360:74|327:133|324:102|276:116|266:158,1,240,6|0,3:2|0:0,0:0:0:0:
286,271,55258,1,6,3:2:0:0:
216,328,55473,6,0,L|166:320,6,30,2|2|2|2|2|2|2,3:2|3:2|3:2|3:2|3:2|3:2|3:2,0:0:0:0:
286,271,55901,1,2,3:2:0:0:
253,228,56008,1,2,3:2:0:0:
289,187,56115,1,10,0:0:0:0:
263,139,56223,1,10,0:0:0:0:
297,97,56330,6,0,B|398:80|364:183|471:162,1,180.000006866455,6|0,3:2|0:0,0:0:0:0:
447,55,56651,1,0,0:0:0:0:
447,55,56758,2,0,P|435:95|430:145,1,90.0000034332277,10|0,0:0|0:0,0:0:0:0:
304,189,56973,2,0,P|295:131|276:86,1,90.0000034332277,2|0,0:0|0:0,0:0:0:0:
88,64,57187,6,0,P|118:177|198:170,1,180.000006866455,2|0,3:2|0:0,0:0:0:0:
255,27,57508,1,0,0:0:0:0:
255,27,57615,2,0,P|194:26|161:62,1,90.0000034332277,10|0,0:0|0:0,0:0:0:0:
248,222,57830,2,0,P|309:223|342:187,1,90.0000034332277,2|0,0:0|0:0,0:0:0:0:
447,55,58044,6,0,B|459:122|459:122|440:166|440:166|458:279,1,180.000006866455,2|2,3:2|0:0,0:0:0:0:
405,315,58365,1,2,0:0:0:0:
405,315,58473,2,0,P|363:292|314:292,1,90.0000034332277,10|0,0:0|0:0,0:0:0:0:
187,182,58687,2,0,P|233:148|284:151,1,90.0000034332277,2|0,0:0|0:0,0:0:0:0:
203,337,58901,6,0,P|106:331|76:251,1,180.000006866455,2|0,3:2|0:0,0:0:0:0:
48,171,59223,1,0,0:0:0:0:
48,171,59330,2,0,P|41:126|31:82,1,90.0000034332277,10|0,0:0|0:0,0:0:0:0:
246,247,59544,2,0,P|252:202|262:158,1,90.0000034332277,2|0,0:0|0:0,0:0:0:0:
114,23,59758,6,0,P|125:70|132:138,1,90.0000034332277,2|0,3:2|0:0,0:0:0:0:
156,275,59973,2,0,P|162:230|172:186,1,90.0000034332277,2|0,0:0|0:0,0:0:0:0:
46,88,60187,1,10,0:0:0:0:
246,247,60401,2,0,B|345:271|305:151|434:180,1,180.000006866455,2|2,0:0|3:2,0:0:0:0:
480,216,60723,1,2,0:0:0:0:
480,216,60830,6,0,L|452:318,1,90.0000034332277,2|0,0:0|0:0,0:0:0:0:
278,154,61044,2,0,L|310:59,1,90.0000034332277,10|0,0:0|0:0,0:0:0:0:
458,30,61258,1,2,0:0:0:0:
458,30,61365,1,2,0:0:0:0:
458,30,61473,6,0,P|499:84|439:179,1,180.000006866455,2|2,3:2|0:0,0:0:0:0:
340,117,61794,1,2,0:0:0:0:
459,254,61901,2,0,P|379:236|363:212,1,90.0000034332277,10|0,0:0|0:0,0:0:0:0:
338,87,62115,2,0,P|394:88|436:128,1,90.0000034332277,2|2,0:0|0:0,0:0:0:0:
475,267,62330,1,2,3:2:0:0:
183,193,62544,6,0,P|252:153|320:170,1,107.999996704102,10|0,0:0|0:0,0:0:0:0:
329,289,62758,2,0,P|260:329|192:312,1,107.999996704102,10|0,0:0|0:0,0:0:0:0:
183,193,62973,2,0,P|252:153|320:170,1,107.999996704102,2|0,0:0|0:0,0:0:0:0:
98,301,63187,6,0,B|54:260|54:260|45:127,1,180.000006866455,2|2,3:2|0:0,0:0:0:0:
124,24,63508,1,2,0:0:0:0:
124,24,63615,2,0,L|132:137,1,90.0000034332277,10|0,0:0|0:0,0:0:0:0:
23,247,63830,2,0,L|17:147,1,90.0000034332277,2|0,0:0|0:0,0:0:0:0:
213,66,64044,6,0,B|313:34|283:156|416:110,1,180.000006866455,2|2,3:2|0:0,0:0:0:0:
471,112,64365,1,2,0:0:0:0:
471,112,64473,2,0,P|483:76|460:23,1,90.0000034332277,10|0,0:0|0:0,0:0:0:0:
368,36,64687,2,0,P|356:72|379:125,1,90.0000034332277,2|0,0:0|0:0,0:0:0:0:
464,280,64901,6,0,P|397:207|311:217,1,180.000006866455,2|2,3:2|0:0,0:0:0:0:
218,271,65223,1,2,0:0:0:0:
218,271,65330,2,0,L|241:371,1,90.0000034332277,10|0,0:0|0:0,0:0:0:0:
64,258,65544,2,0,L|82:164,1,90.0000034332277,2|0,0:0|0:0,0:0:0:0:
294,61,65758,6,0,P|212:152|162:137,1,180.000006866455,2|2,3:2|0:0,0:0:0:0:
102,77,66080,1,2,0:0:0:0:
102,77,66187,2,0,P|68:48|16:40,1,90.0000034332277,10|0,0:0|0:0,0:0:0:0:
64,258,66401,2,0,P|129:304|169:299,1,90.0000034332277,2|0,0:0|0:0,0:0:0:0:
333,371,66615,6,0,L|311:186,1,180.000006866455,2|2,3:2|0:0,0:0:0:0:
352,119,66937,1,2,0:0:0:0:
352,119,67044,2,0,B|387:110|387:110|401:116|401:116|454:104,1,90.0000034332277,10|0,0:0|0:0,0:0:0:0:
235,244,67258,6,0,B|161:226|161:226|136:240|136:240|49:220,1,180.000006866455,2|2,0:0|3:2,0:0:0:0:
38,146,67580,1,2,0:0:0:0:
38,146,67687,2,0,P|23:95|41:54,1,90.0000034332277,2|0,0:0|0:0,0:0:0:0:
121,197,67901,2,0,P|164:186|192:153,1,90.0000034332277,10|0,0:0|0:0,0:0:0:0:
196,54,68115,2,0,P|165:22|122:14,1,90.0000034332277,2|0,0:0|0:0,0:0:0:0:
115,102,68330,6,0,L|301:83,1,120,6|2,3:2|0:0,0:0:0:0:
347,78,68544,1,2,0:0:0:0:
495,210,68651,6,0,L|309:191,1,120,6|2,3:2|0:0,0:0:0:0:
263,186,68865,1,2,0:0:0:0:
115,322,68973,2,0,L|301:303,1,120,6|2,3:2|0:0,0:0:0:0:
347,298,69187,5,2,3:2:0:0:
347,298,69294,1,2,3:2:0:0:
347,298,69401,2,0,P|359:252|353:226,1,60,2|2,3:2|3:2,0:0:0:0:
158,179,69615,2,0,P|158:209|169:237,1,60,2|2,3:2|0:0,0:0:0:0:
344,143,69830,2,0,P|356:97|350:71,1,60,10|2,0:0|0:0,0:0:0:0:
171,29,70044,5,6,3:2:0:0:
171,29,70473,2,0,L|61:58,1,90.0000034332277,6|0,3:2|0:0,0:0:0:0:
242,108,70687,2,0,L|198:190,1,90.0000034332277,2|0,0:0|0:0,0:0:0:0:
354,85,70901,6,0,L|408:264,1,180.000006866455,2|0,3:2|0:0,0:0:0:0:
437,336,71223,1,0,0:0:0:0:
437,336,71330,2,0,P|490:313|494:277,1,90.0000034332277,10|0,0:0|0:0,0:0:0:0:
290,187,71544,2,0,P|237:210|233:246,1,90.0000034332277,2|0,0:0|0:0,0:0:0:0:
316,376,71758,6,0,P|317:239|293:170,1,180.000006866455,2|2,3:2|0:0,0:0:0:0:
255,114,72080,1,2,0:0:0:0:
255,114,72187,2,0,P|239:72|236:15,1,90.0000034332277,10|0,0:0|0:0,0:0:0:0:
400,79,72401,2,0,P|358:52|316:55,1,90.0000034332277,2|0,0:0|0:0,0:0:0:0:
186,194,72615,6,0,B|295:217|236:90|388:136,1,180.000006866455,2|0,3:2|0:0,0:0:0:0:
470,175,72937,1,0,0:0:0:0:
470,175,73044,2,0,P|495:227|485:270,1,90.0000034332277,10|0,0:0|0:0,0:0:0:0:
394,284,73258,2,0,P|369:232|379:189,1,90.0000034332277,2|0,0:0|0:0,0:0:0:0:
436,80,73473,5,2,3:2:0:0:
451,64,73687,2,0,P|393:53|353:40,1,90.0000034332277,2|0,0:0|0:0,0:0:0:0:
304,170,73901,2,0,P|246:179|195:205,1,90.0000034332277,10|0,0:0|0:0,0:0:0:0:
37,30,74115,6,0,P|130:79|215:87,1,180.000006866455,2|2,0:0|3:2,0:0:0:0:
365,125,74437,1,2,0:0:0:0:
365,125,74544,2,0,L|345:25,1,90.0000034332277,2|0,0:0|0:0,0:0:0:0:
165,0,74758,2,0,L|138:109,1,90.0000034332277,10|0,0:0|0:0,0:0:0:0:
293,252,74973,2,0,L|272:147,1,90.0000034332277,2|0,0:0|0:0,0:0:0:0:
48,173,75187,6,0,P|131:231|204:201,1,180.000006866455,2|2,3:2|0:0,0:0:0:0:
225,122,75508,1,2,0:0:0:0:
367,221,75615,2,0,P|329:176|279:171,1,90.0000034332277,10|0,0:0|0:0,0:0:0:0:
239,36,75830,2,0,P|220:89|237:146,1,90.0000034332277,2|2,0:0|0:0,0:0:0:0:
282,279,76044,1,2,3:2:0:0:
282,279,76258,6,0,P|291:215|263:168,1,107.999996704102,10|0,0:0|0:0,0:0:0:0:
139,192,76473,2,0,P|130:256|158:303,1,107.999996704102,10|0,0:0|0:0,0:0:0:0:
282,279,76687,2,0,P|291:215|263:168,1,107.999996704102,2|0,0:0|0:0,0:0:0:0:
162,64,76901,6,0,B|127:51|127:51|48:72,1,90.0000034332277,2|0,3:2|0:0,0:0:0:0:
53,192,77115,2,0,B|88:205|88:205|167:184,1,90.0000034332277,2|0,0:0|0:0,0:0:0:0:
327,107,77330,2,0,B|340:72|340:72|319:-7,1,90.0000034332277,10|0,0:0|0:0,0:0:0:0:
205,63,77544,2,0,B|192:98|192:98|213:177,1,90.0000034332277,2|0,0:0|0:0,0:0:0:0:
282,279,77758,6,0,B|380:296|341:194|463:207,1,180.000006866455,2|2,3:2|0:0,0:0:0:0:
484,288,78080,1,2,0:0:0:0:
484,288,78187,2,0,L|456:379,1,90.0000034332277,10|0,0:0|0:0,0:0:0:0:
295,200,78401,1,2,0:0:0:0:
295,200,78508,1,2,0:0:0:0:
324,108,78615,6,0,P|379:147|389:193,1,90.0000034332277,2|0,3:2|0:0,0:0:0:0:
358,267,78830,2,0,P|296:295|251:280,1,90.0000034332277,2|0,0:0|0:0,0:0:0:0:
203,216,79044,2,0,P|209:148|244:117,1,90.0000034332277,10|0,0:0|0:0,0:0:0:0:
324,108,79258,2,0,P|379:147|389:193,1,90.0000034332277,2|0,0:0|0:0,0:0:0:0:
295,200,79473,2,0,B|197:217|236:115|114:128,1,180.000006866455,2|2,3:2|0:0,0:0:0:0:
52,163,79794,1,2,0:0:0:0:
52,163,79901,2,0,L|73:278,1,90.0000034332277,10|0,0:0|0:0,0:0:0:0:
282,127,80115,2,0,P|299:90|287:45,1,90.0000034332277,2|0,0:0|0:0,0:0:0:0:
141,127,80330,6,0,P|166:221|256:228,1,180.000006866455,2|2,3:2|0:0,0:0:0:0:
336,218,80651,1,2,0:0:0:0:
336,218,80758,2,0,L|432:199,1,90.0000034332277,10|0,0:0|0:0,0:0:0:0:
294,348,80973,2,0,L|98:306,1,180.000006866455,2|2,0:0|3:2,0:0:0:0:
36,266,81294,1,2,0:0:0:0:
114,218,81401,1,2,0:0:0:0:
114,218,81508,1,2,0:0:0:0:
114,218,81615,2,0,P|129:171|108:114,1,90.0000034332277,10|0,0:0|0:0,0:0:0:0:
28,81,81830,2,0,P|13:128|34:185,1,90.0000034332277,2|0,0:0|0:0,0:0:0:0:
235,245,82044,6,0,B|259:201|309:201|304:232|352:184|367:140|341:110|273:93|256:141,1,240,6|0,3:2|0:0,0:0:0:0:
235,245,82365,2,0,B|224:197|176:183|173:214|140:155|137:108|171:87|241:89|244:140,1,240,6|0,3:2|0:0,0:0:0:0:
235,245,82687,1,6,3:2:0:0:
300,329,82901,5,2,3:2:0:0:
336,322,83008,1,2,3:2:0:0:
373,315,83115,1,2,3:2:0:0:
409,309,83223,1,2,3:2:0:0:
474,256,83330,2,0,P|490:229|490:183,1,60,2|0,3:2|0:0,0:0:0:0:
417,141,83544,2,0,P|397:185|402:217,1,60,2|0,3:2|0:0,0:0:0:0:
490,340,83758,5,6,3:2:0:0:
490,340,84615,6,0,P|439:294|399:294,1,96,2|2,0:0|0:0,0:0:0:0:
324,314,84937,1,10,0:0:0:0:
324,314,85044,2,0,L|340:373,1,48,10|0,0:0|0:0,0:0:0:0:
235,296,85258,2,0,L|252:236,1,48,2|0,3:2|3:0,0:0:0:0:
99,348,85473,5,6,3:2:0:0:
22,242,85687,2,0,P|55:219|77:179,1,60,2|0,0:0|0:0,0:0:0:0:
88,68,85901,2,0,P|90:107|113:147,1,60,10|0,0:0|0:0,0:0:0:0:
204,211,86115,1,2,0:0:0:0:
204,211,86223,1,0,0:0:0:0:
204,211,86330,6,0,P|167:193|121:193,1,60,2|0,3:2|0:0,0:0:0:0:
89,288,86544,2,0,L|102:367,1,60,2|0,0:0|0:0,0:0:0:0:
195,293,86758,2,0,L|209:232,1,60,10|0,0:0|0:0,0:0:0:0:
98,126,86973,1,2,0:0:0:0:
98,126,87080,1,2,0:0:0:0:
98,126,87187,6,0,L|116:263,1,120,2|2,3:2|0:0,0:0:0:0:
236,362,87508,1,2,0:0:0:0:
236,362,87615,2,0,L|311:339,1,60,10|0,0:0|0:0,0:0:0:0:
384,255,87830,2,0,L|312:239,1,60,2|2,0:0|0:0,0:0:0:0:
213,166,88044,6,0,L|341:136,1,120,2|2,3:2|0:0,0:0:0:0:
457,42,88365,1,2,0:0:0:0:
457,42,88473,2,0,P|470:70|468:109,1,60,10|0,0:0|0:0,0:0:0:0:
431,236,88687,2,0,L|416:149,1,60,2|0,0:0|0:0,0:0:0:0:
309,41,88901,6,0,L|224:60,1,60,2|0,3:2|0:0,0:0:0:0:
100,82,89115,2,0,L|193:99,1,60,2|0,0:0|0:0,0:0:0:0:
329,138,89330,1,10,0:0:0:0:
327,196,89437,1,2,0:0:0:0:
291,243,89544,1,2,0:0:0:0:
234,258,89651,1,2,0:0:0:0:
153,244,89758,6,0,L|94:232,1,60,2|0,3:2|0:0,0:0:0:0:
225,122,89973,2,0,L|240:194,1,60,2|0,0:0|0:0,0:0:0:0:
313,318,90187,2,0,L|331:241,1,60,10|0,0:0|0:0,0:0:0:0:
445,151,90401,2,0,L|379:140,1,60,2|0,0:0|0:0,0:0:0:0:
260,35,90615,6,0,P|192:33|137:133,1,180,2|2,3:2|0:0,0:0:0:0:
160,219,91044,1,10,0:0:0:0:
313,114,91258,1,2,0:0:0:0:
260,273,91473,1,0,3:2:0:0:
260,273,91580,1,0,0:0:0:0:
187,318,91687,6,0,P|176:284|188:229,1,71.9999978027344,10|0,0:0|0:0,0:0:0:0:
338,232,91901,2,0,P|349:266|337:321,1,71.9999978027344,10|0,0:0|0:0,0:0:0:0:
178,349,92115,2,0,P|143:277|163:214,1,143.999995605469,2|2,0:0|3:2,0:0:0:0:
313,114,92544,6,0,L|392:125,1,60,2|0,0:0|0:0,0:0:0:0:
229,58,92758,2,0,L|150:70,1,60,10|0,0:0|0:0,0:0:0:0:
215,208,92973,1,2,0:0:0:0:
215,208,93080,1,2,0:0:0:0:
215,208,93187,6,0,L|233:120,1,60,2|0,3:2|0:0,0:0:0:0:
303,54,93401,2,0,L|314:121,1,60,2|0,0:0|0:0,0:0:0:0:
400,192,93615,2,0,L|410:123,1,60,10|0,0:0|0:0,0:0:0:0:
472,36,93830,1,2,0:0:0:0:
472,36,93937,1,2,0:0:0:0:
472,36,94044,6,0,P|502:85|482:161,1,120,2|2,3:2|0:0,0:0:0:0:
463,270,94365,1,2,0:0:0:0:
463,270,94473,2,0,P|445:290|410:303,1,60,10|0,0:0|0:0,0:0:0:0:
307,209,94687,2,0,P|345:225|364:263,1,60,2|0,0:0|0:0,0:0:0:0:
315,328,94901,6,0,L|306:200,1,120,2|2,3:2|0:0,0:0:0:0:
299,115,95223,1,2,0:0:0:0:
220,163,95330,2,0,P|195:186|149:197,1,60,10|0,0:0|0:0,0:0:0:0:
89,102,95544,2,0,P|122:72|163:66,1,60,2|0,0:0|0:0,0:0:0:0:
231,43,95758,6,0,L|218:178,1,120,2|2,3:2|0:0,0:0:0:0:
211,276,96080,1,2,0:0:0:0:
211,276,96187,2,0,P|170:281|128:271,1,60,10|0,0:0|0:0,0:0:0:0:
285,211,96401,1,2,0:0:0:0:
285,211,96508,1,2,0:0:0:0:
285,211,96615,6,0,P|318:198|361:199,1,60,2|0,3:2|0:0,0:0:0:0:
152,361,96830,2,0,P|95:340|73:260,1,120,2|8,0:0|0:0,0:0:0:0:
54,209,97151,1,0,0:0:0:0:
54,209,97258,2,0,L|64:141,1,60,2|0,0:0|0:0,0:0:0:0:
226,50,97473,6,0,B|224:15|294:13|328:34|325:81|292:140|289:109|241:123|231:165,1,240,4|0,3:2|0:0,0:0:0:0:
206,52,97794,2,0,B|199:20|131:37|105:67|120:111|168:159|163:128|213:128|233:165,1,240,6|0,3:2|0:0,0:0:0:0:
253,288,98115,1,6,3:2:0:0:
397,337,98330,5,2,3:2:0:0:
435,316,98437,1,2,3:2:0:0:
457,279,98544,1,2,3:2:0:0:
457,236,98651,1,2,3:2:0:0:
422,169,98758,2,0,L|349:160,1,60,2|0,3:2|0:0,0:0:0:0:
254,207,98973,2,0,L|163:193,1,60,2|0,3:2|0:0,0:0:0:0:
28,101,99187,5,6,3:2:0:0:
45,221,99401,2,0,P|79:201|105:163,1,60,2|0,0:0|0:0,0:0:0:0:
125,53,99615,2,0,P|124:92|143:134,1,60,10|0,0:0|0:0,0:0:0:0:
229,206,99830,1,2,0:0:0:0:
229,206,99937,1,0,0:0:0:0:
229,206,100044,6,0,P|193:185|148:181,1,60,2|0,3:2|0:0,0:0:0:0:
98,277,100258,2,0,L|105:337,1,60,2|0,0:0|0:0,0:0:0:0:
236,373,100473,2,0,L|247:309,1,60,10|0,0:0|0:0,0:0:0:0:
363,211,100687,1,2,0:0:0:0:
363,211,100794,1,2,0:0:0:0:
363,211,100901,6,0,B|380:270|380:270|362:349,1,120,2|2,3:2|0:0,0:0:0:0:
264,219,101223,1,2,0:0:0:0:
264,219,101330,2,0,P|244:209|191:208,1,60,10|0,0:0|0:0,0:0:0:0:
131,300,101544,2,0,P|169:316|199:311,1,60,2|2,0:0|0:0,0:0:0:0:
342,254,101758,6,0,L|328:127,1,120,2|2,3:2|0:0,0:0:0:0:
236,58,102080,1,2,0:0:0:0:
236,58,102187,2,0,L|225:121,1,60,10|0,0:0|0:0,0:0:0:0:
126,178,102401,2,0,L|116:108,1,60,2|0,0:0|0:0,0:0:0:0:
312,17,102615,6,0,P|347:31|365:58,1,60,2|0,3:2|0:0,0:0:0:0:
450,60,102830,2,0,P|453:96|445:129,1,60,2|0,0:0|0:0,0:0:0:0:
506,188,103044,1,10,0:0:0:0:
478,239,103151,1,2,0:0:0:0:
425,265,103258,1,2,0:0:0:0:
368,254,103365,1,2,0:0:0:0:
293,232,103473,6,0,L|235:218,1,60,2|0,3:2|0:0,0:0:0:0:
104,305,103687,2,0,L|170:294,1,60,2|0,0:0|0:0,0:0:0:0:
305,214,103901,2,0,L|235:202,1,60,10|0,0:0|0:0,0:0:0:0:
91,148,104115,2,0,L|157:137,1,60,2|0,0:0|0:0,0:0:0:0:
256,45,104330,6,0,P|243:149|242:248,1,180,2|2,3:2|0:0,0:0:0:0:
264,318,104758,1,10,0:0:0:0:
425,265,104973,1,2,0:0:0:0:
349,97,105187,1,0,3:2:0:0:
349,97,105294,1,0,0:0:0:0:
428,56,105401,6,0,P|439:90|427:145,1,71.9999978027344,10|0,0:0|0:0,0:0:0:0:
266,135,105615,2,0,P|255:101|267:46,1,71.9999978027344,10|0,0:0|0:0,0:0:0:0:
433,23,105830,2,0,P|468:95|448:158,1,143.999995605469,2|2,0:0|3:2,0:0:0:0:
372,253,106258,6,0,L|315:236,1,60,2|0,0:0|0:0,0:0:0:0:
250,169,106473,2,0,L|232:93,1,60,10|0,0:0|0:0,0:0:0:0:
224,257,106687,1,2,0:0:0:0:
224,257,106794,1,2,0:0:0:0:
224,257,106901,6,0,L|167:311,1,60,2|0,3:2|0:0,0:0:0:0:
109,173,107115,2,0,L|185:194,1,60,2|0,0:0|0:0,0:0:0:0:
236,110,107330,2,0,L|216:35,1,60,10|0,0:0|0:0,0:0:0:0:
118,38,107544,1,2,0:0:0:0:
118,38,107651,1,2,0:0:0:0:
118,38,107758,6,0,P|82:43|43:122,1,120,2|2,3:2|0:0,0:0:0:0:
21,224,108080,1,2,0:0:0:0:
21,224,108187,2,0,L|95:210,1,60,10|0,0:0|0:0,0:0:0:0:
184,142,108401,2,0,L|267:152,1,60,2|0,0:0|0:0,0:0:0:0:
372,256,108615,6,0,P|379:184|390:114,1,120,2|2,3:2|0:0,0:0:0:0:
302,26,108937,1,2,0:0:0:0:
302,26,109044,2,0,P|295:67|294:109,1,60,10|0,0:0|0:0,0:0:0:0:
217,226,109258,2,0,P|207:185|207:144,1,60,2|0,0:0|0:0,0:0:0:0:
397,65,109473,6,0,P|454:103|437:183,1,120,2|2,3:2|0:0,0:0:0:0:
453,239,109794,1,2,0:0:0:0:
453,239,109901,2,0,L|370:226,1,60,10|0,0:0|0:0,0:0:0:0:
205,167,110115,1,2,0:0:0:0:
283,151,110223,1,2,0:0:0:0:
205,167,110330,6,0,L|216:263,1,60,2|0,3:2|0:0,0:0:0:0:
286,353,110544,2,0,L|295:284,1,60,2|0,0:0|0:0,0:0:0:0:
113,155,110758,2,0,L|126:248,1,60,10|0,0:0|0:0,0:0:0:0:
370,342,110973,2,0,L|380:260,1,60,2|0,0:0|0:0,0:0:0:0:
241,42,111187,6,0,B|236:7|167:17|137:43|148:89|191:142|189:111|238:116|256:156,1,240,4|0,3:2|0:0,0:0:0:0:
262,38,111508,2,0,B|263:5|333:10|364:35|356:81|318:136|317:105|268:114|255:153,1,240,6|0,3:2|0:0,0:0:0:0:
257,272,111830,1,6,3:2:0:0:
117,210,112044,5,2,3:2:0:0:
185,197,112151,1,2,3:2:0:0:
254,187,112258,1,2,3:2:0:0:
322,180,112365,1,2,3:2:0:0:
391,176,112472,1,2,3:2:0:0:
117,210,112687,1,2,3:2:0:0:
