osu file format v14

[General]
AudioFilename: audio.mp3
AudioLeadIn: 0
PreviewTime: 55151
Countdown: 0
SampleSet: Soft
StackLeniency: 0.7
Mode: 0
LetterboxInBreaks: 0
WidescreenStoryboard: 0

[Editor]
DistanceSpacing: 1
BeatDivisor: 4
GridSize: 4
TimelineZoom: 1

[Metadata]
Title:White Canvas (feat. Aitsuki Nakuru) (osu! edit)
TitleUnicode:White Canvas (feat. 藍月なくる) (osu! edit)
Artist:rejection
ArtistUnicode:rejection
Creator:Ogura Yui
Version:Light Insane
Source:
Tags:yuuma fa featured artist mpg mappers' guild japanese pop jpop j-pop electronic
BeatmapID:3266998
BeatmapSetID:1599605

[Difficulty]
HPDrainRate:5
CircleSize:4
OverallDifficulty:7
ApproachRate:8
SliderMultiplier:1.7
SliderTickRate:1

[Events]
//Background and Video events
0,0,"E_IrCyyVUAEdp3h.jpg",0,0
//Break Periods
//Storyboard Layer 0 (Background)
//Storyboard Layer 1 (Fail)
//Storyboard Layer 2 (Pass)
//Storyboard Layer 3 (Foreground)
//Storyboard Layer 4 (Overlay)
//Storyboard Sound Samples

[TimingPoints]
1473,428.571428571429,4,2,1,80,1,0
15187,-142.857142857143,4,2,1,60,0,0
27187,-100,4,2,1,70,0,0
28901,-111.111111111111,4,2,1,60,0,0
40901,-100,4,2,1,60,0,0
42615,-142.857142857143,4,2,1,60,0,0
49473,-125,4,2,1,70,0,0
52901,-111.111111111111,4,2,1,70,0,0
54615,-100,4,2,1,70,0,0
56330,-100,4,2,1,80,0,1
68330,-83.3333333333333,4,2,1,80,0,1
69187,-100,4,2,1,80,0,1
82044,-83.3333333333333,4,2,1,80,0,1
83758,-100,4,2,1,80,0,0

[Colours]
Combo1 : 0,255,255
Combo2 : 79,101,187

[HitObjects]
63,92,1473,6,0,P|74:139|81:182,1,85,6|2,3:2|0:0,0:0:0:0:
49,269,1901,1,10,0:0:0:0:
197,192,2115,1,2,0:0:0:0:
197,192,2223,1,0,0:0:0:0:
197,192,2330,2,0,P|186:239|179:282,1,85,2|2,3:2|0:0,0:0:0:0:
156,104,2758,1,10,0:0:0:0:
257,72,2973,1,2,0:0:0:0:
257,72,3080,1,2,0:0:0:0:
257,72,3187,6,0,P|317:91|358:92,1,85,2|2,3:2|0:0,0:0:0:0:
420,76,3508,1,2,0:0:0:0:
420,76,3615,2,0,P|450:67|468:55,3,42.5,10|0|2|2,0:0|0:0|0:0|0:0,0:0:0:0:
338,92,4044,2,0,L|349:189,1,85,2|2,3:2|0:0,0:0:0:0:
413,231,4365,1,2,0:0:0:0:
413,231,4473,2,0,L|402:328,1,85,10|2,0:0|0:0,0:0:0:0:
218,271,4901,6,0,L|310:258,1,85,2|2,3:2|0:0,0:0:0:0:
190,187,5330,1,10,0:0:0:0:
159,195,5437,1,2,0:0:0:0:
136,217,5544,1,2,0:0:0:0:
124,246,5651,1,2,0:0:0:0:
126,278,5758,2,0,P|79:297|22:304,1,85,2|2,3:2|0:0,0:0:0:0:
6,147,6187,2,0,P|54:146|102:155,1,85,10|2,0:0|0:0,0:0:0:0:
190,187,6615,6,0,P|236:200|323:207,1,127.5,2|2,3:2|0:0,0:0:0:0:
340,204,7044,2,0,L|346:113,1,85,10|2,0:0|0:0,0:0:0:0:
443,183,7473,1,0,3:2:0:0:
265,116,7687,1,10,0:0:0:0:
409,11,7901,2,0,L|425:105,1,85,10|2,0:0|0:0,0:0:0:0:
276,95,8330,6,0,P|291:176|280:203,1,85,2|2,3:2|0:0,0:0:0:0:
256,266,8759,1,10,0:0:0:0:
393,140,8973,1,2,0:0:0:0:
393,140,9080,1,2,0:0:0:0:
393,140,9187,2,0,P|461:157|482:160,1,85,2|2,3:2|0:0,0:0:0:0:
356,257,9616,1,10,0:0:0:0:
291,177,9830,1,2,0:0:0:0:
291,177,9937,1,2,0:0:0:0:
291,177,10044,6,0,B|207:159|226:253|118:229,1,170,2|10,3:2|0:0,0:0:0:0:
39,187,10687,1,2,0:0:0:0:
119,106,10901,2,0,L|141:250,1,127.5,2|2,3:2|0:0,0:0:0:0:
100,297,11330,2,0,P|137:320|187:309,1,85,10|2,0:0|0:0,0:0:0:0:
285,353,11759,6,0,L|304:226,1,127.5,2|2,3:2|0:0,0:0:0:0:
371,177,12187,2,0,P|384:231|372:268,1,85,10|2,0:0|0:0,0:0:0:0:
399,339,12509,1,2,0:0:0:0:
399,339,12616,2,0,P|336:323|302:318,1,85,2|2,3:2|0:0,0:0:0:0:
208,157,13044,2,0,P|275:145|304:142,1,85,10|2,0:0|0:0,0:0:0:0:
202,303,13473,5,4,3:2:0:0:
63,245,13687,1,0,0:0:0:0:
63,245,13794,1,6,3:2:0:0:
63,245,13901,1,0,0:0:0:0:
131,102,14116,1,6,3:2:0:0:
269,158,14330,6,0,L|261:211,3,42.5,2|2|2|2,3:2|3:2|3:2|3:2,0:0:0:0:
283,228,14759,2,0,L|371:210,1,85,2|2,3:2|3:2,0:0:0:0:
465,179,15187,5,2,3:2:0:0:
403,69,15401,2,0,P|397:104|395:136,2,59.4999981842042,2|2|2,0:0|0:0|0:0,0:0:0:0:
233,32,16259,2,0,P|239:67|241:99,2,59.4999981842042,2|2|2,0:0|0:0|0:0,0:0:0:0:
101,153,17116,2,0,P|66:159|34:161,2,59.4999981842042,2|0|2,0:0|0:0|0:0,0:0:0:0:
173,211,17759,1,2,0:0:0:0:
173,211,17973,2,0,P|224:200|246:199,2,59.4999981842042,2|2|2,0:0|0:0|0:0,0:0:0:0:
89,246,18616,6,0,L|100:365,1,118.999996368408,2|0,0:0|0:0,0:0:0:0:
186,332,19259,1,2,0:0:0:0:
282,356,19473,1,2,0:0:0:0:
282,356,19901,1,2,0:0:0:0:
282,356,20330,6,0,P|344:365|391:328,2,118.999996368408,2|2|2,0:0|0:0|0:0,0:0:0:0:
317,261,21401,1,2,0:0:0:0:
317,261,21616,2,0,L|301:182,2,59.4999981842042,2|2|0,0:0|0:0|3:0,0:0:0:0:
404,181,22259,6,0,P|450:194|467:192,2,59.4999981842042,2|2|2,0:0|0:0|0:0,0:0:0:0:
285,51,23116,2,0,P|239:38|222:40,2,59.4999981842042,2|2|2,0:0|0:0|0:0,0:0:0:0:
232,223,23973,2,0,P|278:236|295:234,2,59.4999981842042,0|0|0,0:0|0:0|0:0,0:0:0:0:
155,179,24616,1,0,0:0:0:0:
155,179,24830,2,0,P|109:166|92:168,2,59.4999981842042,0|0|0,0:0|0:0|0:0,0:0:0:0:
232,134,25473,6,0,B|242:102|242:102|231:12,1,118.999996368408,2|0,0:0|0:0,0:0:0:0:
147,56,26116,1,2,0:0:0:0:
62,21,26330,1,2,0:0:0:0:
62,21,26544,2,0,L|56:96,1,59.4999981842042,2|0,0:0|0:0,0:0:0:0:
147,56,26973,1,2,0:0:0:0:
231,17,27187,6,0,P|296:32|367:40,2,127.5,6|6|6,3:2|3:2|3:2,0:0:0:0:
216,108,27937,1,0,0:0:0:0:
216,108,28044,2,0,P|206:172|219:204,1,85,2|2,3:2|0:0,0:0:0:0:
261,265,28473,2,0,P|271:329|258:361,1,85,10|10,0:0|0:0,0:0:0:0:
239,367,28794,1,8,0:0:0:0:
239,367,28901,5,6,3:2:0:0:
154,204,29116,1,2,0:0:0:0:
78,258,29330,2,0,L|91:343,1,76.4999976654053,2|2,0:0|0:0,0:0:0:0:
15,192,29759,1,0,0:0:0:0:
110,115,29973,5,2,0:0:0:0:
110,115,30187,2,0,L|23:105,1,76.4999976654053,2|2,0:0|0:0,0:0:0:0:
166,181,30616,1,0,0:0:0:0:
239,55,30830,5,2,0:0:0:0:
239,55,31044,2,0,P|250:100|235:148,1,76.4999976654053,2|2,0:0|0:0,0:0:0:0:
264,237,31473,2,0,P|297:204|346:193,1,76.4999976654053,2|2,0:0|0:0,0:0:0:0:
410,125,31901,2,0,P|365:112|331:75,1,76.4999976654053,2|2,0:0|0:0,0:0:0:0:
463,55,32330,6,0,P|455:113|445:236,1,152.999995330811,2|2,3:2|0:0,0:0:0:0:
477,286,32973,1,2,0:0:0:0:
388,359,33187,2,0,P|340:345|296:341,1,76.4999976654053,2|2,0:0|0:0,0:0:0:0:
266,246,33616,2,0,P|224:276|194:305,1,76.4999976654053,2|2,0:0|0:0,0:0:0:0:
100,218,34044,6,0,P|105:306|119:380,2,152.999995330811,2|0|2,0:0|0:0|0:0,0:0:0:0:
141,123,35116,1,10,0:0:0:0:
244,143,35330,2,0,P|302:151|339:152,1,76.4999976654053,10|2,0:0|0:0,0:0:0:0:
430,114,35759,5,2,3:2:0:0:
396,264,35973,1,2,0:0:0:0:
396,264,36187,2,0,L|387:175,1,76.4999976654053,2|2,0:0|0:0,0:0:0:0:
472,313,36616,1,0,0:0:0:0:
362,365,36830,5,2,0:0:0:0:
362,365,37044,2,0,L|277:352,1,76.4999976654053,2|2,0:0|0:0,0:0:0:0:
187,338,37473,1,0,0:0:0:0:
200,204,37687,5,2,0:0:0:0:
200,204,37901,2,0,P|246:239|251:275,1,76.4999976654053,2|2,0:0|0:0,0:0:0:0:
123,263,38330,2,0,P|69:285|36:271,1,76.4999976654053,2|2,0:0|0:0,0:0:0:0:
110,166,38759,2,0,P|117:108|145:86,1,76.4999976654053,2|2,0:0|0:0,0:0:0:0:
200,204,39187,6,0,B|277:223|270:153|347:164,1,152.999995330811,2|2,0:0|0:0,0:0:0:0:
439,188,39830,1,2,0:0:0:0:
488,104,40044,1,2,0:0:0:0:
488,104,40259,2,0,P|433:88|392:107,1,76.4999976654053,2|2,0:0|0:0,0:0:0:0:
439,188,40687,1,2,0:0:0:0:
341,163,40901,6,0,B|350:211|350:211|342:245|342:245|351:298,2,127.5,6|6|6,3:2|3:2|3:2,0:0:0:0:
324,72,41651,1,0,0:0:0:0:
324,72,41759,2,0,L|264:58,3,42.5,2|0|2|2,3:2|0:0|3:2|3:2,0:0:0:0:
253,86,42187,2,0,L|156:64,1,85,10|10,0:0|0:0,0:0:0:0:
88,105,42616,6,0,B|51:88|1:85|-46:157|-46:207|39:244|109:174|178:224|171:337|89:375|7:303,1,446.249986381531,6|0,3:2|0:0,0:0:0:0:
17,312,44330,6,0,B|61:249|127:226|230:300|195:318|230:367|323:395|376:352|404:279,1,446.249986381531,6|0,0:0|0:0,0:0:0:0:
405,278,46044,5,2,0:0:0:0:
456,187,46473,1,2,0:0:0:0:
385,111,46901,1,2,0:0:0:0:
291,155,47330,1,2,0:0:0:0:
304,259,47759,6,0,L|308:281,4,14.874999546051,2|2|2|2|2,1:2|1:2|1:2|1:2|1:2,0:0:0:0:
209,224,48080,2,0,L|212:184,2,29.7499990921021,2|2|2,1:2|0:0|1:2,0:0:0:0:
116,268,48401,2,0,L|120:302,1,29.7499990921021,2|2,1:2|1:2,0:0:0:0:
23,228,48616,6,0,L|24:208,6,14.874999546051,2|2|2|2|2|2|2,1:2|1:2|1:2|1:2|1:2|1:2|1:2,0:0:0:0:
116,268,49044,1,10,0:0:0:0:
209,224,49259,1,10,0:0:0:0:
304,259,49473,6,0,P|367:267|418:206,1,136,6|2,3:2|3:2,0:0:0:0:
463,125,50116,1,2,0:0:0:0:
380,63,50330,1,2,3:2:0:0:
380,63,50759,2,0,P|372:134|372:145,1,68,2|0,3:2|0:0,0:0:0:0:
281,141,51187,6,0,P|223:119|139:115,1,136,6|2,3:2|3:2,0:0:0:0:
61,144,51830,1,2,0:0:0:0:
82,233,52044,2,0,L|93:309,1,68,2|0,3:2|0:0,0:0:0:0:
61,144,52473,2,0,L|71:63,1,68,2|0,3:2|0:0,0:0:0:0:
184,199,52901,6,0,P|233:228|271:224,1,76.4999976654053,6|2,3:2|1:2,0:0:0:0:
329,203,53223,1,2,1:2:0:0:
329,203,53330,2,0,L|377:190,1,38.2499988327027,2|2,1:2|1:2,0:0:0:0:
434,140,53544,2,0,L|439:85,3,38.2499988327027,0|0|0|0,1:2|1:2|1:2|1:2,0:0:0:0:
341,65,53973,2,0,L|346:121,1,38.2499988327027,2|2,1:2|1:2,0:0:0:0:
251,131,54187,1,10,0:0:0:0:
251,131,54294,1,10,0:0:0:0:
251,131,54401,1,10,0:0:0:0:
251,131,54509,1,10,0:0:0:0:
251,131,54616,6,0,P|151:118|108:118,2,127.5,6|6|6,3:2|3:2|3:2,0:0:0:0:
374,268,55473,2,0,P|387:266|404:261,2,21.25,2|2|2,3:2|3:2|3:2,0:0:0:0:
214,314,55794,2,0,P|156:301|110:295,1,85,2|2,3:2|3:2,0:0:0:0:
46,319,56116,2,0,L|36:366,1,42.5,10|10,0:0|0:0,0:0:0:0:
63,232,56330,6,0,P|43:140|116:104,1,170,6|10,3:2|0:0,0:0:0:0:
182,185,56973,1,2,0:0:0:0:
284,38,57187,1,2,3:2:0:0:
284,38,57616,2,0,P|231:68|221:112,1,85,10|2,0:0|0:0,0:0:0:0:
282,174,58044,6,0,B|346:186|333:112|421:134,1,127.5,2|2,3:2|0:0,0:0:0:0:
422,135,58473,1,10,0:0:0:0:
310,64,58687,1,2,0:0:0:0:
395,218,58901,1,2,3:2:0:0:
395,218,59330,1,10,0:0:0:0:
482,202,59544,1,2,0:0:0:0:
409,310,59759,6,0,P|344:300|326:277,1,85,2|2,3:2|0:0,0:0:0:0:
259,234,60187,1,10,0:0:0:0:
184,305,60401,2,0,P|232:247|202:154,1,170,2|2,0:0|0:0,0:0:0:0:
100,130,61044,2,0,L|112:225,1,85,10|2,0:0|0:0,0:0:0:0:
207,46,61473,5,2,3:2:0:0:
320,94,61687,1,2,0:0:0:0:
320,94,61794,1,2,0:0:0:0:
320,94,61901,1,10,0:0:0:0:
209,161,62116,1,2,0:0:0:0:
101,42,62330,1,2,3:2:0:0:
124,208,62544,1,10,0:0:0:0:
86,46,62759,2,0,L|74:152,1,85,10|2,0:0|0:0,0:0:0:0:
81,286,63187,6,0,P|152:304|209:228,1,170,2|10,3:2|0:0,0:0:0:0:
259,133,63830,1,2,0:0:0:0:
326,231,64044,2,0,L|415:214,1,85,2|2,3:2|0:0,0:0:0:0:
432,227,64366,1,2,0:0:0:0:
432,227,64473,2,0,L|418:329,1,85,10|2,0:0|0:0,0:0:0:0:
510,150,64901,6,0,P|453:113|412:123,1,85,2|2,3:2|0:0,0:0:0:0:
340,53,65330,2,0,L|358:165,1,85,10|2,0:0|0:0,0:0:0:0:
293,235,65759,1,2,3:2:0:0:
239,119,65973,2,0,L|191:106,2,42.5,2|2|10,0:0|0:0|0:0,0:0:0:0:
293,235,66401,1,2,0:0:0:0:
200,321,66616,6,0,P|171:236|192:186,1,127.5,2|2,3:2|0:0,0:0:0:0:
181,203,67044,1,10,0:0:0:0:
78,134,67259,2,0,P|54:174|69:298,1,170,2|2,0:0|0:0,0:0:0:0:
127,368,67901,2,0,L|230:343,1,85,10|2,0:0|0:0,0:0:0:0:
357,293,68330,6,0,P|416:319|460:302,1,101.999996887207,6|2,3:2|0:0,0:0:0:0:
464,225,68651,2,0,P|405:199|361:216,1,101.999996887207,6|2,3:2|0:0,0:0:0:0:
291,240,68973,1,6,3:2:0:0:
333,96,69187,5,2,3:2:0:0:
333,96,69294,1,2,3:2:0:0:
333,96,69401,2,0,L|327:157,1,42.5,2|2,3:2|3:2,0:0:0:0:
219,166,69616,1,2,3:2:0:0:
219,166,69723,1,2,0:0:0:0:
219,166,69830,2,0,L|208:105,1,42.5,10|2,0:0|0:0,0:0:0:0:
137,47,70044,5,6,3:2:0:0:
137,47,70473,2,0,P|177:35|239:29,1,85,6|2,3:2|0:0,0:0:0:0:
219,166,70901,2,0,P|143:154|61:152,1,127.5,2|0,3:2|0:0,0:0:0:0:
61,162,71330,2,0,L|46:69,1,85,10|2,0:0|0:0,0:0:0:0:
56,260,71759,6,0,P|104:311|140:305,1,85,2|2,3:2|0:0,0:0:0:0:
146,307,72080,1,2,0:0:0:0:
146,307,72187,2,0,L|234:295,1,85,10|2,0:0|0:0,0:0:0:0:
336,343,72616,1,2,3:2:0:0:
336,343,73044,1,10,0:0:0:0:
326,236,73259,1,2,0:0:0:0:
435,287,73473,6,0,L|441:190,1,85,2|2,3:2|0:0,0:0:0:0:
336,343,73901,1,10,0:0:0:0:
326,236,74116,2,0,L|309:58,1,170,2|2,0:0|0:0,0:0:0:0:
407,9,74759,2,0,P|426:56|409:109,1,85,10|2,0:0|0:0,0:0:0:0:
440,202,75187,5,2,3:2:0:0:
333,80,75401,1,2,0:0:0:0:
333,80,75509,1,2,0:0:0:0:
333,80,75616,1,10,0:0:0:0:
263,232,75830,1,2,0:0:0:0:
218,62,76044,1,2,3:2:0:0:
348,173,76259,1,10,0:0:0:0:
201,66,76473,2,0,L|193:169,1,85,10|2,0:0|0:0,0:0:0:0:
87,318,76901,6,0,P|66:263|73:229,1,85,2|2,3:2|0:0,0:0:0:0:
163,256,77330,2,0,L|260:239,1,85,10|2,0:0|0:0,0:0:0:0:
379,144,77759,2,0,L|272:124,1,85,2|2,3:2|0:0,0:0:0:0:
263,140,78080,1,2,0:0:0:0:
263,140,78187,1,10,0:0:0:0:
364,42,78401,1,2,0:0:0:0:
364,42,78509,1,2,0:0:0:0:
364,42,78616,6,0,L|455:28,1,85,2|2,3:2|0:0,0:0:0:0:
254,22,79044,2,0,P|233:66|241:116,1,85,10|2,0:0|0:0,0:0:0:0:
282,207,79473,1,2,3:2:0:0:
379,144,79687,2,0,P|385:173|379:201,2,42.5,2|2|10,0:0|0:0|0:0,0:0:0:0:
282,207,80116,1,2,0:0:0:0:
235,101,80330,6,0,B|169:86|180:150|80:131,1,127.5,2|2,3:2|0:0,0:0:0:0:
83,119,80759,1,10,0:0:0:0:
7,235,80973,2,0,P|73:232|134:269,1,127.5,2|2,0:0|0:0,0:0:0:0:
151,279,81401,2,0,L|138:369,1,85,2|10,0:0|0:0,0:0:0:0:
45,319,81830,1,2,0:0:0:0:
159,175,82044,6,0,B|212:167|212:167|276:198,1,101.999996887207,6|0,3:2|0:0,0:0:0:0:
329,221,82366,2,0,B|372:242|372:242|425:234,1,101.999996887207,6|0,3:2|0:0,0:0:0:0:
493,186,82687,1,6,3:2:0:0:
394,84,82901,5,2,3:2:0:0:
394,84,83009,1,2,3:2:0:0:
394,84,83116,2,0,L|387:153,1,50.9999984436036,2|2,3:2|3:2,0:0:0:0:
289,40,83330,2,0,L|294:103,3,50.9999984436036,2|0|2|0,3:2|0:0|3:2|0:0,0:0:0:0:
301,187,83759,5,6,3:2:0:0:
63,92,85473,6,0,L|152:76,1,85,6|2,3:2|0:0,0:0:0:0:
125,205,85901,1,10,0:0:0:0:
260,88,86115,1,2,0:0:0:0:
260,88,86223,1,0,0:0:0:0:
260,88,86330,2,0,P|271:135|256:180,1,85,2|2,3:2|0:0,0:0:0:0:
232,265,86758,1,10,0:0:0:0:
87,219,86973,1,2,0:0:0:0:
87,219,87080,1,2,0:0:0:0:
87,219,87187,6,0,L|100:319,1,85,2|2,3:2|0:0,0:0:0:0:
156,357,87508,1,2,0:0:0:0:
156,357,87615,2,0,L|206:346,3,42.5,10|0|2|2,0:0|0:0|0:0|0:0,0:0:0:0:
255,293,88044,2,0,L|342:275,1,85,2|2,3:2|0:0,0:0:0:0:
417,280,88365,1,2,0:0:0:0:
417,280,88473,2,0,L|406:377,1,85,10|2,0:0|0:0,0:0:0:0:
320,237,88901,6,0,P|303:197|322:140,1,85,2|2,3:2|0:0,0:0:0:0:
432,105,89330,1,10,0:0:0:0:
432,105,89437,1,2,0:0:0:0:
432,105,89544,1,2,0:0:0:0:
432,105,89651,1,2,0:0:0:0:
432,105,89758,2,0,P|449:145|430:202,1,85,2|2,3:2|0:0,0:0:0:0:
341,60,90187,2,0,P|304:62|247:78,1,85,10|2,0:0|0:0,0:0:0:0:
151,24,90615,6,0,P|135:68|124:155,1,127.5,2|2,3:2|0:0,0:0:0:0:
134,178,91044,2,0,L|233:167,1,85,10|2,0:0|0:0,0:0:0:0:
44,94,91473,1,0,3:2:0:0:
18,203,91687,1,10,0:0:0:0:
91,292,91901,2,0,L|190:281,1,85,10|2,0:0|0:0,0:0:0:0:
334,350,92330,6,0,P|403:346|427:311,1,85,2|2,3:2|0:0,0:0:0:0:
356,237,92758,1,10,0:0:0:0:
252,276,92973,1,2,0:0:0:0:
252,276,93080,1,2,0:0:0:0:
252,276,93187,2,0,L|244:192,1,85,2|2,3:2|0:0,0:0:0:0:
343,144,93615,2,0,L|350:56,1,85,10|2,0:0|0:0,0:0:0:0:
352,34,93937,1,2,0:0:0:0:
352,34,94044,6,0,B|260:13|285:117|174:87,1,170,2|10,3:2|0:0,0:0:0:0:
115,53,94687,1,2,0:0:0:0:
11,168,94901,2,0,P|68:129|123:148,1,127.5,2|2,3:2|0:0,0:0:0:0:
133,158,95330,2,0,L|112:257,1,85,10|2,0:0|0:0,0:0:0:0:
227,58,95758,6,0,L|253:241,1,170,2|10,3:2|0:0,0:0:0:0:
272,317,96401,1,2,0:0:0:0:
341,254,96615,1,2,3:2:0:0:
185,296,96830,2,0,L|97:270,1,85,2|8,0:0|0:0,0:0:0:0:
341,254,97258,1,2,0:0:0:0:
289,99,97473,5,4,3:2:0:0:
224,240,97687,1,0,0:0:0:0:
224,240,97794,1,6,3:2:0:0:
224,240,97901,1,0,0:0:0:0:
360,158,98115,1,6,3:2:0:0:
200,65,98330,2,0,L|206:132,3,42.5,2|2|2|2,3:2|3:2|3:2|3:2,0:0:0:0:
181,123,98758,2,0,L|76:104,1,85,2|2,3:2|3:2,0:0:0:0:
19,216,99187,6,0,P|25:271|60:294,1,85,6|2,3:2|0:0,0:0:0:0:
191,266,99615,1,10,0:0:0:0:
126,161,99830,1,2,0:0:0:0:
126,161,99937,1,0,0:0:0:0:
126,161,100044,2,0,P|117:103|116:66,1,85,2|2,3:2|0:0,0:0:0:0:
237,201,100473,1,10,0:0:0:0:
304,114,100687,1,2,0:0:0:0:
304,114,100794,1,2,0:0:0:0:
304,114,100901,6,0,P|245:87|219:94,1,85,2|2,3:2|0:0,0:0:0:0:
156,65,101223,1,2,0:0:0:0:
156,65,101330,2,0,P|122:76|101:76,3,42.5,10|0|2|2,0:0|0:0|0:0|0:0,0:0:0:0:
40,59,101758,2,0,L|48:157,1,85,2|2,3:2|0:0,0:0:0:0:
102,198,102080,1,2,0:0:0:0:
102,198,102187,2,0,L|93:299,1,85,10|2,0:0|0:0,0:0:0:0:
207,350,102615,6,0,P|265:355|293:332,1,85,2|2,3:2|0:0,0:0:0:0:
375,256,103044,1,10,0:0:0:0:
375,256,103151,1,2,0:0:0:0:
375,256,103258,1,2,0:0:0:0:
375,256,103365,1,2,0:0:0:0:
375,256,103473,2,0,P|328:235|292:243,1,85,2|2,3:2|0:0,0:0:0:0:
192,143,103901,2,0,L|202:246,1,85,10|2,0:0|0:0,0:0:0:0:
323,146,104330,6,0,L|332:11,1,127.5,2|2,3:2|0:0,0:0:0:0:
355,27,104758,2,0,P|419:50|462:48,1,85,10|2,0:0|0:0,0:0:0:0:
418,169,105187,1,0,3:2:0:0:
241,98,105401,1,10,0:0:0:0:
300,235,105615,2,0,L|309:135,1,85,10|2,0:0|0:0,0:0:0:0:
141,62,106044,6,0,L|150:173,1,85,2|2,3:2|0:0,0:0:0:0:
161,268,106473,1,10,0:0:0:0:
46,213,106687,1,2,0:0:0:0:
46,213,106794,1,2,0:0:0:0:
46,213,106901,2,0,P|23:180|29:121,1,85,2|2,3:2|0:0,0:0:0:0:
141,62,107330,2,0,P|181:45|230:52,1,85,10|2,0:0|0:0,0:0:0:0:
239,76,107651,1,2,0:0:0:0:
239,76,107758,6,0,P|301:126|381:86,1,170,2|10,3:2|0:0,0:0:0:0:
474,42,108401,1,2,0:0:0:0:
492,161,108615,2,0,P|387:216|384:223,1,127.5,2|2,3:2|0:0,0:0:0:0:
365,243,109044,2,0,L|462:254,1,85,10|2,0:0|0:0,0:0:0:0:
287,164,109473,6,0,B|234:168|234:168|211:188|211:188|143:195,1,127.5,2|2,3:2|0:0,0:0:0:0:
142,196,109901,2,0,P|121:152|138:111,1,85,10|2,0:0|0:0,0:0:0:0:
146,93,110223,1,2,0:0:0:0:
146,93,110330,2,0,P|102:83|45:84,1,85,2|2,3:2|0:0,0:0:0:0:
88,262,110758,2,0,P|167:276|210:269,1,85,10|2,0:0|0:0,0:0:0:0:
333,227,111187,6,0,L|340:311,1,85,4|0,3:2|0:0,0:0:0:0:
422,331,111508,2,0,L|414:246,1,85,6|0,3:2|0:0,0:0:0:0:
405,169,111830,1,6,3:2:0:0:
255,279,112044,5,2,3:2:0:0:
214,291,112151,1,2,3:2:0:0:
175,277,112258,1,2,3:2:0:0:
151,243,112365,1,2,3:2:0:0:
152,201,112472,1,2,3:2:0:0:
267,153,112687,1,2,3:2:0:0:
