osu file format v14

[General]
AudioFilename: audio.mp3
AudioLeadIn: 0
PreviewTime: 79338
Countdown: 0
SampleSet: Normal
StackLeniency: 0.7
Mode: 1
LetterboxInBreaks: 0
WidescreenStoryboard: 1

[Editor]
Bookmarks: 22262,33234,55177,79862,101805,123748,134720,156662,178605,189577,200548,211520,225234,247177,269120,280091,291062
DistanceSpacing: 0.5
BeatDivisor: 4
GridSize: 8
TimelineZoom: 1.8

[Metadata]
Title:The Way Of Adventure (feat. Kusaka Akira)
TitleUnicode:The Way Of Adventure (feat. クサカアキラ)
Artist:rejection
ArtistUnicode:rejection
Creator:KuroKuroKuro
Version:Kuro & Shamirin's Adventure
Source:
Tags:japanese electronic dance edm encore plus chapitre 01 drum & and bass dnb megarex Shamirin_mzk
BeatmapID:2827760
BeatmapSetID:1367326

[Difficulty]
HPDrainRate:4
CircleSize:5
OverallDifficulty:6.5
ApproachRate:5
SliderMultiplier:1.4
SliderTickRate:1

[Events]
//Background and Video events
0,0,"bg.jpg",0,46
//Break Periods
//Storyboard Layer 0 (Background)
//Storyboard Layer 1 (Fail)
//Storyboard Layer 2 (Pass)
//Storyboard Layer 3 (Foreground)
//Storyboard Layer 4 (Overlay)
//Storyboard Sound Samples

[TimingPoints]
320,342.857142857143,4,1,0,60,1,0
320,-128.205128205128,4,1,0,60,0,0
10948,-125,4,1,0,65,0,0
16777,-125,4,1,0,65,0,0
16948,-123.506040062889,4,1,0,65,0,0
17034,-122.772296676799,4,1,0,65,0,0
17120,-122.047220069445,4,1,0,65,0,0
17291,-120.622605641278,4,1,0,65,0,0
17462,-119.230723372799,4,1,0,65,0,0
17634,-117.870735878791,4,1,0,65,0,0
17720,-117.202241844482,4,1,0,65,0,0
17805,-116.541287664687,4,1,0,65,0,0
17891,-115.88788079309,4,1,0,65,0,0
17977,-115.241627119582,4,1,0,65,0,0
18148,-113.970634326359,4,1,0,65,0,0
18320,-112.727244033065,4,1,0,65,0,0
18405,-112.115793191208,4,1,0,65,0,0
18491,-111.510815433989,4,1,0,65,0,0
18662,-110.320237585664,4,1,0,65,0,0
18834,-109.154933420948,4,1,0,65,0,0
18920,-108.581405651445,4,1,0,65,0,0
19005,-108.013989971981,4,1,0,65,0,0
19091,-107.452358310634,4,1,0,65,0,0
19177,-106.896536979788,4,1,0,65,0,0
19348,-105.802080280502,4,1,0,65,0,0
19520,-104.729697886241,4,1,0,65,0,0
19605,-104.201726205796,4,1,0,65,0,0
19691,-103.678943635979,4,1,0,65,0,0
19777,-103.161380505594,4,1,0,65,0,0
19862,-102.648959036906,4,1,0,65,0,0
19948,-102.141707319066,4,1,0,65,0,0
20034,-101.639340929858,4,1,0,65,0,0
20205,-100.649389863399,4,1,0,65,0,0
20291,-100.161560597243,4,1,0,65,0,0
20377,-99.6784373610732,4,1,0,65,0,0
20462,-99.1999523840229,4,1,0,65,0,0
20548,-98.7261366586929,4,1,0,65,0,0
20634,-98.2567291120933,4,1,0,65,0,0
20720,-97.7917641732049,4,1,0,65,0,0
20891,-96.8750060546879,4,1,0,65,0,0
20977,-96.422996113189,4,1,0,65,0,0
21062,-95.9752767687044,4,1,0,65,0,0
21148,-95.5316047207898,4,1,0,65,0,0
21234,-95.0920157890783,4,1,0,65,0,0
21320,-94.6564538663375,4,1,0,65,0,0
21405,-94.2249526519613,4,1,0,65,0,0
21491,-93.7972796912944,4,1,0,65,0,0
21577,-93.3734714762719,4,1,0,65,0,0
21748,-92.5373272443772,4,1,0,65,0,0
21834,-92.1248033135449,4,1,0,65,0,0
21920,-91.715941055999,4,1,0,65,0,0
21977,-91.4454600986879,4,1,0,65,0,0
22034,-91.1764866782035,4,1,0,65,0,0
22091,-90.9090909090909,4,1,0,65,0,0
22212,-94.3396226415094,4,1,0,45,0,0
22384,-99.009900990099,4,1,0,55,0,0
22555,-105.263157894737,4,1,0,70,0,0
27691,-102.040816326531,4,1,0,72,0,0
29062,-99.009900990099,4,1,0,74,0,0
30434,-99.009900990099,4,1,0,76,0,0
30662,-97.9192166462668,4,1,0,76,0,0
30748,-97.3828362751065,4,1,0,76,0,0
30834,-96.8523002421308,4,1,0,76,0,0
30920,-96.3275135460566,4,1,0,76,0,0
31005,-95.8083832335329,4,1,0,76,0,0
31120,-94.7867298578199,4,1,0,78,0,0
31348,-93.7866354044549,4,1,0,78,0,0
31405,-93.4579439252336,4,1,0,78,0,0
31462,-93.1315483119907,4,1,0,78,0,0
31520,-92.8074245939675,4,1,0,78,0,0
31605,-92.3254472013849,4,1,0,78,0,0
31691,-91.8484500574053,4,1,0,78,0,0
31777,-91.3763563677898,4,1,0,78,0,0
31862,-90.9090909090909,4,1,0,78,0,0
32034,-90.9090909090909,4,1,0,70,0,0
32120,-91.743119266055,4,1,0,70,0,0
32205,-92.5925925925926,4,1,0,70,0,0
32262,-93.1677307974319,4,1,0,70,0,0
32377,-94.3396226415094,4,1,0,70,0,0
32462,-95.2380952380952,4,1,0,70,0,0
32548,-96.1538461538461,4,1,0,70,0,0
32634,-97.0873786407767,4,1,0,70,0,0
32720,-98.0392156862745,4,1,0,70,0,0
32805,-99.009900990099,4,1,0,70,0,0
32891,-100,4,1,0,70,0,0
49691,-100,4,1,0,70,0,0
49862,-99.3387022590614,4,1,0,70,0,0
49948,-99.011273423592,4,1,0,70,0,0
50034,-98.6859959637428,4,1,0,70,0,0
50205,-98.0419070327421,4,1,0,70,0,0
50377,-97.4060761910328,4,1,0,70,0,0
50462,-97.0913377050326,4,1,0,70,0,0
50548,-96.7785329729301,4,1,0,70,0,0
50634,-96.4677373299274,4,1,0,70,0,0
50720,-96.1589314819534,4,1,0,70,0,0
50891,-95.5473045149923,4,1,0,70,0,0
51062,-94.9434089810768,4,1,0,70,0,0
51234,-94.3470101904206,4,1,0,70,0,0
51320,-94.0517002196107,4,1,0,70,0,0
51405,-93.7581452388676,4,1,0,70,0,0
51577,-93.1764986508043,4,1,0,70,0,0
51748,-92.6021100316792,4,1,0,70,0,0
51834,-92.3175205729595,4,1,0,70,0,0
51920,-92.034759688039,4,1,0,70,0,0
52005,-91.753641472646,4,1,0,70,0,0
52091,-91.4742353668666,4,1,0,70,0,0
52262,-90.9205799641955,4,1,0,70,0,0
52434,-90.3735046573986,4,1,0,70,0,0
52605,-89.8330542519781,4,1,0,70,0,0
52691,-89.5652057088862,4,1,0,70,0,0
52777,-89.298949665754,4,1,0,70,0,0
52948,-88.7712374089096,4,1,0,70,0,0
53034,-88.5096741073799,4,1,0,70,0,0
53120,-88.2497255433536,4,1,0,70,0,0
53205,-87.9912219956937,4,1,0,70,0,0
53291,-87.7342284564215,4,1,0,70,0,0
53462,-87.2247948690887,4,1,0,70,0,0
53634,-86.721168030068,4,1,0,70,0,0
53720,-86.4716040223131,4,1,0,70,0,0
53805,-86.2233979261548,4,1,0,70,0,0
53977,-85.7312360043757,4,1,0,70,0,0
54062,-85.4873290680855,4,1,0,70,0,0
54148,-85.2447333672607,4,1,0,70,0,0
54320,-84.7637211273575,4,1,0,70,0,0
54405,-84.5252092210241,4,1,0,70,0,0
54491,-84.2880358190437,4,1,0,70,0,0
54577,-84.0522603333849,4,1,0,70,0,0
54662,-83.8177299644194,4,1,0,70,0,0
54748,-83.5845047701677,4,1,0,70,0,0
54834,-83.3525738858053,4,1,0,70,0,0
55005,-133.333333333333,4,1,0,60,0,0
55177,-125,4,1,0,60,0,0
55348,-117.647058823529,4,1,0,60,0,0
55691,-111.111111111111,4,1,0,60,0,0
56377,-100,4,1,0,60,0,0
57234,-133.333333333333,4,1,0,60,0,0
57577,-123.076923076923,4,1,0,60,0,0
57920,-114.285714285714,4,1,0,60,0,0
58262,-106.666666666667,4,1,0,60,0,0
58605,-100,4,1,0,60,0,0
59291,-95.2380952380952,4,1,0,60,0,0
59634,-102.564102564103,4,1,0,60,0,0
59977,-111.111111111111,4,1,0,60,0,0
60320,-121.212121212121,4,1,0,60,0,0
60662,-133.333333333333,4,1,0,60,0,0
61262,-113.636363636364,4,1,0,60,0,0
61691,-100,4,1,0,60,0,0
62634,-117.647058823529,4,1,0,60,0,0
62977,-125,4,1,0,60,0,0
63320,-133.333333333333,4,1,0,60,0,0
63748,-113.636363636364,4,1,0,60,0,0
64177,-100,4,1,0,60,0,0
65291,-105.263157894737,4,1,0,60,0,0
65462,-107.52688172043,4,1,0,60,0,0
65805,-112.359550561798,4,1,0,60,0,0
66062,-117.647058823529,4,1,0,65,0,0
66148,-117.647058823529,4,1,0,65,0,0
66491,-116.752051333542,4,1,0,65,0,0
66662,-116.309634857532,4,1,0,65,0,0
66834,-115.870558681486,4,1,0,65,0,0
67177,-115.002277045085,4,1,0,65,0,0
67520,-114.147041936482,4,1,0,65,0,0
67862,-113.304304770451,4,1,0,65,0,0
68205,-112.473920109775,4,1,0,65,0,0
68548,-111.655618343232,4,1,0,65,0,0
68720,-111.250916429424,4,1,0,65,0,0
68891,-110.849137649134,4,1,0,65,0,0
69234,-110.054223716025,4,1,0,65,0,0
69405,-109.661147055598,4,1,0,65,0,0
69577,-109.27074887615,4,1,0,65,0,0
69920,-108.498232563792,4,1,0,65,0,0
70262,-107.736562557235,4,1,0,65,0,0
70605,-106.985512021962,4,1,0,65,0,0
70948,-106.244860404878,4,1,0,65,0,0
71120,-105.878366932068,4,1,0,65,0,0
71291,-105.514393218379,4,1,0,65,0,0
71462,-105.153023938086,4,1,0,65,0,0
71634,-104.794011650998,4,1,0,65,0,0
71977,-104.083291613281,4,1,0,65,0,0
72320,-103.382146937045,4,1,0,65,0,0
72662,-102.690385407285,4,1,0,65,0,0
72834,-102.347964657201,4,1,0,65,0,0
73005,-102.007819919475,4,1,0,65,0,0
73177,-101.669928576875,4,1,0,65,0,0
73348,-101.334268310849,4,1,0,65,0,0
73520,-101.000919108364,4,1,0,65,0,0
73691,-100.669654542013,4,1,0,65,0,0
74034,-90.9203319683164,4,1,0,65,0,0
74291,-111.111111111111,4,1,0,70,0,0
74548,-110.294077097766,4,1,0,70,0,0
74720,-109.489091054413,4,1,0,70,0,0
74805,-109.090869421502,4,1,0,70,0,0
74891,-108.695652173913,4,1,0,70,0,0
75062,-107.913630246896,4,1,0,70,0,0
75234,-107.142895408177,4,1,0,70,0,0
75320,-106.761527842873,4,1,0,70,0,0
75405,-106.382978723404,4,1,0,70,0,0
75577,-105.633765621914,4,1,0,70,0,0
75748,-104.895141571728,4,1,0,70,0,0
75920,-104.166666666667,4,1,0,70,0,0
76091,-103.448240190262,4,1,0,70,0,0
76177,-103.092783505155,4,1,0,70,0,0
76262,-102.739761212247,4,1,0,70,0,0
76434,-102.040816326531,4,1,0,70,0,0
76520,-101.694949727102,4,1,0,70,0,0
76605,-101.351317111042,4,1,0,70,0,0
76691,-101.010101010101,4,1,0,70,0,0
76777,-100.671174721871,4,1,0,70,0,0
76862,-100.334414603875,4,1,0,70,0,0
76948,-100,4,1,0,70,0,0
77062,-100,4,1,0,75,0,0
77205,-99.3788819875776,4,1,0,75,0,0
77291,-98.7654320987654,4,1,0,75,0,0
77377,-98.159509202454,4,1,0,75,0,0
77462,-97.5609756097561,4,1,0,75,0,0
77548,-96.969696969697,4,1,0,75,0,0
77634,-96.3855421686747,4,1,0,75,0,0
77720,-95.8083832335329,4,1,0,75,0,0
77805,-95.2380952380952,4,1,0,75,0,0
77891,-94.6745562130178,4,1,0,75,0,0
77977,-94.1176470588235,4,1,0,75,0,0
78062,-93.5672514619883,4,1,0,75,0,0
78148,-93.0232558139535,4,1,0,75,0,0
78234,-92.485549132948,4,1,0,75,0,0
78320,-91.9540229885058,4,1,0,75,0,0
78405,-91.4285714285714,4,1,0,75,0,0
78491,-90.9090909090909,4,1,0,75,0,0
78548,-90.9090909090909,4,1,0,20,0,0
78777,-90.9090909090909,4,1,0,40,0,0
79120,-90.9090909090909,4,1,0,60,0,0
79434,-83.3333333333333,4,1,0,80,0,0
79777,-95.2380952380952,4,1,0,90,0,0
79862,-95.2380952380952,4,1,0,90,0,1
90777,-117.647058823529,4,1,0,80,0,1
91005,-113.207589889657,4,1,0,80,0,1
91062,-112.359550561798,4,1,0,80,0,1
91120,-111.111111111111,4,1,0,80,0,1
91177,-109.89010989011,4,1,0,80,0,1
91348,-105.263157894737,4,1,0,80,0,1
93577,-117.647058823529,4,1,0,80,0,1
93748,-113.207589889657,4,1,0,80,0,1
93834,-111.111111111111,4,1,0,80,0,1
93920,-109.090869421502,4,1,0,80,0,1
94091,-105.263157894737,4,1,0,80,0,1
95977,-117.64705882353,4,1,0,80,0,1
96491,-113.207589889657,4,1,0,80,0,1
96548,-112.359550561798,4,1,0,80,0,1
96605,-111.111111111111,4,1,0,80,0,1
96662,-109.89010989011,4,1,0,80,0,1
96834,-105.263157894737,4,1,0,80,0,1
98891,-105.263157894737,4,1,0,80,0,1
99062,-103.806264292825,4,1,0,80,0,1
99148,-103.092783505155,4,1,0,80,0,1
99234,-102.389043553227,4,1,0,80,0,1
99320,-101.694949727102,4,1,0,80,0,1
99405,-101.010101010101,4,1,0,80,0,1
99491,-100.334414603875,4,1,0,80,0,1
99577,-99.667807198607,4,1,0,80,0,1
99748,-98.3606234883202,4,1,0,80,0,1
99834,-97.7199015374272,4,1,0,80,0,1
99920,-97.0873786407767,4,1,0,80,0,1
100005,-96.4629914909995,4,1,0,80,0,1
100091,-95.8466759893533,4,1,0,80,0,1
100177,-95.2380952380952,4,1,0,80,0,1
100262,-94.6371941207589,4,1,0,80,0,1
100434,-93.4579439252336,4,1,0,80,0,1
100520,-92.8792282107653,4,1,0,80,0,1
100605,-92.3077207100679,4,1,0,80,0,1
100691,-91.743119266055,4,1,0,80,0,1
100777,-91.1853826184247,4,1,0,80,0,1
100862,-90.6344684696279,4,1,0,80,0,1
100948,-90.0900900900901,4,1,0,80,0,1
101034,-89.5522120739665,4,1,0,80,0,1
101120,-89.0207979290202,4,1,0,80,0,1
101205,-88.495575221239,4,1,0,80,0,1
101291,-87.9765137898787,4,1,0,80,0,1
101377,-87.4635823508986,4,1,0,80,0,1
101462,-86.9565217391304,4,1,0,80,0,0
101805,-95.2380952380952,4,1,0,80,0,1
112262,-86.9565217391304,4,1,0,80,0,1
112434,-80,4,1,0,80,0,1
112777,-95.2380952380952,4,1,0,80,0,1
123063,-95.2380952380952,4,1,0,80,0,1
123234,-96.3855421686747,4,1,0,80,0,1
123320,-96.774224765879,4,1,0,80,0,1
123405,-97.5609756097561,4,1,0,80,0,1
123577,-98.7654320987654,4,1,0,80,0,1
123691,-100,4,1,0,75,0,1
123748,-100,4,1,0,75,0,0
132491,-100,4,1,0,75,0,0
132662,-98.0392156862745,4,1,0,75,0,0
132748,-97.0873786407767,4,1,0,75,0,0
132834,-96.1538461538461,4,1,0,75,0,0
132891,-95.5413708466972,4,1,0,75,0,0
132948,-94.9367389040313,4,1,0,75,0,0
133005,-94.3396226415094,4,1,0,75,0,0
133091,-93.4579439252336,4,1,0,75,0,0
133177,-92.5925925925926,4,1,0,75,0,0
133262,-91.743119266055,4,1,0,75,0,0
133348,-90.9090909090909,4,1,0,75,0,0
133520,-92.2979229275424,4,1,0,75,0,0
133605,-93.0083744740376,4,1,0,75,0,0
133691,-93.7297602299004,4,1,0,75,0,0
133862,-95.2068129995382,4,1,0,75,0,0
133948,-95.962935275879,4,1,0,75,0,0
134034,-96.7311637823046,4,1,0,75,0,0
134120,-97.5117916134008,4,1,0,75,0,0
134205,-98.3051214019097,4,1,0,75,0,0
134291,-99.1113674791817,4,1,0,75,0,0
134377,-99.9310475771717,4,1,0,75,0,0
145177,-90.8521018633766,4,1,0,75,0,0
145348,-83.2854442029167,4,1,0,75,0,0
145520,-100,4,1,0,75,0,0
151177,-100,4,1,0,75,0,0
151434,-99.011273423592,4,1,0,75,0,0
151519,-98.6859959637428,4,1,0,75,0,0
151691,-98.0419070327421,4,1,0,75,0,0
151777,-97.7229573703143,4,1,0,75,0,0
151862,-97.4060761910328,4,1,0,75,0,0
151948,-97.0913377050326,4,1,0,75,0,0
152034,-96.7785329729301,4,1,0,75,0,0
152120,-96.4677373299274,4,1,0,75,0,0
152205,-96.1589314819534,4,1,0,75,0,0
152377,-95.5473045149923,4,1,0,75,0,0
152548,-94.9434089810768,4,1,0,75,0,0
152805,-94.0517002196107,4,1,0,75,0,0
152891,-93.7581452388676,4,1,0,75,0,0
153062,-93.1764986508043,4,1,0,75,0,0
153148,-92.888459537787,4,1,0,75,0,0
153234,-92.6021100316792,4,1,0,75,0,0
153320,-92.3175205729595,4,1,0,75,0,0
153405,-92.034759688039,4,1,0,75,0,0
153491,-91.753641472646,4,1,0,75,0,0
153577,-91.4742353668666,4,1,0,75,0,0
153662,-91.196525777154,4,1,0,75,0,0
153748,-90.9205799641955,4,1,0,75,0,0
153920,-90.3735046573986,4,1,0,75,0,0
154091,-89.8330542519781,4,1,0,75,0,0
154177,-89.5652057088862,4,1,0,75,0,0
154262,-89.298949665754,4,1,0,75,0,0
154434,-88.7712374089096,4,1,0,75,0,0
154605,-88.2497255433536,4,1,0,75,0,0
154777,-87.7342284564215,4,1,0,75,0,0
154862,-87.4787317333473,4,1,0,75,0,0
154948,-87.2247948690887,4,1,0,75,0,0
155034,-86.9722523726031,4,1,0,75,0,0
155120,-86.721168030068,4,1,0,75,0,0
155291,-86.2233979261548,4,1,0,75,0,0
155462,-85.7312360043757,4,1,0,75,0,0
155548,-85.4873290680855,4,1,0,75,0,0
155634,-85.2447333672607,4,1,0,75,0,0
155720,-85.0035106449896,4,1,0,75,0,0
155805,-84.7637211273575,4,1,0,75,0,0
155891,-84.5252092210241,4,1,0,75,0,0
155977,-84.2880358190437,4,1,0,75,0,0
156062,-84.0522603333849,4,1,0,75,0,0
156148,-83.8177299644194,4,1,0,75,0,0
156234,-83.5845047701677,4,1,0,75,0,0
156320,-83.3525738858053,4,1,0,75,0,0
156577,-100,4,1,0,60,0,0
157262,-125,4,1,0,60,0,0
167548,-117.647058823529,4,1,0,60,0,0
173120,-117.647058823529,4,1,0,60,0,0
173291,-116.071490752584,4,1,0,60,0,0
173462,-114.537434842517,4,1,0,60,0,0
173634,-113.043527410229,4,1,0,60,0,0
173805,-111.587963675886,4,1,0,60,0,0
173977,-110.169528871027,4,1,0,60,0,0
174148,-108.786583568222,4,1,0,60,0,0
174320,-107.438043166457,4,1,0,60,0,0
174491,-106.122414327375,4,1,0,60,0,0
174662,-104.838726586891,4,1,0,60,0,0
174834,-103.585616101348,4,1,0,60,0,0
175005,-102.362212784426,4,1,0,60,0,0
175177,-101.167267937462,4,1,0,60,0,0
175348,-100,4,1,0,60,0,0
175434,-100,4,1,0,5,0,0
175777,-105.263157894737,4,1,0,70,0,0
175862,-105.263157894737,4,1,0,70,0,0
176034,-103.900745695652,4,1,0,70,0,0
176120,-103.092783505155,4,1,0,70,0,0
176205,-102.040816326531,4,1,0,70,0,0
176291,-101.010101010101,4,1,0,70,0,0
176377,-100,4,1,0,70,0,0
176548,-99.009900990099,4,1,0,70,0,0
176720,-98.0392156862745,4,1,0,70,0,0
176805,-97.0873786407767,4,1,0,70,0,0
176891,-96.1538461538461,4,1,0,70,0,0
176977,-95.2380952380952,4,1,0,70,0,0
177062,-94.3396226415094,4,1,0,70,0,0
177234,-93.4579439252336,4,1,0,70,0,0
177320,-92.5925925925926,4,1,0,70,0,0
177405,-91.743119266055,4,1,0,70,0,0
177491,-90.9090909090909,4,1,0,70,0,0
177577,-90.0900900900901,4,1,0,70,0,0
177662,-89.2857142857143,4,1,0,70,0,0
177748,-88.4955752212389,4,1,0,70,0,0
177834,-87.719298245614,4,1,0,70,0,0
177920,-86.9565217391304,4,1,0,70,0,0
178005,-86.2068965517241,4,1,0,70,0,0
178091,-85.4700854700855,4,1,0,70,0,0
178177,-84.7457627118644,4,1,0,70,0,0
178262,-84.0336134453781,4,1,0,70,0,0
178520,-100,4,1,0,70,0,0
188720,-100,4,1,0,70,0,0
188891,-98.0392156862745,4,1,0,70,0,0
188977,-97.0873786407767,4,1,0,70,0,0
189062,-96.1538461538461,4,1,0,70,0,0
189148,-95.2380952380952,4,1,0,70,0,0
189234,-94.3396226415094,4,1,0,70,0,0
189320,-93.4579439252336,4,1,0,70,0,0
189405,-92.5925925925926,4,1,0,70,0,0
189491,-91.743119266055,4,1,0,70,0,0
189577,-90.9090909090909,4,1,0,70,0,0
189748,-100,4,1,0,70,0,0
197805,-95.2380952380952,4,1,0,70,0,0
197891,-96.0915714239041,4,1,0,70,0,0
197977,-96.9605767990793,4,1,0,70,0,0
198062,-97.8453476004896,4,1,0,70,0,0
198148,-98.7465117794714,4,1,0,70,0,0
198234,-99.6643305347589,4,1,0,70,0,0
198320,-100.599472255169,4,1,0,70,0,0
198405,-101.552225770908,4,1,0,70,0,0
198491,-102.523198436726,4,1,0,70,0,0
198577,-103.513025043941,4,1,0,70,0,0
198662,-104.522041608134,4,1,0,70,0,0
198748,-105.551034452913,4,1,0,70,0,0
198834,-106.600375446522,4,1,0,70,0,0
198920,-107.67090602914,4,1,0,70,0,0
199005,-108.763037969177,4,1,0,70,0,0
199091,-109.877552455544,4,1,0,70,0,0
199177,-111.015267929798,4,1,0,70,0,0
199262,-76.8621193499617,4,1,0,40,0,0
199948,-99.8970061866216,4,1,0,5,0,0
200462,-153.846153846154,4,1,0,55,0,0
211434,-133.333333333333,4,1,0,60,0,0
211520,-133.333333333333,4,1,0,60,0,0
211862,-132.530200319398,4,1,0,60,0,0
212205,-131.73651116928,4,1,0,60,0,0
212548,-130.952443310687,4,1,0,60,0,0
212720,-130.563813716773,4,1,0,60,0,0
213062,-129.793433750187,4,1,0,60,0,0
213234,-129.411810380639,4,1,0,60,0,0
213405,-129.032258064516,4,1,0,60,0,0
213577,-128.654925618155,4,1,0,60,0,0
214091,-127.53621709725,4,1,0,60,0,0
214262,-127.16757125199,4,1,0,60,0,0
214605,-126.43679614216,4,1,0,60,0,0
214948,-125.714213877592,4,1,0,60,0,0
215120,-125.356168212935,4,1,0,60,0,0
215462,-124.645849978748,4,1,0,60,0,0
215634,-124.293855533252,4,1,0,60,0,0
215805,-123.943689902803,4,1,0,60,0,0
215977,-123.595491730844,4,1,0,60,0,0
216148,-123.249244482131,4,1,0,60,0,0
216320,-122.905082862607,4,1,0,60,0,0
216834,-121.883588984161,4,1,0,60,0,0
217005,-121.547001617791,4,1,0,60,0,0
217348,-120.879081028874,4,1,0,60,0,0
217520,-120.548011259184,4,1,0,60,0,0
217691,-120.218605512264,4,1,0,60,0,0
218034,-119.56516540645,4,1,0,60,0,0
218205,-119.241244115445,4,1,0,60,0,0
218548,-118.598357175556,4,1,0,60,0,0
218720,-118.279506301341,4,1,0,60,0,0
219062,-117.647058823529,4,1,0,60,0,0
219405,-90.9090909090909,4,1,0,60,0,0
219748,-111.111111111111,4,1,0,60,0,0
219920,-109.839776717702,4,1,0,60,0,0
220005,-109.215017064846,4,1,0,60,0,0
220091,-108.597324379122,4,1,0,60,0,0
220262,-107.38255033557,4,1,0,60,0,0
220434,-106.194652674459,4,1,0,60,0,0
220605,-105.032859530104,4,1,0,60,0,0
220691,-104.461334681581,4,1,0,60,0,0
220777,-103.896103896104,4,1,0,60,0,0
220862,-103.336957015959,4,1,0,60,0,0
220948,-102.783690695095,4,1,0,60,0,0
221120,-101.694949727102,4,1,0,60,0,0
221291,-100.62893081761,4,1,0,60,0,0
221377,-100.104308689655,4,1,0,60,0,0
221462,-99.5850291833928,4,1,0,60,0,0
221634,-98.5626607187386,4,1,0,60,0,0
221805,-97.5609756097561,4,1,0,60,0,0
221977,-96.5794457691925,4,1,0,60,0,0
222062,-96.0960960960961,4,1,0,60,0,0
222148,-95.6175603561945,4,1,0,60,0,0
222234,-95.143676465831,4,1,0,60,0,0
222320,-94.6745562130178,4,1,0,60,0,0
222491,-93.7499707031342,4,1,0,60,0,0
222577,-93.2944606413994,4,1,0,60,0,0
222662,-92.8433556188335,4,1,0,60,0,0
222748,-92.3965066728757,4,1,0,60,0,0
222834,-91.9540229885058,4,1,0,60,0,0
222920,-91.5157571830718,4,1,0,60,0,0
223005,-91.0815662750463,4,1,0,60,0,0
223091,-90.6515580736544,4,1,0,60,0,0
223177,-90.2255910452905,4,1,0,60,0,0
223262,-89.8035278417877,4,1,0,60,0,0
223348,-89.3854748603352,4,1,0,60,0,0
223434,-88.9712960804585,4,1,0,60,0,0
223520,-88.5608594654289,4,1,0,60,0,0
223605,-88.1542699724518,4,1,0,60,0,0
223691,-87.7513967828583,4,1,0,60,0,0
223777,-87.3521128729062,4,1,0,60,0,0
223862,-86.9565217391304,4,1,0,60,0,0
224120,-90.9090909090909,4,1,0,20,0,0
224349,-90.9090909090909,4,1,0,40,0,0
224692,-90.9090909090909,4,1,0,60,0,0
225006,-83.3333333333333,4,1,0,80,0,0
225148,-111.111111111111,4,1,0,50,0,0
225491,-111.111111111111,4,1,0,90,0,0
225577,-95.2380952380952,4,1,0,90,0,1
234834,-95.2380952380952,4,1,0,90,0,1
235005,-96.3855421686747,4,1,0,90,0,1
235091,-96.969696969697,4,1,0,90,0,1
235177,-97.5609756097561,4,1,0,90,0,1
235348,-98.7654320987654,4,1,0,90,0,1
235434,-99.3788819875776,4,1,0,90,0,1
235605,-100.62893081761,4,1,0,90,0,1
235691,-101.26582278481,4,1,0,90,0,1
235748,-101.694949727102,4,1,0,90,0,1
235805,-102.127624807617,4,1,0,90,0,1
235862,-102.564102564103,4,1,0,90,0,1
236034,-103.896103896104,4,1,0,90,0,1
236120,-105.263157894737,4,1,0,80,0,1
236377,-103.092783505155,4,1,0,80,0,1
236720,-101.010101010101,4,1,0,80,0,1
236977,-100,4,1,0,80,0,1
238777,-103.092783505155,4,1,0,80,0,1
238948,-105.263157894737,4,1,0,80,0,1
239034,-104.582162884627,4,1,0,80,0,1
239120,-103.910030539158,4,1,0,80,0,1
239177,-103.466650112003,4,1,0,80,0,1
239234,-103.027037385421,4,1,0,80,0,1
239291,-102.591249787123,4,1,0,80,0,1
239462,-101.305524291545,4,1,0,80,0,1
239520,-100.884046903011,4,1,0,80,0,1
239577,-100.466062061905,4,1,0,80,0,1
239634,-100.051526536166,4,1,0,80,0,1
241691,-105.263157894737,4,1,0,80,0,1
241777,-105.263157894737,4,1,0,80,0,1
241862,-104.166666666667,4,1,0,80,0,1
241920,-104.166666666667,4,1,0,80,0,1
241977,-103.092783505155,4,1,0,80,0,1
242034,-103.092783505155,4,1,0,80,0,1
242205,-101.305524291545,4,1,0,80,0,1
242262,-100.884046903011,4,1,0,80,0,1
242319,-100.466062061905,4,1,0,80,0,1
242377,-100.051526536166,4,1,0,80,0,1
244434,-100,4,1,0,80,0,1
244520,-99.3377154510876,4,1,0,80,0,1
244605,-98.6842429882378,4,1,0,80,0,1
244691,-98.0392156862745,4,1,0,80,0,1
244777,-97.4025657783877,4,1,0,80,0,1
244862,-96.774224765879,4,1,0,80,0,1
244948,-96.1538461538461,4,1,0,80,0,1
245034,-95.5413708466972,4,1,0,80,0,1
245120,-94.9367389040313,4,1,0,80,0,1
245205,-94.3396226415094,4,1,0,80,0,1
245291,-93.7499707031342,4,1,0,80,0,1
245377,-93.1677307974319,4,1,0,80,0,1
245462,-92.5925925925926,4,1,0,80,0,1
245548,-92.0245116489228,4,1,0,80,0,1
245634,-91.4634425193422,4,1,0,80,0,1
245720,-90.9090909090909,4,1,0,80,0,1
245805,-90.3614185658378,4,1,0,80,0,1
245891,-89.8203861737683,4,1,0,80,0,1
245977,-89.2857142857143,4,1,0,80,0,1
246062,-88.7573701901272,4,1,0,80,0,1
246148,-88.2353200692118,4,1,0,80,0,1
246234,-87.719298245614,4,1,0,80,0,1
246320,-87.2092769740474,4,1,0,80,0,1
246405,-86.705227371453,4,1,0,80,0,1
246491,-86.2068965517241,4,1,0,80,0,1
246577,-85.7142612244968,4,1,0,80,0,1
246662,-85.227296939573,4,1,0,80,0,1
246748,-84.7457627118644,4,1,0,80,0,1
246834,-84.2696392501013,4,1,0,80,0,0
246891,-83.9552317122418,4,1,0,80,0,0
246948,-83.6430915824938,4,1,0,80,0,0
247005,-83.3333333333333,4,1,0,80,0,0
247177,-95.2380952380952,4,1,0,80,0,1
268434,-95.2380952380952,4,1,0,80,0,1
268605,-96.3735593357549,4,1,0,80,0,1
268691,-96.9515523397803,4,1,0,80,0,1
268777,-97.536424977908,4,1,0,80,0,1
268862,-98.1284933743641,4,1,0,80,0,1
268948,-98.7276961793369,4,1,0,80,0,1
269120,-99.9485265088479,4,1,0,80,0,0
277348,-100,4,1,0,80,0,0
277520,-101.252595863426,4,1,0,80,0,0
277605,-101.890787340681,4,1,0,80,0,0
277691,-102.536969704427,4,1,0,80,0,0
277777,-103.191506926214,4,1,0,80,0,0
277862,-103.854346356322,4,1,0,80,0,0
277948,-105.263157894737,4,1,0,80,0,0
278034,-106.382978723404,4,1,0,80,0,0
278205,-107.52688172043,4,1,0,80,0,0
278291,-108.695652173913,4,1,0,80,0,0
278377,-109.89010989011,4,1,0,80,0,0
278462,-109.89010989011,4,1,0,80,0,0
278548,-111.111111111111,4,1,0,80,0,0
278634,-111.111111111111,4,1,0,80,0,0
278720,-112.359550561798,4,1,0,80,0,0
279491,-112.359550561798,4,1,0,80,0,0
279663,-107.731339585342,4,1,0,80,0,0
279749,-106.11734668431,4,1,0,80,0,0
279834,-104.551000500799,4,1,0,80,0,0
279920,-103.030328007352,4,1,0,80,0,0
280005,-101.553153936302,4,1,0,80,0,0
280091,-100.117738460429,4,1,0,80,0,0
288320,-100,4,1,0,80,0,0
288491,-98.7654320987654,4,1,0,80,0,0
288577,-98.159509202454,4,1,0,80,0,0
288663,-97.5609756097561,4,1,0,80,0,0
288748,-96.969696969697,4,1,0,80,0,0
288834,-96.3855421686747,4,1,0,80,0,0
289005,-95.2380952380952,4,1,0,80,0,0
289091,-94.6745562130178,4,1,0,80,0,0
289177,-94.1176470588235,4,1,0,80,0,0
289234,-93.7499707031342,4,1,0,80,0,0
289291,-93.3852430771185,4,1,0,80,0,0
289348,-93.0232558139535,4,1,0,80,0,0
289434,-92.485549132948,4,1,0,80,0,0
289520,-91.9540229885058,4,1,0,80,0,0
289605,-91.4285714285714,4,1,0,80,0,0
289691,-90.9090909090909,4,1,0,80,0,0
289863,-93.0083744740376,4,1,0,80,0,0
289948,-94.0947100894935,4,1,0,80,0,0
290034,-95.2068129995382,4,1,0,80,0,0
290205,-97.5117916134008,4,1,0,80,0,0
290291,-98.7066468068893,4,1,0,80,0,0
290377,-99.9310475771717,4,1,0,80,0,0
290462,-101.186308278254,4,1,0,80,0,0
290548,-102.473505475159,4,1,0,80,0,0
290634,-103.7938736704,4,1,0,80,0,0
290720,-105.148711823131,4,1,0,80,0,0
290977,-105.148711823131,4,1,0,70,0,0
291062,-111.111111111111,4,1,0,70,0,0
291405,-112.357783135996,4,1,0,70,0,0
291748,-113.632748048926,4,1,0,70,0,0
292091,-114.936980053836,4,1,0,70,0,0
292434,-116.271633790862,4,1,0,70,0,0
292777,-117.637509425705,4,1,0,70,0,0
293120,-119.035857171256,4,1,0,70,0,0
293462,-120.467848938136,4,1,0,70,0,0
293805,-121.934713715582,4,1,0,70,0,0
294148,-123.437741089338,4,1,0,70,0,0
294491,-124.978285022977,4,1,0,70,0,0
294834,-126.557767925959,4,1,0,70,0,0
295177,-128.177849329502,4,1,0,70,0,0
295520,-129.839777714301,4,1,0,70,0,0
295862,-131.545368682205,4,1,0,70,0,0
296205,-133.296365807883,4,1,0,70,0,0
296462,-125,4,1,0,75,0,0
296720,-123.393265442359,4,1,0,75,0,0
296891,-121.827460640593,4,1,0,75,0,0
297234,-118.811834133927,4,1,0,75,0,0
297405,-117.359459113725,4,1,0,75,0,0
297577,-115.942028985507,4,1,0,75,0,0
297748,-114.558428808237,4,1,0,75,0,0
297920,-113.207589889657,4,1,0,75,0,0
298262,-110.599037567175,4,1,0,75,0,0
298434,-109.339447595243,4,1,0,75,0,0
298605,-108.108108108108,4,1,0,75,0,0
298777,-106.9041935308,4,1,0,75,0,0
298948,-105.726909507281,4,1,0,75,0,0
299291,-103.448240190262,4,1,0,75,0,0
299462,-102.345450693544,4,1,0,75,0,0
299634,-101.26582278481,4,1,0,75,0,0
299805,-100.208734794577,4,1,0,75,0,0
299977,-99.173586503665,4,1,0,75,0,0
300148,-98.159509202454,4,1,0,75,0,0
300320,-97.1659604320776,4,1,0,75,0,0
300491,-96.1924156127986,4,1,0,75,0,0
300662,-71.4285714285714,4,1,0,75,0,0

[HitObjects]
254,193,320,5,4,0:0:0:0:
254,193,1005,1,8,0:0:0:0:
254,193,1691,1,0,0:0:0:0:
254,193,2034,1,0,0:0:0:0:
254,193,2377,1,8,0:0:0:0:
254,193,2720,1,0,0:0:0:0:
254,193,3062,1,8,0:0:0:0:
254,193,3748,1,0,0:0:0:0:
254,193,4434,1,8,0:0:0:0:
254,193,5120,1,8,0:0:0:0:
254,193,5462,1,0,0:0:0:0:
254,193,5634,1,0,0:0:0:0:
254,193,5805,1,8,0:0:0:0:
254,193,6148,1,8,0:0:0:0:
254,193,6319,1,0,0:0:0:0:
254,193,6662,1,8,0:0:0:0:
254,193,7005,1,8,0:0:0:0:
254,193,7177,1,0,0:0:0:0:
254,193,7520,1,0,0:0:0:0:
254,193,7691,1,0,0:0:0:0:
254,193,7862,1,0,0:0:0:0:
254,193,8205,1,8,0:0:0:0:
254,193,8548,1,0,0:0:0:0:
254,193,9234,1,8,0:0:0:0:
254,193,9577,1,0,0:0:0:0:
254,193,9920,1,8,0:0:0:0:
254,193,10434,1,8,0:0:0:0:
254,193,10605,1,0,0:0:0:0:
254,193,11291,1,4,0:0:0:0:
254,193,11634,1,8,0:0:0:0:
254,193,11977,1,0,0:0:0:0:
254,193,12148,1,0,0:0:0:0:
254,193,12320,1,8,0:0:0:0:
254,193,12662,1,0,0:0:0:0:
254,193,13005,1,8,0:0:0:0:
254,193,13177,1,8,0:0:0:0:
254,193,13348,1,0,0:0:0:0:
254,193,13691,1,8,0:0:0:0:
254,193,13862,1,0,0:0:0:0:
254,193,14034,1,8,0:0:0:0:
254,193,14377,1,0,0:0:0:0:
254,193,14720,1,8,0:0:0:0:
254,193,14891,1,0,0:0:0:0:
254,193,15062,1,0,0:0:0:0:
254,193,15405,1,0,0:0:0:0:
254,193,15748,1,8,0:0:0:0:
254,193,15920,1,0,0:0:0:0:
254,193,16091,1,8,0:0:0:0:
254,193,16262,1,8,0:0:0:0:
254,193,16434,1,0,0:0:0:0:
254,193,16777,1,4,0:0:0:0:
254,193,16948,1,8,0:0:0:0:
254,193,17034,1,8,0:0:0:0:
254,193,17120,1,0,0:0:0:0:
254,193,17291,1,8,0:0:0:0:
254,193,17462,1,0,0:0:0:0:
254,193,17634,1,8,0:0:0:0:
254,193,17720,1,8,0:0:0:0:
254,193,17805,1,0,0:0:0:0:
254,193,17891,1,0,0:0:0:0:
254,193,17977,1,8,0:0:0:0:
254,193,18148,1,4,0:0:0:0:
254,193,18320,1,8,0:0:0:0:
254,193,18405,1,0,0:0:0:0:
254,193,18491,1,8,0:0:0:0:
254,193,18662,1,0,0:0:0:0:
254,193,18834,1,8,0:0:0:0:
254,193,18920,1,0,0:0:0:0:
254,193,19005,1,8,0:0:0:0:
254,193,19091,1,8,0:0:0:0:
254,193,19177,1,0,0:0:0:0:
254,193,19348,1,8,0:0:0:0:
254,193,19520,1,0,0:0:0:0:
254,193,19605,1,0,0:0:0:0:
254,193,19691,1,8,0:0:0:0:
254,193,19777,1,0,0:0:0:0:
254,193,19862,1,8,0:0:0:0:
254,193,19948,1,8,0:0:0:0:
254,193,20034,1,0,0:0:0:0:
254,193,20205,1,0,0:0:0:0:
254,193,20291,1,0,0:0:0:0:
254,193,20377,1,8,0:0:0:0:
254,193,20462,1,8,0:0:0:0:
254,193,20548,1,0,0:0:0:0:
254,193,20634,1,0,0:0:0:0:
254,193,20720,1,8,0:0:0:0:
254,193,20891,1,0,0:0:0:0:
254,193,20977,1,0,0:0:0:0:
254,193,21062,1,8,0:0:0:0:
254,193,21148,1,8,0:0:0:0:
254,193,21234,1,0,0:0:0:0:
254,193,21320,1,8,0:0:0:0:
254,193,21405,1,8,0:0:0:0:
254,193,21491,1,8,0:0:0:0:
254,193,21577,1,0,0:0:0:0:
254,193,21748,1,8,0:0:0:0:
254,193,21834,1,8,0:0:0:0:
254,193,21920,1,0,0:0:0:0:
254,193,21977,1,0,0:0:0:0:
254,193,22034,1,0,0:0:0:0:
254,193,22091,1,8,0:0:0:0:
301,132,22262,1,0,0:0:0:0:
301,132,22434,1,0,0:0:0:0:
291,147,22605,1,12,0:0:0:0:
237,122,22777,1,0,0:0:0:0:
237,122,22862,1,8,0:0:0:0:
237,122,22948,1,0,0:0:0:0:
237,122,23120,1,0,0:0:0:0:
237,122,23291,1,8,0:0:0:0:
237,122,23462,1,8,0:0:0:0:
238,101,23634,1,0,0:0:0:0:
253,122,23891,1,8,0:0:0:0:
253,122,23977,1,0,0:0:0:0:
253,122,24148,1,8,0:0:0:0:
261,161,24320,1,0,0:0:0:0:
276,105,24491,1,0,0:0:0:0:
276,105,24662,1,8,0:0:0:0:
301,132,25005,1,0,0:0:0:0:
301,132,25177,1,0,0:0:0:0:
291,147,25348,1,8,0:0:0:0:
237,122,25520,1,0,0:0:0:0:
237,122,25605,1,8,0:0:0:0:
237,122,25691,1,0,0:0:0:0:
237,122,25863,1,0,0:0:0:0:
237,122,26034,1,8,0:0:0:0:
237,122,26205,1,8,0:0:0:0:
238,101,26377,1,0,0:0:0:0:
253,122,26634,1,8,0:0:0:0:
253,122,26720,1,0,0:0:0:0:
253,122,26891,1,8,0:0:0:0:
261,161,27063,1,0,0:0:0:0:
276,105,27234,1,0,0:0:0:0:
276,105,27405,1,8,0:0:0:0:
276,105,27577,1,8,0:0:0:0:
276,105,27748,1,4,0:0:0:0:
318,187,28005,1,8,0:0:0:0:
282,123,28091,1,0,0:0:0:0:
282,123,28262,1,8,0:0:0:0:
282,123,28434,1,0,0:0:0:0:
282,123,28605,1,8,0:0:0:0:
280,123,28691,1,8,0:0:0:0:
282,123,28777,1,0,0:0:0:0:
282,123,28948,1,8,0:0:0:0:
269,126,29120,1,4,0:0:0:0:
291,125,29291,1,8,0:0:0:0:
291,125,29377,1,8,0:0:0:0:
291,127,29462,1,0,0:0:0:0:
291,127,29634,1,8,0:0:0:0:
287,113,29805,1,0,0:0:0:0:
287,113,29891,1,0,0:0:0:0:
287,114,29977,1,8,0:0:0:0:
287,116,30062,1,0,0:0:0:0:
288,117,30148,1,8,0:0:0:0:
291,125,30234,1,8,0:0:0:0:
295,128,30320,1,0,0:0:0:0:
309,179,30491,1,4,0:0:0:0:
311,126,30662,1,8,0:0:0:0:
311,126,30748,1,8,0:0:0:0:
311,126,30834,1,0,0:0:0:0:
312,129,30920,1,0,0:0:0:0:
313,130,31005,1,8,0:0:0:0:
316,135,31177,1,4,0:0:0:0:
287,94,31348,1,8,0:0:0:0:
287,94,31405,1,0,0:0:0:0:
287,94,31462,1,0,0:0:0:0:
287,94,31520,1,8,0:0:0:0:
311,80,31605,1,8,0:0:0:0:
311,80,31691,1,8,0:0:0:0:
311,80,31777,1,8,0:0:0:0:
311,80,31862,1,0,0:0:0:0:
269,87,32034,1,0,0:0:0:0:
259,104,32120,1,8,0:0:0:0:
341,130,32205,1,0,0:0:0:0:
341,130,32291,1,0,0:0:0:0:
341,130,32377,1,8,0:0:0:0:
296,148,32462,1,8,0:0:0:0:
287,145,32548,1,0,0:0:0:0:
318,154,32634,1,8,0:0:0:0:
318,155,32720,1,0,0:0:0:0:
318,156,32805,1,8,0:0:0:0:
318,156,32891,1,0,0:0:0:0:
254,193,33234,1,4,0:0:0:0:
254,193,33405,1,8,0:0:0:0:
254,193,33491,1,8,0:0:0:0:
254,193,33577,1,0,0:0:0:0:
254,193,33748,1,8,0:0:0:0:
254,193,33920,1,0,0:0:0:0:
254,193,34091,1,8,0:0:0:0:
254,193,34177,1,8,0:0:0:0:
254,193,34262,1,0,0:0:0:0:
254,193,34348,1,0,0:0:0:0:
254,193,34434,1,8,0:0:0:0:
254,193,34605,1,0,0:0:0:0:
254,193,34777,1,0,0:0:0:0:
254,193,34862,1,0,0:0:0:0:
254,193,34948,1,8,0:0:0:0:
254,193,35120,1,0,0:0:0:0:
254,193,35291,1,8,0:0:0:0:
254,193,35462,1,0,0:0:0:0:
254,193,35548,1,8,0:0:0:0:
254,193,35634,1,0,0:0:0:0:
254,193,35805,1,0,0:0:0:0:
254,193,35977,1,8,0:0:0:0:
254,193,36320,1,0,0:0:0:0:
254,193,36491,1,8,0:0:0:0:
254,193,36662,1,0,0:0:0:0:
254,193,36834,1,8,0:0:0:0:
254,193,36920,1,8,0:0:0:0:
254,193,37005,1,0,0:0:0:0:
254,193,37091,1,0,0:0:0:0:
254,193,37177,1,8,0:0:0:0:
254,193,37348,1,0,0:0:0:0:
254,193,37520,1,8,0:0:0:0:
254,193,37605,1,8,0:0:0:0:
254,193,37691,1,0,0:0:0:0:
254,193,37863,1,0,0:0:0:0:
254,193,37949,1,8,0:0:0:0:
254,193,38034,1,0,0:0:0:0:
254,193,38205,1,0,0:0:0:0:
254,193,38377,1,8,0:0:0:0:
254,193,38548,1,0,0:0:0:0:
254,193,38634,1,0,0:0:0:0:
254,193,38720,1,8,0:0:0:0:
254,193,39062,1,0,0:0:0:0:
254,193,39234,1,8,0:0:0:0:
254,193,39405,1,0,0:0:0:0:
254,193,39577,1,8,0:0:0:0:
254,193,39662,1,0,0:0:0:0:
254,193,39748,1,0,0:0:0:0:
254,193,39834,1,0,0:0:0:0:
254,193,39920,1,8,0:0:0:0:
254,193,40091,1,0,0:0:0:0:
254,193,40262,1,8,0:0:0:0:
254,193,40348,1,8,0:0:0:0:
254,193,40434,1,0,0:0:0:0:
254,193,40605,1,8,0:0:0:0:
254,193,40777,1,0,0:0:0:0:
254,193,40862,1,0,0:0:0:0:
254,193,40948,1,8,0:0:0:0:
254,193,41034,1,8,0:0:0:0:
254,193,41120,1,0,0:0:0:0:
254,193,41291,1,8,0:0:0:0:
254,193,41377,1,8,0:0:0:0:
254,193,41462,1,0,0:0:0:0:
254,193,41805,1,8,0:0:0:0:
254,193,41977,1,8,0:0:0:0:
254,193,42148,1,0,0:0:0:0:
254,193,42320,1,8,0:0:0:0:
254,193,42405,1,8,0:0:0:0:
254,193,42491,1,0,0:0:0:0:
254,193,42662,1,8,0:0:0:0:
254,193,42834,1,0,0:0:0:0:
254,193,42920,1,0,0:0:0:0:
254,193,43005,1,8,0:0:0:0:
254,193,43177,1,0,0:0:0:0:
254,193,43348,1,8,0:0:0:0:
254,193,43434,1,8,0:0:0:0:
254,193,43520,1,0,0:0:0:0:
254,193,43605,1,8,0:0:0:0:
254,193,43691,1,0,0:0:0:0:
254,193,43862,1,12,0:0:0:0:
254,193,44205,1,0,0:0:0:0:
254,193,44548,1,0,0:0:0:0:
254,193,44720,1,8,0:0:0:0:
254,193,44891,1,0,0:0:0:0:
254,193,45062,1,8,0:0:0:0:
254,193,45148,1,8,0:0:0:0:
254,193,45234,1,0,0:0:0:0:
254,193,45405,1,0,0:0:0:0:
254,193,45577,1,8,0:0:0:0:
254,193,45662,1,0,0:0:0:0:
254,193,45748,1,8,0:0:0:0:
254,193,45834,1,8,0:0:0:0:
254,193,45920,1,0,0:0:0:0:
254,193,46091,1,8,0:0:0:0:
254,193,46262,1,0,0:0:0:0:
254,193,46348,1,0,0:0:0:0:
254,193,46434,1,8,0:0:0:0:
254,193,46605,1,0,0:0:0:0:
254,193,46777,1,8,0:0:0:0:
254,193,46862,1,8,0:0:0:0:
254,193,46948,1,0,0:0:0:0:
254,193,47291,1,0,0:0:0:0:
254,193,47462,1,8,0:0:0:0:
254,193,47548,1,8,0:0:0:0:
254,193,47634,1,0,0:0:0:0:
254,193,47805,1,8,0:0:0:0:
254,193,47977,1,0,0:0:0:0:
254,193,48062,1,0,0:0:0:0:
254,193,48148,1,8,0:0:0:0:
254,193,48234,1,0,0:0:0:0:
254,193,48320,1,8,0:0:0:0:
254,193,48491,1,0,0:0:0:0:
254,193,48577,1,8,0:0:0:0:
254,193,48662,1,0,0:0:0:0:
254,193,48834,1,8,0:0:0:0:
254,193,49005,1,0,0:0:0:0:
254,193,49091,1,0,0:0:0:0:
254,193,49177,1,8,0:0:0:0:
254,193,49262,1,8,0:0:0:0:
254,193,49348,1,0,0:0:0:0:
254,193,49520,1,8,0:0:0:0:
254,193,49691,1,0,0:0:0:0:
254,193,49862,1,8,0:0:0:0:
254,193,49948,1,8,0:0:0:0:
254,193,50034,1,0,0:0:0:0:
254,193,50205,1,8,0:0:0:0:
254,193,50377,1,0,0:0:0:0:
254,193,50462,1,8,0:0:0:0:
254,193,50548,1,0,0:0:0:0:
254,193,50634,1,0,0:0:0:0:
254,193,50720,1,8,0:0:0:0:
254,193,50891,1,8,0:0:0:0:
254,193,51062,1,0,0:0:0:0:
254,193,51234,1,8,0:0:0:0:
254,193,51320,1,8,0:0:0:0:
254,193,51405,1,0,0:0:0:0:
254,193,51577,1,8,0:0:0:0:
254,193,51748,1,0,0:0:0:0:
254,193,51834,1,8,0:0:0:0:
254,193,51920,1,8,0:0:0:0:
254,193,52005,1,8,0:0:0:0:
254,193,52091,1,0,0:0:0:0:
254,193,52262,1,8,0:0:0:0:
254,193,52434,1,0,0:0:0:0:
254,193,52605,1,8,0:0:0:0:
254,193,52691,1,8,0:0:0:0:
254,193,52777,1,0,0:0:0:0:
254,193,52948,1,0,0:0:0:0:
254,193,53034,1,0,0:0:0:0:
254,193,53120,1,8,0:0:0:0:
254,193,53205,1,8,0:0:0:0:
254,193,53291,1,0,0:0:0:0:
254,193,53462,1,8,0:0:0:0:
254,193,53634,1,0,0:0:0:0:
254,193,53720,1,8,0:0:0:0:
254,193,53805,1,0,0:0:0:0:
254,193,53977,1,0,0:0:0:0:
254,193,54062,1,0,0:0:0:0:
254,193,54148,1,8,0:0:0:0:
254,193,54320,1,8,0:0:0:0:
254,193,54405,1,8,0:0:0:0:
254,193,54491,1,0,0:0:0:0:
254,193,54577,1,8,0:0:0:0:
254,193,54662,1,0,0:0:0:0:
254,193,54748,1,0,0:0:0:0:
254,193,54834,1,8,0:0:0:0:
327,114,55177,1,4,0:0:0:0:
320,85,55520,1,0,0:0:0:0:
320,85,55862,1,8,0:0:0:0:
326,139,56548,1,8,0:0:0:0:
280,59,57234,1,0,0:0:0:0:
287,50,57577,1,8,0:0:0:0:
290,56,57920,1,0,0:0:0:0:
286,82,58262,1,0,0:0:0:0:
288,78,58605,1,8,0:0:0:0:
322,141,59291,1,8,0:0:0:0:
239,112,59634,1,8,0:0:0:0:
236,106,59977,1,0,0:0:0:0:
227,75,60320,1,8,0:0:0:0:
239,110,60662,1,0,0:0:0:0:
276,107,61348,1,0,0:0:0:0:
386,113,62034,1,8,0:0:0:0:
298,112,62720,1,0,0:0:0:0:
288,107,63062,1,8,0:0:0:0:
292,110,63405,1,0,0:0:0:0:
271,98,64091,1,0,0:0:0:0:
360,117,64777,1,8,0:0:0:0:
329,144,65291,1,0,0:0:0:0:
329,144,65462,1,8,0:0:0:0:
329,144,65805,1,8,0:0:0:0:
329,166,66148,1,4,0:0:0:0:
325,135,66491,1,0,0:0:0:0:
349,110,66662,1,0,0:0:0:0:
331,143,66834,1,8,0:0:0:0:
351,180,67177,1,0,0:0:0:0:
347,181,67520,1,8,0:0:0:0:
380,161,67862,1,0,0:0:0:0:
404,178,68205,1,8,0:0:0:0:
393,170,68548,1,8,0:0:0:0:
345,130,68720,1,8,0:0:0:0:
413,171,68891,1,0,0:0:0:0:
413,224,69234,1,0,0:0:0:0:
394,217,69405,1,0,0:0:0:0:
333,130,69577,1,8,0:0:0:0:
360,171,69920,1,0,0:0:0:0:
346,148,70262,1,8,0:0:0:0:
304,179,70605,1,0,0:0:0:0:
275,183,70948,1,8,0:0:0:0:
361,188,71120,1,0,0:0:0:0:
357,148,71291,1,8,0:0:0:0:
353,145,71462,1,8,0:0:0:0:
325,111,71634,1,0,0:0:0:0:
271,185,71977,1,0,0:0:0:0:
378,121,72320,1,8,0:0:0:0:
302,141,72662,1,0,0:0:0:0:
302,141,72834,1,0,0:0:0:0:
240,130,73005,1,8,0:0:0:0:
404,123,73177,1,0,0:0:0:0:
318,96,73348,1,8,0:0:0:0:
311,99,73520,1,8,0:0:0:0:
315,103,73691,1,0,0:0:0:0:
313,100,74034,1,8,0:0:0:0:
307,110,74377,1,4,0:0:0:0:
340,174,74548,1,8,0:0:0:0:
291,107,74720,1,0,0:0:0:0:
292,106,74805,1,0,0:0:0:0:
340,174,74891,1,8,0:0:0:0:
321,104,75062,1,0,0:0:0:0:
301,81,75234,1,8,0:0:0:0:
301,81,75320,1,8,0:0:0:0:
301,81,75405,1,0,0:0:0:0:
332,125,75577,1,8,0:0:0:0:
322,156,75748,1,4,0:0:0:0:
347,176,75920,1,8,0:0:0:0:
256,119,76091,1,0,0:0:0:0:
256,119,76177,1,0,0:0:0:0:
351,175,76262,1,8,0:0:0:0:
322,156,76434,1,0,0:0:0:0:
263,102,76520,1,8,0:0:0:0:
311,107,76605,1,8,0:0:0:0:
267,121,76691,1,8,0:0:0:0:
311,107,76777,1,0,0:0:0:0:
347,75,76862,1,0,0:0:0:0:
314,110,76948,1,8,0:0:0:0:
280,74,77120,1,0,0:0:0:0:
280,74,77205,1,0,0:0:0:0:
280,74,77291,1,8,0:0:0:0:
278,79,77377,1,0,0:0:0:0:
276,80,77462,1,8,0:0:0:0:
276,80,77548,1,8,0:0:0:0:
276,80,77634,1,0,0:0:0:0:
276,80,77720,1,8,0:0:0:0:
276,80,77805,1,0,0:0:0:0:
276,80,77891,1,0,0:0:0:0:
276,80,77977,1,8,0:0:0:0:
276,80,78062,1,0,0:0:0:0:
263,64,78148,1,8,0:0:0:0:
264,67,78234,1,8,0:0:0:0:
265,71,78320,1,0,0:0:0:0:
265,71,78405,1,8,0:0:0:0:
265,71,78491,1,0,0:0:0:0:
339,178,79520,1,0,0:0:0:0:
254,193,79862,1,4,0:0:0:0:
254,193,80120,1,8,0:0:0:0:
254,193,80205,1,0,0:0:0:0:
254,193,80377,1,0,0:0:0:0:
254,193,80462,1,0,0:0:0:0:
254,193,80548,1,8,0:0:0:0:
254,193,80634,1,0,0:0:0:0:
254,193,80720,1,8,0:0:0:0:
254,193,80805,1,8,0:0:0:0:
254,193,80891,1,0,0:0:0:0:
254,193,81062,1,0,0:0:0:0:
254,193,81148,1,8,0:0:0:0:
254,193,81234,1,0,0:0:0:0:
254,193,81405,1,8,0:0:0:0:
254,193,81491,1,8,0:0:0:0:
254,193,81577,1,0,0:0:0:0:
254,193,81662,1,0,0:0:0:0:
254,193,81748,1,8,0:0:0:0:
254,193,81920,1,0,0:0:0:0:
254,193,82091,1,8,0:0:0:0:
254,193,82177,1,0,0:0:0:0:
254,193,82262,1,8,0:0:0:0:
254,193,82434,1,0,0:0:0:0:
254,193,82605,1,8,0:0:0:0:
243,182,82691,1,8,0:0:0:0:
254,193,82777,1,0,0:0:0:0:
254,193,82862,1,0,0:0:0:0:
254,193,82948,1,8,0:0:0:0:
254,193,83120,1,0,0:0:0:0:
254,193,83205,1,0,0:0:0:0:
254,193,83291,1,8,0:0:0:0:
254,193,83377,1,0,0:0:0:0:
254,193,83462,1,8,0:0:0:0:
254,193,83548,1,8,0:0:0:0:
254,193,83634,1,0,0:0:0:0:
254,193,83805,1,0,0:0:0:0:
254,193,83977,1,8,0:0:0:0:
254,193,84062,1,0,0:0:0:0:
254,193,84148,1,0,0:0:0:0:
254,193,84234,1,0,0:0:0:0:
254,193,84320,1,8,0:0:0:0:
254,193,84405,1,8,0:0:0:0:
254,193,84491,1,0,0:0:0:0:
254,193,84662,1,0,0:0:0:0:
254,193,84834,1,8,0:0:0:0:
254,193,84920,1,0,0:0:0:0:
254,193,85006,1,8,0:0:0:0:
254,193,85177,1,0,0:0:0:0:
254,193,85348,1,8,0:0:0:0:
254,193,85605,1,0,0:0:0:0:
254,193,85691,1,8,0:0:0:0:
254,193,85862,1,0,0:0:0:0:
254,193,85948,1,0,0:0:0:0:
254,193,86034,1,8,0:0:0:0:
254,193,86120,1,0,0:0:0:0:
254,193,86291,1,0,0:0:0:0:
254,193,86377,1,8,0:0:0:0:
254,193,86548,1,0,0:0:0:0:
254,193,86634,1,8,0:0:0:0:
254,193,86720,1,0,0:0:0:0:
254,193,86805,1,0,0:0:0:0:
254,193,86891,1,8,0:0:0:0:
254,193,86977,1,8,0:0:0:0:
254,193,87062,1,0,0:0:0:0:
254,193,87234,1,8,0:0:0:0:
254,193,87405,1,0,0:0:0:0:
254,193,87577,1,8,0:0:0:0:
254,193,87662,1,0,0:0:0:0:
254,193,87748,1,8,0:0:0:0:
254,193,87920,1,0,0:0:0:0:
254,193,88091,1,0,0:0:0:0:
254,193,88262,1,8,0:0:0:0:
254,193,88348,1,8,0:0:0:0:
254,193,88434,1,0,0:0:0:0:
254,193,88520,1,0,0:0:0:0:
254,193,88605,1,8,0:0:0:0:
254,193,88777,1,0,0:0:0:0:
254,193,88948,1,8,0:0:0:0:
254,193,89034,1,8,0:0:0:0:
254,193,89120,1,0,0:0:0:0:
254,193,89291,1,8,0:0:0:0:
254,193,89462,1,0,0:0:0:0:
254,193,89634,1,8,0:0:0:0:
254,193,89720,1,0,0:0:0:0:
254,193,89805,1,8,0:0:0:0:
254,193,89977,1,0,0:0:0:0:
254,193,90062,1,0,0:0:0:0:
254,193,90148,1,8,0:0:0:0:
254,193,90320,1,0,0:0:0:0:
254,193,90377,1,0,0:0:0:0:
254,193,90434,1,0,0:0:0:0:
254,193,90491,1,8,0:0:0:0:
254,193,90834,1,0,0:0:0:0:
254,193,91005,1,8,0:0:0:0:
254,193,91062,1,8,0:0:0:0:
254,193,91120,1,8,0:0:0:0:
254,193,91177,1,0,0:0:0:0:
254,193,91348,1,8,0:0:0:0:
254,193,91405,1,0,0:0:0:0:
254,193,91462,1,0,0:0:0:0:
254,193,91520,1,8,0:0:0:0:
254,193,91691,1,8,0:0:0:0:
254,193,91862,1,4,0:0:0:0:
254,193,92034,1,8,0:0:0:0:
254,193,92120,1,8,0:0:0:0:
254,193,92205,1,0,0:0:0:0:
254,193,92377,1,0,0:0:0:0:
254,193,92548,1,8,0:0:0:0:
254,193,92720,1,0,0:0:0:0:
254,193,92805,1,0,0:0:0:0:
254,193,92891,1,8,0:0:0:0:
254,193,93062,1,8,0:0:0:0:
254,193,93234,1,0,0:0:0:0:
254,193,93577,1,0,0:0:0:0:
254,193,93748,1,8,0:0:0:0:
254,193,93834,1,0,0:0:0:0:
254,193,93920,1,0,0:0:0:0:
254,193,94091,1,8,0:0:0:0:
254,193,94148,1,0,0:0:0:0:
254,193,94205,1,0,0:0:0:0:
254,193,94262,1,8,0:0:0:0:
254,193,94434,1,0,0:0:0:0:
254,193,94520,1,8,0:0:0:0:
254,193,94605,1,0,0:0:0:0:
254,193,94777,1,8,0:0:0:0:
254,193,94948,1,0,0:0:0:0:
254,193,95120,1,8,0:0:0:0:
254,193,95205,1,0,0:0:0:0:
254,193,95291,1,8,0:0:0:0:
254,193,95377,1,8,0:0:0:0:
254,193,95462,1,0,0:0:0:0:
254,193,95634,1,8,0:0:0:0:
254,193,95977,1,0,0:0:0:0:
254,193,96148,1,8,0:0:0:0:
254,193,96320,1,0,0:0:0:0:
254,193,96491,1,8,0:0:0:0:
254,193,96548,1,8,0:0:0:0:
254,193,96605,1,8,0:0:0:0:
254,193,96662,1,0,0:0:0:0:
254,193,96834,1,8,0:0:0:0:
254,193,96891,1,0,0:0:0:0:
254,193,96948,1,0,0:0:0:0:
254,193,97005,1,8,0:0:0:0:
254,193,97177,1,0,0:0:0:0:
254,193,97348,1,8,0:0:0:0:
254,193,97434,1,0,0:0:0:0:
254,193,97520,1,0,0:0:0:0:
254,193,97691,1,8,0:0:0:0:
254,193,97777,1,0,0:0:0:0:
254,193,97862,1,8,0:0:0:0:
254,193,97948,1,8,0:0:0:0:
254,193,98034,1,0,0:0:0:0:
254,193,98205,1,0,0:0:0:0:
254,193,98377,1,8,0:0:0:0:
254,193,98548,1,0,0:0:0:0:
254,193,98634,1,8,0:0:0:0:
254,193,98720,1,0,0:0:0:0:
254,193,98891,1,8,0:0:0:0:
254,193,99062,1,0,0:0:0:0:
254,193,99148,1,0,0:0:0:0:
254,193,99234,1,8,0:0:0:0:
254,193,99320,1,0,0:0:0:0:
254,193,99405,1,8,0:0:0:0:
254,193,99491,1,8,0:0:0:0:
254,193,99577,1,0,0:0:0:0:
254,193,99748,1,0,0:0:0:0:
254,193,99834,1,8,0:0:0:0:
254,193,99920,1,0,0:0:0:0:
254,193,100005,1,0,0:0:0:0:
254,193,100091,1,8,0:0:0:0:
254,193,100177,1,0,0:0:0:0:
254,193,100262,1,8,0:0:0:0:
254,193,100434,1,0,0:0:0:0:
254,193,100520,1,0,0:0:0:0:
254,193,100605,1,8,0:0:0:0:
254,193,100691,1,8,0:0:0:0:
254,193,100777,1,0,0:0:0:0:
254,193,100862,1,8,0:0:0:0:
254,193,100948,1,0,0:0:0:0:
254,193,101034,1,0,0:0:0:0:
254,193,101120,1,8,0:0:0:0:
254,193,101205,1,0,0:0:0:0:
254,193,101291,1,0,0:0:0:0:
254,193,101377,1,0,0:0:0:0:
254,193,101462,1,8,0:0:0:0:
254,193,101520,1,8,0:0:0:0:
254,193,101577,1,8,0:0:0:0:
254,193,101634,1,0,0:0:0:0:
288,127,101805,1,4,0:0:0:0:
334,112,101977,1,8,0:0:0:0:
336,154,102062,1,8,0:0:0:0:
333,150,102148,1,0,0:0:0:0:
328,147,102320,1,8,0:0:0:0:
288,103,102491,1,0,0:0:0:0:
413,171,102662,1,8,0:0:0:0:
413,171,102748,1,0,0:0:0:0:
311,130,102834,1,8,0:0:0:0:
311,134,102920,1,8,0:0:0:0:
311,138,103005,1,0,0:0:0:0:
311,139,103091,1,8,0:0:0:0:
311,139,103177,1,0,0:0:0:0:
351,124,103348,1,0,0:0:0:0:
376,122,103434,1,0,0:0:0:0:
382,123,103520,1,8,0:0:0:0:
371,112,103691,1,8,0:0:0:0:
300,104,103777,1,8,0:0:0:0:
300,104,103862,1,0,0:0:0:0:
284,84,103948,1,8,0:0:0:0:
284,82,104120,1,8,0:0:0:0:
284,82,104205,1,0,0:0:0:0:
294,79,104377,1,8,0:0:0:0:
244,110,104548,1,0,0:0:0:0:
349,112,104805,1,8,0:0:0:0:
341,83,104891,1,0,0:0:0:0:
316,119,105062,1,8,0:0:0:0:
345,115,105234,1,0,0:0:0:0:
352,123,105320,1,0,0:0:0:0:
349,163,105405,1,0,0:0:0:0:
340,124,105491,1,0,0:0:0:0:
365,121,105577,1,8,0:0:0:0:
338,133,105748,1,8,0:0:0:0:
342,174,105920,1,0,0:0:0:0:
317,129,106091,1,8,0:0:0:0:
322,137,106177,1,8,0:0:0:0:
323,167,106262,1,0,0:0:0:0:
322,136,106434,1,8,0:0:0:0:
338,133,106520,1,8,0:0:0:0:
322,166,106605,1,0,0:0:0:0:
333,118,106691,1,8,0:0:0:0:
329,127,106862,1,0,0:0:0:0:
333,125,106948,1,8,0:0:0:0:
334,134,107120,1,0,0:0:0:0:
334,134,107205,1,8,0:0:0:0:
334,134,107291,1,0,0:0:0:0:
64,165,107462,1,8,0:0:0:0:
411,132,107548,1,8,0:0:0:0:
355,84,107634,1,0,0:0:0:0:
254,72,107805,1,0,0:0:0:0:
393,70,107891,1,0,0:0:0:0:
371,127,107977,1,0,0:0:0:0:
321,69,108062,1,8,0:0:0:0:
282,54,108234,1,8,0:0:0:0:
253,123,108320,1,0,0:0:0:0:
400,147,108491,1,8,0:0:0:0:
416,146,108662,1,0,0:0:0:0:
270,92,108834,1,8,0:0:0:0:
270,92,108920,1,8,0:0:0:0:
275,93,109005,1,0,0:0:0:0:
216,78,109091,1,8,0:0:0:0:
232,94,109262,1,8,0:0:0:0:
285,132,109348,1,0,0:0:0:0:
293,107,109520,1,0,0:0:0:0:
293,107,109605,1,0,0:0:0:0:
293,106,109691,1,8,0:0:0:0:
321,128,109862,1,8,0:0:0:0:
344,131,110034,1,0,0:0:0:0:
328,81,110291,1,8,0:0:0:0:
248,93,110377,1,0,0:0:0:0:
298,87,110548,1,8,0:0:0:0:
306,91,110720,1,0,0:0:0:0:
293,114,110805,1,0,0:0:0:0:
293,114,110891,1,8,0:0:0:0:
293,114,110977,1,0,0:0:0:0:
293,114,111062,1,8,0:0:0:0:
293,114,111234,1,8,0:0:0:0:
266,110,111405,1,0,0:0:0:0:
281,113,111577,1,8,0:0:0:0:
282,116,111662,1,8,0:0:0:0:
282,116,111748,1,0,0:0:0:0:
282,116,111920,1,8,0:0:0:0:
282,116,112091,1,0,0:0:0:0:
266,110,112262,1,12,0:0:0:0:
256,105,112434,1,4,0:0:0:0:
288,127,112777,1,0,0:0:0:0:
334,112,112949,1,8,0:0:0:0:
336,154,113034,1,8,0:0:0:0:
333,150,113120,1,0,0:0:0:0:
328,147,113292,1,8,0:0:0:0:
288,103,113463,1,0,0:0:0:0:
413,171,113634,1,8,0:0:0:0:
413,171,113720,1,0,0:0:0:0:
311,130,113806,1,8,0:0:0:0:
311,134,113892,1,8,0:0:0:0:
311,138,113977,1,0,0:0:0:0:
311,139,114063,1,8,0:0:0:0:
311,139,114149,1,0,0:0:0:0:
351,124,114320,1,0,0:0:0:0:
376,122,114406,1,0,0:0:0:0:
382,123,114492,1,8,0:0:0:0:
371,112,114663,1,8,0:0:0:0:
300,104,114749,1,8,0:0:0:0:
300,104,114834,1,0,0:0:0:0:
284,84,114920,1,8,0:0:0:0:
284,82,115092,1,8,0:0:0:0:
284,82,115177,1,0,0:0:0:0:
294,79,115349,1,8,0:0:0:0:
244,110,115520,1,0,0:0:0:0:
349,112,115777,1,8,0:0:0:0:
341,83,115863,1,0,0:0:0:0:
316,119,116034,1,8,0:0:0:0:
345,115,116206,1,0,0:0:0:0:
352,123,116292,1,0,0:0:0:0:
349,163,116377,1,0,0:0:0:0:
340,124,116463,1,0,0:0:0:0:
365,121,116549,1,8,0:0:0:0:
338,133,116720,1,8,0:0:0:0:
342,174,116892,1,0,0:0:0:0:
317,129,117063,1,8,0:0:0:0:
322,137,117149,1,8,0:0:0:0:
323,167,117234,1,0,0:0:0:0:
322,136,117406,1,8,0:0:0:0:
338,133,117492,1,8,0:0:0:0:
322,166,117577,1,0,0:0:0:0:
333,118,117663,1,8,0:0:0:0:
329,127,117834,1,0,0:0:0:0:
333,125,117920,1,8,0:0:0:0:
334,134,118092,1,0,0:0:0:0:
334,134,118177,1,8,0:0:0:0:
334,134,118263,1,0,0:0:0:0:
302,94,118434,1,8,0:0:0:0:
411,132,118520,1,8,0:0:0:0:
355,84,118606,1,0,0:0:0:0:
327,114,118777,1,8,0:0:0:0:
393,70,118863,1,0,0:0:0:0:
371,127,118949,1,0,0:0:0:0:
321,69,119034,1,8,0:0:0:0:
282,54,119206,1,0,0:0:0:0:
253,123,119292,1,8,0:0:0:0:
296,131,119462,1,0,0:0:0:0:
259,79,119548,1,8,0:0:0:0:
416,146,119634,1,0,0:0:0:0:
270,92,119806,1,8,0:0:0:0:
270,92,119892,1,8,0:0:0:0:
275,93,119977,1,0,0:0:0:0:
266,131,120062,1,0,0:0:0:0:
256,116,120148,1,8,0:0:0:0:
285,132,120320,1,0,0:0:0:0:
286,92,120491,1,8,0:0:0:0:
293,107,120577,1,0,0:0:0:0:
293,106,120663,1,8,0:0:0:0:
258,109,120834,1,8,0:0:0:0:
242,101,120920,1,8,0:0:0:0:
344,131,121006,1,0,0:0:0:0:
265,120,121091,1,8,0:0:0:0:
265,121,121177,1,8,0:0:0:0:
328,81,121263,1,8,0:0:0:0:
248,93,121349,1,0,0:0:0:0:
298,87,121520,1,8,0:0:0:0:
306,91,121692,1,0,0:0:0:0:
293,114,121777,1,0,0:0:0:0:
293,114,121863,1,8,0:0:0:0:
293,114,121949,1,0,0:0:0:0:
293,114,122034,1,8,0:0:0:0:
293,114,122206,1,8,0:0:0:0:
266,110,122377,1,0,0:0:0:0:
281,113,122549,1,8,0:0:0:0:
282,116,122634,1,8,0:0:0:0:
282,116,122720,1,0,0:0:0:0:
282,116,122892,1,8,0:0:0:0:
282,116,123063,1,0,0:0:0:0:
266,110,123234,1,8,0:0:0:0:
333,106,123320,1,0,0:0:0:0:
331,110,123405,1,8,0:0:0:0:
331,110,123577,1,8,0:0:0:0:
254,193,123748,1,4,0:0:0:0:
254,193,123920,1,8,0:0:0:0:
254,193,124091,1,0,0:0:0:0:
254,193,124177,1,8,0:0:0:0:
254,193,124262,1,0,0:0:0:0:
254,193,124434,1,8,0:0:0:0:
254,193,124520,1,0,0:0:0:0:
254,193,124691,1,0,0:0:0:0:
254,193,124777,1,8,0:0:0:0:
254,193,124948,1,0,0:0:0:0:
254,193,125034,1,8,0:0:0:0:
254,193,125120,1,0,0:0:0:0:
254,193,125291,1,8,0:0:0:0:
254,193,125377,1,8,0:0:0:0:
254,193,125462,1,0,0:0:0:0:
254,193,125634,1,8,0:0:0:0:
254,193,125805,1,0,0:0:0:0:
254,193,125891,1,0,0:0:0:0:
254,193,125977,1,8,0:0:0:0:
254,193,126062,1,0,0:0:0:0:
254,193,126148,1,8,0:0:0:0:
254,193,126320,1,0,0:0:0:0:
254,193,126491,1,8,0:0:0:0:
254,193,126662,1,0,0:0:0:0:
254,193,126748,1,8,0:0:0:0:
254,193,126834,1,0,0:0:0:0:
254,193,126920,1,0,0:0:0:0:
254,193,127005,1,8,0:0:0:0:
254,193,127177,1,8,0:0:0:0:
254,193,127262,1,0,0:0:0:0:
254,193,127434,1,0,0:0:0:0:
254,193,127520,1,8,0:0:0:0:
254,193,127691,1,0,0:0:0:0:
254,193,127777,1,8,0:0:0:0:
254,193,127862,1,0,0:0:0:0:
254,193,128034,1,8,0:0:0:0:
254,193,128120,1,8,0:0:0:0:
254,193,128205,1,0,0:0:0:0:
254,193,128291,1,8,0:0:0:0:
254,193,128377,1,0,0:0:0:0:
254,193,128548,1,8,0:0:0:0:
254,193,128805,1,0,0:0:0:0:
254,193,128891,1,8,0:0:0:0:
254,193,129062,1,0,0:0:0:0:
254,193,129234,1,8,0:0:0:0:
254,193,129405,1,0,0:0:0:0:
254,193,129491,1,0,0:0:0:0:
254,193,129577,1,8,0:0:0:0:
254,193,129662,1,8,0:0:0:0:
254,193,129748,1,0,0:0:0:0:
254,193,129920,1,8,0:0:0:0:
254,193,130005,1,0,0:0:0:0:
254,193,130177,1,0,0:0:0:0:
254,193,130262,1,8,0:0:0:0:
254,193,130434,1,0,0:0:0:0:
254,193,130520,1,0,0:0:0:0:
254,193,130605,1,0,0:0:0:0:
254,193,130777,1,8,0:0:0:0:
254,193,130862,1,0,0:0:0:0:
254,193,130948,1,8,0:0:0:0:
254,193,131034,1,8,0:0:0:0:
254,193,131120,1,0,0:0:0:0:
254,193,131205,1,8,0:0:0:0:
254,193,131291,1,0,0:0:0:0:
254,193,131462,1,8,0:0:0:0:
254,193,131548,1,0,0:0:0:0:
254,193,131634,1,8,0:0:0:0:
254,193,131805,1,0,0:0:0:0:
254,193,131977,1,8,0:0:0:0:
254,193,132148,1,0,0:0:0:0:
254,193,132234,1,8,0:0:0:0:
254,193,132320,1,0,0:0:0:0:
254,193,132405,1,0,0:0:0:0:
254,193,132491,1,8,0:0:0:0:
254,193,132662,1,0,0:0:0:0:
254,193,132748,1,8,0:0:0:0:
254,193,132834,1,0,0:0:0:0:
254,193,132891,1,0,0:0:0:0:
254,193,132948,1,0,0:0:0:0:
254,193,133005,1,8,0:0:0:0:
254,193,133091,1,0,0:0:0:0:
254,193,133177,1,8,0:0:0:0:
254,193,133262,1,8,0:0:0:0:
254,193,133348,1,0,0:0:0:0:
254,193,133520,1,0,0:0:0:0:
254,193,133605,1,0,0:0:0:0:
254,193,133691,1,8,0:0:0:0:
254,193,133862,1,8,0:0:0:0:
254,193,133948,1,8,0:0:0:0:
254,193,134034,1,0,0:0:0:0:
254,193,134120,1,8,0:0:0:0:
254,193,134205,1,0,0:0:0:0:
254,193,134291,1,0,0:0:0:0:
254,193,134377,1,8,0:0:0:0:
360,144,134720,1,4,0:0:0:0:
267,113,134977,1,8,0:0:0:0:
299,87,135062,1,0,0:0:0:0:
348,125,135234,1,8,0:0:0:0:
340,150,135405,1,0,0:0:0:0:
302,121,135577,1,0,0:0:0:0:
301,114,135662,1,8,0:0:0:0:
302,121,135748,1,8,0:0:0:0:
362,107,135920,1,8,0:0:0:0:
327,116,136091,1,0,0:0:0:0:
280,103,136348,1,8,0:0:0:0:
279,102,136434,1,0,0:0:0:0:
300,99,136605,1,8,0:0:0:0:
295,105,136777,1,0,0:0:0:0:
279,149,136948,1,0,0:0:0:0:
273,143,137034,1,0,0:0:0:0:
273,143,137120,1,8,0:0:0:0:
269,139,137291,1,8,0:0:0:0:
241,127,137462,1,0,0:0:0:0:
308,131,137720,1,8,0:0:0:0:
293,140,137805,1,0,0:0:0:0:
342,172,137977,1,8,0:0:0:0:
311,104,138148,1,0,0:0:0:0:
311,104,138320,1,8,0:0:0:0:
311,104,138405,1,0,0:0:0:0:
311,104,138491,1,8,0:0:0:0:
311,104,138662,1,8,0:0:0:0:
311,104,138834,1,0,0:0:0:0:
273,128,139091,1,8,0:0:0:0:
264,133,139177,1,0,0:0:0:0:
325,180,139348,1,8,0:0:0:0:
311,104,139520,1,0,0:0:0:0:
324,116,139605,1,0,0:0:0:0:
324,116,139691,1,8,0:0:0:0:
264,85,139862,1,0,0:0:0:0:
321,110,140034,1,8,0:0:0:0:
321,110,140120,1,8,0:0:0:0:
321,110,140205,1,0,0:0:0:0:
391,144,140462,1,8,0:0:0:0:
299,106,140548,1,0,0:0:0:0:
288,103,140720,1,8,0:0:0:0:
288,101,140891,1,0,0:0:0:0:
288,101,140977,1,8,0:0:0:0:
288,153,141062,1,0,0:0:0:0:
289,94,141148,1,0,0:0:0:0:
288,103,141234,1,8,0:0:0:0:
285,115,141405,1,8,0:0:0:0:
351,122,141577,1,0,0:0:0:0:
374,177,141834,1,8,0:0:0:0:
377,190,141920,1,0,0:0:0:0:
295,99,142091,1,8,0:0:0:0:
331,86,142262,1,0,0:0:0:0:
331,86,142348,1,0,0:0:0:0:
336,90,142434,1,8,0:0:0:0:
299,143,142520,1,8,0:0:0:0:
350,109,142605,1,0,0:0:0:0:
351,119,142777,1,8,0:0:0:0:
342,114,142948,1,0,0:0:0:0:
277,108,143205,1,8,0:0:0:0:
277,108,143291,1,0,0:0:0:0:
268,136,143462,1,8,0:0:0:0:
297,128,143634,1,0,0:0:0:0:
243,153,143805,1,0,0:0:0:0:
243,153,143891,1,0,0:0:0:0:
243,153,143977,1,8,0:0:0:0:
267,112,144148,1,8,0:0:0:0:
267,113,144234,1,8,0:0:0:0:
267,113,144320,1,0,0:0:0:0:
287,98,144491,1,8,0:0:0:0:
292,154,144577,1,0,0:0:0:0:
287,98,144662,1,8,0:0:0:0:
288,102,144748,1,8,0:0:0:0:
291,107,144834,1,0,0:0:0:0:
291,108,144920,1,8,0:0:0:0:
291,108,145005,1,0,0:0:0:0:
296,168,145177,1,4,0:0:0:0:
285,140,145348,1,12,0:0:0:0:
360,144,145691,1,4,0:0:0:0:
267,113,145948,1,8,0:0:0:0:
299,87,146033,1,0,0:0:0:0:
348,125,146205,1,8,0:0:0:0:
340,150,146376,1,0,0:0:0:0:
302,121,146548,1,0,0:0:0:0:
301,114,146633,1,8,0:0:0:0:
302,121,146719,1,8,0:0:0:0:
362,107,146891,1,8,0:0:0:0:
327,116,147062,1,0,0:0:0:0:
280,103,147319,1,8,0:0:0:0:
279,102,147405,1,0,0:0:0:0:
300,99,147576,1,8,0:0:0:0:
295,105,147748,1,0,0:0:0:0:
279,149,147919,1,0,0:0:0:0:
273,143,148005,1,0,0:0:0:0:
273,143,148091,1,8,0:0:0:0:
269,139,148262,1,8,0:0:0:0:
241,127,148433,1,0,0:0:0:0:
308,131,148691,1,8,0:0:0:0:
293,140,148776,1,0,0:0:0:0:
342,172,148948,1,8,0:0:0:0:
311,104,149119,1,0,0:0:0:0:
311,104,149291,1,8,0:0:0:0:
311,104,149376,1,0,0:0:0:0:
311,104,149462,1,8,0:0:0:0:
311,104,149633,1,8,0:0:0:0:
311,104,149805,1,0,0:0:0:0:
273,128,150062,1,8,0:0:0:0:
264,133,150148,1,0,0:0:0:0:
325,180,150319,1,8,0:0:0:0:
311,104,150491,1,0,0:0:0:0:
324,116,150576,1,0,0:0:0:0:
324,116,150662,1,8,0:0:0:0:
264,85,150833,1,0,0:0:0:0:
321,110,151005,1,8,0:0:0:0:
321,110,151177,1,4,0:0:0:0:
207,95,151434,1,8,0:0:0:0:
299,106,151519,1,0,0:0:0:0:
221,132,151691,1,8,0:0:0:0:
221,132,151862,1,0,0:0:0:0:
221,132,151948,1,8,0:0:0:0:
221,132,152034,1,0,0:0:0:0:
221,132,152120,1,0,0:0:0:0:
236,107,152205,1,8,0:0:0:0:
164,150,152377,1,8,0:0:0:0:
171,94,152548,1,4,0:0:0:0:
177,72,152805,1,8,0:0:0:0:
177,72,152891,1,0,0:0:0:0:
177,72,153062,1,8,0:0:0:0:
158,125,153234,1,0,0:0:0:0:
158,125,153320,1,8,0:0:0:0:
177,73,153405,1,0,0:0:0:0:
177,73,153491,1,0,0:0:0:0:
177,73,153577,1,8,0:0:0:0:
177,72,153662,1,0,0:0:0:0:
223,83,153748,1,8,0:0:0:0:
149,132,153920,1,4,0:0:0:0:
155,132,154091,1,8,0:0:0:0:
197,133,154177,1,8,0:0:0:0:
197,133,154262,1,0,0:0:0:0:
165,86,154434,1,8,0:0:0:0:
290,105,154605,1,4,0:0:0:0:
193,173,154777,1,0,0:0:0:0:
258,185,154862,1,0,0:0:0:0:
258,185,154948,1,8,0:0:0:0:
154,183,155120,1,8,0:0:0:0:
196,77,155291,1,4,0:0:0:0:
196,77,155462,1,8,0:0:0:0:
196,77,155548,1,0,0:0:0:0:
213,134,155634,1,8,0:0:0:0:
213,134,155720,1,8,0:0:0:0:
196,77,155805,1,0,0:0:0:0:
196,77,155891,1,8,0:0:0:0:
222,93,155977,1,0,0:0:0:0:
196,77,156062,1,0,0:0:0:0:
196,77,156148,1,8,0:0:0:0:
196,77,156234,1,0,0:0:0:0:
216,87,156320,1,8,0:0:0:0:
226,238,156662,1,4,0:0:0:0:
226,238,157348,1,8,0:0:0:0:
229,113,157862,1,0,0:0:0:0:
226,238,158034,1,0,0:0:0:0:
188,130,158377,1,0,0:0:0:0:
218,99,158720,1,8,0:0:0:0:
173,159,159405,1,0,0:0:0:0:
176,167,159920,1,0,0:0:0:0:
226,238,160091,1,8,0:0:0:0:
203,178,160605,1,0,0:0:0:0:
226,238,160777,1,0,0:0:0:0:
220,96,161120,1,0,0:0:0:0:
226,238,161462,1,8,0:0:0:0:
226,238,161805,1,0,0:0:0:0:
226,238,162148,1,0,0:0:0:0:
185,123,162662,1,0,0:0:0:0:
226,238,162834,1,8,0:0:0:0:
170,124,163348,1,0,0:0:0:0:
226,238,163520,1,0,0:0:0:0:
357,170,163862,1,0,0:0:0:0:
226,238,164205,1,8,0:0:0:0:
226,238,164548,1,8,0:0:0:0:
226,238,164891,1,0,0:0:0:0:
286,170,165405,1,0,0:0:0:0:
226,238,165577,1,8,0:0:0:0:
172,190,165920,1,0,0:0:0:0:
288,156,166091,1,8,0:0:0:0:
226,238,166262,1,0,0:0:0:0:
262,193,166605,1,0,0:0:0:0:
187,212,166777,1,0,0:0:0:0:
182,210,166948,1,8,0:0:0:0:
226,238,167291,1,8,0:0:0:0:
226,238,167634,1,0,0:0:0:0:
226,238,167977,1,8,0:0:0:0:
226,238,168320,1,8,0:0:0:0:
226,238,168662,1,0,0:0:0:0:
280,210,168834,1,8,0:0:0:0:
226,238,169005,1,0,0:0:0:0:
226,238,169348,1,0,0:0:0:0:
226,238,169520,1,0,0:0:0:0:
226,238,169691,1,8,0:0:0:0:
226,238,170034,1,8,0:0:0:0:
226,238,170377,1,8,0:0:0:0:
226,238,170720,1,0,0:0:0:0:
226,238,170891,1,0,0:0:0:0:
226,238,171062,1,8,0:0:0:0:
226,238,171234,1,0,0:0:0:0:
226,238,171405,1,8,0:0:0:0:
226,238,171577,1,8,0:0:0:0:
226,238,171748,1,0,0:0:0:0:
226,238,172091,1,0,0:0:0:0:
226,238,172434,1,8,0:0:0:0:
226,238,172777,1,0,0:0:0:0:
226,238,173120,1,0,0:0:0:0:
226,238,173291,1,0,0:0:0:0:
226,238,173462,1,8,0:0:0:0:
351,154,173634,1,0,0:0:0:0:
226,238,173805,1,8,0:0:0:0:
226,238,173977,1,0,0:0:0:0:
297,137,174148,1,8,0:0:0:0:
297,137,174320,1,8,0:0:0:0:
226,238,174491,1,0,0:0:0:0:
226,238,174662,1,0,0:0:0:0:
226,238,174834,1,8,0:0:0:0:
226,238,175005,1,8,0:0:0:0:
226,238,175177,1,0,0:0:0:0:
226,238,175348,1,8,0:0:0:0:
226,238,175862,1,4,0:0:0:0:
226,238,176034,1,8,0:0:0:0:
231,222,176120,1,8,0:0:0:0:
226,238,176205,1,0,0:0:0:0:
226,238,176291,1,0,0:0:0:0:
226,238,176377,1,8,0:0:0:0:
226,238,176548,1,4,0:0:0:0:
226,238,176720,1,8,0:0:0:0:
226,238,176805,1,0,0:0:0:0:
226,238,176891,1,0,0:0:0:0:
226,238,176977,1,0,0:0:0:0:
226,238,177062,1,8,0:0:0:0:
226,238,177234,1,0,0:0:0:0:
226,238,177320,1,0,0:0:0:0:
226,238,177405,1,8,0:0:0:0:
226,238,177491,1,8,0:0:0:0:
226,238,177577,1,0,0:0:0:0:
226,238,177662,1,0,0:0:0:0:
226,238,177748,1,8,0:0:0:0:
226,238,177834,1,8,0:0:0:0:
226,238,177920,1,0,0:0:0:0:
226,238,178005,1,0,0:0:0:0:
226,238,178091,1,0,0:0:0:0:
226,238,178177,1,0,0:0:0:0:
226,238,178262,1,8,0:0:0:0:
340,176,178605,1,4,0:0:0:0:
333,174,178777,1,8,0:0:0:0:
320,169,178948,1,0,0:0:0:0:
275,139,179291,1,0,0:0:0:0:
300,192,179462,1,0,0:0:0:0:
300,192,179548,1,0,0:0:0:0:
300,192,179634,1,8,0:0:0:0:
300,197,179805,1,8,0:0:0:0:
300,199,179977,1,0,0:0:0:0:
280,176,180320,1,8,0:0:0:0:
259,202,180491,1,0,0:0:0:0:
240,206,180662,1,0,0:0:0:0:
244,193,180834,1,8,0:0:0:0:
308,164,181005,1,8,0:0:0:0:
244,99,181177,1,8,0:0:0:0:
313,164,181348,1,0,0:0:0:0:
318,192,181520,1,8,0:0:0:0:
313,189,181691,1,0,0:0:0:0:
298,215,181948,1,8,0:0:0:0:
298,215,182034,1,0,0:0:0:0:
327,99,182205,1,0,0:0:0:0:
307,102,182377,1,8,0:0:0:0:
304,105,182548,1,8,0:0:0:0:
292,97,182720,1,0,0:0:0:0:
267,90,182977,1,8,0:0:0:0:
264,94,183062,1,0,0:0:0:0:
296,143,183234,1,8,0:0:0:0:
297,121,183405,1,8,0:0:0:0:
321,121,183577,1,0,0:0:0:0:
322,107,183662,1,0,0:0:0:0:
304,107,183748,1,8,0:0:0:0:
304,107,183920,1,8,0:0:0:0:
293,94,184091,1,0,0:0:0:0:
287,86,184262,1,8,0:0:0:0:
290,97,184434,1,0,0:0:0:0:
249,92,184691,1,8,0:0:0:0:
250,130,184777,1,0,0:0:0:0:
250,130,184948,1,0,0:0:0:0:
250,130,185034,1,0,0:0:0:0:
250,130,185120,1,8,0:0:0:0:
315,130,185291,1,8,0:0:0:0:
362,218,185462,1,0,0:0:0:0:
256,149,185634,1,0,0:0:0:0:
257,150,185720,1,8,0:0:0:0:
258,150,185805,1,8,0:0:0:0:
258,151,185977,1,8,0:0:0:0:
258,149,186148,1,0,0:0:0:0:
258,149,186320,1,8,0:0:0:0:
258,149,186491,1,8,0:0:0:0:
271,110,186834,1,0,0:0:0:0:
273,101,187005,1,8,0:0:0:0:
280,101,187177,1,0,0:0:0:0:
245,133,187348,1,0,0:0:0:0:
227,115,187434,1,8,0:0:0:0:
227,115,187520,1,0,0:0:0:0:
222,110,187691,1,0,0:0:0:0:
222,110,187862,1,8,0:0:0:0:
220,110,188034,1,8,0:0:0:0:
222,126,188205,1,0,0:0:0:0:
240,63,188462,1,8,0:0:0:0:
240,63,188548,1,0,0:0:0:0:
240,63,188720,1,8,0:0:0:0:
281,73,188891,1,0,0:0:0:0:
281,73,188977,1,8,0:0:0:0:
281,73,189062,1,8,0:0:0:0:
281,73,189148,1,8,0:0:0:0:
278,79,189234,1,0,0:0:0:0:
276,82,189320,1,0,0:0:0:0:
276,85,189405,1,8,0:0:0:0:
277,90,189491,1,8,0:0:0:0:
254,193,189577,1,0,0:0:0:0:
254,193,189834,1,0,0:0:0:0:
254,193,189920,1,8,0:0:0:0:
254,193,190091,1,0,0:0:0:0:
254,193,190262,1,8,0:0:0:0:
254,193,190348,1,0,0:0:0:0:
254,193,190434,1,0,0:0:0:0:
254,193,190605,1,8,0:0:0:0:
254,193,190691,1,0,0:0:0:0:
254,193,190777,1,8,0:0:0:0:
254,193,190862,1,8,0:0:0:0:
254,193,190948,1,0,0:0:0:0:
254,193,191120,1,0,0:0:0:0:
254,193,191291,1,8,0:0:0:0:
254,193,191377,1,0,0:0:0:0:
254,193,191462,1,0,0:0:0:0:
254,193,191548,1,0,0:0:0:0:
254,193,191634,1,8,0:0:0:0:
254,193,191805,1,0,0:0:0:0:
254,193,191977,1,8,0:0:0:0:
254,193,192062,1,8,0:0:0:0:
254,193,192148,1,0,0:0:0:0:
254,193,192320,1,0,0:0:0:0:
254,193,192577,1,0,0:0:0:0:
254,193,192663,1,8,0:0:0:0:
254,193,192834,1,0,0:0:0:0:
256,186,193005,1,8,0:0:0:0:
254,193,193091,1,8,0:0:0:0:
254,193,193177,1,0,0:0:0:0:
254,193,193262,1,0,0:0:0:0:
254,193,193348,1,8,0:0:0:0:
254,193,193520,1,8,0:0:0:0:
254,193,193691,1,0,0:0:0:0:
254,193,193862,1,0,0:0:0:0:
254,193,193948,1,0,0:0:0:0:
254,193,194034,1,8,0:0:0:0:
254,193,194205,1,0,0:0:0:0:
254,193,194377,1,8,0:0:0:0:
254,193,194548,1,0,0:0:0:0:
254,193,194720,1,8,0:0:0:0:
254,193,194805,1,0,0:0:0:0:
254,193,194891,1,8,0:0:0:0:
254,193,194977,1,8,0:0:0:0:
254,193,195062,1,0,0:0:0:0:
258,194,195320,1,0,0:0:0:0:
254,193,195405,1,8,0:0:0:0:
254,193,195577,1,0,0:0:0:0:
254,193,195748,1,8,0:0:0:0:
254,193,195834,1,8,0:0:0:0:
254,193,195920,1,0,0:0:0:0:
254,193,196005,1,0,0:0:0:0:
254,193,196091,1,8,0:0:0:0:
258,194,196262,1,8,0:0:0:0:
254,193,196434,1,0,0:0:0:0:
254,193,196605,1,0,0:0:0:0:
254,193,196691,1,0,0:0:0:0:
254,193,196777,1,8,0:0:0:0:
254,193,196948,1,0,0:0:0:0:
254,193,197034,1,0,0:0:0:0:
254,193,197120,1,8,0:0:0:0:
258,194,197205,1,8,0:0:0:0:
254,193,197291,1,0,0:0:0:0:
254,193,197462,1,8,0:0:0:0:
254,193,197634,1,0,0:0:0:0:
254,193,197805,1,0,0:0:0:0:
254,193,197891,1,0,0:0:0:0:
254,193,197977,1,8,0:0:0:0:
258,194,198062,1,0,0:0:0:0:
254,193,198148,1,0,0:0:0:0:
254,193,198234,1,0,0:0:0:0:
254,193,198320,1,8,0:0:0:0:
254,193,198405,1,0,0:0:0:0:
254,193,198491,1,8,0:0:0:0:
254,193,198577,1,0,0:0:0:0:
254,193,198662,1,0,0:0:0:0:
254,193,198748,1,0,0:0:0:0:
254,193,198834,1,8,0:0:0:0:
254,193,198920,1,0,0:0:0:0:
254,193,199005,1,8,0:0:0:0:
254,193,199091,1,8,0:0:0:0:
254,193,199177,1,0,0:0:0:0:
256,192,199691,12,0,199862,0:0:0:0:
283,125,200548,5,4,0:0:0:0:
278,127,201920,1,8,0:0:0:0:
306,125,202605,1,8,0:0:0:0:
304,116,203291,1,0,0:0:0:0:
304,116,203977,1,0,0:0:0:0:
295,66,204662,1,0,0:0:0:0:
295,66,205348,1,8,0:0:0:0:
286,61,206034,1,8,0:0:0:0:
290,64,207405,1,8,0:0:0:0:
298,67,208091,1,8,0:0:0:0:
287,57,208777,1,0,0:0:0:0:
287,61,209462,1,0,0:0:0:0:
288,72,210148,1,0,0:0:0:0:
274,64,210834,1,8,0:0:0:0:
254,193,211520,1,0,0:0:0:0:
254,193,211862,1,8,0:0:0:0:
254,193,212205,1,0,0:0:0:0:
254,193,212548,1,8,0:0:0:0:
254,193,212720,1,0,0:0:0:0:
254,193,213062,1,0,0:0:0:0:
254,193,213234,1,8,0:0:0:0:
254,193,213405,1,0,0:0:0:0:
254,193,213577,1,8,0:0:0:0:
254,193,214091,1,0,0:0:0:0:
254,193,214262,1,8,0:0:0:0:
254,193,214605,1,0,0:0:0:0:
254,193,214948,1,8,0:0:0:0:
254,193,215120,1,0,0:0:0:0:
254,193,215462,1,0,0:0:0:0:
254,193,215634,1,8,0:0:0:0:
254,193,215805,1,0,0:0:0:0:
254,193,215977,1,0,0:0:0:0:
254,193,216148,1,8,0:0:0:0:
254,193,216320,1,0,0:0:0:0:
254,193,216834,1,0,0:0:0:0:
254,193,217005,1,8,0:0:0:0:
254,193,217348,1,0,0:0:0:0:
254,193,217520,1,0,0:0:0:0:
254,193,217691,1,8,0:0:0:0:
254,193,218034,1,8,0:0:0:0:
254,193,218205,1,0,0:0:0:0:
254,193,218548,1,0,0:0:0:0:
254,193,218720,1,0,0:0:0:0:
254,193,219062,1,0,0:0:0:0:
254,193,219405,1,8,0:0:0:0:
254,193,219748,1,4,0:0:0:0:
254,193,219920,1,8,0:0:0:0:
254,193,220005,1,8,0:0:0:0:
254,193,220091,1,0,0:0:0:0:
254,193,220262,1,8,0:0:0:0:
254,193,220434,1,4,0:0:0:0:
254,193,220605,1,8,0:0:0:0:
254,193,220691,1,8,0:0:0:0:
254,193,220777,1,0,0:0:0:0:
254,193,220862,1,0,0:0:0:0:
254,193,220948,1,8,0:0:0:0:
254,193,221120,1,4,0:0:0:0:
254,193,221291,1,8,0:0:0:0:
254,193,221377,1,8,0:0:0:0:
254,193,221462,1,0,0:0:0:0:
254,193,221634,1,8,0:0:0:0:
254,193,221805,1,4,0:0:0:0:
254,193,221977,1,8,0:0:0:0:
254,193,222062,1,8,0:0:0:0:
254,193,222148,1,0,0:0:0:0:
254,193,222234,1,0,0:0:0:0:
254,193,222320,1,8,0:0:0:0:
254,193,222491,1,0,0:0:0:0:
254,193,222577,1,0,0:0:0:0:
254,193,222662,1,8,0:0:0:0:
254,193,222748,1,0,0:0:0:0:
254,193,222834,1,8,0:0:0:0:
254,193,222920,1,8,0:0:0:0:
254,193,223005,1,0,0:0:0:0:
254,193,223091,1,8,0:0:0:0:
254,193,223177,1,0,0:0:0:0:
254,193,223262,1,0,0:0:0:0:
254,193,223348,1,8,0:0:0:0:
254,193,223434,1,8,0:0:0:0:
254,193,223520,1,0,0:0:0:0:
254,193,223605,1,8,0:0:0:0:
254,193,223691,1,8,0:0:0:0:
254,193,223777,1,8,0:0:0:0:
254,193,223862,1,0,0:0:0:0:
254,193,224891,1,12,0:0:0:0:
256,192,225234,8,0,225405,0:0:0:0:
271,117,225577,5,4,0:0:0:0:
304,174,225834,1,8,0:0:0:0:
304,174,225920,1,0,0:0:0:0:
316,141,226091,1,0,0:0:0:0:
319,79,226177,1,0,0:0:0:0:
238,117,226262,1,8,0:0:0:0:
319,79,226348,1,8,0:0:0:0:
337,130,226434,1,0,0:0:0:0:
289,129,226605,1,0,0:0:0:0:
291,145,226777,1,8,0:0:0:0:
295,152,226862,1,8,0:0:0:0:
317,157,226948,1,0,0:0:0:0:
387,154,227120,1,8,0:0:0:0:
317,157,227291,1,0,0:0:0:0:
336,136,227377,1,8,0:0:0:0:
362,101,227548,1,0,0:0:0:0:
360,137,227634,1,8,0:0:0:0:
367,96,227805,1,0,0:0:0:0:
373,154,227891,1,8,0:0:0:0:
376,143,227977,1,0,0:0:0:0:
353,144,228148,1,8,0:0:0:0:
371,114,228234,1,0,0:0:0:0:
353,144,228320,1,0,0:0:0:0:
437,93,228491,1,8,0:0:0:0:
409,116,228662,1,0,0:0:0:0:
409,116,228748,1,0,0:0:0:0:
409,116,228834,1,8,0:0:0:0:
409,116,228920,1,0,0:0:0:0:
409,116,229005,1,8,0:0:0:0:
424,131,229177,1,8,0:0:0:0:
402,111,229348,1,0,0:0:0:0:
293,74,229520,1,8,0:0:0:0:
293,74,229605,1,8,0:0:0:0:
293,74,229691,1,0,0:0:0:0:
294,81,229862,1,8,0:0:0:0:
294,81,229948,1,8,0:0:0:0:
322,133,230034,1,0,0:0:0:0:
312,139,230120,1,0,0:0:0:0:
331,159,230205,1,8,0:0:0:0:
310,125,230291,1,0,0:0:0:0:
311,125,230377,1,8,0:0:0:0:
329,147,230462,1,8,0:0:0:0:
322,133,230548,1,0,0:0:0:0:
337,82,230720,1,0,0:0:0:0:
305,114,230891,1,8,0:0:0:0:
305,114,230977,1,8,0:0:0:0:
305,114,231062,1,0,0:0:0:0:
382,149,231234,1,8,0:0:0:0:
382,149,231405,1,0,0:0:0:0:
307,102,231491,1,0,0:0:0:0:
282,116,231577,1,8,0:0:0:0:
282,116,231662,1,0,0:0:0:0:
364,129,231748,1,8,0:0:0:0:
282,116,231920,1,8,0:0:0:0:
364,129,232091,1,0,0:0:0:0:
282,116,232262,1,8,0:0:0:0:
276,110,232348,1,8,0:0:0:0:
364,129,232434,1,0,0:0:0:0:
268,121,232605,1,8,0:0:0:0:
364,129,232777,1,0,0:0:0:0:
239,101,232862,1,8,0:0:0:0:
239,101,232948,1,8,0:0:0:0:
343,142,233034,1,0,0:0:0:0:
260,96,233120,1,8,0:0:0:0:
233,102,233205,1,8,0:0:0:0:
343,142,233291,1,0,0:0:0:0:
341,129,233462,1,0,0:0:0:0:
296,92,233720,1,8,0:0:0:0:
296,92,233805,1,0,0:0:0:0:
249,96,233977,1,8,0:0:0:0:
244,116,234148,1,0,0:0:0:0:
247,124,234234,1,8,0:0:0:0:
253,125,234320,1,0,0:0:0:0:
250,121,234491,1,8,0:0:0:0:
316,183,234577,1,8,0:0:0:0:
316,183,234662,1,0,0:0:0:0:
320,159,234748,1,8,0:0:0:0:
320,159,234834,1,0,0:0:0:0:
277,182,235005,1,8,0:0:0:0:
277,182,235091,1,0,0:0:0:0:
277,182,235177,1,8,0:0:0:0:
289,146,235348,1,0,0:0:0:0:
218,149,235434,1,0,0:0:0:0:
218,149,235520,1,8,0:0:0:0:
218,149,235691,1,8,0:0:0:0:
218,149,235748,1,0,0:0:0:0:
218,149,235805,1,0,0:0:0:0:
218,149,235862,1,8,0:0:0:0:
316,152,236034,1,8,0:0:0:0:
300,166,236205,1,0,0:0:0:0:
272,92,236377,1,8,0:0:0:0:
272,92,236434,1,8,0:0:0:0:
272,97,236491,1,8,0:0:0:0:
272,98,236548,1,0,0:0:0:0:
272,98,236720,1,8,0:0:0:0:
272,98,236777,1,0,0:0:0:0:
272,98,236834,1,0,0:0:0:0:
272,98,236891,1,8,0:0:0:0:
296,133,237062,1,8,0:0:0:0:
255,150,237234,1,4,0:0:0:0:
227,153,237491,1,8,0:0:0:0:
227,153,237577,1,0,0:0:0:0:
284,170,237748,1,8,0:0:0:0:
284,170,237920,1,0,0:0:0:0:
284,170,238005,1,0,0:0:0:0:
284,170,238091,1,8,0:0:0:0:
264,135,238262,1,0,0:0:0:0:
264,135,238434,1,8,0:0:0:0:
264,135,238520,1,8,0:0:0:0:
264,135,238605,1,0,0:0:0:0:
264,135,238777,1,0,0:0:0:0:
264,135,238948,1,8,0:0:0:0:
351,122,239034,1,0,0:0:0:0:
351,122,239120,1,8,0:0:0:0:
236,144,239177,1,0,0:0:0:0:
238,120,239234,1,0,0:0:0:0:
238,120,239291,1,8,0:0:0:0:
240,146,239462,1,0,0:0:0:0:
240,146,239520,1,8,0:0:0:0:
240,146,239577,1,8,0:0:0:0:
236,144,239634,1,0,0:0:0:0:
255,117,239805,1,8,0:0:0:0:
256,115,239891,1,8,0:0:0:0:
256,115,239977,1,0,0:0:0:0:
255,113,240148,1,8,0:0:0:0:
253,112,240320,1,0,0:0:0:0:
313,112,240491,1,8,0:0:0:0:
264,95,240577,1,0,0:0:0:0:
264,95,240662,1,8,0:0:0:0:
264,95,240834,1,0,0:0:0:0:
264,95,241005,1,8,0:0:0:0:
239,101,241177,1,8,0:0:0:0:
238,95,241348,1,0,0:0:0:0:
333,123,241691,1,0,0:0:0:0:
327,114,241777,1,8,0:0:0:0:
324,109,241862,1,0,0:0:0:0:
340,174,241920,1,0,0:0:0:0:
340,174,241977,1,0,0:0:0:0:
328,171,242034,1,8,0:0:0:0:
375,187,242205,1,8,0:0:0:0:
375,187,242262,1,8,0:0:0:0:
369,184,242319,1,8,0:0:0:0:
296,98,242377,1,0,0:0:0:0:
261,128,242548,1,8,0:0:0:0:
261,128,242720,1,4,0:0:0:0:
309,135,243062,1,8,0:0:0:0:
258,111,243234,1,0,0:0:0:0:
253,115,243320,1,8,0:0:0:0:
258,113,243405,1,0,0:0:0:0:
242,135,243577,1,0,0:0:0:0:
307,92,243748,1,8,0:0:0:0:
307,92,243920,1,8,0:0:0:0:
299,153,244091,1,0,0:0:0:0:
287,105,244177,1,0,0:0:0:0:
240,151,244262,1,8,0:0:0:0:
289,145,244434,1,0,0:0:0:0:
294,122,244520,1,0,0:0:0:0:
294,122,244605,1,8,0:0:0:0:
294,122,244691,1,0,0:0:0:0:
294,122,244777,1,8,0:0:0:0:
294,122,244862,1,8,0:0:0:0:
294,122,244948,1,0,0:0:0:0:
294,122,245034,1,8,0:0:0:0:
330,128,245120,1,0,0:0:0:0:
330,128,245205,1,0,0:0:0:0:
330,128,245291,1,8,0:0:0:0:
330,128,245377,1,0,0:0:0:0:
330,128,245462,1,8,0:0:0:0:
330,128,245548,1,8,0:0:0:0:
330,128,245634,1,0,0:0:0:0:
330,128,245720,1,8,0:0:0:0:
287,142,245805,1,0,0:0:0:0:
287,142,245891,1,8,0:0:0:0:
287,140,245977,1,0,0:0:0:0:
287,142,246062,1,0,0:0:0:0:
292,150,246148,1,8,0:0:0:0:
293,154,246234,1,0,0:0:0:0:
293,155,246320,1,8,0:0:0:0:
293,155,246405,1,8,0:0:0:0:
310,101,246491,1,0,0:0:0:0:
310,101,246577,1,8,0:0:0:0:
310,101,246662,1,0,0:0:0:0:
349,104,246748,1,0,0:0:0:0:
402,108,246834,1,8,0:0:0:0:
402,108,246891,1,8,0:0:0:0:
402,108,246948,1,8,0:0:0:0:
402,108,247005,1,0,0:0:0:0:
254,193,247177,1,4,0:0:0:0:
254,193,247348,1,0,0:0:0:0:
254,193,247434,1,0,0:0:0:0:
254,193,247520,1,8,0:0:0:0:
254,193,247691,1,0,0:0:0:0:
254,193,247777,1,0,0:0:0:0:
254,193,247862,1,8,0:0:0:0:
254,193,247948,1,0,0:0:0:0:
254,193,248120,1,0,0:0:0:0:
254,193,248205,1,8,0:0:0:0:
254,193,248377,1,0,0:0:0:0:
254,193,248548,1,8,0:0:0:0:
254,193,248634,1,8,0:0:0:0:
254,193,248720,1,0,0:0:0:0:
254,193,248805,1,0,0:0:0:0:
254,193,248891,1,8,0:0:0:0:
254,193,249062,1,0,0:0:0:0:
254,193,249148,1,8,0:0:0:0:
254,193,249234,1,0,0:0:0:0:
254,193,249405,1,8,0:0:0:0:
254,193,249491,1,0,0:0:0:0:
254,193,249577,1,8,0:0:0:0:
254,193,249662,1,8,0:0:0:0:
254,193,249834,1,0,0:0:0:0:
254,193,249920,1,8,0:0:0:0:
254,193,250091,1,0,0:0:0:0:
254,193,250262,1,8,0:0:0:0:
254,193,250348,1,8,0:0:0:0:
254,193,250434,1,0,0:0:0:0:
254,193,250520,1,0,0:0:0:0:
254,193,250605,1,8,0:0:0:0:
254,193,250777,1,0,0:0:0:0:
254,193,250862,1,0,0:0:0:0:
254,193,250948,1,8,0:0:0:0:
254,193,251120,1,0,0:0:0:0:
254,193,251291,1,8,0:0:0:0:
254,193,251377,1,0,0:0:0:0:
254,193,251462,1,0,0:0:0:0:
254,193,251548,1,0,0:0:0:0:
254,193,251634,1,8,0:0:0:0:
254,193,251720,1,8,0:0:0:0:
254,193,251805,1,0,0:0:0:0:
254,193,251977,1,0,0:0:0:0:
254,193,252062,1,8,0:0:0:0:
254,193,252148,1,8,0:0:0:0:
254,193,252234,1,0,0:0:0:0:
254,193,252405,1,0,0:0:0:0:
254,193,252491,1,8,0:0:0:0:
254,193,252662,1,0,0:0:0:0:
254,193,252920,1,0,0:0:0:0:
254,193,253005,1,8,0:0:0:0:
254,193,253177,1,0,0:0:0:0:
254,193,253262,1,0,0:0:0:0:
254,193,253348,1,8,0:0:0:0:
254,193,253520,1,0,0:0:0:0:
254,193,253691,1,8,0:0:0:0:
254,193,253776,1,8,0:0:0:0:
254,193,253862,1,0,0:0:0:0:
254,193,253948,1,0,0:0:0:0:
254,193,254034,1,8,0:0:0:0:
254,193,254205,1,0,0:0:0:0:
254,193,254291,1,8,0:0:0:0:
254,193,254377,1,0,0:0:0:0:
254,193,254548,1,0,0:0:0:0:
254,193,254720,1,8,0:0:0:0:
254,193,254891,1,0,0:0:0:0:
254,193,254977,1,8,0:0:0:0:
254,193,255062,1,0,0:0:0:0:
254,193,255148,1,0,0:0:0:0:
254,193,255234,1,8,0:0:0:0:
254,193,255405,1,0,0:0:0:0:
254,193,255577,1,0,0:0:0:0:
254,193,255662,1,0,0:0:0:0:
254,193,255748,1,8,0:0:0:0:
254,193,255920,1,0,0:0:0:0:
254,193,256005,1,0,0:0:0:0:
254,193,256091,1,8,0:0:0:0:
254,193,256177,1,0,0:0:0:0:
254,193,256262,1,8,0:0:0:0:
254,193,256434,1,0,0:0:0:0:
254,193,256520,1,8,0:0:0:0:
254,193,256605,1,0,0:0:0:0:
254,193,256777,1,0,0:0:0:0:
254,193,256948,1,8,0:0:0:0:
254,193,257034,1,8,0:0:0:0:
254,193,257120,1,0,0:0:0:0:
254,193,257291,1,8,0:0:0:0:
254,193,257377,1,0,0:0:0:0:
254,193,257462,1,8,0:0:0:0:
254,193,257548,1,8,0:0:0:0:
254,193,257634,1,0,0:0:0:0:
254,193,257805,1,12,0:0:0:0:
254,193,258148,1,0,0:0:0:0:
254,193,258319,1,0,0:0:0:0:
254,193,258405,1,0,0:0:0:0:
254,193,258491,1,8,0:0:0:0:
254,193,258662,1,0,0:0:0:0:
254,193,258748,1,8,0:0:0:0:
254,193,258834,1,8,0:0:0:0:
254,193,258920,1,0,0:0:0:0:
254,193,259091,1,0,0:0:0:0:
254,193,259177,1,8,0:0:0:0:
254,193,259348,1,8,0:0:0:0:
254,193,259519,1,0,0:0:0:0:
254,193,259605,1,8,0:0:0:0:
254,193,259691,1,0,0:0:0:0:
254,193,259776,1,0,0:0:0:0:
254,193,259862,1,8,0:0:0:0:
254,193,259948,1,8,0:0:0:0:
254,193,260033,1,0,0:0:0:0:
254,193,260119,1,8,0:0:0:0:
254,193,260205,1,0,0:0:0:0:
254,193,260376,1,8,0:0:0:0:
254,193,260462,1,8,0:0:0:0:
254,193,260548,1,0,0:0:0:0:
254,193,260633,1,8,0:0:0:0:
254,193,260805,1,0,0:0:0:0:
254,193,260891,1,8,0:0:0:0:
254,193,261062,1,0,0:0:0:0:
254,193,261233,1,8,0:0:0:0:
254,193,261320,1,0,0:0:0:0:
254,193,261405,1,8,0:0:0:0:
254,193,261491,1,8,0:0:0:0:
254,193,261576,1,0,0:0:0:0:
254,193,261748,1,0,0:0:0:0:
254,193,261833,1,0,0:0:0:0:
254,193,261919,1,8,0:0:0:0:
254,193,262091,1,0,0:0:0:0:
254,193,262262,1,8,0:0:0:0:
254,193,262348,1,0,0:0:0:0:
254,193,262433,1,0,0:0:0:0:
254,193,262519,1,0,0:0:0:0:
254,193,262605,1,8,0:0:0:0:
254,193,262691,1,8,0:0:0:0:
254,193,262776,1,0,0:0:0:0:
254,193,262948,1,0,0:0:0:0:
267,203,263034,1,8,0:0:0:0:
254,193,263119,1,8,0:0:0:0:
254,193,263205,1,0,0:0:0:0:
254,193,263376,1,0,0:0:0:0:
254,193,263462,1,8,0:0:0:0:
254,193,263633,1,0,0:0:0:0:
254,193,263891,1,0,0:0:0:0:
254,193,263976,1,8,0:0:0:0:
254,193,264148,1,0,0:0:0:0:
254,193,264233,1,0,0:0:0:0:
254,193,264319,1,8,0:0:0:0:
254,193,264405,1,8,0:0:0:0:
254,193,264491,1,0,0:0:0:0:
254,193,264662,1,8,0:0:0:0:
254,193,264747,1,8,0:0:0:0:
254,193,264833,1,0,0:0:0:0:
254,193,264919,1,0,0:0:0:0:
254,193,265005,1,8,0:0:0:0:
254,193,265176,1,0,0:0:0:0:
254,193,265262,1,8,0:0:0:0:
254,193,265348,1,0,0:0:0:0:
254,193,265519,1,8,0:0:0:0:
254,193,265691,1,0,0:0:0:0:
254,193,265862,1,0,0:0:0:0:
254,193,265948,1,0,0:0:0:0:
254,193,266034,1,8,0:0:0:0:
254,193,266205,1,8,0:0:0:0:
254,193,266376,1,0,0:0:0:0:
254,193,266548,1,0,0:0:0:0:
254,193,266633,1,0,0:0:0:0:
254,193,266719,1,8,0:0:0:0:
254,193,266805,1,0,0:0:0:0:
254,193,266891,1,0,0:0:0:0:
254,193,266976,1,0,0:0:0:0:
254,193,267062,1,8,0:0:0:0:
254,193,267148,1,0,0:0:0:0:
254,193,267233,1,8,0:0:0:0:
254,193,267405,1,8,0:0:0:0:
254,193,267491,1,0,0:0:0:0:
254,193,267577,1,8,0:0:0:0:
254,193,267662,1,8,0:0:0:0:
254,193,267748,1,0,0:0:0:0:
254,193,267919,1,8,0:0:0:0:
254,193,268005,1,8,0:0:0:0:
254,193,268091,1,0,0:0:0:0:
254,193,268177,1,0,0:0:0:0:
254,193,268262,1,8,0:0:0:0:
254,193,268348,1,0,0:0:0:0:
254,193,268434,1,8,0:0:0:0:
254,193,268605,1,0,0:0:0:0:
254,193,268691,1,0,0:0:0:0:
254,193,268777,1,8,0:0:0:0:
254,193,268862,1,0,0:0:0:0:
254,193,268948,1,8,0:0:0:0:
248,156,269120,1,4,0:0:0:0:
155,89,269291,1,0,0:0:0:0:
228,125,269377,1,0,0:0:0:0:
264,154,269462,1,8,0:0:0:0:
237,122,269635,1,0,0:0:0:0:
237,122,269806,1,0,0:0:0:0:
237,122,269891,1,0,0:0:0:0:
311,81,269977,1,8,0:0:0:0:
282,61,270062,1,0,0:0:0:0:
237,122,270149,1,8,0:0:0:0:
237,122,270320,1,8,0:0:0:0:
238,101,270492,1,0,0:0:0:0:
253,122,270749,1,8,0:0:0:0:
253,122,270835,1,0,0:0:0:0:
253,122,271006,1,8,0:0:0:0:
261,161,271178,1,0,0:0:0:0:
276,105,271349,1,8,0:0:0:0:
276,105,271435,1,0,0:0:0:0:
276,105,271520,1,8,0:0:0:0:
307,87,271605,1,8,0:0:0:0:
276,105,271692,1,0,0:0:0:0:
301,132,271863,1,0,0:0:0:0:
301,132,272035,1,0,0:0:0:0:
357,102,272120,1,0,0:0:0:0:
291,147,272206,1,8,0:0:0:0:
237,122,272378,1,0,0:0:0:0:
237,122,272549,1,0,0:0:0:0:
360,68,272634,1,0,0:0:0:0:
360,68,272720,1,8,0:0:0:0:
244,30,272805,1,0,0:0:0:0:
237,122,272892,1,8,0:0:0:0:
237,122,273063,1,8,0:0:0:0:
238,101,273234,1,0,0:0:0:0:
253,122,273492,1,8,0:0:0:0:
253,122,273578,1,0,0:0:0:0:
253,122,273749,1,8,0:0:0:0:
261,161,273921,1,0,0:0:0:0:
260,59,274091,1,0,0:0:0:0:
282,70,274177,1,8,0:0:0:0:
327,106,274262,1,0,0:0:0:0:
302,89,274348,1,0,0:0:0:0:
383,91,274434,1,8,0:0:0:0:
276,105,274606,1,0,0:0:0:0:
318,187,274777,1,0,0:0:0:0:
344,105,274862,1,0,0:0:0:0:
282,123,274949,1,8,0:0:0:0:
188,183,275120,1,0,0:0:0:0:
282,123,275292,1,8,0:0:0:0:
193,187,275377,1,0,0:0:0:0:
282,123,275463,1,8,0:0:0:0:
280,123,275549,1,8,0:0:0:0:
282,123,275634,1,0,0:0:0:0:
282,123,275806,1,8,0:0:0:0:
269,126,275978,1,0,0:0:0:0:
291,125,276149,1,8,0:0:0:0:
291,125,276235,1,8,0:0:0:0:
291,127,276320,1,0,0:0:0:0:
291,127,276492,1,8,0:0:0:0:
287,113,276663,1,0,0:0:0:0:
287,113,276749,1,0,0:0:0:0:
287,114,276835,1,8,0:0:0:0:
287,116,276920,1,0,0:0:0:0:
288,117,277006,1,8,0:0:0:0:
291,125,277092,1,8,0:0:0:0:
295,128,277178,1,0,0:0:0:0:
310,174,277348,1,0,0:0:0:0:
276,43,277520,1,0,0:0:0:0:
182,35,277605,1,0,0:0:0:0:
166,65,277691,1,8,0:0:0:0:
236,32,277862,1,0,0:0:0:0:
239,96,277948,1,8,0:0:0:0:
241,121,278034,1,0,0:0:0:0:
302,95,278205,1,0,0:0:0:0:
274,140,278291,1,0,0:0:0:0:
200,83,278377,1,8,0:0:0:0:
200,83,278462,1,8,0:0:0:0:
191,102,278548,1,0,0:0:0:0:
191,102,278634,1,8,0:0:0:0:
190,102,278720,1,0,0:0:0:0:
269,87,278892,1,8,0:0:0:0:
259,104,278978,1,8,0:0:0:0:
341,130,279063,1,0,0:0:0:0:
341,130,279235,1,8,0:0:0:0:
311,69,279320,1,8,0:0:0:0:
287,145,279406,1,0,0:0:0:0:
318,155,279491,1,8,0:0:0:0:
318,156,279663,1,0,0:0:0:0:
318,156,279749,1,8,0:0:0:0:
309,96,279834,1,0,0:0:0:0:
266,113,279920,1,8,0:0:0:0:
285,85,280005,1,8,0:0:0:0:
254,193,280091,1,0,0:0:0:0:
254,193,280263,1,8,0:0:0:0:
254,193,280348,1,8,0:0:0:0:
254,193,280434,1,0,0:0:0:0:
254,193,280520,1,8,0:0:0:0:
254,193,280605,1,0,0:0:0:0:
254,193,280777,1,8,0:0:0:0:
254,193,280863,1,0,0:0:0:0:
254,193,281034,1,0,0:0:0:0:
254,193,281120,1,8,0:0:0:0:
254,193,281291,1,0,0:0:0:0:
254,193,281377,1,8,0:0:0:0:
254,193,281463,1,0,0:0:0:0:
254,193,281634,1,8,0:0:0:0:
254,193,281720,1,0,0:0:0:0:
254,193,281805,1,0,0:0:0:0:
254,193,281891,1,8,0:0:0:0:
254,193,281977,1,0,0:0:0:0:
254,193,282148,1,8,0:0:0:0:
254,193,282405,1,0,0:0:0:0:
254,193,282491,1,8,0:0:0:0:
254,193,282663,1,0,0:0:0:0:
254,193,282834,1,8,0:0:0:0:
254,193,283005,1,0,0:0:0:0:
254,193,283091,1,8,0:0:0:0:
254,193,283177,1,0,0:0:0:0:
254,193,283263,1,0,0:0:0:0:
254,193,283348,1,8,0:0:0:0:
254,193,283520,1,8,0:0:0:0:
254,193,283605,1,0,0:0:0:0:
254,193,283777,1,0,0:0:0:0:
254,193,283863,1,8,0:0:0:0:
254,193,284034,1,0,0:0:0:0:
254,193,284120,1,8,0:0:0:0:
254,193,284205,1,0,0:0:0:0:
254,193,284377,1,8,0:0:0:0:
254,193,284463,1,8,0:0:0:0:
254,193,284548,1,0,0:0:0:0:
254,193,284634,1,8,0:0:0:0:
254,193,284720,1,0,0:0:0:0:
254,193,284891,1,8,0:0:0:0:
254,193,285148,1,0,0:0:0:0:
254,193,285234,1,8,0:0:0:0:
254,193,285405,1,0,0:0:0:0:
254,193,285577,1,8,0:0:0:0:
254,193,285748,1,0,0:0:0:0:
254,193,285834,1,0,0:0:0:0:
254,193,285920,1,8,0:0:0:0:
254,193,286005,1,8,0:0:0:0:
254,193,286091,1,0,0:0:0:0:
254,193,286263,1,8,0:0:0:0:
254,193,286348,1,0,0:0:0:0:
254,193,286520,1,0,0:0:0:0:
254,193,286605,1,8,0:0:0:0:
254,193,286777,1,0,0:0:0:0:
254,193,286863,1,8,0:0:0:0:
254,193,286948,1,0,0:0:0:0:
254,193,287120,1,8,0:0:0:0:
254,193,287205,1,8,0:0:0:0:
254,193,287291,1,0,0:0:0:0:
254,193,287377,1,8,0:0:0:0:
254,193,287463,1,0,0:0:0:0:
254,193,287548,1,0,0:0:0:0:
254,193,287634,1,8,0:0:0:0:
254,193,287891,1,0,0:0:0:0:
254,193,287977,1,8,0:0:0:0:
254,193,288148,1,0,0:0:0:0:
254,193,288320,1,8,0:0:0:0:
254,193,288491,1,0,0:0:0:0:
254,193,288577,1,8,0:0:0:0:
254,193,288663,1,0,0:0:0:0:
254,193,288748,1,0,0:0:0:0:
254,193,288834,1,8,0:0:0:0:
254,193,289005,1,0,0:0:0:0:
254,193,289091,1,8,0:0:0:0:
254,193,289177,1,0,0:0:0:0:
254,193,289234,1,0,0:0:0:0:
254,193,289291,1,0,0:0:0:0:
254,193,289348,1,8,0:0:0:0:
254,193,289434,1,0,0:0:0:0:
254,193,289520,1,8,0:0:0:0:
254,193,289605,1,8,0:0:0:0:
254,193,289691,1,0,0:0:0:0:
254,193,289863,1,0,0:0:0:0:
254,193,289948,1,0,0:0:0:0:
254,193,290034,1,8,0:0:0:0:
254,193,290205,1,8,0:0:0:0:
254,193,290291,1,8,0:0:0:0:
254,193,290377,1,0,0:0:0:0:
254,193,290462,1,8,0:0:0:0:
254,193,290548,1,0,0:0:0:0:
254,193,290634,1,0,0:0:0:0:
254,193,290720,1,8,0:0:0:0:
338,110,291062,1,12,0:0:0:0:
407,103,291405,1,0,0:0:0:0:
407,103,291748,1,0,0:0:0:0:
373,103,292091,1,8,0:0:0:0:
354,89,292434,1,0,0:0:0:0:
367,139,292777,1,8,0:0:0:0:
364,124,293120,1,0,0:0:0:0:
364,123,293462,1,0,0:0:0:0:
334,112,293805,1,0,0:0:0:0:
334,112,294148,1,8,0:0:0:0:
339,112,294491,1,8,0:0:0:0:
329,96,294834,1,8,0:0:0:0:
325,92,295177,1,0,0:0:0:0:
324,90,295520,1,8,0:0:0:0:
325,92,295862,1,0,0:0:0:0:
327,94,296205,1,0,0:0:0:0:
310,85,296548,1,8,0:0:0:0:
336,66,296720,1,8,0:0:0:0:
320,64,296891,1,0,0:0:0:0:
317,72,297234,1,0,0:0:0:0:
318,72,297405,1,0,0:0:0:0:
318,74,297577,1,8,0:0:0:0:
334,76,297748,1,8,0:0:0:0:
338,86,297920,1,0,0:0:0:0:
274,201,298262,1,8,0:0:0:0:
233,156,298434,1,0,0:0:0:0:
280,183,298605,1,0,0:0:0:0:
208,158,298777,1,0,0:0:0:0:
290,112,298948,1,8,0:0:0:0:
300,150,299291,1,0,0:0:0:0:
289,166,299462,1,0,0:0:0:0:
272,112,299634,1,8,0:0:0:0:
272,124,299805,1,0,0:0:0:0:
258,128,299977,1,8,0:0:0:0:
261,123,300148,1,8,0:0:0:0:
225,129,300320,1,0,0:0:0:0:
248,107,300491,1,8,0:0:0:0:
235,141,300662,1,4,0:0:0:0:
