osu file format v14

[General]
AudioFilename: audio.mp3
AudioLeadIn: 0
PreviewTime: 100037
Countdown: 0
SampleSet: Soft
StackLeniency: 0.4
Mode: 0
LetterboxInBreaks: 0
WidescreenStoryboard: 0

[Editor]
Bookmarks: 23237,34209,45180,56152,78095,86323,89066,94552,100037,111009,120437,121980,132952,143923,154895,165866,176837,187809,198780,207009,209752,220723,223466,228952,231695,242666,264609,286552,297523,308495
DistanceSpacing: 0.9
BeatDivisor: 4
GridSize: 32
TimelineZoom: 2.299999

[Metadata]
Title:Signal feat. Such
TitleUnicode:Signal feat. Such
Artist:rejection
ArtistUnicode:rejection
Creator:Yukiyo
Version:Interference
Source:
Tags:japanese electronic futurecore megarex beyond core evangelix mrx-054
BeatmapID:2670866
BeatmapSetID:1286349

[Difficulty]
HPDrainRate:5.6
CircleSize:4
OverallDifficulty:9
ApproachRate:9.5
SliderMultiplier:1.4
SliderTickRate:1

[Events]
//Background and Video events
0,0,"Konachan.com - 317568 sample.jpg",0,0
//Break Periods
//Storyboard Layer 0 (Background)
//Storyboard Layer 1 (Fail)
//Storyboard Layer 2 (Pass)
//Storyboard Layer 3 (Foreground)
//Storyboard Layer 4 (Overlay)
//Storyboard Sound Samples

[TimingPoints]
1295,342.857142857143,4,2,1,40,1,0
1295,-250,4,2,1,40,0,0
12266,-83.3333333333333,4,2,1,60,0,0
22895,-52.6315789473684,4,2,1,80,0,0
23237,-66.6666666666667,4,2,1,75,0,0
23495,-66.6666666666667,4,2,1,5,0,0
23580,-76.9230769230769,4,2,1,80,0,0
45180,-45.4545454545455,4,2,1,80,0,0
45523,-133.333333333333,4,2,1,80,0,0
46209,-66.6666666666667,4,2,1,80,0,0
46466,-66.6666666666667,4,2,1,5,0,0
46552,-40,4,2,1,80,0,0
46895,-66.6666666666667,4,2,1,80,0,0
47066,-40,4,2,1,80,0,0
47409,-133.333333333333,4,2,1,80,0,0
47923,-40,4,2,1,80,0,0
48266,-133.333333333333,4,2,1,80,0,0
49295,-40,4,2,1,80,0,0
49552,-40,4,2,1,5,0,0
49637,-40,4,2,1,80,0,0
49895,-40,4,2,1,5,0,0
49980,-40,4,2,1,80,0,0
50237,-40,4,2,1,5,0,0
50323,-133.333333333333,4,2,1,80,0,0
50666,-40,4,2,1,80,0,0
51009,-133.333333333333,4,2,1,80,0,0
52037,-40,4,2,1,80,0,0
52380,-133.333333333333,4,2,1,80,0,0
52552,-40,4,2,1,80,0,0
52895,-133.333333333333,4,2,1,80,0,0
53323,-133.333333333333,4,2,1,5,0,0
53409,-40,4,2,1,80,0,0
53752,-133.333333333333,4,2,1,80,0,0
54780,-133.333333333333,4,2,2,90,0,0
56152,-133.333333333333,4,2,1,80,0,0
60609,-117.647058823529,4,2,1,80,0,0
60952,-105.263157894737,4,2,1,89,0,0
61295,-95.2380952380951,4,2,1,89,0,0
61637,-95.2380952380951,4,2,1,89,0,0
63009,-95.2380952380951,4,2,1,80,0,0
65752,-95.2380952380951,4,2,1,60,0,0
66609,-95.2380952380951,4,2,1,80,0,0
67123,-76.9230769230769,4,2,1,70,0,0
72609,-71.4285714285714,4,2,1,85,0,0
78095,-50,4,2,1,100,0,0
78437,-38.4615384615385,4,2,1,100,0,1
81180,-40.8163265306122,4,2,1,100,0,1
82209,-43.4782608695652,4,2,1,100,0,1
83237,-43.4782608695652,4,2,1,100,0,0
83580,-37.037037037037,4,2,1,100,0,1
84095,-50,4,2,1,100,0,1
86323,-29.4117647058824,4,2,1,100,0,1
86580,-29.4117647058824,4,2,1,5,0,1
86666,-58.8235294117647,4,2,1,100,0,1
86923,-58.8235294117647,4,2,1,5,0,1
87009,-58.8235294117647,4,2,1,100,0,1
87180,-25.6410256410257,4,2,1,100,0,1
87352,-30.3030303030304,4,2,1,100,0,1
87609,-30.3030303030304,4,2,1,5,0,1
87695,-45.4545454545455,4,2,1,100,0,1
88380,-34.4827586206897,4,2,1,100,0,1
88723,-71.4285714285714,4,2,1,100,0,1
89066,-58.8235294117647,4,2,1,100,0,1
90437,-41.6666666666667,4,2,1,100,0,1
94209,-41.6666666666667,4,2,1,100,0,0
94552,-41.6666666666667,4,2,1,100,0,1
95066,-37.037037037037,4,2,1,100,0,1
97295,-52.6315789473684,4,2,1,100,0,1
97637,-50,4,2,1,100,0,1
97980,-47.6190476190476,4,2,1,100,0,1
98323,-45.4545454545455,4,2,1,100,0,1
99352,-35.7142857142857,4,2,1,100,0,1
100037,-41.6666666666667,4,2,1,100,0,1
108609,-45.4545454545455,4,2,1,100,0,1
111009,-41.6666666666667,4,2,1,100,0,1
118895,-55.5555555555556,4,2,1,100,0,1
119237,-66.6666666666667,4,2,1,80,0,0
119666,-66.6666666666667,4,2,1,5,0,0
119752,-66.6666666666667,4,2,1,80,0,0
119837,-66.6666666666667,4,2,1,5,0,0
119923,-66.6666666666667,4,2,1,80,0,0
120352,-66.6666666666667,4,2,1,5,0,0
120437,-83.3333333333333,4,2,1,80,0,0
120695,-66.6666666666667,4,2,1,5,0,0
120781,-66.6666666666667,4,2,1,80,0,0
120866,-66.6666666666667,4,2,1,5,0,0
120952,-66.6666666666667,4,2,1,80,0,0
121209,-66.6666666666667,4,2,1,5,0,0
121295,-66.6666666666667,4,2,1,80,0,0
121980,-100,4,2,1,50,0,0
123695,-250,4,2,1,50,0,0
132952,-200,4,2,1,60,0,0
138437,-166.666666666667,4,2,1,60,0,0
145552,-166.666666666667,4,2,1,5,0,0
145637,-166.666666666667,4,2,1,60,0,0
145895,-166.666666666667,4,2,1,5,0,0
145980,-166.666666666667,4,2,1,60,0,0
146237,-166.666666666667,4,2,1,5,0,0
146322,-166.666666666667,4,2,1,60,0,0
149409,-222.222222222222,4,2,1,60,0,0
152066,-222.222222222222,4,2,1,5,0,0
152152,-222.222222222222,4,2,1,60,0,0
152752,-222.222222222222,4,2,1,5,0,0
152837,-153.846153846154,4,2,1,60,0,0
154209,-133.333333333334,4,2,1,60,0,0
154895,-153.846153846154,4,2,1,60,0,0
156523,-153.846153846154,4,2,1,5,0,0
156609,-153.846153846154,4,2,1,60,0,0
156866,-153.846153846154,4,2,1,5,0,0
156952,-153.846153846154,4,2,1,60,0,0
157209,-153.846153846154,4,2,1,5,0,0
157295,-153.846153846154,4,2,1,60,0,0
160380,-136.986301369863,4,2,1,60,0,0
162695,-136.986301369863,4,2,1,5,0,0
162780,-136.986301369863,4,2,1,60,0,0
163037,-136.986301369863,4,2,1,5,0,0
163123,-136.986301369863,4,2,1,60,0,0
164495,-111.111111111111,4,2,1,60,0,0
165866,-71.4285714285714,4,2,1,70,0,0
167495,-71.4285714285714,4,2,1,5,0,0
167580,-71.4285714285714,4,2,1,70,0,0
176837,-62.5,4,2,1,80,0,0
177095,-62.5,4,2,1,5,0,0
177180,-66.6666666666667,4,2,1,80,0,0
178209,-58.8235294117647,4,2,1,80,0,0
178466,-58.8235294117647,4,2,1,5,0,0
178552,-66.6666666666667,4,2,1,80,0,0
182580,-66.6666666666667,4,2,1,5,0,0
182666,-66.6666666666667,4,2,1,80,0,0
185752,-58.8235294117647,4,2,1,80,0,0
187123,-66.6666666666667,4,2,1,80,0,0
187809,-31.9148936204165,4,2,1,80,0,0
188152,-133.333333333333,4,2,1,80,0,0
188837,-66.6666666666667,4,2,1,80,0,0
189095,-66.6666666666667,4,2,1,5,0,0
189180,-40,4,2,1,80,0,0
189523,-66.6666666666667,4,2,1,80,0,0
189695,-40,4,2,1,80,0,0
190037,-133.333333333333,4,2,1,80,0,0
190552,-40,4,2,1,80,0,0
190895,-133.333333333333,4,2,1,80,0,0
191923,-40,4,2,1,80,0,0
192180,-40,4,2,1,5,0,0
192266,-40,4,2,1,80,0,0
192523,-40,4,2,1,5,0,0
192609,-40,4,2,1,80,0,0
192866,-40,4,2,1,5,0,0
192952,-133.333333333333,4,2,1,80,0,0
193295,-40,4,2,1,80,0,0
193637,-133.333333333333,4,2,1,80,0,0
194666,-40,4,2,1,80,0,0
195009,-133.333333333333,4,2,1,80,0,0
195180,-40,4,2,1,80,0,0
195523,-133.333333333333,4,2,1,80,0,0
196037,-40,4,2,1,80,0,0
196380,-133.333333333333,4,2,1,80,0,0
197409,-133.333333333333,4,2,2,90,0,0
198780,-133.333333333333,4,2,1,80,0,0
203237,-117.647058823529,4,2,1,80,0,0
203580,-105.263157894737,4,2,1,80,0,0
203923,-95.2380952380951,4,2,1,80,0,0
209751,-76.9230769230769,4,2,1,70,0,0
215237,-66.6666666666667,4,2,1,75,0,0
216609,-58.8235294117647,4,2,1,80,0,0
220723,-52.6315789473684,4,2,1,60,0,0
221066,-35.7142857142857,4,2,1,70,0,0
221409,-50,4,2,1,80,0,0
221752,-41.6666666666667,4,2,1,90,0,0
222095,-35.7142857142857,4,2,1,100,0,0
222437,-33.3333333333333,4,2,1,100,0,0
222780,-31.25,4,2,1,100,0,0
223123,-35.7142857142857,4,2,1,100,0,0
226209,-31.25,4,2,1,100,0,0
226552,-35.7142857142857,4,2,1,100,0,0
227237,-38.4615384615385,4,2,1,100,0,0
227580,-41.6666666666667,4,2,1,100,0,0
227923,-47.6190476190476,4,2,1,100,0,0
228952,-30.3030303030304,4,2,1,100,0,1
229209,-30.3030303030304,4,2,1,5,0,1
229295,-55.5555555555556,4,2,1,100,0,1
229552,-55.5555555555556,4,2,1,5,0,1
229637,-55.5555555555556,4,2,1,100,0,1
229809,-25.6410256410257,4,2,1,100,0,1
229980,-25.6410256410257,4,2,1,100,0,1
230237,-30.3030303030304,4,2,1,5,0,1
230324,-45.4545454545455,4,2,1,100,0,1
231009,-34.4827586206897,4,2,1,100,0,1
231266,-34.4827586206897,4,2,1,5,0,1
231352,-58.8235294117647,4,2,1,100,0,1
231695,-58.8235294117647,4,2,1,100,0,1
233066,-47.6190476190476,4,2,1,100,0,1
236837,-41.6666666666667,4,2,1,100,0,0
237180,-41.6666666666667,4,2,1,100,0,1
237695,-38.4615384615385,4,2,1,100,0,1
239923,-52.6315789473684,4,2,1,100,0,1
240266,-50,4,2,1,100,0,1
240609,-47.6190476190476,4,2,1,100,0,1
240952,-45.4545454545455,4,2,1,100,0,1
241980,-35.7142857142857,4,2,1,100,0,1
242666,-41.6666666666667,4,2,1,100,0,1
251237,-45.4545454545455,4,2,1,100,0,1
253637,-41.6666666666667,4,2,1,100,0,1
261523,-55.5555555555556,4,2,1,100,0,1
261866,-66.6666666666667,4,2,1,70,0,0
262295,-66.6666666666667,4,2,1,5,0,0
262380,-66.6666666666667,4,2,1,70,0,0
262466,-66.6666666666667,4,2,1,5,0,0
262551,-66.6666666666667,4,2,1,70,0,0
262980,-66.6666666666667,4,2,1,5,0,0
263065,-83.3333333333333,4,2,1,70,0,0
263323,-66.6666666666667,4,2,1,5,0,0
263408,-66.6666666666667,4,2,1,70,0,0
263495,-66.6666666666667,4,2,1,5,0,0
263580,-66.6666666666667,4,2,1,70,0,0
263837,-66.6666666666667,4,2,1,5,0,0
263922,-66.6666666666667,4,2,1,70,0,0
264609,-62.5,4,2,1,80,0,0
275237,-50,4,2,1,80,0,0
275495,-50,4,2,1,5,0,0
275580,-62.5,4,2,1,80,0,0
283809,-66.6666666666667,4,2,1,80,0,0
284237,-66.6666666666667,4,2,1,5,0,0
284323,-66.6666666666667,4,2,1,80,0,0
284409,-66.6666666666667,4,2,1,5,0,0
284495,-66.6666666666667,4,2,1,80,0,0
284923,-66.6666666666667,4,2,1,5,0,0
285009,-90.9090909090909,4,2,1,80,0,0
285266,-66.6666666666667,4,2,1,5,0,0
285352,-66.6666666666667,4,2,1,80,0,0
285437,-66.6666666666667,4,2,1,5,0,0
285523,-66.6666666666667,4,2,1,80,0,0
285780,-66.6666666666667,4,2,1,5,0,0
285866,-66.6666666666667,4,2,1,80,0,0
286552,-83.3333333333333,4,2,1,70,0,0
307980,-100,4,2,1,60,0,0

[Colours]
Combo1 : 174,255,174
Combo2 : 140,218,255
Combo3 : 201,255,147
Combo4 : 179,213,255

[HitObjects]
1,128,1295,6,0,B|64:107|116:151|116:151|64:79|109:15|109:15|202:30|201:126|201:126,1,420,4|0,0:2|0:2,0:2:0:0:
192,192,4037,6,0,B|264:205|313:131|313:131|293:228|365:305|365:305|333:268|286:266,1,420,0|0,0:2|0:2,0:2:0:0:
288,358,6780,6,0,B|221:361|184:331|184:331|138:354|138:354|95:324|34:320|34:320|67:289|74:252|74:252|121:251|140:274,1,420,2|0,0:2|0:2,0:2:0:0:
220,249,9523,6,0,B|309:177|263:36|180:49|180:49|177:91|144:131|144:131|182:134|209:105,1,420,0|0,0:2|0:2,0:2:0:0:
35,140,12266,6,0,L|18:223,1,83.9999974365235,10|0,0:2|0:2,0:2:0:0:
124,266,12609,2,0,L|107:183,1,83.9999974365235,10|0,0:2|0:2,0:2:0:0:
35,140,12952,2,0,L|18:223,1,83.9999974365235,10|0,0:2|0:2,0:2:0:0:
48,298,13295,1,10,0:2:0:0:
48,298,13466,1,2,0:2:0:0:
119,233,13637,6,0,L|225:216,1,83.9999974365235,10|0,0:2|0:2,0:2:0:0:
267,319,13980,2,0,L|161:302,1,83.9999974365235,10|0,0:2|0:2,0:2:0:0:
284,201,14323,1,8,0:2:0:0:
289,218,14409,1,2,0:2:0:0:
294,236,14495,1,0,0:2:0:0:
184,305,14666,1,10,0:2:0:0:
184,305,14837,1,2,0:2:0:0:
296,374,15009,6,0,P|315:338|312:297,1,83.9999974365235,10|0,0:2|0:2,0:2:0:0:
183,189,15352,2,0,P|204:224|242:242,1,83.9999974365235,10|0,0:2|0:2,0:2:0:0:
403,227,15695,2,0,L|294:211,1,83.9999974365235,10|0,0:2|0:2,0:2:0:0:
263,156,16037,1,10,0:2:0:0:
411,216,16209,6,0,L|302:200,1,83.9999974365235,2|8,0:2|0:2,0:2:0:0:
263,156,16552,1,2,0:2:0:0:
358,120,16723,1,10,0:2:0:0:
358,120,16895,1,2,0:2:0:0:
328,284,17066,2,0,P|288:276|258:247,2,83.9999974365235,10|0|8,0:2|0:2|0:2,0:2:0:0:
166,100,17580,1,2,0:2:0:0:
166,100,17752,6,0,P|207:98|246:115,1,83.9999974365235,10|8,0:2|0:2,0:2:0:0:
218,262,18095,2,0,P|195:226|190:185,1,83.9999974365235,10|8,0:2|0:2,0:2:0:0:
335,137,18437,2,0,P|315:173|282:198,1,83.9999974365235,10|8,0:2|0:2,0:2:0:0:
110,169,18780,1,10,0:2:0:0:
187,308,18952,5,10,0:2:0:0:
192,329,19037,1,10,0:2:0:0:
198,347,19123,2,0,L|116:361,1,83.9999974365235,10|8,0:2|0:2,0:2:0:0:
21,248,19466,2,0,L|104:262,1,83.9999974365235,10|8,0:2|0:2,0:2:0:0:
192,155,19809,1,8,0:2:0:0:
151,162,19895,1,10,0:2:0:0:
110,169,19980,1,8,0:2:0:0:
39,88,20152,1,10,0:2:0:0:
39,88,20323,1,10,0:2:0:0:
221,8,20495,5,8,0:2:0:0:
231,5,20580,1,8,0:2:0:0:
241,2,20666,2,0,L|230:67,1,41.9999987182618,8|8,0:2|0:2,0:2:0:0:
303,95,20837,1,8,0:2:0:0:
281,88,20922,1,8,0:2:0:0:
258,83,21009,2,0,L|269:138,1,41.9999987182618,8|8,0:2|0:2,0:2:0:0:
179,190,21180,1,8,0:2:0:0:
207,175,21265,1,8,0:2:0:0:
236,161,21352,2,0,L|228:220,1,41.9999987182618,8|8,0:2|0:2,0:2:0:0:
334,283,21523,1,8,0:2:0:0:
294,265,21608,1,8,0:2:0:0:
253,247,21695,2,0,L|265:303,1,41.9999987182618,8|8,0:2|0:2,0:2:0:0:
253,384,21866,5,0,3:2:0:0:
342,224,22037,1,0,3:2:0:0:
295,236,22123,1,0,3:2:0:0:
253,247,22209,1,0,3:2:0:0:
147,136,22381,1,0,3:2:0:0:
191,149,22466,1,0,3:2:0:0:
236,161,22552,1,0,3:2:0:0:
354,48,22723,1,0,3:2:0:0:
304,64,22808,1,0,3:2:0:0:
258,73,22895,2,0,P|246:45|267:65,1,66.4999982242585,2|0,3:1|0:2,0:2:0:0:
136,0,23066,2,0,P|147:27|127:8,1,66.4999982242585,2|0,3:1|0:2,0:2:0:0:
36,122,23237,6,0,B|74:115|74:115|99:120|99:120|163:109|163:109|138:134,1,157.500006008148,2|0,0:2|0:2,0:2:0:0:
103,200,23580,6,0,L|89:289,1,90.9999958343508,14|0,3:2|0:2,0:2:0:0:
174,384,23923,1,2,3:2:0:0:
174,384,24095,1,2,0:2:0:0:
274,256,24266,2,0,L|174:278,2,90.9999958343508,10|0|0,3:2|0:2|3:2,0:2:0:0:
412,374,24780,5,2,0:2:0:0:
253,349,24952,1,10,3:2:0:0:
362,229,25123,1,2,0:2:0:0:
412,374,25295,1,2,3:2:0:0:
416,365,25380,1,2,0:2:0:0:
420,355,25466,1,2,0:2:0:0:
512,269,25637,1,10,3:2:0:0:
512,269,25809,1,2,0:2:0:0:
399,145,25980,6,0,L|379:251,1,90.9999958343508,2|0,3:2|0:2,0:2:0:0:
324,87,26323,2,8,P|358:57|402:52,1,90.9999958343508,10|0,3:2|0:2,0:2:0:0:
298,270,26666,2,0,L|192:285,1,90.9999958343508,2|0,3:2|0:2,0:2:0:0:
289,178,27009,1,10,3:2:0:0:
349,355,27180,6,0,L|455:370,1,90.9999958343508,2|0,0:2|3:2,0:2:0:0:
387,241,27523,1,2,0:2:0:0:
253,355,27695,1,10,3:2:0:0:
253,355,27866,1,2,0:2:0:0:
196,206,28037,1,2,3:2:0:0:
224,215,28123,1,2,0:2:0:0:
249,225,28209,1,2,0:2:0:0:
154,384,28380,2,0,L|180:267,1,90.9999958343508,10|0,3:2|0:2,0:2:0:0:
30,202,28723,6,0,P|74:204|109:232,1,90.9999958343508,6|0,3:2|0:2,0:2:0:0:
208,80,29066,2,8,P|184:117|142:134,1,90.9999958343508,10|0,3:2|0:2,0:2:0:0:
54,106,29409,1,2,3:2:0:0:
54,106,29580,1,2,0:2:0:0:
192,208,29752,2,8,L|281:194,2,90.9999958343508,10|0|2,3:2|0:2|3:2,0:2:0:0:
94,241,30266,5,2,0:2:0:0:
173,384,30437,2,0,L|195:269,1,90.9999958343508,10|0,3:2|0:2,0:2:0:0:
360,329,30780,1,2,3:2:0:0:
337,340,30866,1,2,0:2:0:0:
314,350,30952,1,2,0:2:0:0:
350,225,31123,1,10,3:2:0:0:
350,225,31295,1,2,0:2:0:0:
512,291,31466,6,0,L|408:275,1,90.9999958343508,2|0,3:2|0:2,0:2:0:0:
344,133,31809,2,8,P|389:141|422:171,1,90.9999958343508,10|0,3:2|0:2,0:2:0:0:
271,269,32152,2,0,P|256:226|265:182,1,90.9999958343508,2|0,3:2|0:2,0:2:0:0:
350,225,32495,1,10,3:2:0:0:
261,360,32666,6,0,L|157:370,1,90.9999958343508,2|0,0:2|3:2,0:2:0:0:
26,281,33009,1,2,0:2:0:0:
191,282,33180,1,10,3:2:0:0:
191,282,33352,1,2,0:2:0:0:
91,344,33523,1,2,3:2:0:0:
85,360,33609,1,2,0:2:0:0:
80,374,33695,1,2,0:2:0:0:
90,239,33866,2,0,L|77:196,1,45.4999979171754,10|0,3:2|0:2,0:2:0:0:
176,147,34037,2,0,L|166:202,1,45.4999979171754,10|0,0:2|0:2,0:2:0:0:
9,111,34209,6,0,L|111:123,1,90.9999958343508,6|0,3:2|0:2,0:2:0:0:
238,25,34552,2,0,L|147:35,1,90.9999958343508,10|0,3:2|0:2,0:2:0:0:
192,122,34895,1,2,3:2:0:0:
192,122,35066,1,2,0:2:0:0:
161,290,35237,2,0,P|116:290|78:266,1,90.9999958343508,10|0,3:2|0:2,0:2:0:0:
99,121,35580,6,0,P|108:164|140:195,1,90.9999958343508,2|0,3:2|0:2,0:2:0:0:
277,123,35923,2,0,P|234:109|191:121,1,90.9999958343508,10|0,3:2|0:2,0:2:0:0:
222,248,36266,1,8,3:1:0:0:
228,226,36352,1,8,0:1:0:0:
233,206,36437,1,8,0:1:0:0:
144,285,36609,1,10,3:2:0:0:
144,285,36780,1,8,0:1:0:0:
307,262,36952,6,0,P|351:281|416:270,1,90.9999958343508,2|0,3:2|0:2,0:2:0:0:
341,99,37295,2,0,L|363:189,1,90.9999958343508,10|0,3:2|0:2,0:2:0:0:
185,199,37637,2,0,P|230:200|271:181,1,90.9999958343508,2|0,3:2|0:2,0:2:0:0:
205,77,37980,1,10,3:2:0:0:
143,272,38152,6,0,P|97:273|56:254,1,90.9999958343508,2|0,0:2|3:2,0:2:0:0:
122,123,38495,1,2,0:2:0:0:
228,280,38666,1,10,3:2:0:0:
228,280,38837,1,2,0:2:0:0:
90,367,39009,1,8,3:1:0:0:
97,338,39095,1,8,0:1:0:0:
104,309,39180,1,8,0:1:0:0:
244,196,39352,1,10,3:2:0:0:
185,364,39523,1,8,0:1:0:0:
176,140,39695,6,0,P|139:130|65:162,1,90.9999958343508,6|0,3:2|0:2,0:2:0:0:
103,317,40037,2,0,P|146:327|190:314,1,90.9999958343508,10|0,3:2|0:2,0:2:0:0:
88,142,40380,2,0,L|69:231,1,90.9999958343508,2|0,3:2|0:2,0:2:0:0:
190,315,40723,2,0,L|171:225,1,90.9999958343508,10|0,3:2|0:2,0:2:0:0:
12,326,41066,6,0,L|102:316,1,90.9999958343508,2|0,3:2|0:2,0:2:0:0:
266,149,41409,2,0,L|175:139,1,90.9999958343508,10|0,3:2|0:2,0:2:0:0:
209,369,41752,1,8,3:1:0:0:
217,337,41837,1,8,0:1:0:0:
224,307,41923,1,8,0:1:0:0:
171,225,42095,1,10,3:2:0:0:
171,225,42266,1,8,0:1:0:0:
305,342,42437,5,8,3:1:0:0:
341,360,42523,1,8,0:1:0:0:
381,352,42609,1,8,0:1:0:0:
412,325,42695,1,8,0:1:0:0:
417,284,42780,1,8,3:2:0:0:
401,245,42866,1,8,0:1:0:0:
367,220,42952,1,8,0:1:0:0:
326,219,43037,1,8,0:1:0:0:
293,244,43123,6,0,L|281:306,1,45.4999979171754,8|8,3:1|0:1,0:2:0:0:
211,276,43295,2,0,L|199:338,1,45.4999979171754,8|8,0:1|0:1,0:2:0:0:
128,301,43466,2,0,L|116:363,1,45.4999979171754,8|8,3:2|0:1,0:2:0:0:
43,322,43638,2,0,L|31:384,1,45.4999979171754,8|8,0:1|0:1,0:2:0:0:
28,204,43809,5,8,3:1:0:0:
34,186,43895,1,8,0:1:0:0:
40,169,43980,1,8,0:1:0:0:
46,151,44066,1,8,0:1:0:0:
52,133,44152,1,8,3:2:0:0:
58,116,44237,1,8,0:1:0:0:
64,98,44323,1,8,0:1:0:0:
70,81,44409,1,8,0:1:0:0:
76,64,44495,2,0,L|93:138,1,45.4999979171754,0|0,3:1|0:1,0:2:0:0:
173,98,44666,2,0,L|152:10,2,90.9999958343508,0|0|0,3:2|0:2|0:2,0:2:0:0:
396,150,45180,6,0,B|446:82|418:5|418:5|321:17|291:91,1,308.000009399414,6|0,3:2|0:2,0:1:0:0:
313,164,45695,6,0,P|296:183|282:211,1,52.5000020027161,2|0,0:2|0:2,0:2:0:0:
346,338,46037,1,2,0:2:0:0:
204,280,46209,2,0,B|298:286|257:346|372:337,1,157.500006008148,2|0,0:2|0:2,0:2:0:0:
213,375,46552,6,0,B|141:330|57:375|57:375|124:314|80:238|80:238|64:298,1,350,6|0,3:2|0:2,0:2:0:0:
184,128,47066,2,0,B|163:161|177:199|177:199|93:193|97:112|92:59|188:25|231:70,1,350,6|0,3:2|0:2,0:2:0:0:
256,169,47580,6,0,L|314:158,1,52.5000020027161,2|0,0:2|0:2,0:2:0:0:
508,94,47923,6,0,B|442:84|442:84|399:28|399:28|280:7|280:7|335:81,1,350,6|0,3:2|0:2,0:2:0:0:
340,231,48437,5,2,0:2:0:0:
400,161,48609,2,0,L|451:168,1,52.5000020027161,2|2,0:2|0:2,0:2:0:0:
512,239,48866,1,2,0:2:0:0:
512,239,48952,2,0,L|460:246,1,52.5000020027161,2|0,0:2|0:2,0:2:0:0:
417,348,49295,6,0,B|387:270|268:261|268:261|285:362,1,262.5,6|0,3:2|0:2,0:2:0:0:
195,376,49637,2,0,B|277:389|344:290|344:290|248:254,1,262.5,6|0,3:2|0:2,0:2:0:0:
283,168,49980,2,0,B|230:232|282:340|282:340|361:275,1,262.5,6|0,3:2|0:2,0:2:0:0:
183,293,50323,6,0,L|120:281,1,52.5000020027161,2|0,0:2|0:2,0:2:0:0:
0,193,50666,6,0,B|56:181|94:213|94:213|63:113|133:55|133:55|160:97|111:157,1,350,6|0,3:2|0:2,0:2:0:0:
195,192,51180,6,0,P|219:183|245:183,1,52.5000020027161,0|0,0:2|0:2,0:2:0:0:
152,268,51523,1,2,0:2:0:0:
152,268,51609,1,2,0:2:0:0:
152,268,51695,1,2,0:2:0:0:
220,322,51866,1,2,0:2:0:0:
316,232,52037,6,0,B|420:198|470:306|470:306|368:366|368:366|379:327,1,350,6|0,3:2|0:2,0:2:0:0:
286,148,52552,2,0,B|182:114|132:222|132:222|234:282|234:282|222:243,1,350,6|0,3:2|0:2,0:2:0:0:
368,156,53066,6,0,P|401:175|440:178,1,78.7500030040742,2|0,0:2|0:2,0:2:0:0:
459,42,53409,6,0,B|380:47|380:47|337:22|337:22|289:88|289:88|236:55|236:55|146:58,1,350,6|0,3:2|0:2,0:2:0:0:
149,141,53923,5,2,0:2:0:0:
66,92,54095,1,2,0:0:0:0:
66,92,54266,2,0,L|80:39,1,52.5000020027161,2|0,0:2|0:2,0:2:0:0:
65,179,54609,1,2,0:2:0:0:
172,370,54780,5,8,0:2:0:0:
47,259,54952,1,0,3:2:0:0:
39,272,55123,1,0,3:2:0:0:
144,383,55295,5,8,0:2:0:0:
236,184,55467,1,0,3:2:0:0:
244,206,55637,1,0,3:2:0:0:
123,310,55809,5,8,0:2:0:0:
128,281,55895,1,8,0:2:0:0:
133,252,55980,1,8,0:2:0:0:
139,223,56066,1,8,0:2:0:0:
146,194,56152,6,0,L|88:204,1,52.5000020027161,6|0,3:2|0:1,0:2:0:0:
85,126,56495,2,0,L|27:136,1,52.5000020027161,8|0,0:1|0:2,0:2:0:0:
99,113,56837,2,0,L|41:123,1,52.5000020027161,8|0,0:1|0:2,0:2:0:0:
118,28,57180,2,0,L|60:38,1,52.5000020027161,8|0,0:1|0:2,0:2:0:0:
253,157,57523,6,0,L|237:224,2,52.5000020027161,8|0|8,3:1|0:2|0:1,0:2:0:0:
341,132,58037,1,0,0:2:0:0:
341,132,58209,2,0,L|325:199,1,52.5000020027161,8|0,0:1|0:2,0:2:0:0:
422,190,58552,2,0,L|406:257,1,52.5000020027161,8|0,0:1|0:2,0:2:0:0:
253,367,58895,6,0,L|264:303,2,52.5000020027161,8|0|8,3:1|0:2|0:1,0:2:0:0:
180,325,59409,2,0,L|191:261,2,52.5000020027161,0|8|0,0:2|0:1|0:2,0:2:0:0:
105,272,59923,2,0,L|116:208,1,52.5000020027161,8|8,0:1|0:1,0:2:0:0:
53,125,60180,5,8,0:1:0:0:
53,125,60266,2,0,P|89:110|125:113,1,52.5000020027161,8|0,3:1|0:2,0:2:0:0:
238,196,60609,2,0,P|208:192|182:180,1,59.5000011348725,8|0,0:1|0:2,0:2:0:0:
301,123,60952,2,0,P|327:110|369:109,1,66.4999982242585,8|0,0:1|0:2,0:2:0:0:
512,225,61295,2,0,P|476:224|443:211,1,73.4999977569581,8|8,0:1|0:1,0:2:0:0:
366,264,61552,5,8,0:1:0:0:
366,264,61637,2,0,L|350:345,1,73.4999977569581,8|8,3:1|0:1,0:2:0:0:
184,302,61980,2,0,L|103:286,1,73.4999977569581,8|8,3:1|0:1,0:2:0:0:
146,120,62237,1,8,0:1:0:0:
146,120,62323,2,0,L|162:39,1,73.4999977569581,8|8,3:1|0:1,0:2:0:0:
328,82,62666,2,0,L|409:98,1,73.4999977569581,8|8,3:1|0:1,0:2:0:0:
336,178,62923,5,8,0:1:0:0:
336,178,63009,1,8,3:1:0:0:
266,276,63180,1,0,3:1:0:0:
168,206,63352,1,8,3:1:0:0:
238,108,63524,1,0,3:1:0:0:
279,378,63695,5,8,3:1:0:0:
252,348,63780,1,8,0:1:0:0:
238,309,63866,1,8,0:1:0:0:
248,269,63952,1,8,0:1:0:0:
269,235,64037,1,8,3:1:0:0:
289,200,64123,1,8,0:1:0:0:
293,159,64209,1,8,0:1:0:0:
279,120,64295,1,8,0:1:0:0:
252,89,64380,5,8,3:1:0:0:
29,216,65752,5,4,0:2:0:0:
32,228,66095,1,4,0:2:0:0:
37,239,66437,1,4,0:2:0:0:
139,104,66609,1,0,3:2:0:0:
133,77,66695,1,0,3:2:0:0:
126,52,66780,1,0,3:2:0:0:
20,139,66952,1,0,3:2:0:0:
141,233,67123,5,4,3:2:0:0:
212,378,67295,2,0,P|223:333|192:269,1,90.9999958343508,8|0,0:3|0:2,0:2:0:0:
325,166,67637,2,0,P|315:211|260:256,1,90.9999958343508,8|0,0:3|0:2,0:2:0:0:
437,342,67980,2,0,P|409:304|340:287,1,90.9999958343508,8|8,0:3|0:3,0:2:0:0:
411,214,68237,1,8,0:3:0:0:
403,202,68323,1,8,0:3:0:0:
427,157,68409,1,8,0:3:0:0:
419,145,68495,5,8,0:3:0:0:
292,30,68666,2,0,L|406:14,1,90.9999958343508,8|8,0:3|0:3,0:2:0:0:
191,171,69009,1,8,0:3:0:0:
191,171,69095,1,8,0:3:0:0:
331,118,69266,1,8,0:3:0:0:
331,118,69352,1,8,0:3:0:0:
211,26,69523,1,8,0:3:0:0:
211,26,69695,1,8,0:3:0:0:
264,230,69866,5,4,3:2:0:0:
35,128,70037,1,8,0:3:0:0:
75,107,70123,1,8,0:3:0:0:
120,107,70208,1,8,0:3:0:0:
161,275,70380,2,0,P|113:238|96:191,1,90.9999958343508,8|0,0:3|0:2,0:2:0:0:
226,93,70723,2,0,P|218:152|186:190,1,90.9999958343508,8|0,0:3|0:2,0:2:0:0:
25,321,71066,1,8,0:3:0:0:
34,346,71152,1,8,0:3:0:0:
44,372,71237,5,8,0:3:0:0:
191,234,71409,2,0,L|171:348,1,90.9999958343508,8|8,0:3|0:3,0:2:0:0:
13,125,71752,1,8,0:3:0:0:
13,125,71837,1,8,0:3:0:0:
77,239,72009,1,8,0:3:0:0:
77,239,72095,1,8,0:3:0:0:
224,101,72266,6,0,L|228:69,1,22.7499989585877,8|8,0:3|0:3,0:2:0:0:
234,102,72352,2,0,L|238:70,1,22.7499989585877,8|8,0:3|0:3,0:2:0:0:
252,119,72437,2,0,L|256:151,1,22.7499989585877,8|8,0:3|0:3,0:2:0:0:
259,115,72523,2,0,L|263:147,1,22.7499989585877,8|8,0:3|0:3,0:2:0:0:
270,109,72609,6,0,P|290:65|287:17,1,97.9999970092774,4|8,3:2|0:3,0:2:0:0:
376,0,72866,1,8,0:3:0:0:
376,0,72952,2,0,P|403:39|447:61,1,97.9999970092774,0|8,3:2|0:3,0:2:0:0:
491,130,73209,5,8,0:3:0:0:
491,130,73295,2,0,L|475:195,1,48.9999985046387,0|8,3:2|0:3,0:2:0:0:
403,252,73466,2,0,L|391:204,1,48.9999985046387,8|8,0:3|0:3,0:2:0:0:
372,124,73637,1,8,3:3:0:0:
345,381,73809,5,8,0:3:0:0:
329,364,73895,1,8,0:3:0:0:
314,340,73980,2,0,P|305:292|324:248,1,97.9999970092774,4|8,3:2|0:3,0:2:0:0:
159,216,74237,1,8,0:3:0:0:
159,216,74323,2,0,P|211:238|237:301,1,97.9999970092774,0|8,3:2|0:3,0:2:0:0:
229,358,74580,5,8,0:3:0:0:
229,358,74666,2,0,P|204:357|182:347,1,48.9999985046387,0|8,3:2|0:3,0:2:0:0:
113,384,74837,2,0,P|95:366|88:343,1,48.9999985046387,8|8,0:3|0:3,0:2:0:0:
86,266,75009,6,0,L|75:229,2,24.4999992523194,8|8|8,3:3|0:3|0:3,0:2:0:0:
7,286,75180,2,0,L|0:309,2,24.4999992523194,8|8|8,0:3|0:3|0:3,0:2:0:0:
80,154,75352,5,0,3:2:0:0:
127,130,75437,1,0,3:2:0:0:
180,133,75523,1,0,3:2:0:0:
224,164,75609,1,0,3:2:0:0:
250,211,75695,1,0,3:2:0:0:
293,241,75780,1,0,3:2:0:0:
345,254,75866,1,0,3:2:0:0:
397,241,75952,1,0,3:2:0:0:
426,196,76037,1,0,3:2:0:0:
414,138,76123,1,0,3:2:0:0:
387,120,76209,1,0,3:2:0:0:
365,123,76295,1,0,3:2:0:0:
352,137,76380,1,0,3:2:0:0:
351,152,76466,1,0,3:2:0:0:
360,160,76552,1,0,3:2:0:0:
367,160,76637,1,0,3:2:0:0:
369,156,76723,6,0,L|362:215,1,48.9999985046387,0|0,3:2|0:2,0:2:0:0:
301,106,76895,2,0,L|295:57,1,48.9999985046387,2|0,0:0|0:2,0:2:0:0:
369,156,77066,6,0,L|362:215,1,48.9999985046387,0|0,3:2|0:2,0:2:0:0:
301,106,77237,2,0,L|295:57,1,48.9999985046387,2|0,0:2|0:2,0:2:0:0:
272,201,77409,5,0,3:2:0:0:
272,201,77580,1,0,3:2:0:0:
441,80,77752,2,0,L|499:68,1,48.9999985046387,8|0,0:2|0:2,0:2:0:0:
398,344,78095,6,0,L|323:335,1,70,2|0,3:2|0:2,0:2:0:0:
462,279,78266,1,2,3:2:0:0:
271,223,78437,6,0,B|241:351|241:351|192:289,1,181.999991668702,10|2,3:2|0:2,0:2:0:0:
162,240,78695,1,2,0:2:0:0:
92,295,78780,2,0,P|30:278|3:163,1,181.999991668702,2|2,3:2|0:2,0:2:0:0:
62,122,79037,1,2,0:2:0:0:
73,151,79123,5,10,3:2:0:0:
156,153,79209,1,2,0:2:0:0:
216,93,79295,1,2,0:2:0:0:
206,13,79380,1,2,0:2:0:0:
185,25,79466,6,0,B|250:43|250:43|293:26|293:26|396:38,1,181.999991668702,2|2,3:2|0:2,0:2:0:0:
431,68,79723,1,2,0:2:0:0:
424,148,79809,2,0,P|385:205|276:180,1,181.999991668702,10|2,3:2|0:2,0:2:0:0:
235,125,80066,1,2,0:2:0:0:
226,146,80152,5,2,3:2:0:0:
163,97,80237,1,2,0:2:0:0:
87,87,80323,1,2,0:2:0:0:
20,130,80409,1,2,0:2:0:0:
13,153,80495,6,0,L|34:265,1,90.9999958343508,10|0,3:2|0:2,0:2:0:0:
155,286,80666,2,0,L|134:398,1,90.9999958343508,2|0,0:2|0:2,0:2:0:0:
112,189,80837,5,2,3:2:0:0:
175,169,80923,1,2,0:2:0:0:
233,197,81009,1,2,0:2:0:0:
254,259,81095,1,2,0:2:0:0:
245,287,81180,6,0,B|266:325|310:330|310:330|388:284,1,171.500001635551,10|2,3:2|0:2,0:2:0:0:
453,211,81437,1,2,0:2:0:0:
394,131,81523,2,0,P|357:206|387:284,1,171.500001635551,2|2,3:2|0:2,0:2:0:0:
456,327,81780,1,2,0:2:0:0:
404,367,81866,1,10,3:2:0:0:
341,362,81952,2,0,B|303:310|244:315|244:315|191:349,1,171.500001635551,2|2,0:2|0:2,0:2:0:0:
43,357,82209,6,0,B|106:356|123:307|123:307|105:249,1,161.000003070831,2|2,3:2|0:2,0:2:0:0:
157,182,82466,2,0,P|171:145|164:101,1,80.5000015354157,2|8,0:2|3:2,0:2:0:0:
106,20,82637,2,0,P|161:73|235:54,1,161.000003070831,2|2,0:2|0:2,0:2:0:0:
323,14,82895,1,2,3:2:0:0:
374,8,82980,1,2,0:2:0:0:
418,33,83066,1,2,0:2:0:0:
437,81,83152,1,2,0:2:0:0:
426,92,83237,5,10,3:2:0:0:
262,335,83409,6,0,P|304:348|342:340,1,80.5000015354157,2|0,0:2|0:2,0:2:0:0:
478,338,83580,2,0,B|424:304|372:326|372:326|338:299|332:253,2,189.000000720978,2|0|8,3:2|3:2|3:2,0:2:0:0:
457,189,84095,5,2,0:2:0:0:
429,150,84180,1,2,0:2:0:0:
380,137,84266,2,0,P|336:140|281:233,1,140,2|2,3:2|0:2,0:2:0:0:
219,270,84523,1,2,0:2:0:0:
214,285,84609,5,10,3:2:0:0:
167,286,84695,1,2,0:2:0:0:
128,270,84780,1,2,0:2:0:0:
113,225,84866,1,2,0:2:0:0:
127,217,84952,6,0,B|139:167|139:167|127:145|127:145|139:73,1,140,2|2,3:2|0:2,0:2:0:0:
192,27,85209,1,2,0:2:0:0:
215,101,85295,2,0,P|281:137|354:88,1,140,10|2,3:2|0:2,0:2:0:0:
386,50,85552,1,2,0:2:0:0:
384,40,85637,5,2,3:2:0:0:
420,38,85723,1,2,0:2:0:0:
453,58,85809,1,2,0:2:0:0:
461,94,85895,1,2,0:2:0:0:
466,110,85980,6,0,L|449:208,1,70,10|0,3:2|0:2,0:2:0:0:
358,197,86152,2,0,L|375:295,1,70,2|0,0:2|0:2,0:2:0:0:
95,316,86323,6,0,B|149:327|149:327|181:282|181:282|295:295|295:295|246:380|246:380|193:367,1,357.000006809235,2|0,3:2|0:2,0:2:0:0:
157,241,86666,6,0,P|74:217|8:272,1,178.500003404617,2|0,0:2|0:2,0:2:0:0:
95,316,87009,1,10,0:2:0:0:
242,171,87180,2,0,B|226:105|226:105|178:154,1,136.500000520706,2|0,0:0|0:2,0:2:0:0:
179,154,87352,6,0,B|306:157|201:266|419:328|454:146|360:103|292:156,1,346.500003304482,2|0,0:2|0:2,0:3:0:0:
322,140,87695,5,2,3:2:0:0:
498,70,87866,2,0,L|421:58,1,77.0000023498536,2|0,0:2|0:2,0:2:0:0:
232,39,88037,2,0,L|219:-7,1,38.5000011749268,2|2,0:2|0:2,0:2:0:0:
225,42,88123,2,0,L|210:-1,1,38.5000011749268,2|2,0:2|0:2,0:2:0:0:
217,43,88209,2,0,L|189:128,1,77.0000023498536,2|0,0:2|0:2,0:2:0:0:
108,271,88380,6,0,B|56:276|8:220|56:159|135:143|200:194|223:290,1,304.500009292603,10|0,0:2|0:2,0:2:0:0:
164,365,88723,6,0,L|249:383,1,48.9999985046387,2|0,0:2|0:2,0:2:0:0:
164,349,88895,2,0,L|249:367,1,48.9999985046387,2|0,0:2|0:2,0:2:0:0:
426,294,89066,6,0,L|403:382,1,59.5000011348725,2|0,3:2|0:2,0:2:0:0:
364,219,89237,1,2,3:2:0:0:
496,56,89409,6,0,P|497:105|433:150,1,119.000002269745,10|2,3:2|0:2,0:2:0:0:
370,117,89666,1,2,0:2:0:0:
333,44,89752,2,0,B|308:24|308:24|206:52,1,119.000002269745,2|2,3:2|0:2,0:2:0:0:
174,116,90009,1,2,0:2:0:0:
165,131,90095,5,10,3:2:0:0:
111,140,90180,1,2,0:2:0:0:
54,119,90266,1,2,0:2:0:0:
24,63,90352,1,2,0:2:0:0:
36,57,90437,6,0,P|68:132|40:209,1,167.999994873047,2|2,3:2|0:2,0:2:0:0:
15,282,90695,1,2,0:2:0:0:
91,302,90780,2,0,B|119:262|180:258|180:258|237:288,1,167.999994873047,10|2,3:2|0:2,0:2:0:0:
287,356,91037,1,2,0:2:0:0:
306,365,91123,5,2,3:2:0:0:
366,343,91209,1,2,0:2:0:0:
398,288,91295,1,2,0:2:0:0:
384,222,91380,1,2,0:2:0:0:
395,230,91466,6,0,P|359:252|318:255,1,83.9999974365235,10|0,3:2|0:2,0:2:0:0:
326,155,91637,2,0,P|285:145|254:118,1,83.9999974365235,2|0,0:2|0:2,0:2:0:0:
351,10,91809,5,2,3:2:0:0:
431,9,91895,1,2,0:2:0:0:
491,61,91980,1,2,0:2:0:0:
501,137,92066,1,2,0:2:0:0:
489,164,92152,6,0,B|424:152|424:152|382:166|382:166|325:154,1,167.999994873047,10|2,3:2|0:2,0:2:0:0:
241,152,92409,1,2,0:2:0:0:
164,193,92495,2,0,B|99:181|99:181|57:195|57:195|0:183,1,167.999994873047,2|2,3:2|0:2,0:2:0:0:
34,97,92752,1,2,0:2:0:0:
120,67,92837,1,10,3:2:0:0:
199,110,92923,2,0,P|253:171|230:254,1,167.999994873047,2|2,0:2|0:2,0:2:0:0:
269,338,93180,6,0,P|323:371|413:319,1,167.999994873047,2|2,3:2|0:2,0:2:0:0:
434,218,93437,2,0,P|412:181|419:133,1,83.9999974365235,2|8,0:2|3:2,0:2:0:0:
493,300,93609,2,0,P|435:243|353:257,1,167.999994873047,2|2,0:0|0:0,0:0:0:0:
348,349,93866,1,2,3:2:0:0:
274,304,93952,1,2,0:2:0:0:
269,220,94037,1,2,0:2:0:0:
333,170,94123,1,2,0:2:0:0:
328,155,94209,5,10,3:2:0:0:
69,14,94380,2,0,L|168:-3,1,83.9999974365235,2|0,0:2|0:2,0:2:0:0:
307,59,94552,2,0,B|279:73|268:99|268:99|219:116|157:81,2,167.999994873047,2|0|8,3:2|3:2|3:2,0:2:0:0:
4,140,95066,5,2,0:2:0:0:
0,233,95152,1,2,0:2:0:0:
73,286,95237,2,0,B|129:299|162:258|162:258|270:281,1,189.000000720978,2|2,3:2|0:2,0:2:0:0:
319,304,95495,1,2,0:2:0:0:
324,334,95580,5,10,3:2:0:0:
414,358,95666,1,2,0:2:0:0:
482,300,95752,1,2,0:2:0:0:
473,208,95837,1,2,0:2:0:0:
452,201,95923,6,0,P|421:153|490:40,1,189.000000720978,2|2,3:2|0:2,0:2:0:0:
373,8,96180,1,2,0:2:0:0:
331,93,96266,2,0,P|304:143|172:140,1,189.000000720978,10|2,3:2|0:2,0:2:0:0:
149,52,96523,1,2,0:2:0:0:
164,62,96609,5,2,3:2:0:0:
93,130,96695,1,2,0:2:0:0:
118,221,96780,1,2,0:2:0:0:
206,239,96866,1,2,0:2:0:0:
219,214,96952,6,0,P|255:189|336:195,1,94.5000003604889,10|0,3:2|0:2,0:2:0:0:
291,278,97123,2,0,P|334:285|387:347,1,94.5000003604889,2|0,0:2|0:2,0:2:0:0:
112,379,97295,6,0,P|84:362|66:334,1,66.4999982242585,8|0,0:1|0:2,0:2:0:0:
51,194,97466,2,0,P|36:223|32:256,1,66.4999982242585,8|0,0:1|0:2,0:2:0:0:
196,341,97637,6,0,P|176:314|176:261,1,70,8|0,0:1|0:2,0:2:0:0:
172,127,97809,2,0,P|151:160|145:192,1,70,8|0,0:1|0:2,0:2:0:0:
277,324,97980,6,0,P|270:291|294:246,1,73.4999977569581,8|0,0:1|0:2,0:2:0:0:
333,87,98152,2,0,P|300:101|275:136,1,73.4999977569581,8|0,0:1|0:2,0:2:0:0:
364,348,98323,6,0,P|372:316|407:285,1,77.0000023498536,8|0,0:1|0:2,0:2:0:0:
487,61,98495,2,0,P|448:78|422:116,1,77.0000023498536,8|0,0:1|0:2,0:2:0:0:
338,359,98666,5,8,0:1:0:0:
305,361,98752,1,8,0:1:0:0:
252,346,98837,1,8,0:1:0:0:
220,277,98923,1,8,0:1:0:0:
251,199,99009,1,8,0:1:0:0:
332,171,99095,1,8,0:1:0:0:
415,220,99180,1,8,0:1:0:0:
411,318,99266,1,8,0:1:0:0:
317,274,99352,6,0,P|269:248|213:248,1,97.9999970092774,8|8,0:1|0:1,0:2:0:0:
72,165,99523,2,0,P|118:159|163:130,1,97.9999970092774,8|8,0:1|0:1,0:2:0:0:
361,2,99695,5,0,3:2:0:0:
366,8,99866,1,0,3:2:0:0:
508,217,100037,6,0,L|393:202,1,83.9999974365235,6|0,3:2|0:2,0:2:0:0:
334,107,100209,2,0,L|451:125,1,83.9999974365235,2|0,0:2|0:2,0:2:0:0:
461,368,100380,6,0,B|425:206|425:206|361:304,1,251.999992309571,10|0,3:2|0:2,0:2:0:0:
373,369,100723,2,0,P|300:330|299:235,1,167.999994873047,2|0,3:2|0:2,0:2:0:0:
110,273,100980,5,0,0:2:0:0:
189,352,101066,2,0,L|201:247,1,83.9999974365235,10|0,3:2|0:2,0:2:0:0:
110,250,101237,2,0,L|122:145,1,83.9999974365235,2|0,0:2|0:2,0:2:0:0:
287,32,101409,6,0,B|221:45|221:45|190:70|190:70|130:83,1,167.999994873047,2|0,3:2|0:2,0:2:0:0:
0,28,101666,1,0,0:2:0:0:
0,28,101752,2,0,P|33:51|48:90,1,83.9999974365235,10|0,3:2|0:2,0:2:0:0:
97,183,101923,2,0,P|130:159|145:120,1,83.9999974365235,2|0,0:2|0:2,0:2:0:0:
298,1,102095,5,2,3:2:0:0:
209,15,102180,2,0,P|219:55|250:82,1,83.9999974365235,0|2,3:2|0:2,0:2:0:0:
396,199,102352,5,0,3:2:0:0:
307,185,102437,2,0,P|317:144|348:117,1,83.9999974365235,10|0,3:2|0:2,0:2:0:0:
404,36,102609,2,0,P|430:67|470:79,1,83.9999974365235,2|0,3:2|0:2,0:2:0:0:
298,195,102780,6,0,L|189:172,1,83.9999974365235,2|0,3:2|0:2,0:2:0:0:
102,114,102952,2,0,L|211:91,1,83.9999974365235,2|0,0:2|0:2,0:2:0:0:
47,331,103123,2,0,P|46:250|113:205,1,167.999994873047,10|0,3:2|0:2,0:2:0:0:
215,177,103380,5,0,0:2:0:0:
215,177,103466,2,0,P|214:258|281:303,1,167.999994873047,2|0,3:2|0:2,0:2:0:0:
364,263,103723,5,0,0:2:0:0:
364,263,103809,2,0,B|404:247|404:247|440:265,1,83.9999974365235,10|0,3:2|0:2,0:2:0:0:
433,348,103980,2,0,B|392:363|392:363|356:345,1,83.9999974365235,2|0,0:2|0:2,0:2:0:0:
306,202,104152,6,0,B|359:29|359:29|394:90,1,251.999992309571,2|0,3:2|0:2,0:2:0:0:
398,108,104495,2,0,L|209:58,1,167.999994873047,10|0,3:2|0:2,0:2:0:0:
81,88,104752,5,0,0:2:0:0:
134,184,104837,2,0,L|172:72,1,83.9999974365235,2|0,3:2|3:2,0:2:0:0:
17,246,105009,2,0,L|43:166,1,83.9999974365235,2|0,0:2|3:2,0:2:0:0:
233,334,105180,6,0,B|282:272|282:272|110:295,1,251.999992309571,10|0,3:2|0:2,0:2:0:0:
12,56,105523,6,0,P|11:87|69:145,1,83.9999974365235,6|0,3:2|0:2,0:2:0:0:
142,79,105695,2,0,P|131:38|101:10,1,83.9999974365235,2|0,0:2|0:2,0:2:0:0:
17,246,105866,6,0,B|100:216|100:216|182:227|182:227|257:196,1,251.999992309571,10|0,3:2|0:2,0:2:0:0:
173,145,106209,2,0,L|145:310,1,167.999994873047,2|0,3:2|0:2,0:2:0:0:
347,169,106466,5,0,0:2:0:0:
256,196,106552,2,0,L|243:279,1,83.9999974365235,10|0,3:2|0:2,0:2:0:0:
340,266,106723,2,0,L|327:349,1,83.9999974365235,2|0,0:2|0:2,0:2:0:0:
496,162,106895,6,0,B|447:107|447:107|424:285,1,251.999992309571,2|0,3:2|0:2,0:2:0:0:
426,371,107237,6,0,P|466:360|498:333,1,83.9999974365235,10|0,3:2|0:2,0:2:0:0:
311,214,107409,2,0,P|351:224|383:251,1,83.9999974365235,2|0,0:2|0:2,0:2:0:0:
144,327,107580,5,2,3:2:0:0:
237,367,107666,2,0,L|224:268,1,83.9999974365235,0|2,3:2|0:2,0:2:0:0:
190,170,107837,5,0,3:2:0:0:
100,210,107923,2,0,L|113:111,1,83.9999974365235,10|0,3:2|0:2,0:2:0:0:
258,89,108095,2,0,L|245:-10,1,83.9999974365235,2|0,3:2|0:2,0:2:0:0:
9,87,108266,6,0,L|113:104,1,83.9999974365235,2|0,3:2|0:2,0:2:0:0:
171,110,108437,2,0,L|63:129,1,83.9999974365235,0|0,0:2|0:2,0:2:0:0:
55,215,108609,6,0,L|159:232,1,77.0000023498536,10|0,3:2|0:2,0:2:0:0:
210,243,108780,2,0,L|102:262,1,77.0000023498536,0|0,0:2|0:2,0:2:0:0:
0,294,108952,5,2,3:2:0:0:
0,294,109123,2,0,B|102:290|49:356|187:342,1,154.000004699707,2|10,0:2|3:2,0:2:0:0:
143,138,109466,2,0,B|217:207|133:216|241:304,1,154.000004699707,2|0,0:2|3:2,0:2:0:0:
362,122,109809,5,8,0:2:0:0:
362,121,109980,2,0,P|335:148|323:184,1,77.0000023498536,8|0,0:2|0:2,0:2:0:0:
321,352,110152,1,0,3:2:0:0:
337,366,110237,1,0,3:2:0:0:
377,364,110323,1,8,0:1:0:0:
414,327,110409,1,8,0:1:0:0:
407,252,110495,1,8,0:1:0:0:
337,211,110580,1,8,0:1:0:0:
271,264,110666,5,8,3:2:0:0:
512,15,111009,6,0,L|416:27,1,83.9999974365235,6|0,3:2|0:2,0:2:0:0:
338,129,111180,2,0,L|441:142,1,83.9999974365235,2|0,0:2|0:2,0:2:0:0:
305,21,111352,6,0,B|250:31|250:31|212:63|212:63|117:82|117:82|151:46,1,251.999992309571,10|0,3:2|0:2,0:2:0:0:
157,37,111695,2,0,L|120:215,1,167.999994873047,2|0,3:2|0:2,0:2:0:0:
284,282,111952,5,0,0:2:0:0:
216,189,112037,2,0,L|187:314,1,83.9999974365235,10|0,3:2|0:2,0:2:0:0:
304,286,112209,2,0,L|285:367,1,83.9999974365235,2|0,0:2|0:2,0:2:0:0:
453,137,112380,6,0,P|373:126|321:193,1,167.999994873047,2|0,3:2|0:2,0:2:0:0:
244,259,112637,1,0,0:2:0:0:
244,259,112723,2,0,P|186:257|136:201,1,83.9999974365235,10|0,3:2|0:2,0:2:0:0:
219,166,112895,2,0,P|187:139|172:100,1,83.9999974365235,2|0,0:2|0:2,0:2:0:0:
362,54,113066,5,2,3:2:0:0:
281,0,113152,2,0,P|264:37|268:79,1,83.9999974365235,0|2,3:2|0:2,0:2:0:0:
364,150,113323,5,0,3:2:0:0:
444,96,113409,2,0,P|460:134|457:175,1,83.9999974365235,10|0,3:2|0:2,0:2:0:0:
284,206,113580,2,0,P|277:247|291:286,1,83.9999974365235,0|0,3:2|0:2,0:2:0:0:
470,267,113752,6,0,L|387:249,1,83.9999974365235,2|0,3:2|0:2,0:2:0:0:
314,383,113923,2,0,L|396:365,1,83.9999974365235,2|0,0:2|0:2,0:2:0:0:
284,206,114095,2,0,P|221:251|230:344,1,167.999994873047,10|0,3:2|0:2,0:2:0:0:
126,378,114352,5,0,0:2:0:0:
126,378,114437,2,0,P|49:365|18:277,1,167.999994873047,2|0,3:2|0:2,0:2:0:0:
130,209,114695,5,0,0:2:0:0:
130,209,114780,2,0,L|107:289,1,83.9999974365235,10|0,3:2|0:2,0:2:0:0:
202,291,114952,2,0,L|179:371,1,83.9999974365235,2|0,0:2|0:2,0:2:0:0:
444,131,115123,6,0,B|353:142|353:142|300:186|300:186|194:198,1,251.999992309571,2|0,3:2|0:2,0:2:0:0:
213,187,115466,2,0,B|247:303|247:303|176:283,1,167.999994873047,10|0,3:2|0:2,0:2:0:0:
26,198,115723,5,0,0:2:0:0:
129,227,115809,2,0,L|104:135,1,83.9999974365235,2|0,3:2|3:2,0:2:0:0:
184,103,115980,2,0,L|161:21,1,83.9999974365235,2|0,0:2|3:2,0:2:0:0:
396,170,116152,6,0,P|286:133|305:19,1,251.999992309571,10|0,3:2|0:2,0:2:0:0:
496,203,116495,6,0,L|472:299,1,83.9999974365235,6|0,3:2|0:2,0:2:0:0:
340,342,116666,2,0,L|360:260,1,83.9999974365235,2|0,0:2|0:2,0:2:0:0:
246,112,116837,6,0,B|427:66|427:66|403:126,1,251.999992309571,10|0,3:2|0:2,0:2:0:0:
313,181,117180,2,0,L|359:19,1,167.999994873047,2|0,3:2|0:2,0:2:0:0:
167,36,117437,5,0,0:2:0:0:
253,26,117523,2,0,P|248:67|224:101,1,83.9999974365235,10|0,3:2|0:2,0:2:0:0:
67,134,117695,2,0,P|105:117|146:121,1,83.9999974365235,2|0,0:2|0:2,0:2:0:0:
282,331,117866,6,0,B|226:368|226:368|209:184,1,251.999992309571,2|0,3:2|0:2,0:2:0:0:
334,251,118209,6,0,L|415:269,1,83.9999974365235,10|0,3:2|0:2,0:2:0:0:
512,259,118380,2,0,L|430:240,1,83.9999974365235,2|0,0:2|0:2,0:2:0:0:
417,356,118552,2,0,L|435:274,1,83.9999974365235,2|0,3:2|0:2,0:2:0:0:
429,156,118723,2,0,L|410:237,1,83.9999974365235,2|0,0:2|0:2,0:2:0:0:
303,350,118895,6,0,L|218:317,1,62.9999980773926,10|0,3:2|0:2,0:2:0:0:
298,367,119066,2,0,L|239:344,1,62.9999980773926,2|0,0:2|0:2,0:2:0:0:
7,168,119237,6,0,B|147:153|88:281|260:253,1,262.500010013581,6|0,3:2|0:2,0:2:0:0:
143,371,119752,6,0,L|129:301,1,52.5000020027161,0|0,3:2|0:2,0:2:0:0:
200,163,119923,1,8,0:2:0:0:
200,163,120095,2,0,B|170:57|170:57|231:93,1,157.500006008148,0|0,0:2|0:2,0:2:0:0:
214,92,120437,6,0,L|61:74,1,125.999996154785,0|0,3:2|0:2,0:2:0:0:
80,77,120780,2,0,L|94:148,1,52.5000020027161,0|0,3:2|0:2,0:2:0:0:
150,238,120952,6,0,B|211:233|211:233|244:249|244:249|303:244,1,157.500006008148,0|0,3:2|0:2,0:2:0:0:
378,283,121295,1,8,0:2:0:0:
375,303,121380,1,2,0:2:0:0:
372,325,121466,1,2,0:2:0:0:
452,376,121637,1,2,0:2:0:0:
452,376,121809,1,2,0:2:0:0:
506,302,121980,6,0,B|444:247|429:189|406:92|453:48|488:40|525:59|546:116|510:178|377:211|320:163|320:163|356:140,1,560,2|0,3:2|0:2,0:2:0:0:
374,61,123695,6,0,L|407:10,2,56,2|2|2,0:2|0:2|0:2,0:2:0:0:
283,65,124723,5,2,0:2:0:0:
283,65,125066,2,0,L|291:4,2,56,2|2|2,0:2|0:2|0:2,0:2:0:0:
210,125,126095,5,2,0:2:0:0:
181,46,126437,1,2,0:2:0:0:
181,46,126780,1,2,0:2:0:0:
210,125,127123,1,2,0:2:0:0:
112,169,127466,5,2,0:2:0:0:
112,169,127809,2,0,P|88:154|61:147,2,56,2|2|2,0:2|0:2|0:2,0:2:0:0:
55,239,128837,5,2,0:2:0:0:
55,239,129180,2,0,P|27:245|3:259,2,56,2|2|2,0:2|0:2|0:2,0:2:0:0:
65,325,130209,5,2,0:2:0:0:
65,325,130552,2,0,P|50:348|43:375,2,56,2|2|2,0:2|0:2|0:2,0:2:0:0:
133,374,131580,5,2,0:2:0:0:
148,284,131923,1,2,0:2:0:0:
148,284,132266,1,2,0:2:0:0:
210,341,132609,1,2,0:2:0:0:
357,303,132952,5,2,0:2:0:0:
357,303,133295,2,0,L|432:285,2,70,2|2|2,0:2|0:2|0:2,0:2:0:0:
303,229,134323,5,2,0:2:0:0:
303,229,134666,2,0,L|343:163,2,70,2|2|2,0:2|0:2|0:2,0:2:0:0:
218,197,135694,5,2,0:2:0:0:
218,197,136037,2,0,L|200:121,2,70,2|2|2,0:2|0:2|0:2,0:2:0:0:
148,267,137066,5,2,0:2:0:0:
60,239,137409,1,2,0:2:0:0:
60,239,137752,1,2,0:2:0:0:
123,177,138095,1,2,0:2:0:0:
64,103,138437,6,0,L|11:114,1,41.9999987182618,2|0,0:2|0:2,0:2:0:0:
73,16,138780,2,0,L|20:27,1,41.9999987182618,2|0,0:2|0:2,0:2:0:0:
195,165,139123,2,0,L|154:157,1,41.9999987182618,2|0,0:2|0:2,0:2:0:0:
186,78,139466,2,0,L|145:70,1,41.9999987182618,2|0,0:2|0:2,0:2:0:0:
310,96,139809,6,0,L|257:107,1,41.9999987182618,2|0,0:2|0:2,0:2:0:0:
319,9,140152,2,0,L|266:20,1,41.9999987182618,2|0,0:2|0:2,0:2:0:0:
441,158,140495,2,0,L|399:149,1,41.9999987182618,2|0,0:2|0:2,0:2:0:0:
432,71,140838,2,0,L|390:62,1,41.9999987182618,2|0,0:2|0:2,0:2:0:0:
238,209,141180,6,0,P|228:230|227:257,1,41.9999987182618,2|0,0:2|0:2,0:2:0:0:
312,251,141523,2,0,P|319:272|338:292,1,41.9999987182618,2|0,0:2|0:2,0:2:0:0:
392,231,141866,2,0,P|412:240|440:242,1,41.9999987182618,2|0,0:2|0:2,0:2:0:0:
441,158,142209,2,0,P|462:150|482:131,1,41.9999987182618,2|0,0:2|0:2,0:2:0:0:
171,78,142552,6,0,P|161:57|160:30,1,41.9999987182618,2|0,0:2|0:2,0:2:0:0:
245,36,142895,2,0,P|252:14|271:-5,1,41.9999987182618,2|0,0:2|0:2,0:2:0:0:
325,56,143238,2,0,P|345:46|373:45,1,41.9999987182618,2|0,0:2|0:2,0:2:0:0:
374,129,143581,2,0,P|395:136|415:155,1,41.9999987182618,2|0,0:2|0:2,0:2:0:0:
496,144,143923,6,0,B|498:262|385:303|385:303|439:264|424:221,1,293.999991027832,2|0,3:2|0:2,0:2:0:0:
340,224,145295,6,0,P|298:239|276:265,1,62.9999980773926,2|0,0:2|0:2,0:2:0:0:
285,251,145637,2,0,P|293:207|281:175,1,62.9999980773926,2|0,0:2|0:2,0:2:0:0:
288,189,145980,2,0,P|321:217|355:223,1,62.9999980773926,2|0,0:2|0:2,0:2:0:0:
356,307,146323,6,0,B|307:325|290:374|290:374|221:307|136:323|136:323|197:336|207:364,1,335.999989746094,2|2,0:2|0:2,0:2:0:0:
53,355,148037,6,0,P|48:313|61:273,1,83.9999974365235,2|0,0:2|0:2,0:2:0:0:
140,217,148723,2,0,P|162:252|168:293,1,83.9999974365235,2|0,0:2|0:2,0:2:0:0:
56,180,149409,6,0,B|107:107|193:143|193:143|251:84|206:9|206:9|165:22|146:66,1,377.999988464356,2|0,0:2|0:2,0:2:0:0:
290,152,151809,6,0,P|313:143|335:137,1,47.2499985580445,2|0,0:2|0:2,0:2:0:0:
335,138,152152,6,0,P|337:199|358:258,1,110.249996635437,2|0,0:2|0:2,0:2:0:0:
420,282,152837,2,0,P|353:276|294:307,1,136.499993751526,2|0,0:2|0:2,0:2:0:0:
228,361,153523,6,0,P|160:367|101:336,1,136.499993751526,2|0,0:2|0:2,0:2:0:0:
56,258,154209,2,0,L|63:190,1,52.5000020027161,2|0,0:2|0:2,0:2:0:0:
143,150,154552,2,0,L|148:202,1,52.5000020027161,2|0,0:2|0:2,0:2:0:0:
74,84,154895,6,0,B|104:6|182:-16|261:23|261:23|246:66|173:88,1,318.499985420228,6|0,3:2|0:2,0:2:0:0:
138,159,156266,6,0,P|168:173|202:173,1,68.2499968757631,2|0,0:2|0:2,0:2:0:0:
273,193,156609,2,0,P|244:211|227:241,1,68.2499968757631,2|0,0:2|0:2,0:2:0:0:
161,267,156952,2,0,P|189:285|206:315,1,68.2499968757631,2|0,0:2|0:2,0:2:0:0:
273,367,157295,6,0,B|319:375|351:350|351:350|380:368|380:368|425:336|517:348|517:348|452:342|406:292,1,363.999983337403,2|2,0:2|0:2,0:2:0:0:
409,205,159009,6,0,P|417:168|452:128,1,90.9999958343508,2|0,0:2|0:2,0:2:0:0:
340,270,159695,2,0,P|319:238|315:185,1,90.9999958343508,2|0,0:2|0:2,0:2:0:0:
331,51,160380,6,0,B|351:11|406:17|431:55|420:121|369:146|297:134|295:21|186:49|186:49|215:47|241:64,1,408.800011228028,2|0,0:2|0:2,0:2:0:0:
133,205,162437,6,0,P|86:207|47:187,1,76.6500021052552,2|0,0:2|0:2,0:2:0:0:
59,195,162780,2,0,P|84:234|86:278,1,76.6500021052552,2|0,0:2|0:2,0:2:0:0:
36,346,163123,6,0,P|81:316|182:314,1,153.30000421051,2|0,0:2|0:2,0:2:0:0:
202,384,163809,2,0,L|230:228,1,153.30000421051,2|0,0:2|0:2,0:2:0:0:
155,179,164495,6,0,P|206:213|218:111,1,188.999994232178,2|0,0:2|0:2,0:2:0:0:
242,33,165180,2,0,P|293:-1|305:101,1,188.999994232178,2|0,0:2|0:2,0:2:0:0:
393,134,165866,6,0,P|434:107|482:104,1,97.9999970092774,6|0,3:2|0:2,0:2:0:0:
303,238,166209,2,0,L|286:141,1,97.9999970092774,10|0,3:2|0:2,0:2:0:0:
421,229,166552,1,2,3:2:0:0:
421,229,166723,1,2,0:2:0:0:
339,347,166895,2,0,P|292:354|248:333,1,97.9999970092774,10|0,3:2|0:2,0:2:0:0:
44,185,167237,6,0,B|134:188|84:240|213:230,1,146.999995513916,2|0,3:2|0:2,0:2:0:0:
179,231,167580,2,0,L|164:345,1,97.9999970092774,10|0,3:2|0:2,0:2:0:0:
285,200,167923,1,2,3:2:0:0:
282,187,168009,1,2,0:2:0:0:
279,173,168095,1,2,0:2:0:0:
126,158,168266,1,10,3:2:0:0:
126,158,168437,1,2,0:2:0:0:
254,298,168609,6,0,L|350:280,1,97.9999970092774,2|0,3:2|0:2,0:2:0:0:
489,193,168952,1,10,3:2:0:0:
432,343,169123,1,2,0:2:0:0:
366,188,169295,2,0,P|315:162|256:167,1,97.9999970092774,2|0,3:2|0:2,0:2:0:0:
350,280,169637,1,10,3:2:0:0:
411,93,169809,2,0,P|462:67|521:72,1,97.9999970092774,2|0,0:2|3:2,0:2:0:0:
413,199,170152,1,2,0:2:0:0:
319,65,170323,5,10,3:2:0:0:
319,65,170495,1,2,0:2:0:0:
135,104,170666,2,0,L|9:91,1,97.9999970092774,2|0,3:2|0:2,0:2:0:0:
220,22,171009,1,10,3:2:0:0:
197,186,171180,1,2,0:2:0:0:
355,120,171352,6,0,B|410:108|410:108|447:120|447:120|497:109,1,146.999995513916,6|0,3:2|0:2,0:2:0:0:
497,109,171695,2,0,L|478:223,1,97.9999970092774,10|0,3:2|0:2,0:2:0:0:
273,237,172037,1,2,3:2:0:0:
273,237,172209,1,2,0:2:0:0:
397,321,172380,2,0,L|380:224,1,97.9999970092774,10|0,3:2|0:2,0:2:0:0:
198,23,172723,6,0,P|189:80|214:124,1,97.9999970092774,2|0,3:2|0:2,0:2:0:0:
367,102,173066,2,0,P|320:65|270:65,1,97.9999970092774,10|0,3:2|0:2,0:2:0:0:
202,235,173409,1,2,3:2:0:0:
206,214,173495,1,2,0:2:0:0:
211,194,173580,1,2,0:2:0:0:
325,290,173752,1,10,3:2:0:0:
325,290,173923,1,2,0:2:0:0:
174,355,174095,6,0,L|62:366,1,97.9999970092774,2|0,3:2|0:2,0:2:0:0:
23,215,174437,1,10,3:2:0:0:
140,274,174609,1,2,0:2:0:0:
228,42,174780,2,0,P|182:52|143:97,1,97.9999970092774,2|0,3:2|0:2,0:2:0:0:
114,171,175123,1,10,3:2:0:0:
264,312,175295,2,0,P|277:267|258:210,1,97.9999970092774,2|0,0:2|3:2,0:2:0:0:
209,148,175638,1,2,0:2:0:0:
107,304,175809,5,10,3:2:0:0:
107,304,175980,1,2,0:2:0:0:
320,367,176152,1,2,3:2:0:0:
226,236,176323,1,2,0:2:0:0:
206,383,176495,2,0,L|217:310,1,48.9999985046387,10|0,3:2|0:2,0:2:0:0:
327,265,176666,2,0,L|316:192,1,48.9999985046387,10|0,0:2|0:2,0:2:0:0:
223,23,176837,6,0,B|346:6|346:6|317:50,1,168,6|0,3:2|0:2,0:2:0:0:
256,106,177180,2,0,L|238:209,1,105.000004005432,10|0,3:2|0:2,0:2:0:0:
58,145,177523,1,2,3:2:0:0:
58,145,177695,1,2,0:2:0:0:
158,305,177866,2,0,L|140:201,1,105.000004005432,10|0,3:2|0:2,0:2:0:0:
62,374,178209,6,0,P|141:334|227:348,1,178.500003404617,2|0,3:2|0:2,0:2:0:0:
320,342,178552,2,0,P|300:294|257:264,1,105.000004005432,10|0,3:2|0:2,0:2:0:0:
294,124,178895,1,8,3:1:0:0:
284,145,178980,1,8,0:1:0:0:
274,164,179066,1,8,0:1:0:0:
83,223,179237,2,0,P|134:230|180:207,1,105.000004005432,10|8,3:2|0:1,0:2:0:0:
322,49,179580,5,2,3:2:0:0:
163,21,179752,1,2,0:2:0:0:
274,164,179923,2,0,L|395:150,1,105.000004005432,10|0,3:2|0:2,0:2:0:0:
205,359,180266,2,0,P|155:349|120:311,1,105.000004005432,2|0,3:2|0:2,0:2:0:0:
351,311,180609,1,10,3:2:0:0:
353,218,180780,6,0,P|302:227|267:265,1,105.000004005432,2|0,0:2|3:2,0:2:0:0:
428,366,181123,1,2,0:2:0:0:
489,252,181295,1,10,3:2:0:0:
489,252,181466,1,2,0:2:0:0:
341,139,181637,1,8,3:1:0:0:
346,176,181723,1,8,0:1:0:0:
353,218,181809,1,8,0:1:0:0:
425,46,181980,1,10,3:2:0:0:
512,152,182152,1,8,0:1:0:0:
327,46,182323,6,0,B|232:52|283:100|183:108,1,157.500006008148,6|0,3:2|0:2,0:2:0:0:
138,36,182666,2,0,P|88:20|37:31,1,105.000004005432,10|0,3:2|0:2,0:2:0:0:
2,189,183009,2,0,P|30:145|75:120,1,105.000004005432,2|0,3:2|0:2,0:2:0:0:
195,254,183352,1,10,3:2:0:0:
195,254,183523,1,2,0:2:0:0:
78,318,183695,6,0,L|96:214,1,105.000004005432,2|0,3:2|0:2,0:2:0:0:
288,146,184037,1,10,3:2:0:0:
140,115,184209,1,2,0:2:0:0:
234,288,184380,1,8,3:1:0:0:
231,313,184466,1,8,0:1:0:0:
227,338,184552,1,8,0:1:0:0:
162,221,184723,1,10,3:2:0:0:
162,221,184895,1,8,0:1:0:0:
317,285,185066,5,8,3:1:0:0:
355,312,185152,1,8,0:1:0:0:
401,310,185237,1,8,0:1:0:0:
438,281,185323,1,8,0:1:0:0:
449,234,185409,1,8,3:2:0:0:
429,190,185495,1,8,0:1:0:0:
388,166,185580,1,8,0:1:0:0:
341,173,185666,1,8,0:1:0:0:
300,198,185752,6,0,L|242:212,1,59.5000011348725,8|8,3:1|0:1,0:0:0:0:
148,128,185923,2,0,L|205:142,1,59.5000011348725,8|8,0:1|0:1,0:2:0:0:
345,102,186095,2,0,L|287:116,1,59.5000011348725,8|8,3:2|0:1,0:2:0:0:
193,32,186266,2,0,L|250:46,1,59.5000011348725,8|8,0:1|0:1,0:2:0:0:
463,125,186437,5,8,3:1:0:0:
459,148,186523,1,8,0:1:0:0:
455,171,186609,1,8,0:1:0:0:
451,194,186695,1,8,0:1:0:0:
447,217,186780,1,8,3:2:0:0:
443,240,186866,1,8,0:1:0:0:
440,263,186952,1,8,0:1:0:0:
436,286,187037,1,8,0:1:0:0:
432,309,187123,2,0,L|424:360,1,52.5000020027161,0|0,3:1|0:1,0:2:0:0:
335,384,187295,2,0,L|348:280,2,105.000004005432,0|0|0,3:2|0:2|0:2,0:2:0:0:
86,302,187809,6,0,B|73:264|84:177|191:146|306:221|230:341|230:341|205:298|171:282,1,438.666659973145,6|0,3:2|0:2,0:2:0:0:
14,222,188323,6,0,P|23:197|40:177,1,52.5000020027161,2|0,0:2|0:2,0:2:0:0:
114,131,188666,1,2,0:2:0:0:
66,59,188837,2,0,P|142:50|195:105,1,157.500006008148,2|0,0:2|0:2,0:2:0:0:
159,210,189180,6,0,B|222:187|222:187|325:228|325:228|370:167|370:167|269:124,1,350,6|0,3:2|0:2,0:2:0:0:
227,362,189695,2,0,B|91:359|61:230|61:230|89:298|164:303,1,350,6|0,3:2|0:2,0:2:0:0:
293,298,190209,6,0,P|311:320|319:350,1,52.5000020027161,2|0,0:2|0:2,0:2:0:0:
419,373,190552,6,0,B|536:293|505:171|439:120|330:167|345:290|443:302,1,350,6|0,3:2|0:2,0:2:0:0:
299,192,191066,5,2,0:2:0:0:
299,192,191237,2,0,P|322:148|342:129,1,52.5000020027161,2|2,0:2|0:2,0:2:0:0:
226,64,191495,1,2,0:2:0:0:
226,64,191580,2,0,P|240:85|250:109,1,52.5000020027161,2|0,0:2|0:2,0:2:0:0:
197,241,191923,6,0,B|146:295|146:295|42:221|101:104,1,262.5,6|0,3:2|0:2,0:2:0:0:
123,62,192266,2,0,B|195:79|195:79|183:206|52:213,1,262.5,6|0,3:2|0:2,0:2:0:0:
6,215,192609,2,0,B|-15:143|-15:143|100:90|172:200,1,262.5,6|0,3:2|0:2,0:2:0:0:
90,302,192952,6,0,L|99:353,1,52.5000020027161,2|0,0:2|0:2,0:2:0:0:
204,272,193295,6,0,B|300:175|430:229|430:229|416:291|312:287,1,350,6|0,3:2|0:2,0:2:0:0:
262,379,193809,6,0,L|273:327,1,52.5000020027161,2|0,0:2|0:2,0:2:0:0:
162,374,194152,1,2,0:2:0:0:
162,374,194237,1,2,0:2:0:0:
162,374,194323,1,2,0:2:0:0:
117,287,194495,1,2,0:2:0:0:
215,136,194666,6,0,B|234:24|234:24|73:69|73:69|145:116,1,350,6|0,3:2|0:2,0:2:0:0:
0,264,195180,2,0,B|-19:152|-19:152|142:197|142:197|70:244,1,350,6|0,3:2|0:2,0:2:0:0:
90,353,195695,6,0,P|111:339|146:330,1,52.5000020027161,2|0,0:2|0:2,0:2:0:0:
349,305,196037,6,0,B|302:241|211:263|211:263|270:178|238:121|238:121|212:144|212:174,1,350,6|0,3:2|0:2,0:2:0:0:
109,250,196552,5,2,0:2:0:0:
218,339,196723,1,2,0:0:0:0:
218,339,196895,2,0,L|278:321,1,52.5000020027161,2|0,0:2|0:2,0:2:0:0:
126,339,197237,1,2,0:2:0:0:
307,229,197409,5,8,0:2:0:0:
221,33,197580,1,0,3:2:0:0:
205,42,197752,1,0,3:2:0:0:
305,249,197923,5,8,0:2:0:0:
402,62,198094,1,0,3:2:0:0:
418,71,198266,1,0,3:2:0:0:
201,189,198437,5,8,0:2:0:0:
174,184,198523,1,8,0:2:0:0:
148,178,198609,1,8,0:2:0:0:
122,173,198695,1,8,0:2:0:0:
96,166,198780,6,0,L|71:239,1,52.5000020027161,4|0,3:2|0:2,0:2:0:0:
146,263,199123,2,0,L|121:336,1,52.5000020027161,8|0,0:1|0:2,0:2:0:0:
136,264,199466,2,0,L|111:337,1,52.5000020027161,8|0,0:1|0:2,0:2:0:0:
207,327,199809,2,0,L|182:400,1,52.5000020027161,8|0,0:1|0:2,0:2:0:0:
413,226,200152,6,0,P|443:245|461:279,2,52.5000020027161,8|0|8,3:1|0:2|0:1,0:2:0:0:
374,142,200666,1,0,0:2:0:0:
374,142,200837,2,0,P|408:134|445:145,1,52.5000020027161,8|0,0:1|0:2,0:2:0:0:
292,105,201180,2,0,P|311:74|345:57,1,52.5000020027161,8|0,0:1|0:2,0:2:0:0:
100,187,201523,6,0,L|47:179,2,52.5000020027161,8|0|8,3:1|0:2|0:1,0:2:0:0:
150,107,202037,2,0,L|97:99,2,52.5000020027161,0|8|0,0:2|0:1|0:2,0:2:0:0:
204,28,202552,2,0,L|151:20,1,52.5000020027161,8|8,0:1|0:1,0:2:0:0:
339,136,202809,5,8,0:1:0:0:
339,136,202895,2,0,P|324:81|314:68,1,52.5000020027161,8|0,3:1|0:2,0:2:0:0:
178,196,203237,2,0,P|181:166|193:139,1,59.5000011348725,8|0,0:1|0:2,0:2:0:0:
353,303,203580,2,0,P|348:271|335:240,1,66.4999982242585,8|0,0:1|0:2,0:2:0:0:
153,376,203923,2,0,P|158:339|174:306,1,73.4999977569581,8|8,0:1|0:1,0:2:0:0:
262,322,204180,5,8,0:1:0:0:
262,322,204266,2,0,L|334:332,1,73.4999977569581,0|0,3:1|0:2,0:2:0:0:
386,186,204609,2,0,L|396:113,1,73.4999977569581,8|8,3:1|0:1,0:2:0:0:
250,62,204866,1,8,0:1:0:0:
250,62,204952,2,0,L|177:51,1,73.4999977569581,8|0,3:1|0:2,0:2:0:0:
126,198,205295,2,0,L|115:270,1,73.4999977569581,8|8,3:1|0:1,0:2:0:0:
179,335,205552,5,8,0:1:0:0:
179,335,205637,1,8,3:1:0:0:
399,269,205809,1,0,3:1:0:0:
333,49,205980,1,8,3:1:0:0:
113,115,206152,1,0,3:1:0:0:
287,366,206323,5,8,3:1:0:0:
329,330,206409,1,8,0:1:0:0:
342,276,206495,1,8,0:1:0:0:
333,222,206580,1,8,0:1:0:0:
299,177,206666,1,8,3:1:0:0:
250,150,206752,1,8,0:1:0:0:
195,147,206837,1,8,0:1:0:0:
146,173,206923,1,8,0:1:0:0:
116,220,207009,5,8,3:1:0:0:
463,82,208380,5,4,0:2:0:0:
460,74,208723,1,4,0:2:0:0:
457,64,209066,1,4,0:2:0:0:
420,208,209237,1,0,3:2:0:0:
424,223,209323,1,0,3:2:0:0:
428,238,209409,1,0,3:2:0:0:
336,139,209580,1,0,3:2:0:0:
495,157,209752,5,0,3:2:0:0:
402,329,209923,2,0,P|404:284|433:250,1,90.9999958343508,8|0,0:3|0:2,0:2:0:0:
266,182,210266,2,0,P|287:221|328:240,1,90.9999958343508,8|0,0:3|0:2,0:2:0:0:
163,372,210609,2,0,P|184:332|225:313,1,90.9999958343508,8|8,0:3|0:3,0:2:0:0:
189,226,210866,1,8,0:3:0:0:
180,238,210952,1,8,0:3:0:0:
171,198,211037,1,8,0:3:0:0:
162,210,211123,5,8,0:3:0:0:
23,98,211295,2,0,L|11:188,1,90.9999958343508,8|8,0:3|0:3,0:2:0:0:
240,87,211637,1,8,0:3:0:0:
240,87,211723,1,8,0:3:0:0:
88,34,211895,1,8,0:3:0:0:
88,34,211981,1,8,0:3:0:0:
103,200,212152,1,8,0:3:0:0:
144,108,212323,1,8,0:3:0:0:
239,268,212495,5,4,3:2:0:0:
290,175,212666,2,0,L|199:181,1,90.9999958343508,8|0,0:3|0:2,0:2:0:0:
423,314,213009,2,0,L|332:307,1,90.9999958343508,8|0,0:3|0:2,0:2:0:0:
512,147,213352,2,0,L|421:153,1,90.9999958343508,8|8,0:3|0:3,0:2:0:0:
360,93,213609,1,8,0:3:0:0:
368,77,213695,1,8,0:3:0:0:
340,68,213780,1,8,0:3:0:0:
348,52,213866,5,8,0:3:0:0:
261,168,214037,1,8,0:3:0:0:
212,71,214209,1,8,0:3:0:0:
368,185,214380,1,8,0:3:0:0:
368,185,214466,1,8,0:3:0:0:
194,254,214637,1,8,0:3:0:0:
194,254,214723,1,8,0:3:0:0:
370,338,214895,6,0,L|358:310,1,22.7499989585877,8|8,0:3|0:3,0:2:0:0:
381,338,214980,2,0,L|369:310,1,22.7499989585877,8|8,0:3|0:3,0:2:0:0:
404,346,215066,2,0,L|393:373,1,22.7499989585877,8|8,0:3|0:3,0:2:0:0:
415,346,215152,2,0,L|405:373,1,22.7499989585877,8|8,0:3|0:3,0:2:0:0:
426,344,215237,6,0,P|457:302|452:251,1,105.000004005432,4|8,3:2|0:3,0:2:0:0:
385,181,215495,1,8,0:3:0:0:
385,181,215580,2,0,P|354:139|359:88,1,105.000004005432,0|8,3:2|0:3,0:2:0:0:
417,3,215837,1,8,0:3:0:0:
417,3,215923,2,0,L|491:16,1,52.5000020027161,0|8,3:2|0:3,0:2:0:0:
344,107,216095,2,0,L|270:120,1,52.5000020027161,8|8,0:3|0:3,0:2:0:0:
227,30,216266,1,8,3:3:0:0:
26,144,216437,5,8,0:3:0:0:
60,120,216523,1,8,0:3:0:0:
99,123,216609,2,0,B|125:155|125:155|96:275,1,119.000002269745,4|8,3:2|0:3,0:2:0:0:
135,329,216866,1,8,0:3:0:0:
135,329,216952,2,0,B|167:303|167:303|287:332,1,119.000002269745,0|8,3:2|0:3,0:2:0:0:
338,351,217209,1,8,0:3:0:0:
338,351,217295,2,0,L|356:278,1,59.5000011348725,0|8,3:2|0:3,0:2:0:0:
239,179,217466,2,0,L|253:236,1,59.5000011348725,8|8,0:3|0:3,0:2:0:0:
364,188,217637,6,0,L|400:177,2,29.7500005674362,8|8|8,3:3|0:3|0:3,0:2:0:0:
312,104,217809,2,0,L|276:93,2,29.7500005674362,8|8|8,3:3|0:3|0:3,0:2:0:0:
412,59,217980,5,0,3:2:0:0:
359,6,218066,1,0,3:2:0:0:
283,0,218152,1,0,3:2:0:0:
223,32,218237,1,0,3:2:0:0:
190,90,218323,1,0,3:2:0:0:
134,132,218409,1,0,3:2:0:0:
72,125,218495,1,0,3:2:0:0:
49,74,218580,1,0,3:2:0:0:
67,45,218666,1,0,3:2:0:0:
86,39,218752,1,0,3:2:0:0:
100,44,218837,1,0,3:2:0:0:
108,52,218923,1,0,3:2:0:0:
109,59,219009,1,0,3:2:0:0:
106,64,219095,1,0,3:2:0:0:
103,68,219180,1,0,3:2:0:0:
98,67,219266,1,0,3:2:0:0:
92,67,219352,6,0,L|81:145,1,59.5000011348725,0|0,3:2|0:2,0:2:0:0:
206,223,219523,2,0,L|197:164,1,59.5000011348725,2|0,0:2|0:2,0:2:0:0:
92,67,219695,6,0,L|81:145,1,59.5000011348725,0|0,3:2|0:2,0:2:0:0:
206,223,219866,2,0,L|197:164,1,59.5000011348725,2|0,0:2|0:2,0:2:0:0:
70,262,220037,5,0,3:2:0:0:
70,262,220209,1,0,3:2:0:0:
209,55,220380,2,0,L|288:24,1,59.5000011348725,8|0,0:2|0:2,0:2:0:0:
437,114,220723,6,0,L|423:195,1,66.4999982242585,0|0,3:2|0:2,0:2:0:0:
374,46,220895,1,0,3:2:0:0:
404,277,221066,6,0,P|289:304|341:199,1,293.999991027832,2|0,3:2|0:2,0:2:0:0:
341,199,221409,6,0,P|309:212|269:206,1,70,2|0,0:2|0:2,0:2:0:0:
182,162,221580,2,0,P|217:159|248:173,1,70,2|0,0:2|0:2,0:2:0:0:
277,304,221752,6,0,P|255:268|256:227,1,83.9999974365235,2|0,0:2|0:2,0:2:0:0:
240,83,221923,2,0,P|261:118|260:159,1,83.9999974365235,2|0,0:2|0:2,0:2:0:0:
168,301,222095,6,0,P|192:259|236:240,1,97.9999970092774,2|0,0:2|0:2,0:2:0:0:
346,88,222266,2,0,P|321:129|277:148,1,97.9999970092774,2|0,0:2|0:2,0:2:0:0:
76,194,222437,6,0,P|127:194|166:228,1,105.000004005432,2|0,0:2|0:2,0:2:0:0:
437,191,222609,2,0,P|385:190|346:156,1,105.000004005432,2|0,0:2|0:2,0:2:0:0:
107,66,222780,6,0,P|143:104|138:168,1,112,2|0,0:2|0:2,0:2:0:0:
408,322,222952,2,0,P|372:283|371:220,1,112,2|0,0:2|0:2,0:2:0:0:
255,75,223123,5,2,0:2:0:0:
254,90,223295,1,2,0:2:0:0:
117,340,223466,6,0,B|81:332|81:332|60:339|60:339|21:331,1,97.9999970092774,2|0,3:2|0:2,0:2:0:0:
231,239,223637,2,0,B|195:247|195:247|174:240|174:240|135:247,1,97.9999970092774,2|0,0:2|0:2,0:2:0:0:
419,367,223809,2,0,B|342:354|342:354|290:363|290:363|203:330|203:330|271:313,1,293.999991027832,2|0,0:2|0:2,0:0:0:0:
452,217,224152,6,0,B|482:245|482:245|456:316,1,97.9999970092774,8|0,0:3|0:2,0:2:0:0:
334,171,224323,2,0,B|304:199|304:199|323:252,1,97.9999970092774,2|0,3:2|0:2,0:2:0:0:
472,58,224495,2,0,B|502:86|502:86|476:157,1,97.9999970092774,2|0,3:2|0:2,0:2:0:0:
354,0,224666,2,0,B|324:28|324:28|343:81,1,97.9999970092774,2|0,0:2|0:2,0:2:0:0:
323,252,224837,6,0,B|110:214|110:214|181:183,1,293.999991027832,2|0,0:2|0:2,0:2:0:0:
236,269,225180,2,0,L|246:367,1,97.9999970092774,2|0,3:2|0:2,0:2:0:0:
166,375,225352,2,0,L|156:277,1,97.9999970092774,2|0,0:2|0:2,0:2:0:0:
0,186,225523,6,0,B|213:148|213:148|141:117,1,293.999991027832,8|0,0:3|0:2,0:2:0:0:
141,117,225866,1,2,0:2:0:0:
342,92,226037,6,0,P|349:45|332:0,1,97.9999970092774,2|0,0:1|0:2,0:2:0:0:
72,4,226209,2,0,B|181:2|132:76|260:53|260:53|213:85|215:141|215:141|235:127|243:108,1,336,2|0,0:1|0:2,0:2:0:0:
440,243,226552,6,0,B|375:230|375:230|351:246|351:246|243:230|243:230|314:173,1,293.999991027832,2|0,3:2|0:2,0:2:0:0:
50,332,226895,6,0,L|178:309,1,97.9999970092774,8|0,0:3|0:2,0:2:0:0:
232,308,227066,2,0,L|104:285,1,97.9999970092774,2|0,0:2|0:2,0:2:0:0:
32,215,227237,6,0,L|160:192,1,90.9999958343508,2|0,3:2|0:2,0:2:0:0:
199,190,227409,2,0,L|71:167,1,90.9999958343508,2|0,0:2|0:2,0:2:0:0:
0,93,227580,6,0,L|82:78,1,83.9999974365235,2|0,0:2|0:2,0:2:0:0:
160,68,227752,2,0,L|77:53,1,83.9999974365235,2|0,0:2|0:2,0:2:0:0:
275,105,227923,6,0,B|444:66|444:66|370:18,1,220.499993270874,2|0,3:2|0:2,0:2:0:0:
296,29,228266,2,0,B|245:194|245:194|287:173,1,220.499993270874,8|0,0:3|0:2,0:2:0:0:
454,249,228609,6,0,L|463:176,1,73.4999977569581,2|0,0:2|0:2,0:2:0:0:
385,173,228780,2,0,L|376:246,1,73.4999977569581,2|0,0:2|0:2,0:2:0:0:
312,350,228952,6,0,B|292:299|239:286|239:286|189:332|128:305|128:305|197:243|148:167,1,346.500003304482,2|0,3:2|0:2,0:2:0:0:
172,100,229295,6,0,P|88:133|71:222,1,188.999994232178,2|0,0:2|0:2,0:2:0:0:
161,193,229637,1,10,0:2:0:0:
380,175,229809,6,0,B|437:138|437:138|377:105,1,136.500000520706,2|0,0:2|0:2,0:2:0:0:
377,105,229980,6,0,B|381:280|496:122|564:376|401:438|285:314|381:236,1,409.500001562119,2|0,0:2|0:2,0:3:0:0:
354,271,230323,5,2,3:2:0:0:
197,371,230495,2,0,L|210:295,1,77.0000023498536,2|0,0:2|0:2,0:2:0:0:
245,94,230666,2,0,L|287:80,1,38.5000011749268,2|0,0:2|0:2,0:2:0:0:
243,85,230752,2,0,L|285:71,1,38.5000011749268,2|0,0:2|0:2,0:2:0:0:
240,76,230837,6,0,L|163:82,1,77.0000023498536,2|0,0:2|0:2,0:2:0:0:
14,282,231009,2,0,B|147:266|96:361|239:348|239:348|210:295,1,304.500009292603,10|0,0:2|0:2,0:2:0:0:
177,168,231352,6,0,L|161:245,1,59.5000011348725,2|0,0:2|0:2,0:2:0:0:
157,160,231523,2,0,L|141:237,1,59.5000011348725,2|0,0:2|0:2,0:2:0:0:
59,13,231695,6,0,L|0:3,1,59.5000011348725,2|0,3:2|0:2,0:2:0:0:
84,102,231866,1,2,3:2:0:0:
251,13,232037,6,0,P|304:-10|358:8,1,119.000002269745,10|2,0:2|0:2,0:2:0:0:
406,86,232295,1,2,0:2:0:0:
351,160,232380,2,0,B|314:184|314:184|327:257,1,119.000002269745,2|2,3:2|0:2,0:2:0:0:
412,287,232637,1,2,0:2:0:0:
417,313,232723,5,10,3:2:0:0:
365,356,232809,1,2,0:2:0:0:
300,355,232895,1,2,0:2:0:0:
253,311,232980,1,2,0:2:0:0:
249,290,233066,6,0,P|179:302|139:361,1,146.999995513916,2|2,3:2|0:2,0:2:0:0:
52,374,233323,1,2,0:2:0:0:
10,302,233409,2,0,B|-19:261|-19:261|15:150,1,146.999995513916,10|2,3:2|0:2,0:2:0:0:
57,94,233666,1,2,0:2:0:0:
73,115,233752,5,2,3:2:0:0:
142,151,233837,1,2,0:2:0:0:
213,123,233923,1,2,0:2:0:0:
241,50,234009,1,2,0:2:0:0:
229,29,234095,6,0,P|264:0|320:1,1,73.4999977569581,10|0,3:2|0:2,0:2:0:0:
322,87,234266,2,0,P|367:91|406:131,1,73.4999977569581,2|0,0:2|0:2,0:2:0:0:
457,282,234437,5,2,3:2:0:0:
381,315,234523,1,2,0:2:0:0:
306,279,234609,1,2,0:2:0:0:
307,197,234695,1,2,0:2:0:0:
319,179,234780,6,0,P|256:143|189:166,1,146.999995513916,10|2,3:2|0:2,0:2:0:0:
152,249,235037,1,2,0:2:0:0:
193,331,235123,2,0,P|260:353|322:318,1,146.999995513916,2|2,3:2|0:2,0:2:0:0:
361,241,235380,1,2,0:2:0:0:
316,168,235466,1,10,3:2:0:0:
265,95,235552,6,0,B|240:46|259:3|259:3|308:15,1,146.999995513916,2|2,0:2|0:2,0:2:0:0:
488,97,235809,2,0,P|422:125|361:89,1,146.999995513916,2|2,3:2|0:2,0:2:0:0:
324,188,236066,2,0,P|285:183|238:209,1,73.4999977569581,2|8,0:2|3:2,0:2:0:0:
177,342,236237,2,0,P|247:330|293:274,1,146.999995513916,2|2,0:2|0:2,0:2:0:0:
383,252,236495,5,2,3:2:0:0:
368,332,236580,1,2,0:2:0:0:
299,367,236666,1,2,0:2:0:0:
221,334,236752,1,2,0:2:0:0:
215,318,236837,5,10,3:2:0:0:
29,173,237009,6,0,L|10:282,1,83.9999974365235,2|0,0:2|0:2,0:2:0:0:
45,347,237180,2,0,B|62:302|39:258|39:258|75:223|108:245,2,167.999994873047,2|0|8,3:2|3:2|3:2,0:2:0:0:
41,88,237695,5,2,0:2:0:0:
99,23,237780,1,2,0:2:0:0:
178,60,237866,2,0,P|260:87|326:30,1,181.999991668702,2|2,3:2|0:2,0:2:0:0:
407,4,238123,1,2,0:2:0:0:
420,13,238209,5,10,3:2:0:0:
464,91,238295,1,2,0:2:0:0:
401,155,238380,1,2,0:2:0:0:
315,146,238466,1,2,0:2:0:0:
293,128,238552,6,0,B|241:143|241:143|206:215|261:265,1,181.999991668702,2|2,3:2|0:2,0:2:0:0:
397,384,238809,1,2,0:2:0:0:
445,302,238895,2,0,B|458:249|458:249|413:183|343:205,1,181.999991668702,10|2,3:2|0:2,0:2:0:0:
336,302,239152,1,2,0:2:0:0:
332,320,239237,5,2,3:2:0:0:
237,345,239323,1,2,0:2:0:0:
171,278,239409,1,2,0:2:0:0:
194,185,239495,1,2,0:2:0:0:
213,188,239580,6,0,P|236:149|242:104,1,90.9999958343508,10|0,3:2|0:2,0:2:0:0:
146,67,239752,2,0,P|127:25|91:0,1,90.9999958343508,2|0,0:2|0:2,0:2:0:0:
24,293,239923,6,0,P|31:255|47:221,1,66.4999982242585,8|0,3:1|0:1,0:2:0:0:
24,94,240095,2,0,P|31:132|53:169,1,66.4999982242585,8|0,0:1|0:1,0:2:0:0:
154,303,240266,6,0,P|133:274|120:242,1,70,8|0,0:1|0:1,0:2:0:0:
157,83,240437,2,0,P|136:112|123:144,1,70,8|0,0:1|0:1,0:2:0:0:
298,295,240609,6,0,P|262:289|229:273,1,73.4999977569581,8|0,0:1|0:1,0:2:0:0:
304,84,240780,2,0,P|268:90|235:106,1,73.4999977569581,8|0,0:1|0:1,0:2:0:0:
433,311,240952,6,0,P|401:333|364:344,1,77.0000023498536,8|0,0:1|0:1,0:2:0:0:
443,76,241123,2,0,P|411:54|374:43,1,77.0000023498536,8|0,0:1|0:1,0:2:0:0:
218,234,241295,5,8,0:1:0:0:
194,207,241380,1,8,0:1:0:0:
193,155,241466,1,8,0:1:0:0:
243,107,241552,1,8,0:1:0:0:
319,119,241637,1,8,0:1:0:0:
361,184,241723,1,8,0:1:0:0:
349,263,241809,1,8,0:1:0:0:
275,314,241895,1,8,0:1:0:0:
189,297,241980,6,0,P|148:270|100:262,1,97.9999970092774,8|8,0:1|0:1,0:2:0:0:
0,90,242152,2,0,P|40:63|88:55,1,97.9999970092774,8|8,0:1|0:1,0:2:0:0:
0,218,242323,1,8,0:1:0:0:
0,218,242495,1,8,0:1:0:0:
201,27,242666,6,0,L|284:36,1,83.9999974365235,6|0,3:2|0:2,0:2:0:0:
393,108,242837,2,0,L|309:117,1,83.9999974365235,2|0,0:2|0:2,0:2:0:0:
172,266,243009,6,0,B|221:108|221:108|250:189,1,251.999992309571,10|0,3:2|0:2,0:2:0:0:
250,189,243352,2,0,P|153:190|90:139,1,167.999994873047,2|0,3:2|0:2,0:2:0:0:
0,307,243609,5,0,0:2:0:0:
9,221,243695,2,0,P|56:237|92:306,1,83.9999974365235,10|0,3:2|0:2,0:2:0:0:
150,320,243866,2,0,P|189:308|219:279,1,83.9999974365235,2|0,0:2|0:2,0:2:0:0:
450,302,244037,6,0,P|397:241|317:252,1,167.999994873047,2|0,3:2|0:2,0:2:0:0:
270,346,244295,1,0,0:2:0:0:
270,346,244380,2,0,L|382:363,1,83.9999974365235,10|0,3:2|0:2,0:2:0:0:
487,207,244552,2,0,L|375:224,1,83.9999974365235,2|0,0:2|0:2,0:2:0:0:
217,192,244723,5,2,3:2:0:0:
297,254,244809,2,0,L|315:156,1,83.9999974365235,0|2,3:2|0:2,0:2:0:0:
494,105,244980,5,0,3:2:0:0:
414,167,245066,2,0,L|396:69,1,83.9999974365235,10|0,3:2|0:2,0:2:0:0:
257,82,245237,2,0,L|275:-16,1,83.9999974365235,0|0,3:2|0:2,0:2:0:0:
297,253,245409,6,0,P|256:264|216:254,1,83.9999974365235,2|0,3:2|0:2,0:2:0:0:
232,166,245580,2,0,P|195:145|174:109,1,83.9999974365235,2|0,0:2|0:2,0:2:0:0:
0,150,245752,2,0,P|80:155|124:223,1,167.999994873047,10|0,3:2|0:2,0:2:0:0:
176,358,246009,5,0,0:2:0:0:
176,358,246095,2,0,P|256:353|300:285,1,167.999994873047,2|0,3:2|0:2,0:2:0:0:
257,188,246352,5,0,0:2:0:0:
257,188,246437,2,0,P|243:137|274:84,1,83.9999974365235,10|0,3:2|0:2,0:2:0:0:
437,167,246609,2,0,P|425:206|393:233,1,83.9999974365235,2|0,0:2|0:2,0:2:0:0:
225,6,246780,6,0,B|167:41|167:41|381:60,1,251.999992309571,2|0,3:2|0:2,0:2:0:0:
429,8,247123,2,0,P|374:77|337:163,1,167.999994873047,10|0,3:2|0:2,0:2:0:0:
359,310,247380,5,0,0:2:0:0:
441,265,247466,2,0,P|408:228|342:223,1,83.9999974365235,2|0,3:2|3:2,0:2:0:0:
341,149,247637,2,0,P|291:146|241:189,1,83.9999974365235,2|0,0:2|3:2,0:2:0:0:
122,377,247809,6,0,P|225:355|197:223,1,251.999992309571,10|0,3:2|0:2,0:2:0:0:
0,139,248152,6,0,L|18:221,1,83.9999974365235,6|0,3:2|0:2,0:2:0:0:
117,277,248323,2,0,L|135:194,1,83.9999974365235,2|0,0:2|0:2,0:2:0:0:
41,8,248495,6,0,P|92:112|203:79,1,251.999992309571,10|0,3:2|0:2,0:2:0:0:
307,159,248837,2,0,B|334:198|334:198|192:174,1,167.999994873047,2|0,3:2|0:2,0:2:0:0:
116,328,249095,5,0,0:2:0:0:
99,237,249180,2,0,L|203:253,1,83.9999974365235,10|0,3:2|0:2,0:2:0:0:
291,341,249352,2,0,L|207:353,1,83.9999974365235,2|0,0:2|0:2,0:2:0:0:
379,200,249523,6,0,B|435:151|435:151|400:346,1,251.999992309571,2|0,3:2|0:2,0:2:0:0:
288,224,249866,6,0,P|286:179|327:124,1,83.9999974365235,10|0,3:2|0:2,0:2:0:0:
218,97,250037,2,0,P|248:63|316:53,1,83.9999974365235,2|0,0:2|0:2,0:2:0:0:
512,26,250209,5,2,3:2:0:0:
451,93,250295,2,0,L|335:80,1,83.9999974365235,0|2,3:2|0:2,0:2:0:0:
136,121,250466,5,0,3:2:0:0:
207,186,250552,2,0,L|323:173,1,83.9999974365235,10|0,3:2|0:2,0:2:0:0:
403,296,250723,2,0,L|319:286,1,83.9999974365235,0|0,3:2|0:2,0:2:0:0:
171,381,250895,6,0,P|179:340|206:308,1,83.9999974365235,2|0,3:2|0:2,0:2:0:0:
218,206,251066,2,0,P|219:247|240:283,1,83.9999974365235,0|0,0:2|0:2,0:2:0:0:
41,336,251237,6,0,P|63:300|98:279,1,77.0000023498536,10|0,3:2|0:2,0:2:0:0:
119,200,251409,2,0,P|106:236|113:273,1,77.0000023498536,0|0,0:2|0:2,0:2:0:0:
0,121,251580,5,2,3:2:0:0:
0,121,251752,2,0,B|90:123|51:169|145:173,1,154.000004699707,2|10,0:2|3:2,0:2:0:0:
174,0,252095,2,0,B|236:65|176:70|239:139,1,154.000004699707,2|0,0:2|3:2,0:2:0:0:
391,0,252437,5,8,0:2:0:0:
391,0,252609,2,0,P|362:34|347:106,1,77.0000023498536,8|0,3:2|0:2,0:2:0:0:
414,270,252780,1,0,3:2:0:0:
398,281,252865,1,0,3:2:0:0:
358,279,252951,1,8,0:1:0:0:
321,242,253037,1,8,0:1:0:0:
328,167,253123,1,8,0:1:0:0:
398,126,253208,1,8,0:1:0:0:
466,177,253294,5,8,3:2:0:0:
171,224,253637,6,0,L|80:248,1,83.9999974365235,6|0,3:2|0:2,0:2:0:0:
5,329,253809,2,0,L|95:349,1,83.9999974365235,2|0,0:2|0:2,0:2:0:0:
270,277,253980,6,0,B|292:110|292:110|237:173,1,251.999992309571,10|0,3:2|0:2,0:2:0:0:
194,355,254323,2,0,P|263:310|345:318,1,167.999994873047,2|0,3:2|0:2,0:2:0:0:
512,317,254580,5,0,0:2:0:0:
444,378,254666,2,0,P|425:340|422:298,1,83.9999974365235,10|0,3:2|0:2,0:2:0:0:
359,233,254837,2,0,P|377:195|380:153,1,83.9999974365235,2|0,0:2|0:2,0:2:0:0:
307,28,255009,6,0,B|361:33|361:33|397:66|397:66|460:77,1,167.999994873047,2|0,3:2|0:2,0:2:0:0:
496,172,255266,1,0,0:2:0:0:
496,171,255352,2,0,P|461:193|419:197,1,83.9999974365235,10|0,3:2|0:2,0:2:0:0:
380,278,255523,2,0,P|339:269|307:242,1,83.9999974365235,2|0,0:2|0:2,0:2:0:0:
193,103,255695,5,2,3:2:0:0:
289,65,255780,2,0,L|270:160,1,83.9999974365235,0|2,3:2|0:2,0:2:0:0:
176,205,255952,5,0,3:2:0:0:
79,160,256037,2,0,L|98:255,1,83.9999974365235,10|0,3:2|0:2,0:2:0:0:
265,250,256209,2,0,L|246:345,1,83.9999974365235,0|0,3:2|0:2,0:2:0:0:
10,310,256380,6,0,P|43:285|85:282,1,83.9999974365235,2|0,3:2|0:2,0:2:0:0:
168,345,256552,2,0,P|201:369|243:372,1,83.9999974365235,2|0,0:2|0:2,0:2:0:0:
490,239,256723,6,0,P|416:203|344:240,1,167.999994873047,10|0,3:2|0:2,0:2:0:0:
416,301,256980,1,0,0:2:0:0:
416,301,257066,2,0,L|434:132,1,167.999994873047,2|0,3:2|0:2,0:2:0:0:
276,32,257323,5,0,0:2:0:0:
374,29,257409,2,0,P|369:70|344:103,1,83.9999974365235,10|0,3:2|0:2,0:2:0:0:
214,97,257580,2,0,P|188:65|184:24,1,83.9999974365235,2|0,0:2|0:2,0:2:0:0:
317,222,257752,6,0,B|490:266|490:266|438:201,1,251.999992309571,2|0,3:2|0:2,0:2:0:0:
437,202,258095,2,0,P|386:267|388:349,1,167.999994873047,10|0,3:2|0:2,0:2:0:0:
204,301,258352,5,0,0:2:0:0:
250,375,258437,2,0,P|281:341|279:257,1,83.9999974365235,2|0,3:2|3:2,0:2:0:0:
159,226,258609,2,0,P|130:256|118:295,1,83.9999974365235,2|0,0:2|3:2,0:2:0:0:
286,178,258780,6,0,B|331:20|331:20|255:73,1,251.999992309571,10|0,3:2|0:2,0:2:0:0:
84,162,259123,6,0,L|-29:139,1,83.9999974365235,6|0,3:2|0:2,0:2:0:0:
121,34,259295,2,0,L|203:17,1,83.9999974365235,2|0,0:2|0:2,0:2:0:0:
223,252,259466,6,0,P|182:147|290:90,1,251.999992309571,10|0,3:2|0:2,0:2:0:0:
322,243,259809,2,0,B|301:368|301:368|278:333,1,167.999994873047,2|0,3:2|0:2,0:2:0:0:
266,175,260066,5,0,0:2:0:0:
360,133,260152,2,0,L|452:118,1,83.9999974365235,10|0,3:2|0:2,0:2:0:0:
503,244,260323,2,0,L|420:230,1,83.9999974365235,2|0,0:2|0:2,0:2:0:0:
174,135,260495,6,0,B|158:306|158:306|237:239,1,251.999992309571,2|0,3:2|0:2,0:2:0:0:
264,91,260837,6,0,P|242:55|205:37,1,83.9999974365235,10|0,3:2|0:2,0:2:0:0:
73,178,261009,2,0,P|94:213|131:231,1,83.9999974365235,2|0,0:2|0:2,0:2:0:0:
125,36,261180,2,0,P|89:57|71:94,1,83.9999974365235,2|0,3:2|0:2,0:2:0:0:
211,226,261352,2,0,P|246:205|265:167,1,83.9999974365235,2|0,0:2|0:2,0:2:0:0:
12,261,261523,6,0,L|3:353,1,62.9999980773926,10|0,3:2|0:2,0:2:0:0:
24,255,261695,2,0,L|18:317,1,62.9999980773926,2|0,0:2|0:2,0:2:0:0:
309,371,261866,6,4,P|267:290|109:297,1,262.500010013581,4|4,3:2|0:2,0:2:0:0:
120,301,262380,6,0,P|138:256|133:213,1,52.5000020027161,0|0,3:2|0:2,0:2:0:0:
53,86,262552,1,8,0:2:0:0:
53,86,262723,2,0,B|137:82|104:136|208:140,1,157.500006008148,0|0,3:2|0:2,0:2:0:0:
203,133,263066,6,0,L|228:276,1,125.999996154785,0|0,3:2|0:2,0:2:0:0:
226,268,263409,2,0,L|175:254,1,52.5000020027161,0|0,3:2|0:2,0:2:0:0:
305,181,263580,6,0,P|349:119|425:123,1,157.500006008148,0|0,3:2|0:2,0:2:0:0:
487,177,263923,1,10,0:2:0:0:
484,194,264009,1,10,0:2:0:0:
481,212,264095,1,10,0:2:0:0:
396,208,264266,1,2,0:2:0:0:
396,208,264437,1,2,0:2:0:0:
262,68,264609,6,0,P|216:38|160:38,1,112,6|0,3:2|0:2,0:2:0:0:
30,222,264952,2,0,P|85:221|132:192,1,112,10|0,3:2|0:2,0:2:0:0:
104,110,265295,1,2,3:2:0:0:
249,221,265466,1,2,3:2:0:0:
246,242,265552,1,2,3:2:0:0:
244,264,265637,2,0,L|238:319,1,56,10|0,3:2|0:2,0:2:0:0:
148,355,265809,2,0,L|142:299,1,56,2|0,3:2|0:2,0:2:0:0:
162,203,265980,5,2,3:2:0:0:
162,203,266152,1,2,0:2:0:0:
326,335,266323,2,0,P|381:331|427:301,1,112,10|0,3:2|0:2,0:2:0:0:
344,176,266666,1,2,3:2:0:0:
339,207,266752,1,2,3:2:0:0:
334,236,266837,1,2,3:2:0:0:
221,118,267009,2,0,L|207:33,1,56,10|0,3:2|0:2,0:2:0:0:
334,0,267180,2,0,L|324:55,1,56,2|0,3:2|0:2,0:2:0:0:
234,226,267352,5,2,3:2:0:0:
234,226,267523,1,2,0:2:0:0:
137,85,267695,2,0,P|94:49|40:40,1,112,10|0,3:2|0:2,0:2:0:0:
88,355,268037,2,0,L|108:244,1,112,2|0,3:2|0:2,0:2:0:0:
45,143,268380,1,10,3:2:0:0:
209,322,268552,1,2,0:2:0:0:
209,322,268723,6,0,L|320:309,1,112,2|0,3:2|0:2,0:2:0:0:
504,145,269066,2,0,P|481:129|453:125,1,56,10|0,3:2|0:2,0:2:0:0:
413,200,269237,2,0,P|385:205|363:221,1,56,2|0,3:2|0:2,0:2:0:0:
280,384,269409,1,2,3:2:0:0:
280,384,269495,1,0,3:2:0:0:
263,211,269666,1,2,3:2:0:0:
263,211,269752,1,8,3:2:0:0:
431,286,269923,1,2,3:2:0:0:
318,106,270095,6,0,P|316:51|344:3,1,112,6|0,3:2|0:2,0:2:0:0:
509,161,270437,2,0,P|462:191|406:191,1,112,10|0,3:2|0:2,0:2:0:0:
224,88,270780,1,2,3:2:0:0:
224,88,270952,1,2,0:2:0:0:
110,266,271123,2,0,L|0:245,1,112,10|0,3:2|0:2,0:2:0:0:
194,178,271466,5,2,3:2:0:0:
196,371,271637,2,0,L|277:353,1,56,2|0,3:2|0:2,0:2:0:0:
240,271,271809,2,0,L|321:253,1,56,10|0,3:2|0:2,0:2:0:0:
392,365,271980,1,2,3:2:0:0:
491,193,272152,1,2,3:2:0:0:
459,201,272237,1,2,3:2:0:0:
430,208,272323,1,2,3:2:0:0:
289,87,272495,1,10,3:2:0:0:
456,21,272666,1,2,3:2:0:0:
314,209,272837,6,0,P|291:259|284:314,1,112,2|0,3:2|0:2,0:2:0:0:
35,342,273180,2,0,P|44:316|63:296,1,56,10|0,3:2|0:2,0:2:0:0:
66,210,273352,2,0,P|119:195|172:208,1,112,2|0,0:2|3:2,0:2:0:0:
185,49,273695,2,0,P|233:75|261:122,1,112,2|8,0:2|3:2,0:2:0:0:
390,23,274037,2,0,P|405:76|392:129,1,112,2|0,0:2|3:2,0:2:0:0:
237,335,274380,5,8,0:2:0:0:
237,335,274552,1,8,3:2:0:0:
174,236,274723,1,0,3:2:0:0:
219,216,274809,1,0,3:2:0:0:
271,222,274895,1,8,3:1:0:0:
310,257,274980,1,8,0:1:0:0:
359,278,275066,1,8,0:1:0:0:
414,267,275152,1,8,0:1:0:0:
450,227,275237,6,0,B|463:77|463:77|423:131,1,210,10|0,3:2|0:2,0:2:0:0:
361,196,275580,6,0,L|344:306,1,112,6|0,3:2|0:2,0:2:0:0:
120,89,275923,2,0,L|136:199,1,112,10|0,3:2|0:2,0:2:0:0:
283,86,276266,1,2,3:2:0:0:
283,86,276437,1,2,0:2:0:0:
205,270,276609,2,0,P|157:297|101:294,1,112,10|0,3:2|0:2,0:2:0:0:
27,142,276952,5,2,3:2:0:0:
216,171,277123,1,2,0:2:0:0:
149,14,277295,1,10,3:2:0:0:
108,188,277466,1,2,3:2:0:0:
113,211,277552,1,2,3:2:0:0:
118,237,277637,2,0,L|139:313,1,56,2|0,3:2|0:2,0:2:0:0:
262,326,277809,2,0,L|241:402,1,56,2|0,3:2|0:2,0:2:0:0:
219,229,277980,1,10,3:2:0:0:
219,229,278152,1,2,3:2:0:0:
403,344,278323,6,0,P|456:331|493:290,1,112,2|0,3:2|0:2,0:2:0:0:
369,82,278666,2,0,L|347:216,1,112,10|0,3:2|0:2,0:2:0:0:
82,361,279009,2,0,L|63:250,1,112,2|0,3:2|0:2,0:2:0:0:
216,361,279352,1,10,3:2:0:0:
182,108,279523,5,2,0:2:0:0:
182,108,279695,2,0,L|163:218,1,112,2|0,3:2|0:2,0:2:0:0:
13,106,280037,2,0,L|96:92,1,56,10|0,3:2|0:2,0:2:0:0:
112,9,280209,2,0,L|195:-5,1,56,2|0,3:2|0:2,0:2:0:0:
355,171,280380,1,2,3:2:0:0:
355,171,280466,1,0,3:2:0:0:
182,108,280637,1,2,3:2:0:0:
182,108,280723,1,8,3:2:0:0:
315,0,280895,1,2,3:2:0:0:
242,194,281066,6,0,L|268:331,1,112,6|0,3:2|0:2,0:2:0:0:
488,101,281409,2,0,P|437:81|381:85,1,112,10|0,3:2|0:2,0:2:0:0:
319,248,281752,2,0,L|308:302,1,56,2|0,3:2|0:2,0:2:0:0:
429,373,281923,2,0,L|418:318,1,56,2|0,3:2|0:2,0:2:0:0:
387,174,282095,1,10,3:2:0:0:
387,174,282266,1,2,0:2:0:0:
227,326,282437,6,0,P|166:335|115:305,1,112,2|0,3:2|0:2,0:2:0:0:
218,82,282780,1,10,3:2:0:0:
300,234,282952,1,2,0:2:0:0:
104,160,283123,1,2,3:2:0:0:
78,148,283209,1,2,3:2:0:0:
53,135,283295,2,0,L|64:189,1,56,2|0,3:2|0:2,0:2:0:0:
197,24,283466,2,0,L|185:78,1,56,10|0,3:2|0:2,0:2:0:0:
209,269,283637,1,2,3:2:0:0:
340,90,283809,6,0,P|410:63|487:204,1,262.500010013581,4|0,3:2|0:2,0:2:0:0:
486,211,284323,6,0,P|457:187|426:181,1,52.5000020027161,0|0,3:2|0:2,0:2:0:0:
265,168,284495,1,8,0:2:0:0:
265,168,284666,2,0,B|253:223|253:223|269:262|269:262|254:319,1,157.500006008148,0|0,3:2|0:2,0:2:0:0:
176,357,285009,6,0,P|136:308|62:303,1,115.50000352478,0|0,3:2|0:2,0:2:0:0:
83,309,285352,2,0,P|102:331|114:380,1,52.5000020027161,0|0,3:2|0:2,0:2:0:0:
124,193,285523,6,0,L|148:23,1,157.500006008148,0|0,3:2|0:2,0:2:0:0:
234,36,285866,1,8,0:2:0:0:
250,23,285952,1,0,0:2:0:0:
265,11,286037,1,0,0:2:0:0:
227,125,286209,1,2,0:2:0:0:
227,125,286380,1,2,0:2:0:0:
338,65,286552,6,0,L|419:45,1,83.9999974365235,4|0,3:2|0:2,0:2:0:0:
395,137,286895,2,0,L|466:181,1,83.9999974365235,10|2,3:2|0:2,0:2:0:0:
392,242,287237,2,0,L|411:324,1,83.9999974365235,0|0,3:2|0:2,0:2:0:0:
312,310,287580,2,0,L|267:381,1,83.9999974365235,10|2,3:2|0:2,0:2:0:0:
165,65,287923,6,0,L|83:45,1,83.9999974365235,0|0,3:2|0:2,0:2:0:0:
108,137,288266,2,0,L|36:181,1,83.9999974365235,10|2,3:2|0:2,0:2:0:0:
119,243,288609,1,8,3:1:0:0:
110,284,288695,1,8,0:1:0:0:
100,325,288780,1,8,0:1:0:0:
204,311,288952,2,0,L|248:382,1,83.9999974365235,10|8,3:2|0:1,0:2:0:0:
278,253,289295,6,0,P|319:249|355:228,1,83.9999974365235,0|0,3:2|0:2,0:2:0:0:
408,309,289637,2,0,P|437:280|445:239,1,83.9999974365235,10|2,3:2|0:2,0:2:0:0:
281,111,289980,2,0,P|323:114|359:136,1,83.9999974365235,0|0,3:2|0:2,0:2:0:0:
413,63,290323,2,0,P|442:92|449:133,1,83.9999974365235,10|2,3:2|0:2,0:2:0:0:
234,253,290666,6,0,P|192:249|156:228,1,83.9999974365235,0|0,3:2|0:2,0:2:0:0:
103,309,291009,2,2,P|74:280|66:239,1,83.9999974365235,10|2,3:2|0:2,0:2:0:0:
230,111,291351,1,8,3:1:0:0:
188,114,291436,1,8,0:1:0:0:
153,136,291522,1,8,0:1:0:0:
98,63,291695,2,0,P|69:92|62:133,1,83.9999974365235,10|8,3:2|0:1,0:2:0:0:
300,43,292037,6,0,P|331:7|373:-2,1,83.9999974365235,0|0,3:2|0:2,0:2:0:0:
379,87,292380,2,0,P|426:83|462:106,1,83.9999974365235,10|2,3:2|0:2,0:2:0:0:
400,171,292723,2,0,P|436:202|445:244,1,83.9999974365235,0|0,3:2|0:2,0:2:0:0:
359,247,293066,2,0,P|362:294|339:330,1,83.9999974365235,10|2,3:2|0:2,0:2:0:0:
212,43,293409,6,0,P|181:7|139:-2,1,83.9999974365235,0|0,3:2|0:2,0:2:0:0:
133,87,293752,2,0,P|85:83|49:106,1,83.9999974365235,10|2,3:2|0:2,0:2:0:0:
112,171,294095,1,8,3:1:0:0:
79,196,294180,1,8,0:1:0:0:
66,235,294266,1,8,0:1:0:0:
153,247,294438,2,0,P|149:294|172:330,1,83.9999974365235,10|8,3:2|0:1,0:2:0:0:
319,349,294780,6,0,L|411:303,1,83.9999974365235,0|0,3:2|0:2,0:2:0:0:
193,349,295123,2,0,L|101:303,1,83.9999974365235,10|2,3:2|0:2,0:2:0:0:
374,200,295466,2,0,L|469:239,1,83.9999974365235,0|0,3:2|0:2,0:2:0:0:
138,200,295809,2,0,L|43:239,1,83.9999974365235,10|2,3:2|0:2,0:2:0:0:
319,35,296152,6,0,L|411:81,1,83.9999974365235,0|0,3:2|0:2,0:2:0:0:
193,35,296495,2,0,L|101:81,1,83.9999974365235,10|2,3:2|0:2,0:2:0:0:
374,184,296838,1,8,3:1:0:0:
412,168,296923,1,8,0:1:0:0:
451,152,297009,1,8,0:1:0:0:
153,173,297180,1,8,3:2:0:0:
153,173,297352,1,8,0:2:0:0:
247,78,297523,6,0,L|262:182,1,83.9999974365235,0|0,3:2|0:2,0:2:0:0:
422,238,297866,1,10,3:2:0:0:
421,237,298037,2,0,P|384:220|342:219,2,83.9999974365235,2|0|0,0:2|3:2|0:2,0:2:0:0:
400,379,298552,1,10,3:2:0:0:
399,378,298723,2,0,P|384:338|355:309,2,83.9999974365235,2|0|0,0:2|3:2|0:2,0:2:0:0:
199,354,299237,5,10,3:2:0:0:
295,380,299409,1,2,0:2:0:0:
274,255,299580,1,8,3:1:0:0:
269,271,299666,1,8,0:1:0:0:
262,288,299752,1,8,0:1:0:0:
160,318,299923,2,0,P|104:291|50:291,1,83.9999974365235,10|8,3:2|0:1,0:2:0:0:
69,110,300266,6,0,L|86:192,1,83.9999974365235,0|0,3:2|0:2,0:2:0:0:
170,24,300609,2,0,L|187:106,1,83.9999974365235,10|2,3:2|0:2,0:2:0:0:
346,24,300952,2,0,L|328:106,1,83.9999974365235,0|0,3:2|0:2,0:2:0:0:
447,110,301295,2,0,L|429:192,1,83.9999974365235,10|2,3:2|0:2,0:2:0:0:
447,274,301637,6,0,L|429:191,1,83.9999974365235,0|0,3:2|0:2,0:2:0:0:
346,360,301980,2,0,L|328:277,1,83.9999974365235,10|2,3:2|0:2,0:2:0:0:
170,360,302323,1,8,3:1:0:0:
178,318,302408,1,8,0:1:0:0:
187,277,302494,1,8,0:1:0:0:
69,274,302666,2,0,L|86:191,1,83.9999974365235,10|8,3:2|0:1,0:2:0:0:
146,35,303009,6,0,P|191:59|213:99,1,83.9999974365235,0|0,3:2|0:2,0:2:0:0:
186,181,303352,1,10,3:2:0:0:
186,181,303523,2,0,L|206:282,2,83.9999974365235,2|0|0,0:2|3:2|0:2,0:2:0:0:
307,259,304037,1,10,3:2:0:0:
307,259,304209,2,0,L|287:360,2,83.9999974365235,2|0|0,0:2|3:2|0:2,0:2:0:0:
463,209,304723,5,10,3:2:0:0:
369,181,304895,1,2,0:2:0:0:
388,312,305066,1,8,3:1:0:0:
393,290,305152,1,8,0:1:0:0:
396,269,305237,1,8,0:1:0:0:
431,114,305409,2,0,P|395:92|353:92,1,83.9999974365235,10|8,3:2|0:1,0:2:0:0:
255,109,305752,5,8,3:1:0:0:
253,125,305837,1,8,0:1:0:0:
251,141,305923,1,8,0:1:0:0:
249,157,306009,1,8,0:1:0:0:
247,173,306095,1,8,3:2:0:0:
245,189,306180,1,8,0:1:0:0:
243,205,306266,1,8,0:1:0:0:
241,221,306352,1,8,0:1:0:0:
240,237,306437,1,8,3:1:0:0:
238,253,306523,1,8,0:1:0:0:
235,269,306609,1,8,0:1:0:0:
233,285,306695,1,8,0:1:0:0:
231,301,306780,1,8,3:2:0:0:
229,317,306866,1,8,0:1:0:0:
227,337,306952,2,0,L|212:269,1,41.9999987182618,8|8,0:1|0:1,0:2:0:0:
107,210,307123,5,8,3:1:0:0:
80,177,307209,1,8,0:1:0:0:
86,135,307295,1,8,0:1:0:0:
116,106,307380,1,8,0:1:0:0:
157,111,307466,1,8,3:1:0:0:
186,138,307552,1,8,0:1:0:0:
225,152,307637,1,8,0:1:0:0:
266,147,307723,1,8,0:1:0:0:
297,118,307809,5,8,3:1:0:0:
238,0,307980,2,0,L|229:69,2,70,0|0|0,3:2|0:2|3:2,0:2:0:0:
169,153,308495,5,6,0:0:0:0:
