osu file format v14

[General]
AudioFilename: audio.mp3
AudioLeadIn: 0
PreviewTime:102522
Countdown: 0
SampleSet: Normal
StackLeniency: 0.7
Mode: 1
LetterboxInBreaks: 0
WidescreenStoryboard: 1

[Editor]
Bookmarks: 25822,51422,77022,89822,102622,128222
DistanceSpacing: 3.4
BeatDivisor: 6
GridSize: 32
TimelineZoom: 2.599999

[Metadata]
Title:Open Your Heart (feat. Renko) (Cut Ver.)
TitleUnicode:Open Your Heart (feat. Renko) (Cut Ver.)
Artist:rejection
ArtistUnicode:rejection
Creator:Hivie
Version:Capu's Muzukashii
Source:
Tags:electronic ENGLISH dance edm dnb drum and & bass capu spd gar 003 megarex
BeatmapID:2991013
BeatmapSetID:1443296

[Difficulty]
HPDrainRate:6
CircleSize:2
OverallDifficulty:5
ApproachRate:10
SliderMultiplier:1.4
SliderTickRate:1

[Events]
//Background and Video events
0,0,"oral cig woman.jpg",0,0
//Break Periods
2,422,5772
2,6822,9372
//Storyboard Layer 0 (Background)
//Storyboard Layer 1 (Fail)
//Storyboard Layer 2 (Pass)
//Storyboard Layer 3 (Foreground)
//Storyboard Layer 4 (Overlay)
//Storyboard Sound Samples

[TimingPoints]
222,400,4,1,0,100,1,0
77022,-100,4,1,0,100,0,1
86022,-100,4,1,0,100,0,0
86622,-100,4,1,0,100,0,1
89022,-100,4,1,0,100,0,0
89822,-100,4,1,0,100,0,1
90222,-100,4,1,0,100,0,0
102622,-100,4,1,0,100,0,1
115022,-100,4,1,0,100,0,0
115422,-100,4,1,0,100,0,1
128222,-100,4,1,0,100,0,0

[HitObjects]
256,192,222,5,4,0:0:0:0:
256,192,6222,5,0,0:0:0:0:
256,192,6622,5,4,0:0:0:0:
256,192,9822,5,8,0:0:0:0:
256,192,10222,1,0,0:0:0:0:
256,192,10622,1,8,0:0:0:0:
256,192,11022,1,0,0:0:0:0:
256,192,11422,1,8,0:0:0:0:
256,192,11622,1,0,0:0:0:0:
256,192,11722,1,0,0:0:0:0:
256,192,11822,1,0,0:0:0:0:
256,192,12022,1,0,0:0:0:0:
256,192,12355,1,8,0:0:0:0:
256,192,12622,1,8,0:0:0:0:
256,192,12822,1,0,0:0:0:0:
256,192,13022,1,12,0:0:0:0:
256,192,13422,1,8,0:0:0:0:
256,192,13722,1,8,0:0:0:0:
256,192,14022,1,0,0:0:0:0:
256,192,14222,1,8,0:0:0:0:
256,192,14622,1,0,0:0:0:0:
256,192,15022,1,8,0:0:0:0:
256,192,15322,1,8,0:0:0:0:
256,192,15622,1,0,0:0:0:0:
256,192,15822,1,8,0:0:0:0:
256,192,16022,1,0,0:0:0:0:
256,192,16222,1,0,0:0:0:0:
256,192,16622,1,8,0:0:0:0:
256,192,16922,1,8,0:0:0:0:
256,192,17222,1,0,0:0:0:0:
256,192,17422,1,8,0:0:0:0:
256,192,17822,1,0,0:0:0:0:
256,192,18222,1,0,0:0:0:0:
256,192,18522,1,8,0:0:0:0:
256,192,18622,1,0,0:0:0:0:
256,192,18822,1,8,0:0:0:0:
256,192,19022,1,0,0:0:0:0:
256,192,19422,1,12,0:0:0:0:
256,192,19822,1,8,0:0:0:0:
256,192,20122,1,8,0:0:0:0:
256,192,20422,1,0,0:0:0:0:
256,192,20622,1,8,0:0:0:0:
256,192,21022,1,0,0:0:0:0:
256,192,21422,1,8,0:0:0:0:
256,192,21722,1,8,0:0:0:0:
256,192,22022,1,0,0:0:0:0:
256,192,22222,1,8,0:0:0:0:
256,192,22622,1,4,0:0:0:0:
256,192,23022,1,0,0:0:0:0:
256,192,23322,1,8,0:0:0:0:
256,192,23422,1,0,0:0:0:0:
256,192,23822,1,0,0:0:0:0:
256,192,24222,1,4,0:0:0:0:
256,192,24422,1,0,0:0:0:0:
256,192,24622,1,0,0:0:0:0:
256,192,24822,1,0,0:0:0:0:
256,192,24922,1,8,0:0:0:0:
256,192,25155,1,8,0:0:0:0:
256,192,25422,1,8,0:0:0:0:
256,192,25822,1,12,0:0:0:0:
256,192,26222,1,8,0:0:0:0:
256,192,26322,1,0,0:0:0:0:
256,192,26522,1,0,0:0:0:0:
256,192,26822,1,0,0:0:0:0:
256,192,27022,1,8,0:0:0:0:
256,192,27422,1,0,0:0:0:0:
256,192,27622,1,0,0:0:0:0:
256,192,27822,1,8,0:0:0:0:
256,192,27922,1,0,0:0:0:0:
256,192,28122,1,8,0:0:0:0:
256,192,28422,1,0,0:0:0:0:
256,192,28622,1,8,0:0:0:0:
256,192,29022,1,12,0:0:0:0:
256,192,29422,1,8,0:0:0:0:
256,192,29522,1,0,0:0:0:0:
256,192,29722,1,8,0:0:0:0:
256,192,30022,1,0,0:0:0:0:
256,192,30222,1,8,0:0:0:0:
256,192,30622,1,12,0:0:0:0:
256,192,30822,1,0,0:0:0:0:
256,192,31022,1,8,0:0:0:0:
256,192,31122,1,0,0:0:0:0:
256,192,31322,1,8,0:0:0:0:
256,192,31622,1,0,0:0:0:0:
256,192,31822,1,8,0:0:0:0:
256,192,32022,1,0,0:0:0:0:
256,192,32222,1,12,0:0:0:0:
256,192,32622,1,0,0:0:0:0:
256,192,32722,1,8,0:0:0:0:
256,192,32922,1,8,0:0:0:0:
256,192,33222,1,0,0:0:0:0:
256,192,33422,1,8,0:0:0:0:
256,192,33822,1,0,0:0:0:0:
256,192,34022,1,0,0:0:0:0:
256,192,34222,1,0,0:0:0:0:
256,192,34322,1,8,0:0:0:0:
256,192,34522,1,8,0:0:0:0:
256,192,34822,1,0,0:0:0:0:
256,192,35022,1,8,0:0:0:0:
256,192,35422,1,0,0:0:0:0:
256,192,35822,1,0,0:0:0:0:
256,192,36022,1,8,0:0:0:0:
256,192,36222,1,0,0:0:0:0:
256,192,36622,1,0,0:0:0:0:
256,192,36822,1,8,0:0:0:0:
256,192,37022,1,12,0:0:0:0:
256,192,37222,1,0,0:0:0:0:
256,192,37422,1,0,0:0:0:0:
256,192,37822,1,8,0:0:0:0:
256,192,37922,1,8,0:0:0:0:
256,192,38022,1,8,0:0:0:0:
256,192,38222,1,8,0:0:0:0:
256,192,38422,1,0,0:0:0:0:
256,192,38622,1,8,0:0:0:0:
256,192,39022,1,8,0:0:0:0:
256,192,39122,1,8,0:0:0:0:
256,192,39322,1,8,0:0:0:0:
256,192,39622,1,0,0:0:0:0:
256,192,39822,1,8,0:0:0:0:
256,192,40222,1,0,0:0:0:0:
256,192,40422,1,0,0:0:0:0:
256,192,40622,1,8,0:0:0:0:
256,192,40722,1,0,0:0:0:0:
256,192,40922,1,0,0:0:0:0:
256,192,41222,1,0,0:0:0:0:
256,192,41422,1,8,0:0:0:0:
256,192,41822,1,4,0:0:0:0:
256,192,42222,1,8,0:0:0:0:
256,192,42322,1,0,0:0:0:0:
256,192,42522,1,8,0:0:0:0:
256,192,42822,1,0,0:0:0:0:
256,192,43022,1,8,0:0:0:0:
256,192,43422,1,12,0:0:0:0:
256,192,43622,1,0,0:0:0:0:
256,192,43822,1,8,0:0:0:0:
256,192,44122,1,8,0:0:0:0:
256,192,44322,1,8,0:0:0:0:
256,192,44422,1,0,0:0:0:0:
256,192,44622,1,8,0:0:0:0:
256,192,44822,1,8,0:0:0:0:
256,192,45022,1,4,0:0:0:0:
256,192,45422,1,8,0:0:0:0:
256,192,45522,1,0,0:0:0:0:
256,192,45722,1,0,0:0:0:0:
256,192,46022,1,0,0:0:0:0:
256,192,46222,1,8,0:0:0:0:
256,192,46622,1,0,0:0:0:0:
256,192,46822,1,0,0:0:0:0:
256,192,47022,1,8,0:0:0:0:
256,192,47122,1,0,0:0:0:0:
256,192,47322,1,8,0:0:0:0:
256,192,47622,1,0,0:0:0:0:
256,192,47822,1,8,0:0:0:0:
256,192,48222,1,12,0:0:0:0:
256,192,48622,1,8,0:0:0:0:
256,192,49022,1,0,0:0:0:0:
256,192,49422,1,0,0:0:0:0:
256,192,49822,1,8,0:0:0:0:
256,192,50022,1,0,0:0:0:0:
256,192,50222,1,8,0:0:0:0:
256,192,50422,1,0,0:0:0:0:
256,192,50822,1,0,0:0:0:0:
256,192,51422,1,4,0:0:0:0:
256,192,51822,1,8,0:0:0:0:
256,192,52122,1,8,0:0:0:0:
256,192,52622,1,8,0:0:0:0:
256,192,53422,1,8,0:0:0:0:
256,192,53722,1,8,0:0:0:0:
256,192,54222,1,8,0:0:0:0:
256,192,55022,1,8,0:0:0:0:
256,192,55322,1,8,0:0:0:0:
256,192,55822,1,8,0:0:0:0:
256,192,56622,1,8,0:0:0:0:
256,192,56922,1,8,0:0:0:0:
256,192,57422,1,8,0:0:0:0:
256,192,57822,1,0,0:0:0:0:
256,192,58222,1,8,0:0:0:0:
256,192,58522,1,8,0:0:0:0:
256,192,59022,1,8,0:0:0:0:
256,192,59822,1,8,0:0:0:0:
256,192,60122,1,8,0:0:0:0:
256,192,60622,1,8,0:0:0:0:
256,192,61422,1,8,0:0:0:0:
256,192,61722,1,8,0:0:0:0:
256,192,62222,1,8,0:0:0:0:
256,192,63022,1,8,0:0:0:0:
256,192,63322,1,8,0:0:0:0:
256,192,63822,1,8,0:0:0:0:
256,192,64222,1,4,0:0:0:0:
256,192,64622,1,8,0:0:0:0:
256,192,64922,1,8,0:0:0:0:
256,192,65222,1,0,0:0:0:0:
256,192,65422,1,8,0:0:0:0:
256,192,65822,1,0,0:0:0:0:
256,192,66022,1,0,0:0:0:0:
256,192,66222,1,8,0:0:0:0:
256,192,66522,1,8,0:0:0:0:
256,192,66822,1,0,0:0:0:0:
256,192,67022,1,8,0:0:0:0:
256,192,67422,1,0,0:0:0:0:
256,192,67822,1,8,0:0:0:0:
256,192,68122,1,8,0:0:0:0:
256,192,68422,1,0,0:0:0:0:
256,192,68622,1,8,0:0:0:0:
256,192,69022,1,0,0:0:0:0:
256,192,69222,1,0,0:0:0:0:
256,192,69422,1,8,0:0:0:0:
256,192,69722,1,8,0:0:0:0:
256,192,70022,1,0,0:0:0:0:
256,192,70222,1,8,0:0:0:0:
256,192,70622,1,0,0:0:0:0:
256,192,71022,1,0,0:0:0:0:
256,192,71322,1,8,0:0:0:0:
256,192,71422,1,0,0:0:0:0:
256,192,71822,1,0,0:0:0:0:
256,192,72222,1,0,0:0:0:0:
256,192,72622,1,0,0:0:0:0:
256,192,72922,1,8,0:0:0:0:
256,192,73022,1,0,0:0:0:0:
256,192,73422,1,0,0:0:0:0:
256,192,73822,1,8,0:0:0:0:
256,192,74022,1,0,0:0:0:0:
256,192,74222,1,0,0:0:0:0:
256,192,74422,1,0,0:0:0:0:
256,192,74622,1,8,0:0:0:0:
256,192,74822,1,8,0:0:0:0:
256,192,74922,1,8,0:0:0:0:
256,192,75022,1,8,0:0:0:0:
256,192,75222,1,8,0:0:0:0:
256,192,76222,12,0,76622,0:0:0:0:
256,192,77022,5,12,0:0:0:0:
256,192,77422,1,8,0:0:0:0:
256,192,77555,1,8,0:0:0:0:
256,192,77755,1,8,0:0:0:0:
256,192,78022,1,0,0:0:0:0:
256,192,78222,1,0,0:0:0:0:
256,192,78422,1,8,0:0:0:0:
256,192,78622,1,12,0:0:0:0:
256,192,78822,1,0,0:0:0:0:
256,192,79222,1,12,0:0:0:0:
256,192,79622,1,0,0:0:0:0:
256,192,80222,1,12,0:0:0:0:
256,192,80422,1,8,0:0:0:0:
256,192,80622,1,0,0:0:0:0:
256,192,80822,1,0,0:0:0:0:
256,192,80955,1,8,0:0:0:0:
256,192,81222,1,8,0:0:0:0:
256,192,81422,1,0,0:0:0:0:
256,192,81622,1,8,0:0:0:0:
256,192,81822,1,12,0:0:0:0:
256,192,82022,1,0,0:0:0:0:
256,192,82222,1,8,0:0:0:0:
256,192,82422,1,8,0:0:0:0:
256,192,82555,1,0,0:0:0:0:
256,192,82755,1,0,0:0:0:0:
256,192,83022,1,8,0:0:0:0:
256,192,83222,1,0,0:0:0:0:
256,192,83422,1,12,0:0:0:0:
256,224,83822,1,8,0:0:0:0:
256,192,83955,1,8,0:0:0:0:
256,224,84155,1,0,0:0:0:0:
256,224,84422,1,8,0:0:0:0:
256,224,84622,1,0,0:0:0:0:
256,224,84822,1,8,0:0:0:0:
256,224,85022,1,12,0:0:0:0:
256,224,85222,1,0,0:0:0:0:
256,224,85422,1,0,0:0:0:0:
256,224,85622,1,8,0:0:0:0:
256,224,85755,1,0,0:0:0:0:
256,224,86022,1,0,0:0:0:0:
256,224,86622,1,12,0:0:0:0:
256,224,87022,1,12,0:0:0:0:
256,224,87422,1,12,0:0:0:0:
256,224,87822,1,12,0:0:0:0:
256,224,88222,1,12,0:0:0:0:
256,224,88422,1,0,0:0:0:0:
256,224,88622,1,8,0:0:0:0:
256,224,88822,1,0,0:0:0:0:
256,224,89222,1,8,0:0:0:0:
256,224,89422,1,0,0:0:0:0:
256,224,89522,1,0,0:0:0:0:
256,224,89622,1,0,0:0:0:0:
256,224,89822,1,12,0:0:0:0:
256,224,90222,1,0,0:0:0:0:
256,224,90322,1,0,0:0:0:0:
256,224,90522,1,8,0:0:0:0:
256,224,90822,1,8,0:0:0:0:
256,224,91022,1,0,0:0:0:0:
256,224,91222,1,8,0:0:0:0:
256,224,91422,1,8,0:0:0:0:
256,224,91822,1,8,0:0:0:0:
256,224,91922,1,0,0:0:0:0:
256,224,92122,1,8,0:0:0:0:
256,224,92422,1,0,0:0:0:0:
256,224,92622,1,8,0:0:0:0:
256,224,93022,1,12,0:0:0:0:
256,224,93222,1,0,0:0:0:0:
256,224,93422,1,0,0:0:0:0:
256,224,93622,1,8,0:0:0:0:
256,224,94022,1,8,0:0:0:0:
256,224,94222,1,0,0:0:0:0:
256,224,94422,1,8,0:0:0:0:
256,224,94822,1,0,0:0:0:0:
256,224,95022,1,0,0:0:0:0:
256,224,95222,1,8,0:0:0:0:
256,224,95622,1,8,0:0:0:0:
256,224,95822,1,0,0:0:0:0:
256,224,96022,1,8,0:0:0:0:
256,224,96222,1,12,0:0:0:0:
256,224,96622,1,0,0:0:0:0:
256,224,96722,1,8,0:0:0:0:
256,224,96922,1,8,0:0:0:0:
256,224,97222,1,0,0:0:0:0:
256,224,97422,1,0,0:0:0:0:
256,224,97622,1,8,0:0:0:0:
256,224,97822,1,8,0:0:0:0:
256,224,98222,1,8,0:0:0:0:
256,224,98322,1,0,0:0:0:0:
256,224,98522,1,8,0:0:0:0:
256,224,98822,1,0,0:0:0:0:
256,224,99022,1,8,0:0:0:0:
256,224,99222,1,8,0:0:0:0:
256,224,99422,1,0,0:0:0:0:
256,224,99822,1,0,0:0:0:0:
256,224,100022,1,0,0:0:0:0:
256,224,100222,1,8,0:0:0:0:
256,224,100422,1,0,0:0:0:0:
256,224,100622,1,8,0:0:0:0:
256,192,101022,12,0,101822,0:0:0:0:
256,192,102022,5,0,0:0:0:0:
256,192,102222,1,8,0:0:0:0:
256,192,102622,1,4,0:0:0:0:
256,192,103022,1,8,0:0:0:0:
256,192,103222,1,0,0:0:0:0:
256,192,103322,1,8,0:0:0:0:
256,192,103622,1,0,0:0:0:0:
256,192,103822,1,8,0:0:0:0:
256,192,104022,1,8,0:0:0:0:
256,192,104222,1,0,0:0:0:0:
256,192,104422,1,0,0:0:0:0:
256,192,104622,1,8,0:0:0:0:
256,192,104922,1,8,0:0:0:0:
256,192,105122,1,8,0:0:0:0:
256,192,105222,1,0,0:0:0:0:
256,192,105422,1,8,0:0:0:0:
256,192,105822,1,4,0:0:0:0:
256,192,106222,1,8,0:0:0:0:
256,192,106422,1,0,0:0:0:0:
256,192,106522,1,8,0:0:0:0:
256,192,106822,1,0,0:0:0:0:
256,192,107022,1,8,0:0:0:0:
256,192,107222,1,8,0:0:0:0:
256,192,107422,1,0,0:0:0:0:
256,192,107822,1,0,0:0:0:0:
256,192,108022,1,8,0:0:0:0:
256,192,108222,1,0,0:0:0:0:
256,192,108422,1,8,0:0:0:0:
256,192,108622,1,0,0:0:0:0:
256,192,108822,1,8,0:0:0:0:
256,192,109022,1,0,0:0:0:0:
256,192,109422,1,8,0:0:0:0:
256,192,109622,1,0,0:0:0:0:
256,192,109722,1,8,0:0:0:0:
256,192,110022,1,0,0:0:0:0:
256,192,110222,1,8,0:0:0:0:
256,192,110422,1,8,0:0:0:0:
256,192,110622,1,0,0:0:0:0:
256,192,110822,1,0,0:0:0:0:
256,192,111022,1,8,0:0:0:0:
256,192,111322,1,8,0:0:0:0:
256,192,111555,1,0,0:0:0:0:
256,192,111622,1,8,0:0:0:0:
256,192,111822,1,8,0:0:0:0:
256,192,112222,1,0,0:0:0:0:
256,192,112622,1,0,0:0:0:0:
256,192,112822,1,8,0:0:0:0:
256,192,113022,1,0,0:0:0:0:
256,192,113422,1,0,0:0:0:0:
256,192,113622,1,8,0:0:0:0:
256,192,113822,1,0,0:0:0:0:
256,192,114022,1,0,0:0:0:0:
256,192,114222,1,0,0:0:0:0:
256,192,114422,1,0,0:0:0:0:
256,192,114822,1,0,0:0:0:0:
256,192,115022,1,8,0:0:0:0:
256,192,115422,1,12,0:0:0:0:
256,192,115822,1,0,0:0:0:0:
256,192,116022,1,8,0:0:0:0:
256,192,116222,1,0,0:0:0:0:
256,192,116622,1,0,0:0:0:0:
256,192,116822,1,8,0:0:0:0:
256,192,117022,1,8,0:0:0:0:
256,192,117222,1,0,0:0:0:0:
256,192,117422,1,8,0:0:0:0:
256,192,117622,1,8,0:0:0:0:
256,192,117822,1,0,0:0:0:0:
256,192,118022,1,8,0:0:0:0:
256,192,118222,1,0,0:0:0:0:
256,192,118622,1,0,0:0:0:0:
256,192,118822,1,0,0:0:0:0:
256,192,119022,1,0,0:0:0:0:
256,192,119222,1,8,0:0:0:0:
256,192,119422,1,8,0:0:0:0:
256,192,119822,1,0,0:0:0:0:
256,192,120022,1,8,0:0:0:0:
256,192,120222,1,0,0:0:0:0:
256,192,120422,1,8,0:0:0:0:
256,192,120622,1,8,0:0:0:0:
256,192,120822,1,8,0:0:0:0:
256,192,121022,1,0,0:0:0:0:
256,192,121222,1,0,0:0:0:0:
256,192,121422,1,8,0:0:0:0:
256,192,121822,1,0,0:0:0:0:
256,192,122222,1,8,0:0:0:0:
256,192,122422,1,8,0:0:0:0:
256,192,122622,1,0,0:0:0:0:
256,192,123022,1,8,0:0:0:0:
256,192,123222,1,0,0:0:0:0:
256,192,123422,1,8,0:0:0:0:
256,192,123622,1,8,0:0:0:0:
256,192,123822,1,0,0:0:0:0:
256,192,124022,1,0,0:0:0:0:
256,192,124222,1,8,0:0:0:0:
256,192,124622,1,0,0:0:0:0:
256,192,125022,1,8,0:0:0:0:
256,192,125222,1,8,0:0:0:0:
256,192,125422,1,0,0:0:0:0:
256,192,125822,1,8,0:0:0:0:
256,192,126222,1,0,0:0:0:0:
256,192,126422,1,8,0:0:0:0:
256,192,126622,1,0,0:0:0:0:
256,192,126822,1,0,0:0:0:0:
256,192,127022,1,0,0:0:0:0:
256,192,127222,1,0,0:0:0:0:
256,192,127622,1,8,0:0:0:0:
256,192,127722,1,8,0:0:0:0:
256,192,127822,1,8,0:0:0:0:
256,192,127922,1,8,0:0:0:0:
256,192,128022,1,8,0:0:0:0:
256,192,128222,1,4,0:0:0:0:
