osu file format v14

[General]
AudioFilename: audio.mp3
AudioLeadIn: 0
PreviewTime: 61067
Countdown: 0
SampleSet: Soft
StackLeniency: 0.8
Mode: 0
LetterboxInBreaks: 0
WidescreenStoryboard: 1

[Editor]
Bookmarks: 31185,46185,61185,76185,91185,106185,121185,136185,151185,166185,181185,189153,196185,211185
DistanceSpacing: 1
BeatDivisor: 4
GridSize: 16
TimelineZoom: 1.3

[Metadata]
Title:Invisible Scars feat. mami
TitleUnicode:Invisible Scars feat. mami
Artist:rejection
ArtistUnicode:rejection
Creator:Hinsvar
Version:Normal
Source:
Tags:Müte Mute MEGAREX ネオンストライド002 NEON STRIDE 002 Japanese Electronic EDM Dance Music Future House Featured Artist FA Mappers' Guild MG MPG
BeatmapID:3897913
BeatmapSetID:1890060

[Difficulty]
HPDrainRate:3
CircleSize:3
OverallDifficulty:3.5
ApproachRate:5
SliderMultiplier:1.28
SliderTickRate:1

[Events]
//Background and Video events
0,0,"BG.jpg",0,0
//Break Periods
2,136385,149047
//Storyboard Layer 0 (Background)
//Storyboard Layer 1 (Fail)
//Storyboard Layer 2 (Pass)
//Storyboard Layer 3 (Foreground)
//Storyboard Layer 4 (Overlay)
//Storyboard Sound Samples

[TimingPoints]
1185,468.75,4,2,1,50,1,0
31185,-111.111111111111,4,2,1,50,0,0
46185,-100,4,2,1,60,0,0
60716,-100,4,2,1,70,0,0
67981,-100,4,2,1,75,0,0
75247,-100,4,2,1,65,0,0
76185,-100,4,2,1,75,0,0
76653,-90.9090909090909,4,2,1,85,0,1
83685,-90.9090909090909,4,2,1,75,0,0
84153,-90.9090909090909,4,2,1,85,0,1
89310,-90.9090909090909,4,2,1,75,0,0
91653,-90.9090909090909,4,2,1,85,0,1
98685,-90.9090909090909,4,2,1,75,0,0
99153,-90.9090909090909,4,2,1,85,0,1
104310,-100,4,2,1,60,0,0
105481,-100,4,2,1,50,0,0
105716,-100,4,2,1,55,0,0
105950,-100,4,2,1,60,0,0
151185,-100,4,2,1,70,0,0
157981,-100,4,2,1,75,0,0
165247,-100,4,2,1,65,0,0
166185,-100,4,2,1,75,0,0
166653,-90.9090909090909,4,2,1,85,0,1
173685,-90.9090909090909,4,2,1,75,0,0
174153,-90.9090909090909,4,2,1,85,0,1
179310,-90.9090909090909,4,2,1,75,0,0
181653,-90.9090909090909,4,2,1,85,0,1
188685,-90.9090909090909,4,2,1,75,0,0
189153,-90.9090909090909,4,2,1,85,0,1
194310,-100,4,2,1,70,0,0
196185,-100,4,2,1,60,0,0
196653,-100,4,2,1,70,0,1
196770,-100,4,2,1,70,0,0
203685,-100,4,2,1,60,0,0
204153,-100,4,2,1,70,0,0
209310,-100,4,2,1,60,0,0
211185,-100,4,2,1,50,0,0

[Colours]
Combo1 : 250,52,156
Combo2 : 18,203,218
Combo3 : 163,147,219
Combo4 : 100,117,232

[HitObjects]
199,80,31185,5,4,3:2:0:0:
268,256,31888,2,0,L|281:323,2,57.5999982421876,2|2|2,0:0|0:0|0:0,0:0:0:0:
323,234,32591,1,8,0:0:0:0:
323,234,32825,2,0,P|382:233|426:186,1,115.199996484375,2|0,0:0|0:0,0:0:0:0:
375,90,33763,2,0,P|316:91|272:138,1,115.199996484375,2|0,0:0|0:0,0:0:0:0:
240,173,34466,1,10,0:0:0:0:
240,173,34700,6,0,B|180:188|118:122|64:135,1,172.799994726563,2|8,0:0|0:0,0:0:0:0:
11,231,35872,1,2,0:0:0:0:
11,231,36106,1,2,0:0:0:0:
73,327,36575,2,0,P|104:304|120:216,1,115.199996484375,2|0,0:0|0:0,0:0:0:0:
76,127,37513,2,0,P|99:96|187:80,1,115.199996484375,2|0,0:0|0:0,0:0:0:0:
271,20,38450,6,0,B|339:23|374:86|454:92,1,172.799994726563,2|8,0:0|0:0,0:0:0:0:
446,201,39622,2,0,P|447:238|460:281,2,57.5999982421876,2|2|2,0:0|0:0|0:0,0:0:0:0:
389,191,40325,2,0,L|255:206,1,115.199996484375,2|0,0:0|0:0,0:0:0:0:
237,313,41263,2,0,L|371:328,1,115.199996484375,2|0,0:0|0:0,0:0:0:0:
398,368,41966,1,10,0:0:0:0:
398,368,42200,6,0,B|413:317|380:251|397:181,1,172.799994726563,2|8,0:0|0:0,0:0:0:0:
306,121,43372,2,0,P|282:93|286:53,1,57.5999982421876,2|2,0:0|0:0,0:0:0:0:
318,31,43841,1,10,0:0:0:0:
318,31,44075,2,0,P|389:49|418:96,1,115.199996484375,2|0,0:0|0:0,0:0:0:0:
494,161,45013,2,0,P|475:232|429:261,1,115.199996484375,2|0,0:0|0:0,0:0:0:0:
335,280,45950,1,2,0:0:0:0:
335,280,46185,6,0,P|256:259|225:208,1,128,4|8,3:2|0:0,0:0:0:0:
168,241,46888,2,0,L|149:96,1,128,2|0,0:0|3:0,0:0:0:0:
219,116,47591,1,10,0:0:0:0:
219,116,47825,2,0,P|198:37|147:6,1,128,2|0,0:0|0:0,0:0:0:0:
42,53,48763,1,2,0:0:0:0:
56,179,49231,2,0,P|49:213|36:244,2,64,0|10|0,3:0|0:0|0:0,0:0:0:0:
114,152,49935,6,0,P|173:174|234:139,1,128,0|8,3:0|0:0,0:0:0:0:
325,63,50872,1,2,0:0:0:0:
325,63,51106,2,0,P|353:62|388:77,1,64,2|8,3:2|0:0,0:0:0:0:
447,57,51575,2,0,L|467:184,1,128,2|0,0:0|0:0,0:0:0:0:
396,290,52513,2,0,L|343:172,1,128,2|0,0:0|3:0,0:0:0:0:
285,147,53216,2,0,L|218:143,1,64,10|0,0:0|0:0,0:0:0:0:
166,110,53685,6,0,L|113:227,1,128,0|8,3:0|0:0,0:0:0:0:
137,357,54622,1,2,0:0:0:0:
137,357,54856,2,0,P|169:341|209:343,1,64,2|10,3:2|0:0,0:0:0:0:
236,290,55325,2,0,P|300:322|380:318,1,128,2|0,0:0|0:0,0:0:0:0:
473,274,56263,1,2,0:0:0:0:
507,151,56731,2,0,L|495:86,1,64,0|8,3:0|0:0,0:0:0:0:
438,57,57200,6,0,P|374:25|294:29,1,128,2|0,0:0|0:0,0:0:0:0:
258,50,57903,1,8,0:0:0:0:
258,50,58138,1,2,0:0:0:0:
249,177,58606,2,0,L|270:245,2,64,0|10|0,3:0|0:0|0:0,0:0:0:0:
186,161,59310,6,0,P|126:193|118:253,1,128,0|8,3:0|0:0,0:0:0:0:
120,315,60013,1,2,0:0:0:0:
120,315,60247,2,0,L|40:326,1,64,0|0,1:0|1:0,0:0:0:0:
11,278,60716,2,0,L|0:198,1,64,0|0,1:0|1:0,0:0:0:0:
48,169,61185,5,8,0:0:0:0:
161,226,61653,2,0,P|169:185|172:124,2,96,8|2|2,0:0|0:0|0:0,0:0:0:0:
251,316,62825,1,2,0:0:0:0:
251,316,63060,2,0,P|281:304|315:307,1,64,8|2,0:0|0:0,0:0:0:0:
353,257,63528,2,0,P|399:276|461:274,2,96,8|2|2,0:0|0:0|0:0,0:0:0:0:
314,205,64466,2,0,L|308:138,1,64,8|2,0:0|0:0,0:0:0:0:
284,81,64935,5,8,0:0:0:0:
409,105,65403,2,0,P|434:63|474:25,2,96,8|0|2,0:0|0:0|0:0,0:0:0:0:
460,142,66341,1,8,0:0:0:0:
413,261,66810,2,0,L|484:271,2,64,8|2|8,0:0|0:0|0:0,0:0:0:0:
363,220,67513,2,0,L|286:230,1,64,8|0,3:0|1:0,0:0:0:0:
247,264,67981,1,8,1:2:0:0:
210,211,68216,1,8,1:2:0:0:
82,198,68685,6,0,P|61:258|62:341,1,128,4|0,1:2|1:0,0:0:0:0:
111,368,69388,1,0,1:0:0:0:
111,368,69622,2,0,P|173:356|244:313,1,128,0|0,1:0|1:0,0:0:0:0:
261,271,70325,1,0,1:0:0:0:
261,271,70560,5,4,1:2:0:0:
369,204,71028,2,0,L|363:130,2,64,0|0|0,1:0|1:0|1:0,0:0:0:0:
436,220,71731,1,0,1:0:0:0:
436,220,71966,1,0,1:0:0:0:
499,329,72435,6,0,P|468:343|432:339,1,64,4|0,1:2|1:0,0:0:0:0:
385,305,72903,2,0,P|351:301|321:280,1,64,0|0,1:0|1:0,0:0:0:0:
298,227,73372,2,0,P|270:207|255:173,1,64,0|0,1:0|1:0,0:0:0:0:
269,125,73841,1,0,1:0:0:0:
269,125,74075,1,0,1:0:0:0:
24,21,75247,5,0,1:0:0:0:
140,73,75716,1,0,3:0:0:0:
36,147,76185,1,2,3:2:0:0:
107,267,76653,6,0,P|90:315|89:374,2,105.600003222656,14|2|2,0:0|1:2|0:0,0:0:0:0:
166,228,77591,1,8,0:0:0:0:
267,130,78060,1,2,3:2:0:0:
267,130,78294,1,2,0:0:0:0:
267,130,78528,2,0,L|257:9,2,105.600003222656,10|2|2,0:0|1:2|0:0,0:0:0:0:
327,166,79466,2,0,B|363:157|363:157|386:190,1,70.4000021484376,8|2,0:0|1:2,0:0:0:0:
398,253,79935,5,2,3:2:0:0:
286,338,80403,2,0,P|230:344|184:283,2,105.600003222656,10|2|2,0:0|1:2|0:0,0:0:0:0:
282,267,81341,1,8,0:0:0:0:
157,213,81810,1,2,3:2:0:0:
157,213,82044,1,2,0:0:0:0:
157,213,82278,2,0,P|104:204|46:205,2,105.600003222656,10|2|2,0:0|1:2|0:0,0:0:0:0:
209,165,83216,2,0,P|208:129|214:95,2,70.4000021484376,10|2|0,0:0|1:2|3:0,0:0:0:0:
256,297,84153,6,0,B|224:339|224:339|157:345,2,105.600003222656,14|2|2,0:0|1:2|0:0,0:0:0:0:
323,316,85091,1,8,0:0:0:0:
414,210,85560,1,2,3:2:0:0:
414,210,85794,1,2,0:0:0:0:
414,210,86028,2,0,P|442:251|512:296,2,105.600003222656,10|2|2,0:0|1:2|0:0,0:0:0:0:
389,143,86966,2,0,B|426:138|426:138|421:97,1,70.4000021484376,8|2,0:0|1:2,0:0:0:0:
413,35,87435,5,2,3:2:0:0:
272,47,87903,2,0,P|215:37|164:5,2,105.600003222656,10|2|2,0:0|1:2|0:0,0:0:0:0:
283,121,88841,1,8,0:0:0:0:
283,121,89075,1,0,3:0:0:0:
283,121,90247,6,0,L|294:193,2,70.4000021484376,0|0|2,1:0|1:0|0:0,0:0:0:0:
217,136,90950,1,2,1:2:0:0:
217,136,91185,1,0,3:0:0:0:
77,121,91653,6,0,B|66:68|66:68|78:5,2,105.600003222656,14|2|2,0:0|1:2|0:0,0:0:0:0:
32,175,92591,1,8,0:0:0:0:
107,306,93060,1,2,3:2:0:0:
107,306,93294,1,2,0:0:0:0:
107,306,93528,2,0,P|143:268|152:204,2,105.600003222656,10|2|2,0:0|1:2|0:0,0:0:0:0:
138,368,94466,2,0,P|169:355|213:349,1,70.4000021484376,8|2,0:0|1:2,0:0:0:0:
273,366,94935,5,2,3:2:0:0:
271,225,95403,2,0,L|270:119,2,105.600003222656,10|2|2,0:0|1:2|0:0,0:0:0:0:
341,229,96341,1,8,0:0:0:0:
449,138,96810,1,2,3:2:0:0:
449,138,97044,1,2,0:0:0:0:
449,138,97278,2,0,P|410:102|386:49,2,105.600003222656,10|2|2,0:0|1:2|0:0,0:0:0:0:
435,207,98216,2,0,P|471:209|504:223,2,70.4000021484376,10|2|0,0:0|1:2|3:0,0:0:0:0:
298,176,99153,6,0,B|286:207|286:207|306:300,2,105.600003222656,14|2|2,0:0|1:2|0:0,0:0:0:0:
325,111,100091,1,8,0:0:0:0:
226,27,100560,1,2,3:2:0:0:
226,27,100794,1,2,0:0:0:0:
226,27,101028,2,0,P|180:50|102:37,2,105.600003222656,10|2|2,0:0|1:2|0:0,0:0:0:0:
213,96,101966,2,0,L|201:175,1,70.4000021484376,8|2,0:0|1:2,0:0:0:0:
163,224,102435,6,0,P|192:247|206:289,2,70.4000021484376,0|2|8,3:0|0:0|0:0,0:0:0:0:
23,242,103372,1,0,3:0:0:0:
5,102,103841,2,0,L|74:93,1,70.4000021484376,8|0,0:0|0:0,0:0:0:0:
145,84,104310,1,0,3:0:0:0:
366,212,105247,6,0,P|378:184|374:141,2,64,0|0|0,1:0|1:0|1:0,0:0:0:0:
303,225,105950,1,2,1:3:0:0:
303,225,106185,6,0,P|286:286|318:344,1,128,6|2,3:2|0:3,0:0:0:0:
255,366,106888,2,0,L|182:357,1,64,2|2,0:0|0:0,0:0:0:0:
156,305,107356,2,0,L|83:296,1,64,2|2,3:0|0:3,0:0:0:0:
63,244,107825,1,2,0:0:0:0:
52,117,108294,1,2,0:0:0:0:
176,85,108763,2,0,P|180:51|178:16,2,64,2|0|0,0:0|0:0|3:0,0:0:0:0:
224,126,109466,1,2,0:3:0:0:
224,126,109700,6,0,P|219:212|308:246,1,192,0|2,0:0|0:3,0:0:0:0:
363,219,110638,2,0,L|373:146,1,64,2|2,0:0|0:0,0:0:0:0:
379,92,111106,1,2,3:2:0:0:
488,158,111575,1,2,0:0:0:0:
509,284,112044,1,2,0:0:0:0:
385,318,112513,2,0,P|359:334|331:370,2,64,2|0|2,0:0|0:0|3:2,0:0:0:0:
388,253,113216,1,2,0:3:0:0:
388,253,113450,6,0,P|282:264|224:205,1,192,2|2,0:0|0:3,0:0:0:0:
122,121,114622,1,2,0:0:0:0:
122,121,114856,2,0,P|123:86|116:51,1,64,2|2,3:2|0:3,0:0:0:0:
57,37,115325,1,2,0:0:0:0:
1,151,115794,1,2,0:0:0:0:
90,243,116263,2,0,P|61:246|23:261,2,64,2|0|2,0:0|0:0|3:2,0:0:0:0:
153,253,116966,1,2,0:3:0:0:
153,253,117200,6,0,P|208:310|314:298,1,192,2|2,0:0|0:3,0:0:0:0:
337,238,118138,2,0,P|325:208|331:163,1,64,2|2,0:0|0:0,0:0:0:0:
284,128,118606,2,0,P|296:98|332:70,1,64,2|2,3:2|0:3,0:0:0:0:
352,21,119075,1,2,0:0:0:0:
479,32,119544,1,2,0:0:0:0:
499,158,120013,2,0,L|506:230,2,64,2|0|0,0:0|3:0|3:0,0:0:0:0:
438,136,120716,2,0,L|374:142,1,64,2|2,0:3|1:2,0:0:0:0:
310,131,121185,6,0,P|306:64|249:23,1,128,6|8,3:2|0:0,0:0:0:0:
198,33,121888,2,0,P|183:58|181:96,1,64,2|2,0:0|0:0,0:0:0:0:
169,155,122356,2,0,P|184:180|186:218,1,64,2|2,3:2|0:3,0:0:0:0:
152,268,122825,1,2,0:0:0:0:
38,208,123294,1,2,0:0:0:0:
66,83,123763,2,0,L|1:87,2,64,2|0|2,0:0|0:0|3:2,0:0:0:0:
112,38,124466,2,0,L|171:78,1,64,2|2,0:3|0:0,0:0:0:0:
214,114,124935,6,0,P|266:105|307:40,1,128,8|2,3:0|0:3,0:0:0:0:
434,16,125872,1,2,0:0:0:0:
434,16,126106,2,0,L|430:99,1,64,2|2,3:2|0:3,0:0:0:0:
402,137,126575,2,0,P|461:168|507:210,1,128,2|2,0:0|0:0,0:0:0:0:
463,330,127513,2,0,P|435:340|393:363,2,64,2|0|2,0:0|0:0|3:2,0:0:0:0:
427,276,128216,2,0,P|399:266|357:243,1,64,2|2,0:3|0:0,0:0:0:0:
324,203,128685,6,0,P|339:163|331:66,1,128,8|2,3:0|0:3,0:0:0:0:
211,89,129622,1,2,0:0:0:0:
211,89,129856,2,0,L|205:8,1,64,2|2,3:2|0:3,0:0:0:0:
142,15,130325,2,0,L|-3:59,1,128,2|2,0:0|0:0,0:0:0:0:
42,178,131263,2,0,L|60:250,1,64,2|0,0:0|0:0,0:0:0:0:
119,253,131731,2,0,L|134:190,1,64,2|2,3:2|0:3,0:0:0:0:
130,126,132200,6,0,P|183:88|188:19,1,128,2|2,0:0|0:0,0:0:0:0:
320,29,133138,2,0,P|330:90|382:126,1,128,2|2,0:0|3:2,0:0:0:0:
437,93,133841,2,0,B|472:93|472:93|503:120,1,64,2|2,0:3|0:0,0:0:0:0:
495,179,134310,5,2,3:2:0:0:
375,214,134778,1,2,0:3:0:0:
375,214,135013,2,0,L|364:292,1,64,2|2,0:0|0:3,0:0:0:0:
324,325,135481,2,0,L|246:314,2,64,2|2|2,3:2|0:3|0:3,0:0:0:0:
359,378,136185,5,4,3:2:0:0:
53,111,150247,6,0,P|47:74|56:45,2,64,2|2|2,0:3|0:3|0:3,0:0:0:0:
130,213,151185,5,8,3:2:0:0:
236,141,151653,2,0,P|237:93|231:40,2,96,8|2|2,3:2|0:0|0:0,0:0:0:0:
355,200,152825,1,2,0:0:0:0:
355,200,153060,2,0,P|354:231|358:267,1,64,8|2,0:0|0:0,0:0:0:0:
298,287,153528,2,0,P|257:257|208:239,2,96,8|2|2,0:0|0:0|0:0,0:0:0:0:
278,348,154466,2,0,P|246:347|210:351,1,64,8|2,0:0|0:0,0:0:0:0:
150,355,154935,5,8,0:0:0:0:
102,236,155403,2,0,L|94:138,2,96,8|0|2,0:0|0:0|0:0,0:0:0:0:
165,245,156341,1,8,0:0:0:0:
270,173,156810,2,0,L|339:155,2,64,8|2|8,0:0|0:0|0:0,0:0:0:0:
222,129,157513,2,0,L|205:67,1,64,8|0,3:0|1:0,0:0:0:0:
246,18,157981,1,8,1:2:0:0:
307,36,158216,1,8,1:2:0:0:
358,153,158685,6,0,L|510:137,1,128,4|0,1:2|1:0,0:0:0:0:
500,206,159388,1,0,1:0:0:0:
500,206,159622,2,0,L|463:354,1,128,0|0,1:0|1:0,0:0:0:0:
408,332,160325,1,0,1:0:0:0:
408,332,160560,5,4,1:2:0:0:
288,287,161028,2,0,P|253:289|213:310,2,64,0|0|0,1:0|1:0|1:0,0:0:0:0:
301,226,161731,1,0,1:0:0:0:
301,226,161966,1,0,1:0:0:0:
305,98,162435,6,0,B|305:63|305:63|295:31,1,64,4|0,1:2|1:0,0:0:0:0:
234,19,162903,2,0,B|199:19|199:19|167:29,1,64,0|0,1:0|1:0,0:0:0:0:
123,70,163372,2,0,B|123:105|123:105|133:137,1,64,0|0,1:0|1:0,0:0:0:0:
194,149,163841,1,0,1:0:0:0:
194,149,164075,1,0,1:0:0:0:
49,355,165247,5,0,1:0:0:0:
145,270,165716,1,0,3:0:0:0:
269,298,166185,1,2,3:2:0:0:
366,196,166653,6,0,P|425:192|481:207,2,105.600003222656,14|2|2,0:0|1:2|0:0,0:0:0:0:
352,127,167591,1,8,0:0:0:0:
229,57,168060,1,2,3:2:0:0:
229,57,168294,1,2,0:0:0:0:
229,57,168528,2,0,B|173:61|173:61|127:17,2,105.600003222656,10|2|2,0:0|1:2|0:0,0:0:0:0:
220,127,169466,1,8,0:0:0:0:
84,166,169935,5,2,3:2:0:0:
194,252,170403,2,0,P|193:304|174:356,2,105.600003222656,10|2|2,0:0|1:2|0:0,0:0:0:0:
124,265,171341,1,8,0:0:0:0:
0,214,171810,1,2,3:2:0:0:
0,214,172044,1,2,0:0:0:0:
0,214,172278,2,0,L|5:102,2,105.600003222656,10|2|2,0:0|1:2|0:0,0:0:0:0:
4,284,173216,2,0,P|18:318|49:337,2,70.4000021484376,10|2|0,0:0|1:2|3:0,0:0:0:0:
123,209,174153,6,0,B|176:215|176:215|242:189,2,105.600003222656,14|2|2,0:0|1:2|0:0,0:0:0:0:
136,139,175091,1,8,0:0:0:0:
41,51,175560,1,2,3:2:0:0:
41,51,175794,1,2,0:0:0:0:
41,51,176028,2,0,P|90:27|147:41,2,105.600003222656,10|2|2,0:0|1:2|0:0,0:0:0:0:
2,110,176966,2,0,B|23:137|23:137|17:180,1,70.4000021484376,8|2,0:0|1:2,0:0:0:0:
48,236,177435,5,2,3:2:0:0:
186,212,177903,2,0,L|292:251,2,105.600003222656,10|2|2,0:0|1:2|0:0,0:0:0:0:
179,146,178841,1,8,0:0:0:0:
179,146,179075,1,0,3:0:0:0:
445,304,180247,6,0,L|459:230,2,70.4000021484376,0|0|2,1:0|1:0|0:0,0:0:0:0:
433,376,180950,1,2,1:2:0:0:
433,376,181185,1,2,3:2:0:0:
334,276,181653,6,0,B|287:256|287:256|209:275,2,105.600003222656,14|2|2,0:0|1:2|0:0,0:0:0:0:
404,269,182591,1,8,0:0:0:0:
420,136,183060,1,2,3:2:0:0:
420,136,183294,1,2,0:0:0:0:
420,136,183528,2,0,P|468:121|498:57,2,105.600003222656,10|2|2,0:0|1:2|0:0,0:0:0:0:
354,108,184466,2,0,B|355:71|355:71|342:24,1,70.4000021484376,8|2,0:0|1:2,0:0:0:0:
277,23,184935,5,2,3:2:0:0:
167,111,185403,2,0,P|138:79|114:17,2,105.600003222656,10|2|2,0:0|1:2|0:0,0:0:0:0:
229,144,186341,1,8,0:0:0:0:
290,270,186810,1,2,3:2:0:0:
290,270,187044,1,2,0:0:0:0:
290,270,187278,2,0,B|304:324|304:324|296:381,2,105.600003222656,10|2|2,0:0|1:2|0:0,0:0:0:0:
232,228,188216,2,0,P|227:198|253:154,2,70.4000021484376,10|2|0,0:0|1:2|3:0,0:0:0:0:
112,302,189153,6,0,B|60:317|60:317|0:370,2,105.600003222656,14|2|2,0:0|1:2|0:0,0:0:0:0:
133,234,190091,1,8,0:0:0:0:
99,107,190560,1,2,3:2:0:0:
99,107,190794,1,2,0:0:0:0:
99,107,191028,2,0,P|42:85|4:41,2,105.600003222656,10|2|2,0:0|1:2|0:0,0:0:0:0:
168,96,191966,2,0,L|204:20,1,70.4000021484376,8|2,0:0|0:0,0:0:0:0:
262,61,192435,6,0,L|292:124,2,70.4000021484376,0|2|8,3:0|0:0|0:0,0:0:0:0:
397,22,193372,1,0,3:0:0:0:
499,117,193841,2,0,L|429:137,1,70.4000021484376,8|0,0:0|0:0,0:0:0:0:
364,156,194310,1,0,3:0:0:0:
129,259,195247,6,0,P|120:289|105:317,2,64,0|0|0,3:0|1:0|1:0,0:0:0:0:
128,199,195950,1,2,1:3:0:0:
128,199,196185,1,0,3:0:0:0:
234,128,196653,6,0,L|287:248,1,128,14|0,0:0|3:0,0:0:0:0:
349,241,197356,2,0,L|360:312,1,64,2|8,0:0|0:0,0:0:0:0:
408,344,197825,2,0,B|446:320|464:206|528:184,1,192,2|8,0:0|0:0,0:0:0:0:
472,68,198997,2,0,L|398:55,1,64,0|2,3:0|0:0,0:0:0:0:
350,82,199466,2,0,L|337:156,1,64,8|2,0:0|1:2,0:0:0:0:
275,136,199935,6,0,P|218:113|207:42,1,128,0|8,3:0|0:0,0:0:0:0:
79,46,200872,2,0,P|67:74|37:81,1,64,0|2,3:0|0:0,0:0:0:0:
1,134,201341,1,8,0:0:0:0:
1,134,201575,2,0,B|57:143|110:228|172:231,1,192,2|8,0:0|0:0,0:0:0:0:
272,160,202747,2,0,P|303:159|339:173,1,64,0|2,3:0|1:2,0:0:0:0:
357,229,203216,2,0,P|358:260|344:296,2,64,8|2|0,0:0|1:2|3:0,0:0:0:0:
482,202,204153,6,0,P|496:264|504:327,1,128,14|0,0:0|3:0,0:0:0:0:
467,380,204856,2,0,P|434:365|391:356,1,64,2|8,0:0|0:0,0:0:0:0:
389,296,205325,2,0,B|338:280|268:369|196:354,1,192,2|8,0:0|0:0,0:0:0:0:
114,270,206497,2,0,L|105:201,1,64,0|2,3:0|0:0,0:0:0:0:
167,187,206966,2,0,L|158:118,1,64,8|2,0:0|1:2,0:0:0:0:
148,60,207435,6,0,P|107:18|36:45,1,128,0|8,3:0|0:0,0:0:0:0:
33,100,208138,1,2,0:0:0:0:
33,100,208372,2,0,P|-9:143|7:202,1,128,0|8,3:0|0:0,0:0:0:0:
14,331,209310,6,0,B|50:292|86:279|130:283|174:314|181:358|160:393|125:392|107:367,1,256,2|0,3:2|0:0,0:0:0:0:
256,192,211185,5,6,0:0:0:0:
