osu file format v14

[General]
AudioFilename: audio.mp3
AudioLeadIn: 0
PreviewTime: 61067
Countdown: 0
SampleSet: Soft
StackLeniency: 0.8
Mode: 0
LetterboxInBreaks: 0
WidescreenStoryboard: 0

[Editor]
Bookmarks: 31185,46185,61185,76185,91185,106185,121185,136185,151185,166185,181185,189153,196185,211185
DistanceSpacing: 1.6
BeatDivisor: 4
GridSize: 8
TimelineZoom: 2

[Metadata]
Title:Invisible Scars feat. mami
TitleUnicode:Invisible Scars feat. mami
Artist:rejection
ArtistUnicode:rejection
Creator:Hinsvar
Version:Cloudburst
Source:
Tags:Müte Mute MEGAREX ネオンストライド002 NEON STRIDE 002 Japanese Electronic EDM Dance Music Future House Featured Artist FA Mappers' Guild MG MPG
BeatmapID:3893561
BeatmapSetID:1890060

[Difficulty]
HPDrainRate:5.5
CircleSize:2.2
OverallDifficulty:7.5
ApproachRate:8.2
SliderMultiplier:1.92
SliderTickRate:1

[Events]
//Background and Video events
0,0,"BG.jpg",0,0
//Break Periods
2,136385,149527
//Storyboard Layer 0 (Background)
//Storyboard Layer 1 (Fail)
//Storyboard Layer 2 (Pass)
//Storyboard Layer 3 (Foreground)
//Storyboard Layer 4 (Overlay)
//Storyboard Sound Samples

[TimingPoints]
1185,468.75,4,2,1,50,1,0
31185,-200,4,2,1,50,0,0
46185,-133.333333333333,4,2,1,60,0,0
60716,-100,4,2,1,70,0,0
67981,-66.6666666666667,4,2,1,75,0,0
68685,-100,4,2,1,75,0,0
73958,-66.6666666666667,4,2,1,75,0,0
75247,-200,4,2,1,65,0,0
76185,-100,4,2,1,75,0,0
76653,-50,4,2,1,85,0,1
77356,-100,4,2,1,85,0,1
78060,-66.6666666666667,4,2,1,85,0,1
79231,-100,4,2,1,85,0,1
79935,-50,4,2,1,85,0,1
81106,-100,4,2,1,85,0,1
81810,-66.6666666666667,4,2,1,85,0,1
82981,-50,4,2,1,85,0,1
83685,-100,4,2,1,75,0,0
84153,-50,4,2,1,85,0,1
84856,-100,4,2,1,85,0,1
85560,-66.6666666666667,4,2,1,85,0,1
86731,-100,4,2,1,85,0,1
87435,-50,4,2,1,85,0,1
88606,-100,4,2,1,85,0,1
89310,-200,4,2,1,75,0,0
90950,-133.333333333333,4,2,1,75,0,0
91185,-100,4,2,1,75,0,0
91653,-50,4,2,1,85,0,1
92356,-100,4,2,1,85,0,1
93060,-66.6666666666667,4,2,1,85,0,1
94231,-100,4,2,1,85,0,1
94935,-50,4,2,1,85,0,1
96106,-100,4,2,1,85,0,1
96810,-66.6666666666667,4,2,1,85,0,1
97981,-50,4,2,1,85,0,1
98685,-100,4,2,1,75,0,0
99153,-50,4,2,1,85,0,1
99856,-100,4,2,1,85,0,1
100560,-66.6666666666667,4,2,1,85,0,1
101731,-100,4,2,1,85,0,1
102435,-50,4,2,1,85,0,1
103138,-100,4,2,1,85,0,1
104075,-66.6666666666667,4,2,1,85,0,1
104310,-100,4,2,1,60,0,0
105481,-100,4,2,1,50,0,0
105716,-100,4,2,1,55,0,0
105950,-100,4,2,1,60,0,0
151185,-100,4,2,1,70,0,0
157981,-66.6666666666667,4,2,1,75,0,0
158685,-100,4,2,1,75,0,0
163958,-66.6666666666667,4,2,1,75,0,0
165247,-200,4,2,1,65,0,0
166185,-100,4,2,1,75,0,0
166653,-50,4,2,1,85,0,1
167356,-100,4,2,1,85,0,1
168060,-66.6666666666667,4,2,1,85,0,1
169231,-100,4,2,1,85,0,1
169935,-50,4,2,1,85,0,1
171106,-100,4,2,1,85,0,1
171810,-66.6666666666667,4,2,1,85,0,1
172981,-50,4,2,1,85,0,1
173685,-100,4,2,1,75,0,0
174153,-50,4,2,1,85,0,1
174856,-100,4,2,1,85,0,1
175560,-66.6666666666667,4,2,1,85,0,1
176731,-100,4,2,1,85,0,1
177435,-50,4,2,1,85,0,1
178606,-100,4,2,1,85,0,1
179310,-200,4,2,1,75,0,0
180950,-133.333333333333,4,2,1,75,0,0
181185,-100,4,2,1,75,0,0
181653,-50,4,2,1,85,0,1
182356,-100,4,2,1,85,0,1
183060,-66.6666666666667,4,2,1,85,0,1
184231,-100,4,2,1,85,0,1
184935,-50,4,2,1,85,0,1
186106,-100,4,2,1,85,0,1
186810,-66.6666666666667,4,2,1,85,0,1
187981,-50,4,2,1,85,0,1
188685,-100,4,2,1,75,0,0
189153,-50,4,2,1,85,0,1
189856,-100,4,2,1,85,0,1
190560,-66.6666666666667,4,2,1,85,0,1
191731,-100,4,2,1,85,0,1
192435,-66.6666666666667,4,2,1,85,0,1
193138,-100,4,2,1,85,0,1
194075,-66.6666666666667,4,2,1,85,0,1
194310,-100,4,2,1,70,0,0
196185,-200,4,2,1,60,0,0
196653,-100,4,2,1,70,0,1
196770,-100,4,2,1,70,0,0
203685,-200,4,2,1,60,0,0
204153,-100,4,2,1,70,0,0
209310,-100,4,2,1,60,0,0
211185,-100,4,2,1,50,0,0

[Colours]
Combo1 : 250,52,156
Combo2 : 18,203,218
Combo3 : 163,147,219
Combo4 : 100,117,232

[HitObjects]
256,192,27435,12,2,29310,3:2:0:0:
234,112,30481,5,0,3:0:0:0:
223,16,30716,1,0,3:0:0:0:
0,47,30950,1,0,1:0:0:0:
115,71,31185,6,0,B|98:127|127:162|108:213,1,144,4|2,3:2|0:0,0:0:0:0:
34,274,32122,1,2,0:0:0:0:
97,345,32356,2,0,P|118:334|152:330,1,48,2|8,0:0|0:0,0:0:0:0:
196,250,32825,2,0,P|237:273|284:271,1,96,2|0,0:0|0:0,0:0:0:0:
388,40,33763,2,0,P|431:37|483:69,1,96,2|0,0:0|0:0,0:0:0:0:
441,151,34466,1,10,0:0:0:0:
486,235,34700,6,0,B|458:275|383:261|353:303,1,144,2|8,0:0|0:0,0:0:0:0:
294,234,35638,1,2,0:0:0:0:
294,234,35872,1,2,0:0:0:0:
268,141,36106,1,2,0:0:0:0:
57,238,36575,2,0,P|48:285|44:345,1,96,2|0,0:0|0:0,0:0:0:0:
287,158,37513,2,0,P|253:190|237:235,1,96,2|0,0:0|0:0,0:0:0:0:
492,141,38450,6,0,P|443:92|457:25,1,144,2|8,0:0|0:0,0:0:0:0:
465,33,39622,1,2,0:0:0:0:
465,33,39856,1,2,0:0:0:0:
371,54,40091,1,2,0:0:0:0:
275,61,40325,2,0,P|227:51|181:32,1,96,2|0,0:0|0:0,0:0:0:0:
237,323,41263,2,0,P|284:332|330:351,1,96,2|0,0:0|0:0,0:0:0:0:
356,258,41966,1,10,0:0:0:0:
306,176,42200,6,0,B|244:216|224:159|156:207,1,144,2|8,0:0|0:0,0:0:0:0:
82,239,43138,1,2,0:0:0:0:
82,239,43372,1,2,0:0:0:0:
29,155,43606,1,2,0:0:0:0:
29,155,43841,1,10,0:0:0:0:
117,117,44075,2,0,P|119:67|128:8,1,96,2|0,0:0|0:0,0:0:0:0:
250,235,45013,2,0,P|268:193|249:136,1,96,2|0,0:0|0:0,0:0:0:0:
387,363,45950,2,0,L|383:324,1,24,2|0,0:0|0:0,0:0:0:0:
475,284,46185,6,0,P|401:283|333:212,1,144.000005493164,4|8,3:2|0:0,0:0:0:0:
388,126,46888,2,0,L|248:156,1,144.000005493164,2|0,0:0|3:0,0:0:0:0:
149,360,47591,1,10,0:0:0:0:
149,360,47825,2,0,B|152:300|134:263|142:200,1,144.000005493164,2|0,0:0|0:0,0:0:0:0:
11,37,48528,1,8,0:0:0:0:
11,37,48763,2,0,B|8:97|26:134|18:197,1,144.000005493164,2|0,0:0|3:0,0:0:0:0:
154,202,49466,2,0,P|159:161|171:123,1,72.0000027465821,10|0,0:0|0:0,0:0:0:0:
186,22,49935,6,0,P|244:59|324:34,1,144.000005493164,0|8,3:0|0:0,0:0:0:0:
313,42,50872,1,2,0:0:0:0:
454,28,51106,2,0,P|458:62|470:109,1,72.0000027465821,2|8,3:2|0:0,0:0:0:0:
430,232,51575,2,0,B|420:287|445:315|420:384,1,144.000005493164,2|0,0:0|0:0,0:0:0:0:
297,247,52278,1,8,0:0:0:0:
297,247,52513,2,0,B|260:289|268:326|212:373,1,144.000005493164,2|0,0:0|3:0,0:0:0:0:
10,341,53216,1,10,0:0:0:0:
130,276,53450,1,2,0:0:0:0:
123,138,53685,6,0,P|46:128|34:54,1,144.000005493164,0|8,3:0|0:0,0:0:0:0:
28,72,54622,1,2,0:0:0:0:
157,25,54856,1,2,3:2:0:0:
233,140,55091,1,10,0:0:0:0:
237,146,55325,2,0,B|283:112|289:75|348:29,1,144.000005493164,2|0,0:0|0:0,0:0:0:0:
475,167,56028,1,8,0:0:0:0:
475,167,56263,2,0,B|483:110|461:80|470:5,1,144.000005493164,2|0,0:0|3:0,0:0:0:0:
356,199,56966,1,8,0:0:0:0:
356,199,57200,6,0,P|376:254|374:363,1,144.000005493164,2|0,0:0|0:0,0:0:0:0:
258,283,57903,1,8,0:0:0:0:
152,364,58138,2,0,P|132:309|134:200,1,144.000005493164,2|0,0:0|3:0,0:0:0:0:
228,23,58841,2,0,P|238:50|237:105,1,72.0000027465821,10|0,0:0|0:0,0:0:0:0:
6,116,59310,6,0,L|144:75,1,144.000005493164,0|8,3:0|0:0,0:0:0:0:
166,216,60013,1,2,0:0:0:0:
273,292,60247,1,0,1:0:0:0:
273,306,60364,1,0,1:0:0:0:
273,320,60481,1,0,1:0:0:0:
274,334,60599,1,0,1:0:0:0:
333,375,60716,5,0,1:0:0:0:
401,354,60833,1,0,1:0:0:0:
437,292,60950,2,0,L|482:278,1,48,0|0,1:0|0:0,0:0:0:0:
245,190,61185,6,0,L|39:149,1,192,8|8,0:0|0:0,0:0:0:0:
56,152,62005,1,2,0:0:0:0:
45,162,62122,1,8,0:0:0:0:
131,22,62356,2,0,P|149:67|160:114,1,96,2|8,0:0|0:0,0:0:0:0:
159,113,62708,1,2,0:0:0:0:
159,113,62825,1,2,0:0:0:0:
253,368,63060,6,0,L|264:262,2,96,8|2|8,0:0|0:0|0:0,0:0:0:0:
49,333,63763,1,2,0:0:0:0:
60,342,63880,2,0,P|122:321|146:228,1,144,2|2,0:0|0:0,0:0:0:0:
368,336,64466,2,0,P|384:292|428:276,1,96,8|2,0:0|0:0,0:0:0:0:
283,32,64935,5,8,0:0:0:0:
283,32,65403,1,8,0:0:0:0:
313,159,65638,2,0,L|258:165,1,48,2|0,0:0|0:0,0:0:0:0:
133,118,65872,2,0,L|247:142,1,96,8|2,0:0|0:0,0:0:0:0:
395,244,66341,2,0,L|438:282,2,48,8|0|2,0:0|0:0|0:0,0:0:0:0:
167,231,66810,6,0,P|128:253|121:324,1,96,8|2,0:0|0:0,0:0:0:0:
292,380,67278,1,8,0:0:0:0:
277,245,67513,1,8,3:0:0:0:
283,257,67630,1,2,0:3:0:0:
314,192,67747,5,0,1:0:0:0:
255,151,67864,1,0,1:0:0:0:
287,86,67981,2,0,B|296:47|296:47|276:14,1,72.0000027465821,8|0,1:2|0:0,0:0:0:0:
84,36,68216,2,0,B|101:74|76:130|105:176,1,144.000005493164,8|0,1:2|0:0,0:0:0:0:
5,363,68685,5,4,1:2:0:0:
146,336,68919,1,0,1:0:0:0:
440,355,69153,5,0,1:0:0:0:
345,333,69388,1,0,1:0:0:0:
227,253,69622,5,0,1:0:0:0:
258,252,69856,1,0,1:0:0:0:
238,147,70091,5,0,1:0:0:0:
238,147,70208,1,0,1:0:0:0:
238,147,70325,1,0,1:0:0:0:
226,30,70560,5,4,1:2:0:0:
355,134,70794,1,0,1:0:0:0:
248,265,71028,1,0,1:0:0:0:
117,159,71263,2,0,L|123:107,1,48,0|2,1:0|0:0,0:0:0:0:
89,182,71497,5,0,1:0:0:0:
66,26,71731,1,0,1:0:0:0:
352,95,71966,1,0,1:0:0:0:
386,329,72200,1,0,1:0:0:0:
158,139,72435,5,4,1:2:0:0:
112,153,72552,1,0,1:0:0:0:
66,167,72669,1,0,1:0:0:0:
20,181,72786,1,0,1:0:0:0:
11,228,72903,1,0,1:0:0:0:
46,261,73020,1,0,1:0:0:0:
81,294,73138,1,0,1:0:0:0:
117,327,73255,1,0,1:0:0:0:
162,311,73372,1,0,1:0:0:0:
173,264,73489,1,0,1:0:0:0:
184,217,73606,1,0,1:0:0:0:
194,169,73724,1,0,1:0:0:0:
158,139,73841,5,0,1:0:0:0:
151,91,73958,2,0,B|151:72|151:72|174:72,6,36.0000013732911,0|0|0|0|0|0|0,1:0|1:0|1:0|1:0|1:0|1:0|1:0,0:0:0:0:
151,91,75247,5,0,1:0:0:0:
104,81,75364,1,0,1:0:0:0:
361,175,75599,5,0,1:0:0:0:
408,185,75716,2,0,P|422:179|439:180,2,24,0|0|2,3:0|3:0|3:2,0:0:0:0:
186,318,76185,6,0,P|216:345|210:308,1,96,2|0,3:2|3:0,0:0:0:0:
47,22,76653,6,0,B|112:73|97:124|179:168,1,192,14|0,0:0|0:0,0:0:0:0:
272,107,77005,1,2,1:2:0:0:
258,109,77122,1,0,3:0:0:0:
86,229,77356,6,0,P|53:239|34:254,1,48,2|0,0:0|0:0,0:0:0:0:
41,374,77591,2,0,P|54:328|56:262,1,96,8|0,0:0|0:0,0:0:0:0:
51,115,78060,6,0,P|83:120|53:106,1,72.0000027465821,2|0,3:2|0:0,0:0:0:0:
232,182,78294,2,0,P|257:202|262:171,1,72.0000027465821,2|0,0:0|0:0,0:0:0:0:
441,286,78528,2,0,P|467:306|494:285,1,72.0000027465821,10|0,0:0|0:0,0:0:0:0:
464,191,78763,5,2,1:2:0:0:
416,189,78880,1,2,1:2:0:0:
161,38,79231,6,0,L|177:82,1,48,2|0,0:0|0:0,0:0:0:0:
338,91,79466,1,8,0:0:0:0:
344,62,79583,1,0,3:0:0:0:
348,35,79700,1,2,1:2:0:0:
26,238,79935,6,0,B|89:201|157:264|201:188,1,192,2|0,3:2|0:0,0:0:0:0:
479,50,80403,2,0,B|463:0|382:31|392:67|435:84|443:116|417:154,1,192,10|0,0:0|0:0,0:0:0:0:
308,154,80755,1,2,1:2:0:0:
302,143,80872,1,0,3:0:0:0:
76,41,81106,6,0,P|45:40|22:12,1,48,2|0,0:0|0:0,0:0:0:0:
137,148,81341,2,0,P|102:127|74:78,1,96,8|0,0:0|0:0,0:0:0:0:
456,96,81810,6,0,B|463:64|463:64|450:49|450:49|461:11,1,72.0000027465821,2|0,3:2|0:0,0:0:0:0:
241,161,82044,2,0,B|251:187|251:187|258:192|258:192|273:223,1,72.0000027465821,2|0,0:0|0:0,0:0:0:0:
57,354,82278,2,0,B|32:331|32:331|13:335|13:335|0:321,1,72.0000027465821,10|0,0:0|0:0,0:0:0:0:
112,255,82513,5,2,1:2:0:0:
158,261,82630,1,2,1:2:0:0:
354,25,82981,6,0,P|352:72|327:112,1,96,2|0,0:0|0:0,0:0:0:0:
146,79,83216,2,0,P|187:57|235:58,1,96,10|0,0:0|0:0,0:0:0:0:
298,228,83450,2,0,P|258:203|235:162,1,96,2|0,1:2|0:0,0:0:0:0:
414,207,83685,5,0,3:0:0:0:
427,210,83802,1,0,3:0:0:0:
440,213,83919,1,0,3:0:0:0:
453,217,84036,1,0,3:0:0:0:
486,251,84153,6,0,B|503:190|485:129|496:59,1,192,14|0,0:0|0:0,0:0:0:0:
397,21,84505,1,2,1:2:0:0:
403,34,84622,1,0,3:0:0:0:
162,227,84856,6,0,P|166:199|177:183,1,48,2|0,0:0|0:0,0:0:0:0:
15,89,85091,2,0,B|61:94|61:94|110:75,1,96,8|0,0:0|0:0,0:0:0:0:
327,69,85560,6,0,B|323:29|323:29|293:1,1,72.0000027465821,2|0,3:2|0:0,0:0:0:0:
185,315,85794,2,0,B|189:355|189:355|219:383,1,72.0000027465821,2|0,0:0|0:0,0:0:0:0:
284,198,86028,2,0,L|214:186,1,72.0000027465821,10|0,0:0|0:0,0:0:0:0:
311,312,86263,5,2,1:2:0:0:
358,303,86380,1,2,1:2:0:0:
457,74,86731,6,0,L|475:20,1,48,2|0,0:0|0:0,0:0:0:0:
503,224,86966,1,8,0:0:0:0:
495,196,87083,1,0,3:0:0:0:
487,168,87200,1,2,1:2:0:0:
152,361,87435,6,0,B|168:301|246:320|292:301|290:259|251:224,1,192,2|0,3:2|0:0,0:0:0:0:
67,33,87903,2,0,B|48:89|96:90|117:135|100:187|46:189|47:138,1,192,10|0,0:0|0:0,0:0:0:0:
164,44,88255,1,2,1:2:0:0:
177,37,88372,1,0,3:0:0:0:
284,198,88606,6,0,P|269:222|267:251,1,48,2|0,0:0|0:0,0:0:0:0:
282,340,88841,1,8,0:0:0:0:
288,326,88958,1,0,1:0:0:0:
290,312,89075,1,0,3:0:0:0:
290,297,89192,1,0,3:0:0:0:
290,297,90247,5,0,1:0:0:0:
286,283,90364,1,0,1:0:0:0:
282,269,90481,1,0,1:0:0:0:
277,255,90599,1,0,1:0:0:0:
273,241,90716,6,0,L|276:200,1,24,2|0,0:0|0:0,0:0:0:0:
157,146,90950,2,0,L|121:143,1,36.0000013732911,2|0,1:2|0:0,0:0:0:0:
348,66,91185,6,0,L|443:71,1,96,0|0,3:0|3:0,0:0:0:0:
396,355,91653,6,0,P|446:325|431:198,1,192,14|0,0:0|0:0,0:0:0:0:
355,251,92005,1,2,1:2:0:0:
365,262,92122,1,0,3:0:0:0:
147,262,92356,6,0,L|160:185,1,48,2|0,0:0|0:0,0:0:0:0:
114,99,92591,2,0,P|101:143|135:174,1,96,8|0,0:0|0:0,0:0:0:0:
129,362,93060,6,0,B|77:350|77:350|64:314,1,72.0000027465821,2|0,3:2|0:0,0:0:0:0:
260,226,93294,2,0,L|251:146,1,72.0000027465821,2|0,0:0|0:0,0:0:0:0:
441,51,93528,2,0,B|434:33|434:33|383:22,1,72.0000027465821,10|0,0:0|0:0,0:0:0:0:
277,45,93763,5,2,1:2:0:0:
228,40,93880,1,2,1:2:0:0:
26,240,94231,6,0,L|47:178,1,48,2|0,0:0|0:0,0:0:0:0:
150,345,94466,1,8,0:0:0:0:
179,339,94583,1,0,3:0:0:0:
195,315,94700,1,2,1:2:0:0:
346,30,94935,6,0,B|409:54|375:134|450:192,1,192,2|0,3:2|0:0,0:0:0:0:
129,228,95403,2,0,B|167:180|235:154|264:171|283:205|223:223,1,192,10|0,0:0|0:0,0:0:0:0:
105,121,95755,1,2,1:2:0:0:
94,111,95872,1,0,3:0:0:0:
366,24,96106,6,0,P|350:45|342:82,1,48,2|0,0:0|0:0,0:0:0:0:
346,239,96341,2,0,B|341:288|341:288|284:332,1,96,8|0,0:0|0:0,0:0:0:0:
79,79,96810,6,0,B|69:43|41:51|44:14,1,72.0000027465821,2|0,3:2|0:0,0:0:0:0:
249,228,97044,2,0,B|249:201|244:186|257:154,1,72.0000027465821,2|0,0:0|0:0,0:0:0:0:
416,358,97278,2,0,B|433:332|438:330|465:302,1,72.0000027465821,10|0,0:0|0:0,0:0:0:0:
406,139,97513,5,2,1:2:0:0:
393,186,97630,1,2,1:2:0:0:
85,302,97981,6,0,B|63:260|63:260|3:253,1,96,2|0,0:0|0:0,0:0:0:0:
15,51,98216,2,0,B|62:52|62:52|98:4,1,96,10|0,0:0|0:0,0:0:0:0:
266,112,98450,2,0,B|240:152|240:152|264:207,1,96,2|0,1:2|0:0,0:0:0:0:
94,168,98685,5,0,3:0:0:0:
80,163,98802,1,0,3:0:0:0:
80,149,98919,1,0,3:0:0:0:
94,144,99036,1,0,3:0:0:0:
140,150,99153,6,0,B|210:138|179:29|272:13,1,192,14|0,0:0|0:0,0:0:0:0:
351,100,99505,1,2,1:2:0:0:
340,110,99622,1,0,3:0:0:0:
105,255,99856,6,0,P|138:258|174:244,1,48,2|0,0:0|0:0,0:0:0:0:
13,211,100091,2,0,P|6:268|30:329,1,96,8|0,0:0|0:0,0:0:0:0:
256,381,100560,6,0,B|264:338|264:338|238:356,1,72.0000027465821,2|0,3:2|0:0,0:0:0:0:
145,159,100794,2,0,B|117:126|117:126|95:144,1,72.0000027465821,2|0,0:0|0:0,0:0:0:0:
350,52,101028,2,0,B|387:29|387:29|415:36,1,72.0000027465821,10|0,0:0|0:0,0:0:0:0:
270,184,101263,5,2,1:2:0:0:
263,232,101380,1,2,1:2:0:0:
36,68,101731,6,0,P|35:44|25:23,1,48,2|0,0:0|0:0,0:0:0:0:
120,120,101966,1,8,0:0:0:0:
111,304,102200,2,0,P|127:286|136:264,1,48,2|0,1:2|0:0,0:0:0:0:
46,375,102435,6,0,B|48:317|21:244|32:166,2,192,0|2|8,3:0|0:0|0:0,0:0:0:0:
244,256,103138,2,0,P|263:272|261:296,1,48,2|0,0:0|0:0,0:0:0:0:
262,293,103372,1,0,3:0:0:0:
184,95,103606,2,0,P|160:103|140:89,1,48,2|0,0:0|0:0,0:0:0:0:
84,16,103841,1,8,0:0:0:0:
360,113,104075,6,0,B|363:94|363:94|379:86,3,36.0000013732911,2|0|0|0,0:0|0:0|0:0|0:0,0:0:0:0:
378,87,104310,1,0,3:0:0:0:
378,87,105247,5,0,1:0:0:0:
155,41,105481,1,0,1:0:0:0:
141,55,105599,1,0,1:0:0:0:
112,72,105716,1,0,1:0:0:0:
64,71,105833,1,0,1:0:0:0:
15,32,105950,1,2,1:3:0:0:
52,343,106185,6,0,P|125:258|215:283,1,192,6|2,3:2|0:3,0:0:0:0:
388,351,106888,1,2,0:0:0:0:
434,361,107005,1,2,0:3:0:0:
413,348,107122,1,2,0:0:0:0:
320,153,107356,2,2,P|323:200|313:247,1,96,2|2,3:0|0:3,0:0:0:0:
508,164,107825,6,0,B|416:133|433:63|379:27,1,192,2|2,0:0|0:0,0:0:0:0:
184,35,108528,1,2,0:3:0:0:
67,136,108763,1,2,0:0:0:0:
57,89,108880,1,2,0:3:0:0:
240,158,109114,1,2,0:3:0:0:
230,205,109231,1,0,3:0:0:0:
415,340,109466,2,0,P|408:292|388:249,1,96,2|0,0:3|0:0,0:0:0:0:
222,303,109935,6,0,B|159:307|113:357|19:359,1,192,8|2,3:0|0:3,0:0:0:0:
153,153,110638,1,2,0:0:0:0:
198,167,110755,1,2,0:3:0:0:
193,190,110872,1,2,0:0:0:0:
42,110,111106,2,0,L|33:14,1,96,2|2,3:2|0:3,0:0:0:0:
280,85,111575,6,0,B|312:23|409:91|453:30,1,192,2|2,0:0|0:0,0:0:0:0:
427,223,112278,1,2,0:3:0:0:
329,261,112513,1,2,0:0:0:0:
320,215,112630,1,2,0:3:0:0:
192,141,112864,1,2,0:3:0:0:
176,185,112981,1,2,3:2:0:0:
24,50,113216,2,0,B|70:49|70:49|113:23,1,96,2|2,0:3|0:0,0:0:0:0:
308,143,113685,6,0,B|282:198|282:198|258:366,1,192,8|2,3:0|0:3,0:0:0:0:
211,105,114388,1,2,0:0:0:0:
206,57,114505,1,2,0:3:0:0:
222,74,114622,1,2,0:0:0:0:
332,171,114856,2,0,B|372:174|386:188|430:196,1,96,2|2,3:2|0:3,0:0:0:0:
196,247,115325,6,0,B|135:274|65:275|-4:309,1,192,2|2,0:0|0:0,0:0:0:0:
88,177,116028,1,2,0:3:0:0:
205,350,116263,1,2,0:0:0:0:
252,350,116380,1,2,0:3:0:0:
279,151,116614,1,2,0:3:0:0:
232,151,116731,1,2,3:2:0:0:
396,324,116966,2,0,P|412:278|454:216,1,96,2|2,0:3|0:0,0:0:0:0:
464,47,117435,6,0,B|407:73|383:149|318:169,1,192,8|2,3:0|0:3,0:0:0:0:
141,31,118138,1,2,0:0:0:0:
182,55,118255,1,2,0:3:0:0:
173,32,118372,1,2,0:0:0:0:
243,252,118606,2,0,P|259:297|284:338,1,96,2|2,3:2|0:3,0:0:0:0:
128,163,119075,6,0,B|134:260|82:285|19:252|42:213,1,192,2|2,0:0|0:0,0:0:0:0:
78,35,119778,1,2,0:3:0:0:
244,101,120013,1,2,0:0:0:0:
291,93,120130,1,2,0:3:0:0:
306,75,120247,2,0,P|304:50|285:13,1,48,0|2,3:0|0:3,0:0:0:0:
465,87,120481,1,0,3:0:0:0:
451,90,120599,1,0,3:0:0:0:
418,125,120716,1,2,0:3:0:0:
409,172,120833,1,2,0:3:0:0:
423,218,120950,1,2,1:2:0:0:
215,331,121185,6,0,P|73:340|25:372,1,192,6|8,3:2|0:0,0:0:0:0:
122,216,121888,1,2,0:0:0:0:
115,168,122005,1,2,0:3:0:0:
91,172,122122,2,0,L|101:224,1,48,2|0,0:0|0:0,0:0:0:0:
222,232,122356,2,0,L|235:133,1,96,2|2,3:2|0:3,0:0:0:0:
404,39,122825,5,2,0:0:0:0:
404,39,122942,1,2,0:0:0:0:
404,39,123060,1,2,3:2:0:0:
382,179,123294,2,0,P|427:188|470:164,1,96,2|2,0:0|0:3,0:0:0:0:
280,85,123763,1,2,0:0:0:0:
231,76,123880,2,0,L|181:67,1,48,2|0,0:3|0:0,0:0:0:0:
7,96,124114,1,2,0:3:0:0:
55,105,124231,1,2,3:2:0:0:
198,274,124466,2,0,L|216:174,1,96,2|2,0:3|0:0,0:0:0:0:
403,34,124935,6,0,P|431:73|495:85,2,96,8|0|2,3:0|0:0|0:3,0:0:0:0:
341,241,125638,1,2,0:0:0:0:
349,193,125755,1,2,0:3:0:0:
372,189,125872,2,0,L|412:248,1,48,2|0,0:0|0:0,0:0:0:0:
251,287,126106,2,0,L|155:351,1,96,2|2,3:2|0:3,0:0:0:0:
409,337,126575,5,2,0:0:0:0:
409,337,126692,1,2,0:0:0:0:
409,337,126810,1,2,3:2:0:0:
355,161,127044,2,0,P|371:119|381:63,1,96,2|2,0:0|0:3,0:0:0:0:
159,21,127513,1,2,0:0:0:0:
177,65,127630,2,0,P|197:68|228:91,1,48,2|0,0:3|0:0,0:0:0:0:
334,197,127864,1,2,0:3:0:0:
316,241,127981,1,2,3:2:0:0:
124,280,128216,2,0,P|86:248|86:187,1,96,2|2,0:3|0:0,0:0:0:0:
35,27,128685,6,0,L|133:44,2,96,8|0|2,3:0|0:0|0:3,0:0:0:0:
251,172,129388,1,2,0:0:0:0:
242,125,129505,1,2,0:3:0:0:
245,111,129622,2,0,L|258:44,1,48,2|0,0:0|0:0,0:0:0:0:
273,266,129856,2,0,L|247:400,1,96,2|2,3:2|0:3,0:0:0:0:
409,166,130325,5,2,0:0:0:0:
409,166,130442,1,2,0:0:0:0:
409,166,130560,1,2,3:2:0:0:
472,341,130794,2,0,P|437:319|398:249,1,96,2|2,0:0|0:3,0:0:0:0:
390,50,131263,1,2,0:0:0:0:
437,58,131380,2,0,P|435:28|442:-2,1,48,2|0,0:3|0:0,0:0:0:0:
318,122,131614,1,2,0:3:0:0:
280,150,131731,2,0,P|243:110|184:114,1,96,2|2,3:2|0:3,0:0:0:0:
0,26,132200,5,2,0:0:0:0:
0,26,132317,1,2,0:0:0:0:
0,26,132435,1,8,3:0:0:0:
65,183,132669,2,0,L|94:83,1,96,2|2,0:0|0:3,0:0:0:0:
240,251,133138,1,2,0:0:0:0:
242,298,133255,1,2,0:3:0:0:
263,308,133372,2,0,L|306:270,1,48,2|0,0:0|0:0,0:0:0:0:
141,274,133606,2,0,P|143:320|179:382,1,96,2|2,3:2|0:3,0:0:0:0:
376,354,134075,5,2,0:0:0:0:
376,354,134192,1,2,0:0:0:0:
376,354,134310,1,2,3:2:0:0:
389,182,134544,1,0,0:0:0:0:
217,169,134778,1,2,0:3:0:0:
204,341,135013,1,2,0:0:0:0:
228,299,135130,1,2,0:3:0:0:
269,323,135247,1,2,0:3:0:0:
245,364,135364,1,2,0:3:0:0:
204,341,135481,6,0,L|145:327,1,48,2|0,3:2|0:0,0:0:0:0:
8,325,135716,1,2,0:3:0:0:
21,320,135833,1,2,0:3:0:0:
34,315,135950,1,2,0:3:0:0:
108,216,136185,5,4,3:2:0:0:
59,73,150247,5,2,0:3:0:0:
60,87,150364,1,2,0:3:0:0:
61,101,150481,1,2,0:3:0:0:
62,115,150599,1,2,0:3:0:0:
63,129,150716,1,2,0:3:0:0:
159,250,150950,1,2,0:3:0:0:
160,264,151067,1,2,0:3:0:0:
161,278,151185,6,0,B|195:220|157:126|204:69,1,192,8|8,3:2|3:2,0:0:0:0:
190,90,152005,1,2,0:0:0:0:
189,79,152122,1,8,0:0:0:0:
16,180,152356,2,0,B|52:168|83:187|119:166,1,96,2|8,0:0|0:0,0:0:0:0:
110,170,152708,1,2,0:0:0:0:
110,170,152825,1,2,0:0:0:0:
308,77,153060,6,0,P|319:125|350:173,2,96,8|2|8,0:0|0:0|0:0,0:0:0:0:
474,10,153763,1,2,0:0:0:0:
476,24,153880,2,0,B|463:46|482:126|449:189,1,144,2|2,0:0|0:0,0:0:0:0:
369,357,154466,2,0,B|360:342|372:289|351:247,1,96,8|2,0:0|0:0,0:0:0:0:
223,203,154935,5,8,0:0:0:0:
223,203,155403,1,8,0:0:0:0:
84,246,155638,2,0,P|110:242|136:259,1,48,2|0,0:0|0:0,0:0:0:0:
260,298,155872,2,0,P|208:306|156:272,1,96,8|2,0:0|0:0,0:0:0:0:
37,138,156341,2,0,L|28:77,2,48,8|0|2,0:0|0:0|0:0,0:0:0:0:
257,178,156810,6,0,P|270:139|283:79,1,96,8|2,0:0|0:0,0:0:0:0:
155,107,157278,1,8,0:0:0:0:
52,243,157513,1,8,3:0:0:0:
40,248,157630,1,2,0:3:0:0:
16,289,157747,5,0,1:0:0:0:
62,298,157864,1,0,1:0:0:0:
94,333,157981,2,0,B|127:326|127:326|140:365,1,72.0000027465821,8|0,1:2|0:0,0:0:0:0:
317,347,158216,2,0,B|249:360|249:360|225:283,1,144.000005493164,8|0,1:2|0:0,0:0:0:0:
474,22,158685,5,4,1:2:0:0:
417,205,158919,1,0,1:0:0:0:
323,187,159153,5,0,1:0:0:0:
271,18,159388,1,0,1:0:0:0:
177,37,159622,5,0,1:0:0:0:
134,178,159856,1,0,1:0:0:0:
40,95,160091,5,0,1:0:0:0:
40,95,160208,1,0,1:0:0:0:
40,95,160325,1,0,1:0:0:0:
165,318,160560,5,4,1:2:0:0:
321,243,160794,1,0,1:0:0:0:
170,160,161028,1,0,1:0:0:0:
14,235,161263,2,0,P|40:238|71:257,1,48,0|2,1:0|0:0,0:0:0:0:
9,207,161497,5,0,1:0:0:0:
9,80,161731,1,0,1:0:0:0:
146,351,161966,1,0,1:0:0:0:
375,351,162200,1,0,1:0:0:0:
503,177,162435,5,4,1:2:0:0:
512,223,162552,1,0,1:0:0:0:
494,267,162669,1,0,1:0:0:0:
456,296,162786,1,0,1:0:0:0:
420,265,162903,1,0,1:0:0:0:
406,219,163020,1,0,1:0:0:0:
392,172,163138,1,0,1:0:0:0:
378,126,163255,1,0,1:0:0:0:
342,95,163372,1,0,1:0:0:0:
304,124,163489,1,0,1:0:0:0:
286,168,163606,1,0,1:0:0:0:
295,214,163724,1,0,1:0:0:0:
312,262,163841,5,0,1:0:0:0:
312,262,163958,2,0,B|312:280|312:280|278:278,6,36.0000013732911,0|0|0|0|0|0|0,1:0|1:0|1:0|1:0|1:0|1:0|1:0,0:0:0:0:
368,82,165247,5,0,1:0:0:0:
376,34,165364,1,0,1:0:0:0:
144,181,165599,5,0,1:0:0:0:
136,133,165716,2,0,P|128:118|114:108,2,24,0|0|2,3:0|3:0|3:2,0:0:0:0:
253,347,166185,6,0,B|245:328|258:302|258:302|275:321|276:346,1,96,2|0,3:2|3:0,0:0:0:0:
512,222,166653,6,0,B|457:197|457:197|393:219|393:219|323:196,1,192,14|0,0:0|0:0,0:0:0:0:
304,108,167005,1,2,1:2:0:0:
313,97,167122,1,0,3:0:0:0:
480,27,167356,6,0,L|492:94,1,48,2|0,0:0|0:0,0:0:0:0:
445,162,167591,2,0,B|435:115|435:115|460:63,1,96,8|0,0:0|0:0,0:0:0:0:
153,13,168060,6,0,B|187:31|187:31|184:71,1,72.0000027465821,2|0,3:2|0:0,0:0:0:0:
323,164,168294,2,0,B|322:179|335:208|333:235,1,72.0000027465821,2|0,0:0|0:0,0:0:0:0:
137,360,168528,2,0,B|171:363|171:363|189:329,1,72.0000027465821,10|0,0:0|0:0,0:0:0:0:
134,176,168763,5,2,1:2:0:0:
114,220,168880,1,2,1:2:0:0:
392,316,169231,6,0,P|423:316|450:323,1,48,2|0,0:0|0:0,0:0:0:0:
450,203,169466,1,8,0:0:0:0:
423,216,169583,1,0,3:0:0:0:
397,202,169700,1,2,1:2:0:0:
113,232,169935,6,0,B|106:189|106:189|10:157|10:157|3:107,1,192,2|0,3:2|0:0,0:0:0:0:
231,20,170403,2,0,B|241:76|241:76|271:130|271:130|259:210,1,192,10|0,0:0|0:0,0:0:0:0:
260,314,170755,1,2,1:2:0:0:
259,299,170872,1,0,3:0:0:0:
429,95,171106,6,0,P|455:105|449:129,1,48,2|0,0:0|0:0,0:0:0:0:
445,266,171341,2,0,B|439:343|439:343|466:377,1,96,8|0,0:0|0:0,0:0:0:0:
99,357,171810,6,0,B|134:334|134:334|131:366,1,72.0000027465821,2|0,3:2|0:0,0:0:0:0:
41,202,172044,2,0,B|24:176|24:176|11:216,1,72.0000027465821,2|0,0:0|0:0,0:0:0:0:
248,260,172278,2,0,B|268:247|302:262|319:233,1,72.0000027465821,10|0,0:0|0:0,0:0:0:0:
193,136,172513,5,2,1:2:0:0:
159,101,172630,1,2,1:2:0:0:
439,81,172981,6,0,P|439:45|364:5,1,96,2|0,0:0|0:0,0:0:0:0:
391,181,173216,2,0,B|428:186|428:186|447:197|447:197|484:200,1,96,10|0,0:0|0:0,0:0:0:0:
419,376,173450,2,0,P|424:329|460:300,1,96,2|0,1:2|0:0,0:0:0:0:
308,262,173685,5,0,3:0:0:0:
302,275,173802,1,0,3:0:0:0:
299,289,173919,1,0,3:0:0:0:
290,300,174036,1,0,3:0:0:0:
252,272,174153,6,0,B|214:238|214:238|126:257|126:257|104:319,1,192,14|0,0:0|0:0,0:0:0:0:
199,365,174505,1,2,1:2:0:0:
195,351,174622,1,0,3:0:0:0:
10,136,174856,6,0,P|27:152|71:171,1,48,2|0,0:0|0:0,0:0:0:0:
261,121,175091,2,0,P|248:74|246:27,1,96,8|0,0:0|0:0,0:0:0:0:
73,29,175560,6,0,B|40:22|40:22|36:33|36:33|-4:24,1,72.0000027465821,2|0,3:2|0:0,0:0:0:0:
199,205,175794,2,0,B|164:209|164:209|127:233,1,72.0000027465821,2|0,0:0|0:0,0:0:0:0:
335,347,176028,2,0,B|348:334|348:334|371:319|371:319|385:297,1,72.0000027465821,10|0,0:0|0:0,0:0:0:0:
225,301,176263,5,2,1:2:0:0:
231,348,176380,1,2,1:2:0:0:
295,35,176731,6,0,L|287:83,1,48,2|0,0:0|0:0,0:0:0:0:
124,112,176966,1,8,0:0:0:0:
110,87,177083,1,0,3:0:0:0:
95,62,177200,1,2,1:2:0:0:
226,186,177435,6,0,B|237:239|237:239|180:297|180:297|196:351,1,192,2|0,3:2|0:0,0:0:0:0:
480,36,177903,2,0,B|435:63|435:63|439:146|439:146|370:201,1,192,10|0,0:0|0:0,0:0:0:0:
312,131,178255,1,2,1:2:0:0:
308,116,178372,1,0,3:0:0:0:
125,133,178606,6,0,L|71:145,1,48,2|0,0:0|0:0,0:0:0:0:
25,211,178841,1,8,0:0:0:0:
37,203,178958,1,0,1:0:0:0:
49,196,179075,1,0,3:0:0:0:
62,190,179192,1,0,3:0:0:0:
323,254,179544,5,0,0:0:0:0:
323,254,179778,1,8,0:0:0:0:
323,254,180013,1,0,0:0:0:0:
290,362,180247,5,0,1:0:0:0:
275,359,180364,1,0,1:0:0:0:
260,356,180481,1,0,1:0:0:0:
245,353,180599,1,0,1:0:0:0:
230,351,180716,6,0,L|197:355,1,24,2|0,0:0|0:0,0:0:0:0:
35,225,180950,2,0,L|29:181,1,36.0000013732911,2|0,1:2|0:0,0:0:0:0:
103,336,181185,6,0,P|118:292|157:264,1,96,2|0,3:2|3:0,0:0:0:0:
453,186,181653,6,0,B|417:109|417:109|387:96|387:96|341:30,1,192,14|0,0:0|0:0,0:0:0:0:
448,20,182005,1,2,1:2:0:0:
461,23,182122,1,0,3:0:0:0:
113,25,182356,6,0,L|58:18,1,48,2|0,0:0|0:0,0:0:0:0:
141,172,182591,2,0,L|205:83,1,96,8|0,0:0|0:0,0:0:0:0:
472,274,183060,6,0,P|481:310|478:356,1,72.0000027465821,2|0,3:2|0:0,0:0:0:0:
286,182,183294,2,0,P|287:206|259:187,1,72.0000027465821,2|0,0:0|0:0,0:0:0:0:
69,97,183528,2,0,P|59:60|63:15,1,72.0000027465821,10|0,0:0|0:0,0:0:0:0:
125,205,183763,5,2,1:2:0:0:
80,222,183880,1,2,1:2:0:0:
356,339,184231,6,0,L|364:281,1,48,2|0,0:0|0:0,0:0:0:0:
231,184,184466,1,8,0:0:0:0:
228,155,184583,1,0,3:0:0:0:
225,126,184700,1,2,1:2:0:0:
13,349,184935,6,0,B|63:337|63:337|150:360|150:360|200:348,1,192,2|0,3:2|0:0,0:0:0:0:
330,139,185403,2,0,B|398:133|398:133|414:196|414:196|494:234,1,192,10|0,0:0|0:0,0:0:0:0:
487,316,185755,1,2,1:2:0:0:
472,317,185872,1,0,3:0:0:0:
487,74,186106,6,0,P|486:47|477:12,1,48,2|0,0:0|0:0,0:0:0:0:
342,113,186341,2,0,B|296:105|296:105|304:55,1,96,8|0,0:0|0:0,0:0:0:0:
193,353,186810,6,0,P|184:318|160:292,1,72.0000027465821,2|0,3:2|0:0,0:0:0:0:
316,258,187044,2,0,P|341:232|375:224,1,72.0000027465821,2|0,0:0|0:0,0:0:0:0:
193,32,187278,2,0,B|157:33|157:33|125:17,1,72.0000027465821,10|0,0:0|0:0,0:0:0:0:
32,172,187513,5,2,1:2:0:0:
78,165,187630,1,2,1:2:0:0:
482,132,187981,6,0,P|477:85|481:31,1,96,2|0,0:0|0:0,0:0:0:0:
340,199,188216,2,0,P|383:218|427:248,1,96,10|0,0:0|0:0,0:0:0:0:
355,45,188450,2,0,P|316:72|268:96,1,96,10|0,0:0|0:0,0:0:0:0:
209,217,188685,5,0,3:0:0:0:
197,208,188802,1,0,3:0:0:0:
187,196,188919,1,0,3:0:0:0:
172,193,189036,1,0,3:0:0:0:
143,154,189153,6,0,B|79:171|79:171|73:230|73:230|6:250,1,192,14|0,0:0|0:0,0:0:0:0:
67,346,189505,1,2,1:2:0:0:
71,332,189622,1,0,3:0:0:0:
17,95,189856,6,0,L|25:41,1,48,2|0,0:0|0:0,0:0:0:0:
208,43,190091,2,0,B|253:28|253:28|317:25,1,96,8|0,0:0|0:0,0:0:0:0:
467,132,190560,6,0,P|468:171|476:220,1,72.0000027465821,2|0,3:2|0:0,0:0:0:0:
253,202,190794,2,0,P|254:237|258:273,1,72.0000027465821,2|0,0:0|0:0,0:0:0:0:
44,343,191028,2,0,B|39:307|39:307|38:271,1,72.0000027465821,10|0,0:0|0:0,0:0:0:0:
130,182,191263,5,2,1:2:0:0:
86,164,191380,1,2,1:2:0:0:
376,341,191731,6,0,L|449:346,1,48,2|0,0:0|0:0,0:0:0:0:
276,367,191966,1,8,0:0:0:0:
384,149,192200,2,0,L|448:114,1,48,2|0,0:0|0:0,0:0:0:0:
291,112,192435,6,0,B|245:33|245:33|191:10,2,144.000005493164,0|2|8,3:0|0:0|0:0,0:0:0:0:
53,90,193138,2,0,B|71:77|71:77|72:122,1,48,2|0,0:0|0:0,0:0:0:0:
71,102,193372,1,0,3:0:0:0:
234,327,193606,2,0,B|260:336|260:336|292:321,1,48,2|0,0:0|0:0,0:0:0:0:
256,234,193841,1,8,0:0:0:0:
442,96,194075,2,0,B|442:81|442:81|446:71|446:71|448:45,3,36.0000013732911,2|0|0|0,0:0|0:0|0:0|0:0,0:0:0:0:
448,62,194310,5,0,3:0:0:0:
452,66,195247,1,0,3:0:0:0:
452,66,195481,2,0,L|449:123,1,48,0|0,1:0|1:0,0:0:0:0:
442,266,195716,1,0,1:0:0:0:
452,312,195833,1,0,1:0:0:0:
462,358,195950,1,2,1:3:0:0:
282,281,196185,6,0,B|261:286|255:301|225:308,1,48,0|0,3:0|0:0,0:0:0:0:
62,363,196653,5,14,0:0:0:0:
94,152,196888,1,2,0:0:0:0:
94,152,197005,1,2,0:0:0:0:
94,152,197122,1,0,3:0:0:0:
11,269,197356,2,0,P|62:255|117:249,1,96,2|8,0:0|0:0,0:0:0:0:
287,104,197825,6,0,B|211:90|205:23|97:12,1,192,2|2,0:0|0:0,0:0:0:0:
39,164,198528,1,8,0:0:0:0:
206,192,198763,2,0,L|217:272,1,48,2|0,0:0|0:0,0:0:0:0:
212,239,198997,1,0,3:0:0:0:
234,367,199231,1,2,0:0:0:0:
407,280,199466,2,0,B|449:254|449:254|467:207,1,96,8|2,0:0|1:2,0:0:0:0:
304,16,199935,6,0,P|330:108|323:204,1,192,0|8,3:0|0:0,0:0:0:0:
483,380,200638,1,2,0:0:0:0:
483,380,200755,1,2,0:0:0:0:
483,380,200872,1,0,3:0:0:0:
451,179,201106,2,0,P|442:133|440:76,1,96,2|8,0:0|0:0,0:0:0:0:
207,191,201575,6,0,B|224:244|309:235|356:305,1,192,2|2,0:0|0:0,0:0:0:0:
156,358,202278,1,8,0:0:0:0:
54,230,202513,2,0,L|12:209,1,48,2|0,0:0|0:0,0:0:0:0:
113,156,202747,5,0,3:0:0:0:
116,60,202981,1,2,1:2:0:0:
402,60,203216,5,8,0:0:0:0:
399,155,203450,1,2,1:2:0:0:
262,130,203685,6,0,B|262:111|249:101|251:83,1,48,0|0,3:0|0:0,0:0:0:0:
306,294,204153,6,0,B|278:304|259:350|215:367,1,96,14|0,0:0|0:0,0:0:0:0:
234,356,204505,1,2,0:0:0:0:
234,356,204622,1,0,3:0:0:0:
56,328,204856,2,0,P|100:329|136:283,1,96,2|8,0:0|0:0,0:0:0:0:
113,15,205325,6,0,P|78:74|90:221,1,192,2|2,0:0|0:0,0:0:0:0:
256,104,206028,1,8,0:0:0:0:
434,194,206263,1,2,0:0:0:0:
434,194,206380,1,2,0:0:0:0:
434,194,206497,1,0,3:0:0:0:
315,205,206731,1,2,0:0:0:0:
478,101,206966,2,0,P|464:53|460:3,1,96,8|2,0:0|1:2,0:0:0:0:
294,178,207435,6,0,B|245:220|293:292|258:369,1,192,0|8,3:0|0:0,0:0:0:0:
410,243,208138,1,2,0:0:0:0:
410,243,208255,1,2,0:0:0:0:
410,243,208372,1,0,3:0:0:0:
132,258,208606,1,2,0:0:0:0:
284,344,208841,1,8,0:0:0:0:
258,52,209075,2,0,P|258:75|251:98,1,48,2|0,0:0|0:0,0:0:0:0:
137,229,209310,6,0,B|187:172|240:171|270:245|323:276|411:270|450:210|406:139|368:143|350:178,1,384,2|0,3:2|0:0,0:0:0:0:
256,192,211185,5,6,0:0:0:0:
