osu file format v14

[General]
AudioFilename: audio.mp3
AudioLeadIn: 0
PreviewTime: 31
Countdown: 0
SampleSet: Soft
StackLeniency: 0.7
Mode: 0
LetterboxInBreaks: 0
WidescreenStoryboard: 1

[Editor]
Bookmarks: 31,12418,24805,37192,49579,61966,74353,86740,99127,111514
DistanceSpacing: 1
BeatDivisor: 4
GridSize: 32
TimelineZoom: 1

[Metadata]
Title:Calling (osu! edit)
TitleUnicode:Calling (osu! edit)
Artist:rejection
ArtistUnicode:rejection
Creator:Realazy
Version:Normal
Source:
Tags:cubby cubbby altai undeadphoneguy dubstep psytrance psystyle future bass MEGAREX PSY DUBSTEP XPERIA electronic instrumental short cut ver fa featured artist
BeatmapID:2996942
BeatmapSetID:1458359

[Difficulty]
HPDrainRate:3
CircleSize:3
OverallDifficulty:4
ApproachRate:5.5
SliderMultiplier:1.2
SliderTickRate:1

[Events]
//Background and Video events
0,0,"calling.jpg",0,0
//Break Periods
//Storyboard Layer 0 (Background)
//Storyboard Layer 1 (Fail)
//Storyboard Layer 2 (Pass)
//Storyboard Layer 3 (Foreground)
//Storyboard Layer 4 (Overlay)
//Storyboard Sound Samples

[TimingPoints]
31,387.096774193548,4,2,1,70,1,0
31,-111.111111111111,4,2,1,70,0,0
10289,-111.111111111111,4,2,1,50,0,0
10869,-111.111111111111,4,2,1,80,0,0
12418,-100,4,2,1,80,0,0
21901,-100,4,2,1,60,0,0
21998,-83.3333333333333,4,2,1,62,0,0
22094,-71.4285714285714,4,2,1,64,0,0
22191,-62.5,4,2,1,66,0,0
22288,-55.5555555555556,4,2,1,68,0,0
22385,-50,4,2,1,70,0,0
22482,-45.4545454545455,4,2,1,72,0,0
22578,-41.6666666666667,4,2,1,74,0,0
22675,-38.4615384615385,4,2,1,76,0,0
22772,-35.7142857142857,4,2,1,78,0,0
22869,-33.3333333333333,4,2,1,80,0,0
22965,-31.25,4,2,1,82,0,0
23062,-29.4117647058824,4,2,1,84,0,0
23159,-27.7777777777778,4,2,1,86,0,0
23643,-111.111111111111,4,2,1,80,0,0
25192,-90.9090909090909,4,2,1,90,0,0
43289,-90.9090909090909,4,2,1,5,0,0
43385,-90.9090909090909,4,2,1,90,0,0
48030,-111.111111111111,4,2,1,90,0,0
49579,-100,4,2,2,80,0,0
61966,-125,4,2,2,80,0,0
63127,-100,4,2,2,80,0,0
74353,-111.111111111111,4,2,1,70,0,0
80547,-111.111111111111,4,2,1,80,0,0
82095,-111.111111111111,4,2,1,90,0,0
83837,-111.111111111111,4,2,1,60,0,0
83934,-111.111111111111,4,2,1,62,0,0
84030,-111.111111111111,4,2,1,64,0,0
84127,-111.111111111111,4,2,1,66,0,0
84224,-111.111111111111,4,2,1,68,0,0
84321,-111.111111111111,4,2,1,70,0,0
84418,-111.111111111111,4,2,1,72,0,0
84514,-111.111111111111,4,2,1,74,0,0
84611,-111.111111111111,4,2,1,76,0,0
84708,-111.111111111111,4,2,1,78,0,0
84805,-111.111111111111,4,2,1,80,0,0
84901,-111.111111111111,4,2,1,82,0,0
84998,-111.111111111111,4,2,1,84,0,0
85095,-111.111111111111,4,2,1,86,0,0
85579,-111.111111111111,4,2,1,70,0,0
87127,-100,4,2,1,70,0,0
90224,-100,4,2,1,80,0,0
90611,-83.3333333333333,4,2,1,100,0,0
90950,-83.3333333333333,4,2,1,5,0,0
90998,-83.3333333333333,4,2,1,100,0,0
91724,-83.3333333333333,4,2,1,5,0,0
91772,-83.3333333333333,4,2,1,100,0,0
92353,-83.3333333333333,4,2,1,90,0,0
92692,-83.3333333333333,4,2,1,5,0,0
92740,-83.3333333333333,4,2,1,100,0,0
95595,-83.3333333333333,4,2,1,5,0,0
95643,-83.3333333333333,4,2,1,90,0,0
96030,-83.3333333333333,4,2,1,100,0,0
97966,-83.3333333333333,4,2,1,90,0,0
99127,-83.3333333333333,4,2,1,80,0,0
100676,-83.3333333333333,4,2,1,90,0,0
101837,-83.3333333333333,4,2,1,80,0,0
101982,-83.3333333333333,4,2,1,5,0,0
102030,-83.3333333333333,4,2,1,80,0,0
102176,-83.3333333333333,4,2,1,5,0,0
102224,-100,4,2,1,100,0,0
102998,-83.3333333333333,4,2,1,100,0,0
103337,-83.3333333333333,4,2,1,5,0,0
103385,-83.3333333333333,4,2,1,100,0,0
104111,-83.3333333333333,4,2,1,5,0,0
104159,-83.3333333333333,4,2,1,100,0,0
104934,-83.3333333333333,4,2,1,90,0,0
105708,-83.3333333333333,4,2,1,100,0,0
107982,-83.3333333333333,4,2,1,5,0,0
108030,-83.3333333333333,4,2,1,100,0,0
108418,-90.9090909090909,4,2,1,90,0,0
110353,-111.111111111111,4,2,1,80,0,0
114611,-111.111111111111,4,2,1,5,0,0

[Colours]
Combo1 : 250,22,22
Combo2 : 184,69,69

[HitObjects]
377,323,31,6,0,P|324:304|317:249,2,107.999996704102,0|0|0,1:0|0:0|0:0,0:0:0:0:
476,131,1579,2,0,L|485:50,2,80.9999975280763,8|8|8,0:0|0:0|0:0,0:0:0:0:
417,187,2450,1,8,0:0:0:0:
361,128,2740,2,0,L|307:120,1,53.9999983520508,8|0,0:0|1:0,0:0:0:0:
254,111,3127,6,0,B|230:133|230:133|236:208,1,107.999996704102,2|0,1:0|0:0,1:0:0:0:
251,315,3901,1,0,0:0:0:0:
37,351,4676,2,0,B|20:335|20:335|24:277,2,80.9999975280763,8|8|8,0:0|0:0|0:0,0:0:0:0:
85,374,5450,1,4,3:0:0:0:
158,294,5837,1,8,3:2:0:0:
243,359,6224,6,0,L|350:345,2,107.999996704102,0|0|0,1:0|0:0|0:0,0:0:0:0:
101,195,7772,2,0,L|20:183,2,80.9999975280763,8|8|8,0:0|0:0|0:0,0:0:0:0:
150,130,8643,1,8,0:0:0:0:
202,67,8934,2,0,L|255:70,1,53.9999983520508,8|0,0:0|1:0,0:0:0:0:
299,103,9321,1,0,1:0:0:0:
297,101,10869,6,0,P|348:96|370:49,2,107.999996704102,10|10|8,0:0|0:0|0:0,0:0:0:0:
228,184,12030,1,8,3:2:0:0:
324,255,12418,6,0,B|346:224|346:224|437:233,1,120,4|0,1:0|1:0,0:0:0:0:
490,248,12998,1,2,0:1:0:0:
490,248,13192,1,2,1:0:0:0:
450,361,13579,1,0,1:0:0:0:
330,353,13966,2,0,L|210:341,1,120,2|0,1:3|1:0,0:0:0:0:
168,384,14547,1,2,0:1:0:0:
168,384,14740,1,2,1:0:0:0:
67,318,15127,1,2,1:3:0:0:
149,230,15514,6,0,B|173:201|173:201|163:119,1,120,0|0,1:0|1:0,0:0:0:0:
152,60,16095,1,2,0:1:0:0:
152,60,16289,1,2,1:0:0:0:
269,38,16676,1,0,1:0:0:0:
327,142,17063,1,2,1:3:0:0:
426,74,17450,2,0,L|418:14,2,60,2|2|0,1:3|0:3|1:0,0:0:0:0:
464,126,18030,1,0,0:0:0:0:
464,126,18224,1,2,1:0:0:0:
376,208,18611,6,0,B|362:185|362:185|298:168|298:168|275:182,1,120,0|0,1:0|1:0,1:0:0:0:
248,298,19385,2,0,B|262:321|262:321|326:338|326:338|349:324,1,120,0|0,1:0|1:0,1:0:0:0:
458,260,20160,1,0,1:0:0:0:
458,260,20353,1,0,1:0:0:0:
458,260,20547,1,0,1:0:0:0:
424,144,20934,2,0,L|430:84,1,60,0|0,1:0|1:0,0:0:0:0:
400,32,21321,2,0,L|340:25,1,60,0|0,1:0|1:0,0:0:0:0:
288,55,21708,1,0,1:0:0:0:
256,192,21805,12,0,23256,1:0:0:0:
233,86,24030,6,0,L|175:75,1,53.9999983520508,0|0,3:0|3:0,3:0:0:0:
126,68,24418,2,0,L|116:14,2,53.9999983520508,2|2|0,0:0|0:0|1:0,0:0:0:0:
65,185,25192,6,0,L|-4:198,2,66.0000020141602,0|2|2,1:0|3:1|1:0,0:0:0:0:
156,280,25966,2,0,B|215:310|215:310|263:263,1,132.00000402832,0|0,1:0|1:0,0:0:0:0:
296,207,26547,1,2,3:1:0:0:
296,207,26740,2,0,L|286:141,2,66.0000020141602,0|2|2,1:0|3:1|1:0,0:0:0:0:
329,270,27321,1,0,0:0:0:0:
329,270,27514,1,0,1:0:0:0:
453,225,27901,5,0,1:0:0:0:
479,95,28289,2,0,L|490:30,2,66.0000020141602,0|2|2,1:0|3:1|1:0,0:0:0:0:
426,132,28869,1,0,0:0:0:0:
426,132,29063,2,0,B|369:124|369:124|358:107|358:107|304:99,1,132.00000402832,0|0,1:0|1:0,0:0:0:0:
179,56,29837,2,0,B|122:64|122:64|111:81|111:81|58:88,2,132.00000402832,0|0|0,1:0|1:0|0:0,0:0:0:0:
199,186,30998,5,2,1:2:0:0:
85,245,31386,1,8,1:2:0:0:
85,245,31579,1,2,3:1:0:0:
85,244,31773,2,0,B|56:274|56:274|66:363,2,132.00000402832,2|8|0,1:0|1:2|1:0,0:0:0:0:
214,303,32934,1,8,1:2:0:0:
214,303,33128,1,2,3:1:0:0:
214,303,33321,2,0,L|345:317,1,132.00000402832,2|8,1:0|1:2,0:0:0:0:
472,282,34095,1,2,1:0:0:0:
353,221,34483,5,8,1:2:0:0:
353,221,34676,1,2,3:1:0:0:
353,221,34870,2,0,P|323:173|343:96,1,132.00000402832,2|8,1:0|1:2,0:0:0:0:
398,77,35450,1,0,0:0:0:0:
398,77,35643,1,0,1:0:0:0:
92,326,36805,5,8,0:0:0:0:
92,326,36998,1,0,1:0:0:0:
92,326,37192,2,0,B|84:252|115:277|107:197,1,132.00000402832,0|0,1:0|3:0,0:0:0:0:
56,74,37966,6,0,P|186:88|221:215,1,264.000008056641,10|0,1:0|1:0,0:0:0:0:
305,319,39127,1,0,3:0:0:0:
305,319,39321,1,2,3:1:0:0:
305,319,39514,2,0,P|366:317|372:257,2,132.00000402832,10|0|0,1:0|1:0|1:0,0:0:0:0:
250,200,40676,5,0,3:0:0:0:
250,200,40869,1,2,3:1:0:0:
250,199,41063,2,0,P|233:91|144:156,1,264.000008056641,10|0,1:0|1:0,1:0:0:0:
192,280,42224,2,0,P|246:292|322:268,1,132.00000402832,0|8,1:0|1:0,1:0:0:0:
370,229,42805,1,0,1:0:0:0:
370,229,42998,1,8,1:0:0:0:
248,172,43385,6,0,L|118:147,1,132.00000402832,0|0,1:0|3:0,0:0:0:0:
90,86,43966,1,2,3:1:0:0:
90,86,44160,2,0,B|114:49|114:49|284:17|284:17|323:45,1,264.000008056641,10|0,1:0|1:0,0:0:0:0:
437,130,45321,1,0,3:0:0:0:
437,130,45514,1,2,3:1:0:0:
437,130,45708,2,0,B|454:96|454:96|433:4,1,132.00000402832,10|0,1:0|1:0,0:0:0:0:
349,105,46482,5,8,1:0:0:0:
349,105,46676,1,0,1:0:0:0:
349,105,46869,1,8,1:0:0:0:
411,221,47256,1,8,1:0:0:0:
411,221,47450,1,8,1:0:0:0:
411,221,47643,2,0,L|281:238,1,132.00000402832,8|0,1:0|1:0,1:0:0:0:
200,311,48418,2,0,P|114:279|179:216,1,215.999993408203,4|8,3:0|3:2,0:0:0:0:
262,129,49579,6,0,P|256:63|247:6,2,120,6|0|8,1:2|0:0|1:2,0:0:0:0:
339,220,50740,2,0,P|450:211|469:101,1,240,2|2,1:2|0:0,0:0:0:0:
440,48,51708,1,0,1:0:0:0:
440,48,51901,1,8,1:2:0:0:
361,138,52289,1,2,1:2:0:0:
271,65,52676,6,0,B|205:45|152:100|172:108|124:159|58:142,1,240,2|8,1:2|1:2,0:0:0:0:
8,175,53643,1,0,1:0:0:0:
7,175,53837,2,0,P|23:257|106:261,1,180,2|0,1:2|1:0,0:0:0:0:
154,225,54611,2,0,P|213:232|272:241,1,120,2|8,0:0|1:2,0:0:0:0:
369,170,55385,1,2,1:2:0:0:
447,260,55772,6,0,P|412:365|302:351,1,240,2|8,1:2|1:2,0:0:0:0:
187,315,56934,2,0,P|169:197|141:80,1,240,6|0,1:2|0:0,0:0:0:0:
106,31,57901,1,0,0:0:0:0:
106,31,58095,1,8,1:2:0:0:
17,112,58482,1,2,1:2:0:0:
67,220,58869,6,0,P|181:254|294:294,1,240,2|8,1:2|1:2,0:0:0:0:
399,353,60030,2,0,P|488:372|506:251,1,240,2|2,1:2|1:2,0:0:0:0:
472,203,60998,1,0,0:0:0:0:
472,203,61192,2,0,P|472:173|475:143,2,60,8|0|8,1:2|1:0|1:2,0:0:0:0:
369,218,61966,5,6,1:2:0:0:
368,217,63127,6,0,P|278:236|260:115,1,240,6|2,1:2|0:0,0:0:0:0:
308,84,64095,1,0,1:0:0:0:
308,84,64289,1,8,1:2:0:0:
214,8,64676,1,2,1:2:0:0:
107,63,65063,6,0,B|42:100|42:100|67:263,1,240,2|8,1:2|1:2,0:0:0:0:
117,304,66030,1,0,1:0:0:0:
117,304,66224,2,0,B|147:266|147:266|347:288,1,240,2|2,1:2|1:2,0:0:0:0:
401,298,67192,1,0,1:0:0:0:
401,298,67385,1,8,1:2:0:0:
330,201,67772,1,2,1:2:0:0:
442,155,68160,6,0,P|460:54|358:67,1,240,2|8,1:2|1:2,0:0:0:0:
246,23,69321,2,0,P|281:137|310:253,1,240,6|0,1:2|0:0,0:0:0:0:
328,311,70289,1,0,1:0:0:0:
328,311,70482,1,8,1:2:0:0:
426,242,70869,1,2,1:2:0:0:
395,126,71256,6,0,P|277:150|161:182,1,240,2|8,1:2|1:2,0:0:0:0:
115,221,72224,1,0,1:0:0:0:
114,221,72418,2,0,P|6:214|10:105,1,240,2|2,1:2|1:2,0:0:0:0:
53,64,73385,1,0,0:0:0:0:
53,64,73579,2,0,P|110:79|134:83,1,60,8|0,1:2|1:2,0:0:0:0:
170,89,73966,1,8,1:2:0:0:
309,104,74353,6,0,B|353:77|353:77|405:98,1,107.999996704102,0|0,1:0|1:0,0:0:0:0:
458,125,74934,1,2,0:1:0:0:
458,125,75127,1,2,1:0:0:0:
395,213,75514,1,0,1:0:0:0:
465,294,75901,2,0,B|449:322|449:322|373:331,1,107.999996704102,0|0,1:0|1:0,0:0:0:0:
327,303,76482,1,2,0:1:0:0:
327,303,76676,1,2,1:0:0:0:
250,378,77063,1,2,1:3:0:0:
169,305,77450,6,0,P|174:254|183:181,1,107.999996704102,0|0,1:0|1:0,0:0:0:0:
190,148,78030,1,2,0:1:0:0:
190,148,78224,1,2,1:0:0:0:
134,55,78611,1,0,1:0:0:0:
233,12,78998,1,0,1:0:0:0:
307,90,79385,2,0,L|360:85,2,53.9999983520508,0|0|0,1:0|0:0|1:0,0:0:0:0:
267,126,79966,1,0,0:0:0:0:
267,126,80160,1,0,1:0:0:0:
336,208,80547,6,0,L|443:196,1,107.999996704102,0|0,1:0|1:0,0:0:0:0:
415,300,81321,2,0,L|307:311,1,107.999996704102,0|0,1:0|1:0,0:0:0:0:
229,237,82095,1,0,1:0:0:0:
229,237,82289,1,0,1:0:0:0:
229,237,82482,1,0,1:0:0:0:
158,318,82869,2,0,L|104:324,1,53.9999983520508,0|0,1:0|1:0,1:0:0:0:
60,292,83256,2,0,L|53:238,1,53.9999983520508,0|0,1:0|1:0,1:0:0:0:
86,195,83643,1,0,1:0:0:0:
256,192,83740,12,0,85192,0:0:0:0:
342,139,85966,6,0,L|400:128,1,53.9999983520508,0|0,3:0|3:0,0:0:0:0:
449,121,86354,2,0,L|458:67,2,53.9999983520508,2|2|0,0:0|0:0|1:0,0:0:0:0:
256,192,87127,12,4,89837,1:0:0:0:
104,313,90611,6,0,B|60:291|15:280|15:280|43:179|47:90,2,287.999991210938,10|0|8,1:0|1:0|1:2,0:0:0:0:
152,355,92353,1,0,1:0:0:0:
152,355,92547,1,2,0:0:0:0:
250,270,92934,5,0,1:0:0:0:
369,368,93321,1,0,0:0:0:0:
369,368,93514,1,2,0:1:0:0:
369,368,93708,2,0,P|441:352|431:286,1,143.999995605469,10|0,1:0|0:0,0:0:0:0:
380,162,94482,1,0,1:0:0:0:
285,270,94869,1,0,0:0:0:0:
285,270,95062,1,2,0:1:0:0:
285,270,95256,2,0,P|213:254|223:188,1,143.999995605469,10|0,1:0|0:0,0:0:0:0:
241,54,96030,6,2,P|196:0|127:1,1,143.999995605469,2|2,1:0|0:1,1:0:0:0:
85,52,96611,1,2,0:1:0:0:
85,52,96805,2,2,P|79:124|67:198,2,143.999995605469,10|0|0,1:0|0:0|1:0,1:0:0:0:
395,368,98740,5,8,1:2:0:0:
395,368,98934,1,0,1:0:0:0:
395,367,99127,2,2,P|451:329|445:261,1,143.999995605469,0|0,1:0|3:0,1:0:0:0:
256,192,99611,12,2,102224,1:3:0:0:
231,261,102998,6,0,B|194:306|194:306|23:287|23:287|0:233,2,287.999991210938,10|0|8,1:0|1:0|1:2,0:0:0:0:
269,209,104740,1,0,1:0:0:0:
269,209,104934,1,8,0:0:0:0:
364,296,105321,5,2,1:3:0:0:
452,184,105708,1,0,0:0:0:0:
452,184,105901,1,2,0:1:0:0:
452,184,106095,2,0,P|436:112|370:122,1,143.999995605469,10|0,1:0|0:0,0:0:0:0:
287,226,106869,5,2,1:3:0:0:
216,113,107256,1,0,0:0:0:0:
216,113,107450,1,2,0:1:0:0:
216,113,107643,2,0,P|146:95|75:82,1,143.999995605469,10|0,1:0|1:0,0:0:0:0:
8,199,108418,5,10,1:2:0:0:
8,199,108611,1,0,1:0:0:0:
8,199,108805,1,8,1:2:0:0:
115,294,109192,1,8,1:2:0:0:
115,294,109385,1,8,1:2:0:0:
115,294,109579,2,0,L|182:288,1,66.0000020141602,10|8,1:2|1:2,3:0:0:0:
246,283,109966,1,0,1:0:0:0:
313,199,110353,2,0,P|313:104|218:112,1,215.999993408203,4|8,3:0|3:2,0:0:0:0:
154,202,111514,5,2,0:0:0:0:
256,192,111611,12,0,114611,0:0:0:0:
