osu file format v14

[General]
AudioFilename: audio.mp3
AudioLeadIn: 0
PreviewTime: 31
Countdown: 0
SampleSet: Soft
StackLeniency: 0.7
Mode: 0
LetterboxInBreaks: 0
WidescreenStoryboard: 1

[Editor]
Bookmarks: 31,12418,24805,37192,49579,61966,74353,86740,99127,111514
DistanceSpacing: 0.3
BeatDivisor: 4
GridSize: 32
TimelineZoom: 2.3

[Metadata]
Title:Calling (osu! edit)
TitleUnicode:Calling (osu! edit)
Artist:rejection
ArtistUnicode:rejection
Creator:Realazy
Version:Hard
Source:
Tags:cubby cubbby altai undeadphoneguy dubstep psytrance psystyle future bass MEGAREX PSY DUBSTEP XPERIA electronic instrumental short cut ver fa featured artist
BeatmapID:2996941
BeatmapSetID:1458359

[Difficulty]
HPDrainRate:4
CircleSize:3.8
OverallDifficulty:7
ApproachRate:8
SliderMultiplier:1.8
SliderTickRate:1

[Events]
//Background and Video events
0,0,"calling.jpg",0,0
//Break Periods
//Storyboard Layer 0 (Background)
//Storyboard Layer 1 (Fail)
//Storyboard Layer 2 (Pass)
//Storyboard Layer 3 (Foreground)
//Storyboard Layer 4 (Overlay)
//Storyboard Sound Samples

[TimingPoints]
31,387.096774193548,4,2,1,70,1,0
31,-111.111111111111,4,2,1,70,0,0
10289,-111.111111111111,4,2,1,50,0,0
10869,-111.111111111111,4,2,1,80,0,0
12418,-100,4,2,1,80,0,0
21998,-100,4,2,1,60,0,0
22095,-83.3333333333333,4,2,1,62,0,0
22191,-71.4285714285714,4,2,1,64,0,0
22288,-62.5,4,2,1,66,0,0
22385,-55.5555555555556,4,2,1,68,0,0
22482,-50,4,2,1,70,0,0
22579,-45.4545454545455,4,2,1,72,0,0
22675,-41.6666666666667,4,2,1,74,0,0
22772,-38.4615384615385,4,2,1,76,0,0
22869,-35.7142857142857,4,2,1,78,0,0
22966,-33.3333333333333,4,2,1,80,0,0
23062,-31.25,4,2,1,82,0,0
23159,-29.4117647058824,4,2,1,84,0,0
23256,-27.7777777777778,4,2,1,86,0,0
23643,-111.111111111111,4,2,1,80,0,0
25192,-90.9090909090909,4,2,1,90,0,0
43289,-90.9090909090909,4,2,1,5,0,0
43385,-90.9090909090909,4,2,1,90,0,0
48030,-111.111111111111,4,2,1,90,0,0
49579,-100,4,2,2,80,0,0
61966,-125,4,2,2,80,0,0
63127,-100,4,2,2,80,0,0
74353,-111.111111111111,4,2,1,70,0,0
80547,-111.111111111111,4,2,1,80,0,0
82095,-111.111111111111,4,2,1,90,0,0
83837,-111.111111111111,4,2,1,60,0,0
83934,-111.111111111111,4,2,1,62,0,0
84030,-111.111111111111,4,2,1,64,0,0
84127,-111.111111111111,4,2,1,66,0,0
84224,-111.111111111111,4,2,1,68,0,0
84321,-111.111111111111,4,2,1,70,0,0
84418,-111.111111111111,4,2,1,72,0,0
84514,-111.111111111111,4,2,1,74,0,0
84611,-111.111111111111,4,2,1,76,0,0
84708,-111.111111111111,4,2,1,78,0,0
84805,-111.111111111111,4,2,1,80,0,0
84901,-111.111111111111,4,2,1,82,0,0
84998,-111.111111111111,4,2,1,84,0,0
85095,-111.111111111111,4,2,1,86,0,0
85579,-111.111111111111,4,2,1,80,0,0
87127,-100,4,2,1,70,0,0
90224,-100,4,2,1,80,0,0
90611,-83.3333333333333,4,2,1,100,0,0
90950,-83.3333333333333,4,2,1,5,0,0
90998,-83.3333333333333,4,2,1,100,0,0
91724,-83.3333333333333,4,2,1,5,0,0
91772,-83.3333333333333,4,2,1,100,0,0
92353,-83.3333333333333,4,2,1,90,0,0
92692,-83.3333333333333,4,2,1,5,0,0
92740,-83.3333333333333,4,2,1,100,0,0
95595,-83.3333333333333,4,2,1,5,0,0
95643,-83.3333333333333,4,2,1,90,0,0
96030,-83.3333333333333,4,2,1,100,0,0
97966,-83.3333333333333,4,2,1,90,0,0
99127,-83.3333333333333,4,2,1,80,0,0
100676,-83.3333333333333,4,2,1,90,0,0
101837,-83.3333333333333,4,2,1,80,0,0
101982,-83.3333333333333,4,2,1,5,0,0
102030,-83.3333333333333,4,2,1,80,0,0
102176,-83.3333333333333,4,2,1,5,0,0
102224,-100,4,2,1,100,0,0
102998,-83.3333333333333,4,2,1,100,0,0
103337,-83.3333333333333,4,2,1,5,0,0
103385,-83.3333333333333,4,2,1,100,0,0
104111,-83.3333333333333,4,2,1,5,0,0
104159,-83.3333333333333,4,2,1,100,0,0
104934,-83.3333333333333,4,2,1,90,0,0
105708,-83.3333333333333,4,2,1,100,0,0
107982,-83.3333333333333,4,2,1,5,0,0
108030,-83.3333333333333,4,2,1,100,0,0
108418,-90.9090909090909,4,2,1,90,0,0
110353,-111.111111111111,4,2,1,80,0,0
114611,-111.111111111111,4,2,1,5,0,0

[Colours]
Combo1 : 250,22,22
Combo2 : 184,69,69

[HitObjects]
111,367,31,6,0,L|123:287,1,80.9999975280763,0|0,1:0|0:0,0:0:0:0:
44,234,418,2,0,L|4:242,2,40.4999987640381
139,276,805,2,0,L|151:196,1,80.9999975280763
79,47,1385,6,0,L|39:39,2,40.4999987640381,2|2|8,0:3|0:3|0:0,0:0:0:0:
172,12,1772,1,0,1:0:0:0:
176,0,1869,1,8,0:0:0:0:
245,78,2063,1,0,1:0:0:0:
258,75,2160,1,8,0:0:0:0:
159,127,2353,1,0,1:0:0:0:
146,130,2450,1,8,0:0:0:0:
233,190,2643,1,0,1:0:0:0:
235,204,2740,2,0,L|241:243,2,40.4999987640381,8|8|0,0:0|0:0|1:0,0:0:0:0:
245,78,3127,6,0,B|318:87|318:87|314:83|314:83|394:94,1,161.999995056153,2|0,1:0|0:0,1:0:0:0:
457,29,3708,1,0,0:0:0:0:
457,29,3901,2,0,B|427:-1|427:-1|389:2,1,80.9999975280763
245,219,4482,5,0,0:0:0:0:
245,219,4676,2,0,P|272:248|311:253,1,80.9999975280763,8|0,0:0|1:0,0:0:0:0:
328,248,4966,1,8,0:0:0:0:
419,215,5160,1,0,1:0:0:0:
433,220,5256,1,8,0:0:0:0:
474,310,5450,2,0,L|465:349,3,40.4999987640381,4|4|4|4,3:0|3:0|3:0|3:0,0:0:0:0:
395,314,5837,2,0,L|386:353,3,40.4999987640381,8|4|4|4,3:2|3:0|3:0|3:0,0:0:0:0:
315,383,6224,6,0,L|234:370,1,80.9999975280763,0|0,1:0|0:0,0:0:0:0:
191,283,6611,2,0,L|186:242,2,40.4999987640381
217,384,6998,2,0,L|136:371,1,80.9999975280763
19,185,7579,6,0,L|11:145,2,40.4999987640381,2|2|8,0:3|0:3|0:0,0:0:0:0:
112,200,7966,1,0,1:0:0:0:
108,182,8062,1,8,0:0:0:0:
201,197,8257,1,0,1:0:0:0:
205,215,8353,1,8,0:0:0:0:
298,230,8548,1,0,1:0:0:0:
294,212,8644,1,8,0:0:0:0:
387,227,8838,1,0,1:0:0:0:
391,245,8934,2,0,L|398:284,2,40.4999987640381,8|8|0,0:0|0:0|1:0,0:0:0:0:
366,128,9321,5,0,1:0:0:0:
366,128,10676,1,0,0:0:0:0:
431,56,10869,5,10,0:0:0:0:
331,38,11062,1,2,0:0:0:0:
331,38,11159,1,2,0:0:0:0:
331,38,11256,1,10,0:0:0:0:
231,20,11450,1,2,0:0:0:0:
133,47,11643,2,0,L|93:55,3,40.4999987640381,8|4|4|4,0:0|3:0|3:0|3:0,0:0:0:0:
129,126,12030,2,0,L|89:134,3,40.4999987640381,8|4|4|4,3:2|3:0|3:0|3:0,0:0:0:0:
14,94,12418,6,0,P|6:138|0:182,1,90,4|0,1:0|0:0,0:0:0:0:
80,258,12805,1,0,1:0:0:0:
80,258,12901,1,0,0:0:0:0:
80,258,12998,1,2,0:1:0:0:
0,329,13192,2,2,P|87:308|176:292,1,180,2|0,1:0|1:0,1:0:0:0:
249,358,13772,1,2,0:3:0:0:
318,253,13966,6,0,L|329:163,1,90,2|0,1:3|0:0,0:0:0:0:
392,84,14353,1,0,1:0:0:0:
329,13,14547,1,2,0:1:0:0:
408,87,14740,2,0,L|496:102,1,90,2|0,1:0|0:0,0:0:0:0:
496,102,15030,1,2,0:3:0:0:
496,102,15127,1,2,1:3:0:0:
429,190,15321,1,2,0:3:0:0:
467,288,15514,6,0,P|471:332|451:372,1,90,0|0,1:0|0:0,0:0:0:0:
357,351,15901,2,0,P|352:306|372:266,1,90,0|2,1:0|0:1,0:0:0:0:
306,186,16289,2,0,P|261:190|216:195,1,90,2|0,1:0|0:0,0:0:0:0:
163,255,16676,2,0,P|153:300|145:344,1,90,0|2,1:0|0:3,0:0:0:0:
239,384,17063,5,2,1:3:0:0:
63,286,17450,1,2,1:3:0:0:
63,286,17547,1,2,0:3:0:0:
63,286,17643,1,2,0:3:0:0:
109,201,17837,2,0,B|135:164|135:164|121:121,1,90,0|0,1:0|0:0,0:0:0:0:
30,153,18224,1,2,1:0:0:0:
178,44,18611,6,0,L|266:62,1,90,0|0,1:0|1:0,0:0:0:0:
311,150,18998,1,0,1:0:0:0:
311,150,19192,1,0,1:0:0:0:
281,52,19385,2,0,L|369:69,1,90,0|0,1:0|1:0,0:0:0:0:
444,5,19772,1,0,1:0:0:0:
444,5,19966,1,0,1:0:0:0:
512,76,20160,5,0,1:0:0:0:
510,89,20256,1,0,1:0:0:0:
508,102,20353,1,0,1:0:0:0:
506,115,20450,1,0,1:0:0:0:
504,128,20547,2,0,L|498:172,3,45,0|0|0|0,1:0|1:0|1:0|1:0,0:0:0:0:
424,148,20934,2,0,L|418:192,3,45,0|0|0|0,1:0|1:0|1:0|1:0,1:0:0:0:
344,168,21321,2,0,L|338:212,3,45,0|0|0|0,1:0|1:0|1:0|1:0,1:0:0:0:
331,292,21708,5,0,1:0:0:0:
256,192,21805,12,0,23256,1:0:0:0:
85,145,23643,6,0,L|78:105,4,40.4999987640381,2|2|2|2|0,3:0|3:0|3:0|3:0|3:0,0:0:0:0:
105,223,24224,1,0,3:0:0:0:
125,301,24418,2,0,L|131:340,2,40.4999987640381,2|2|2,0:0|0:0|0:0,0:0:0:0:
187,183,24805,6,0,L|266:197,1,80.9999975280763,0|0,1:0|0:0,0:0:0:0:
361,256,25192,1,0,1:0:0:0:
361,256,25289,1,0,3:0:0:0:
361,256,25385,1,2,3:1:0:0:
304,344,25579,2,0,L|451:331,1,148.50000453186,2|0,1:0|0:0,0:0:0:0:
466,329,25966,2,0,P|506:305|505:258,1,99.0000030212403,0|0,1:0|0:0,0:0:0:0:
442,212,26353,2,0,P|401:187|402:140,1,99.0000030212403,0|2,1:0|3:1,0:0:0:0:
479,63,26740,5,0,1:0:0:0:
479,63,26837,1,0,3:0:0:0:
479,63,26934,1,2,3:1:0:0:
399,5,27127,2,0,P|350:13|301:20,1,99.0000030212403,2|0,1:0|3:0,0:0:0:0:
301,20,27418,1,0,3:0:0:0:
301,20,27514,2,0,L|297:69,2,49.5000015106202,0|0|2,1:0|0:0|0:0,0:0:0:0:
258,148,27901,6,0,B|217:116|217:116|172:131,1,99.0000030212403,0|0,1:0|3:0,0:0:0:0:
52,66,28289,1,0,1:0:0:0:
52,66,28385,1,0,3:0:0:0:
52,66,28482,1,2,3:1:0:0:
142,47,28676,2,0,L|118:193,1,148.50000453186,2|0,1:0|3:0,0:0:0:0:
115,208,29063,2,0,L|13:235,1,99.0000030212403,0|0,1:0|3:0,0:0:0:0:
27,312,29450,2,0,L|122:286,1,99.0000030212403,0|0,1:0|3:0,0:0:0:0:
224,311,29837,6,0,L|212:359,2,49.5000015106202,0|0|0,1:0|0:0|3:0,0:0:0:0:
248,220,30224,1,0,1:0:0:0:
251,206,30321,1,0,1:0:0:0:
254,191,30418,1,0,1:0:0:0:
257,178,30514,1,0,1:0:0:0:
260,164,30611,1,0,0:0:0:0:
430,365,30998,6,0,B|477:350,2,49.5000015106202,2|0|0,1:2|0:0|0:0,0:0:0:0:
351,301,31385,5,8,1:2:0:0:
351,301,31482,1,0,3:0:0:0:
351,301,31578,2,0,P|392:278|390:231,1,99.0000030212403,2|2,3:1|1:0,0:0:0:0:
356,144,31966,1,0,3:0:0:0:
433,72,32160,2,0,P|385:58|282:30,1,148.50000453186,8|0,1:2|3:0,0:0:0:0:
270,26,32547,2,0,P|258:74|245:121,1,99.0000030212403,0|2,1:0|3:1,0:0:0:0:
160,188,32934,5,8,1:2:0:0:
160,188,33030,1,0,3:0:0:0:
160,188,33127,2,0,P|123:157|74:149,1,99.0000030212403,2|2,3:1|1:0,0:0:0:0:
1,85,33514,1,0,3:0:0:0:
72,22,33708,2,2,L|120:33,2,49.5000015106202,8|0|0,1:2|0:0|0:0,1:0:0:0:
74,148,34095,6,2,B|85:162|85:162|75:218|75:218|56:230,1,99.0000030212403,2|0,1:0|0:0,1:0:0:0:
0,326,34482,1,8,1:2:0:0:
0,326,34579,1,0,3:0:0:0:
0,326,34676,2,0,B|25:308|25:308|92:318,1,99.0000030212403,2|2,3:1|1:0,0:0:0:0:
176,258,35063,1,0,3:0:0:0:
230,353,35256,2,0,P|298:348|309:280,1,148.50000453186,8|0,1:2|3:0,0:0:0:0:
304,268,35643,6,0,B|328:230|328:230|477:213|477:213|512:285|512:285|392:299,1,396.000012084961
336,357,36611,1,0,1:0:0:0:
414,373,36805,2,0,L|512:362,2,99.0000030212403,8|0|0,0:0|1:0|1:0,0:0:0:0:
362,161,37579,5,0,3:0:0:0:
381,164,37675,1,0,3:0:0:0:
400,168,37772,1,2,3:1:0:0:
420,172,37869,1,0,0:0:0:0:
438,175,37966,2,0,P|524:142|512:51,2,198.000006042481,10|0|0,1:0|0:0|1:0,0:0:0:0:
385,87,38934,1,0,3:0:0:0:
285,113,39127,5,0,3:0:0:0:
266,110,39223,1,0,3:0:0:0:
247,106,39320,1,2,3:1:0:0:
227,102,39417,1,0,0:0:0:0:
209,99,39514,2,0,B|131:89|149:132|65:122,1,148.50000453186,10|0,1:0|3:0,0:0:0:0:
48,120,39901,2,0,L|0:111,2,49.5000015106202,0|0|2,1:0|0:0|3:0,0:0:0:0:
131,71,40289,5,0,1:0:0:0:
134,54,40385,1,0,0:0:0:0:
185,184,40676,5,0,3:0:0:0:
182,203,40772,1,0,3:0:0:0:
178,222,40869,1,2,3:1:0:0:
174,242,40966,1,0,0:0:0:0:
171,260,41063,2,0,B|125:273|106:325|106:325|72:283|15:290,2,198.000006042481,10|0|0,1:2|0:0|1:0,0:0:0:0:
238,334,42030,1,0,3:0:0:0:
322,242,42224,5,0,0:0:0:0:
341,245,42320,1,0,3:0:0:0:
360,249,42417,1,0,3:0:0:0:
380,253,42514,1,0,3:0:0:0:
398,256,42611,1,8,1:0:0:0:
461,328,42805,2,0,L|508:341,2,49.5000015106202,0|0|8,1:0|1:0|1:0,0:0:0:0:
379,380,43192,1,0,0:0:0:0:
301,329,43385,5,0,1:0:0:0:
283,324,43482,1,0,0:0:0:0:
309,151,43772,5,0,3:0:0:0:
312,132,43868,1,0,3:0:0:0:
316,113,43965,1,2,3:1:0:0:
320,93,44062,1,0,0:0:0:0:
323,75,44159,2,0,B|359:36|359:36|503:48,2,198.000006042481,10|0|0,1:0|0:0|1:0,0:0:0:0:
250,147,45127,1,0,3:0:0:0:
185,65,45321,5,0,3:0:0:0:
162,58,45417,1,0,3:0:0:0:
137,60,45514,1,2,3:1:0:0:
115,71,45611,1,0,0:0:0:0:
99,90,45708,2,0,L|116:294,1,198.000006042481,10|0,1:0|1:0,0:0:0:0:
66,222,46289,1,0,0:0:0:0:
150,154,46482,5,8,1:0:0:0:
150,154,46676,1,0,1:0:0:0:
223,227,46869,1,8,1:0:0:0:
223,227,47063,1,0,1:0:0:0:
294,160,47256,2,0,L|305:111,3,49.5000015106202,8|0|8|0,1:0|1:0|1:0|1:0,0:0:0:0:
374,73,47643,2,0,L|379:48,8,24.7500007553101,8|0|0|0|8|0|0|0|0,1:0|1:0|1:0|1:0|1:0|1:0|1:0|1:0|1:0,1:0:0:0:
480,221,48418,6,0,B|517:259|517:259|481:361,1,161.999995056153,4|8,3:0|3:2,0:0:0:0:
391,384,48998,1,0,3:2:0:0:
474,347,49192,1,8,3:2:0:0:
255,291,49579,6,0,B|228:342|228:342|105:333,1,180,6|0,1:2|0:0,0:0:0:0:
36,266,50160,1,0,0:0:0:0:
1,356,50353,1,8,1:2:0:0:
115,152,50740,6,0,B|95:132|95:132|101:70,2,90,2|0|0,1:2|0:0|0:0,0:0:0:0:
190,212,51321,1,0,0:0:0:0:
125,276,51514,2,0,L|35:265,2,90,2|0|8,0:0|1:0|1:2,0:0:0:0:
299,375,52289,2,0,P|327:342|370:339,1,90,2|0,1:2|0:0,0:0:0:0:
468,365,52676,6,0,P|449:277|446:187,1,180,2|0,1:2|0:0,0:0:0:0:
477,96,53256,1,0,0:0:0:0:
387,120,53450,1,8,1:2:0:0:
422,29,53643,1,0,1:0:0:0:
331,2,53837,6,0,P|286:8|241:13,1,90,2|0,1:2|0:0,0:0:0:0:
189,74,54224,1,0,0:0:0:0:
189,74,54418,1,0,1:0:0:0:
278,123,54611,6,0,P|322:129|367:134,1,90,2|0,0:0|0:0,0:0:0:0:
431,183,54998,1,8,1:2:0:0:
282,253,55385,2,0,P|245:283|252:323,1,90,2|0,1:2|0:0,0:0:0:0:
330,384,55772,6,0,P|254:337|165:335,1,180,2|0,1:2|0:0,0:0:0:0:
85,277,56353,1,0,0:0:0:0:
166,218,56547,1,8,1:2:0:0:
12,362,56934,6,0,B|60:319|60:319|49:204,1,180,6|0,1:2|0:0,0:0:0:0:
0,122,57514,1,0,0:0:0:0:
0,122,57611,1,0,0:0:0:0:
0,122,57708,1,0,0:0:0:0:
81,62,57901,1,0,0:0:0:0:
137,146,58095,1,8,1:2:0:0:
319,49,58482,5,2,1:2:0:0:
319,49,58676,1,0,0:0:0:0:
406,91,58869,2,0,P|443:69|447:26,2,90,2|0|0,1:2|0:0|0:0,0:0:0:0:
322,147,59450,1,0,0:0:0:0:
409,200,59643,2,0,P|452:189|497:182,1,90,8|0,1:2|0:0,0:0:0:0:
329,271,60030,1,2,1:2:0:0:
421,359,60224,6,0,L|412:314,2,45
329,271,60611,1,0,1:0:0:0:
255,343,60805,2,0,P|210:348|165:355,1,90,2|0,1:2|0:0,0:0:0:0:
152,358,61095,1,0,1:0:0:0:
138,361,61192,1,8,1:2:0:0:
42,330,61385,1,0,1:0:0:0:
154,261,61579,1,8,1:2:0:0:
43,157,61966,6,0,L|58:230,3,72,6|0|0|0,1:2|0:0|0:0|0:0,0:0:0:0:
111,79,62740,1,8,1:2:0:0:
110,79,63127,6,0,P|66:70|25:56,2,90,6|0|0,1:2|0:0|0:0,0:0:0:0:
185,139,63708,1,0,0:0:0:0:
109,199,63901,2,0,P|65:192|42:156,2,90,2|0|8,0:0|1:0|1:2,0:0:0:0:
267,39,64676,2,0,P|311:47|355:55,1,90,2|0,1:2|0:0,0:0:0:0:
446,0,65063,6,0,B|465:17|494:34|494:34|483:88|474:153,1,180,2|0,1:2|0:0,0:0:0:0:
393,211,65643,1,0,0:0:0:0:
467,269,65837,1,8,1:2:0:0:
384,203,66030,1,0,1:0:0:0:
312,284,66224,6,0,B|261:289|229:257|229:257|217:208|176:190,1,180,2|0,1:2|0:0,0:0:0:0:
83,132,66805,1,0,1:0:0:0:
133,43,66998,2,0,P|175:48|191:88,1,90,2|0,1:2|0:0,0:0:0:0:
74,138,67385,1,8,1:2:0:0:
148,316,67772,6,0,L|143:271,2,45,2|0|0,1:2|0:0|0:0,0:0:0:0:
67,378,68160,1,2,1:2:0:0:
0,304,68353,2,0,P|8:261|48:246,1,90
143,271,68740,1,0,0:0:0:0:
44,233,68934,1,8,1:2:0:0:
271,169,69321,6,0,B|262:97|262:97|240:77|240:77|230:0,1,180,6|0,1:2|0:0,0:0:0:0:
281,88,69901,1,0,0:0:0:0:
281,88,69998,1,0,0:0:0:0:
281,88,70095,1,0,0:0:0:0:
187,139,70289,1,0,1:0:0:0:
272,185,70482,1,8,1:2:0:0:
178,373,70869,6,0,P|149:339|105:337,1,90,2|0,1:2|0:0,0:0:0:0:
0,341,71256,2,0,P|158:369|199:377,1,180,2|0,1:2|0:0,0:0:0:0:
255,307,71837,1,0,0:0:0:0:
185,230,72030,2,0,P|140:222|96:213,1,90,8|0,1:2|1:0,0:0:0:0:
255,307,72418,1,2,1:2:0:0:
340,243,72611,6,0,L|384:249,2,45
269,165,72998,1,0,1:0:0:0:
322,69,73192,2,0,L|411:89,1,90,2|0,1:2|0:0,0:0:0:0:
417,99,73482,1,0,1:0:0:0:
424,109,73579,1,8,1:2:0:0:
458,18,73772,1,0,1:0:0:0:
512,136,73966,1,8,1:2:0:0:
333,356,74353,6,0,L|318:235,1,121.499996292114,0|0,1:0|0:0,0:0:0:0:
317,221,74740,2,0,P|338:187|376:180,1,80.9999975280763,0|2,1:0|0:1,0:0:0:0:
404,307,75127,2,2,L|244:281,1,161.999995056153,2|0,1:0|1:0,1:0:0:0:
171,350,75708,5,0,0:0:0:0:
171,350,75805,1,0,0:0:0:0:
171,350,75901,2,0,L|92:368,1,80.9999975280763,0|0,1:0|0:0,0:0:0:0:
39,292,76289,2,0,L|0:301,2,40.4999987640381,0|0|2,1:0|0:0|0:1,0:0:0:0:
116,234,76676,2,0,P|133:177|132:116,1,121.499996292114,2|2,1:0|0:3,0:0:0:0:
136,105,77063,2,0,P|118:71|79:66,1,80.9999975280763,2|2,1:3|0:3,0:0:0:0:
190,9,77450,6,0,L|363:33,1,161.999995056153,0|0,1:0|1:0,0:0:0:0:
440,0,78030,1,2,0:1:0:0:
510,67,78224,2,0,B|520:106|520:106|495:138,1,80.9999975280763,2|0,1:0|0:0,0:0:0:0:
431,184,78611,2,0,L|350:172,1,80.9999975280763,0|0,1:0|0:0,0:0:0:0:
295,116,78998,5,0,1:0:0:0:
368,293,79385,1,0,1:0:0:0:
368,293,79482,1,0,0:0:0:0:
368,293,79579,1,0,0:0:0:0:
301,353,79772,2,0,B|280:368|280:368|222:362,1,80.9999975280763,0|0,1:0|0:0,0:0:0:0:
135,345,80160,1,2,1:0:0:0:
330,185,80547,6,0,L|249:173,1,80.9999975280763,0|0,1:0|1:0,0:0:0:0:
176,239,80934,1,0,1:0:0:0:
176,239,81128,1,0,1:0:0:0:
234,157,81321,2,0,L|154:144,1,80.9999975280763,0|0,1:0|1:0,0:0:0:0:
105,58,81708,1,0,1:0:0:0:
105,58,81902,1,0,1:0:0:0:
199,0,82095,5,0,1:0:0:0:
212,2,82191,1,0,1:0:0:0:
225,4,82288,1,0,1:0:0:0:
238,6,82385,1,0,1:0:0:0:
251,8,82482,2,0,L|291:13,3,40.4999987640381,0|0|0|0,1:0|1:0|1:0|1:0,0:0:0:0:
271,88,82869,2,0,L|311:93,3,40.4999987640381,0|0|0|0,1:0|1:0|1:0|1:0,1:0:0:0:
291,168,83256,2,0,L|331:173,3,40.4999987640381,0|0|0|0,1:0|1:0|1:0|1:0,1:0:0:0:
415,181,83643,5,0,1:0:0:0:
256,192,83740,12,0,85192,0:0:0:0:
265,68,85579,6,0,L|225:61,4,40.4999987640381,2|0|2|0|0,3:0|3:0|3:0|3:0|3:0,0:0:0:0:
343,88,86160,1,0,3:0:0:0:
421,108,86354,2,0,L|460:114,2,40.4999987640381,2|2|2,0:0|0:0|0:0,0:0:0:0:
305,168,86740,6,0,L|315:248,1,80.9999975280763,0|0,1:0|0:0,0:0:0:0:
331,337,87127,2,0,L|373:352,2,45,0|0|0,1:0|3:0|3:0,0:0:0:0:
403,266,87514,2,0,L|443:246,2,45,0|0|0,1:0|3:0|3:0,0:0:0:0:
403,164,87901,2,0,L|418:121,2,45,0|0|0,1:0|3:0|3:0,0:0:0:0:
341,58,88289,6,0,L|296:67,3,45,8|4|4|4,3:2|3:0|3:0|3:0,0:0:0:0:
222,83,88676,2,0,L|177:92,3,45,8|4|4|4,3:2|3:0|3:0|3:0,0:0:0:0:
103,108,89063,6,0,L|73:114,6,30,8|4|4|4|4|4|4,3:2|3:0|3:0|3:0|3:0|3:0|3:0,0:0:0:0:
28,45,89643,1,4,3:0:0:0:
3,185,89837,5,4,1:0:0:0:
3,185,90224,2,0,B|26:201|26:201|31:262,1,90,2|2,0:0|0:1,0:0:0:0:
98,342,90611,6,0,B|204:324|204:324|234:272|234:272|364:253|364:253|350:276|350:276|298:282,1,377.999988464356,10|0,1:0|0:0,0:0:0:0:
289,289,91385,2,0,B|164:306|164:306|230:197|230:197|300:187,1,323.999990112305,0|0,1:0|0:0,0:0:0:0:
438,166,92160,1,8,1:2:0:0:
371,95,92353,1,0,1:0:0:0:
371,95,92450,1,0,1:0:0:0:
371,95,92547,2,0,B|340:46|340:46|491:90,1,215.999993408203,2|0,0:0|1:0,0:0:0:0:
421,298,93321,5,2,0:1:0:0:
421,298,93418,1,0,0:0:0:0:
421,298,93514,1,2,0:1:0:0:
339,338,93708,2,2,B|306:307|306:307|316:245,1,107.999996704102,10|0,1:0|0:0,1:0:0:0:
369,171,94095,2,0,B|403:197|403:197|382:321|382:321|338:337,1,215.999993408203,0|0,0:0|1:0,0:0:0:0:
86,182,94869,5,2,0:1:0:0:
86,182,94966,1,0,0:0:0:0:
86,182,95062,1,2,0:1:0:0:
168,222,95256,2,2,B|201:191|201:191|190:129,1,107.999996704102,10|0,1:0|0:0,1:0:0:0:
112,71,95643,2,2,L|4:92,1,107.999996704102,2|2,0:3|0:3,0:3:0:0:
201,20,96030,6,2,B|245:27|245:27|254:36|254:36|303:44,1,107.999996704102,2|0,1:0|0:0,1:0:0:0:
373,116,96418,1,2,0:1:0:0:
373,116,96514,1,0,0:0:0:0:
373,116,96611,1,2,0:1:0:0:
453,57,96805,2,2,B|487:98|487:98|466:148,2,107.999996704102,10|0|0,1:0|0:0|0:0,1:0:0:0:
287,170,97579,6,0,B|221:363|221:363|388:308|388:308|338:291,1,431.999986816407,0|0,1:0|0:0,0:0:0:0:
232,257,98547,1,0,1:0:0:0:
144,319,98740,2,0,B|94:344|94:344|54:309,2,107.999996704102,8|0|0,1:2|1:0|1:0,0:0:0:0:
256,192,99514,12,2,101837,0:1:0:0:
157,62,102224,5,2,1:3:0:0:
157,62,102611,2,0,B|119:87|119:87|126:130,1,90,0|0,0:0|0:0,1:0:0:0:
259,199,102998,6,0,B|472:170|472:170|419:59|419:59|399:94,1,377.999988464356,10|0,1:0|0:0,0:0:0:0:
394,103,103772,2,0,B|325:268|325:268|228:278|228:278|193:244,1,323.999990112305,0|0,1:0|0:0,0:0:0:0:
137,159,104547,1,8,1:2:0:0:
190,78,104740,1,0,1:0:0:0:
190,78,104837,1,0,1:0:0:0:
190,78,104934,2,0,B|156:34|156:34|43:43|43:43|68:48|86:63,1,215.999993408203,8|2,0:0|1:3,0:0:0:0:
102,262,105708,5,2,0:1:0:0:
102,262,105805,1,0,0:0:0:0:
102,262,105901,1,2,0:1:0:0:
44,181,106095,2,2,B|75:148|75:148|136:158,1,107.999996704102,10|0,1:0|0:0,1:0:0:0:
211,211,106482,2,0,B|184:245|184:245|60:224|60:224|44:180,1,215.999993408203,0|2,0:0|1:3,0:0:0:0:
299,36,107256,5,2,0:1:0:0:
299,36,107353,1,0,0:0:0:0:
299,36,107449,1,2,0:1:0:0:
234,101,107643,2,2,B|272:141|272:141|321:122,1,107.999996704102,10|0,1:0|0:0,1:0:0:0:
398,60,108030,2,0,B|445:69|445:69|440:72|440:72|493:82,1,107.999996704102,2|2,1:3|0:3,0:0:0:0:
418,156,108418,5,10,1:2:0:0:
418,156,108612,1,0,1:0:0:0:
491,229,108805,1,8,1:2:0:0:
491,229,108999,1,0,1:0:0:0:
424,300,109192,2,0,L|375:311,3,49.5000015106202,8|0|8|0,1:2|1:0|1:2|1:0,0:0:0:0:
409,380,109579,2,0,L|434:375,8,24.7500007553101,10|0|0|0|8|0|0|0|0,1:2|3:0|1:0|3:0|1:2|3:0|1:0|3:0|1:0,3:0:0:0:
231,250,110353,6,0,B|171:258|171:258|153:292|153:292|90:302,1,161.999995056153,4|8,3:0|3:2,0:0:0:0:
1,279,110934,1,4,3:0:0:0:
100,321,111128,1,8,3:2:0:0:
190,142,111514,5,2,0:0:0:0:
256,192,111611,12,0,114611,0:0:0:0:
