osu file format v14

[General]
AudioFilename: audio.mp3
AudioLeadIn: 0
PreviewTime: 31
Countdown: 0
SampleSet: Soft
StackLeniency: 0.2
Mode: 0
LetterboxInBreaks: 0
WidescreenStoryboard: 1

[Editor]
Bookmarks: 31,12418,24805,37192,49579,61966,74353,86740,99127,111514
DistanceSpacing: 0.2
BeatDivisor: 8
GridSize: 32
TimelineZoom: 3.199998

[Metadata]
Title:Calling (osu! edit)
TitleUnicode:Calling (osu! edit)
Artist:rejection
ArtistUnicode:rejection
Creator:Realazy
Version:Collab Extra
Source:
Tags:cubby cubbby altai undeadphoneguy dubstep psytrance psystyle future bass MEGAREX PSY DUBSTEP XPERIA electronic instrumental short cut ver fa featured artist
BeatmapID:2996939
BeatmapSetID:1458359

[Difficulty]
HPDrainRate:5
CircleSize:4.2
OverallDifficulty:8.5
ApproachRate:9.3
SliderMultiplier:2.3
SliderTickRate:1

[Events]
//Background and Video events
0,0,"calling.jpg",0,0
//Break Periods
//Storyboard Layer 0 (Background)
//Storyboard Layer 1 (Fail)
//Storyboard Layer 2 (Pass)
//Storyboard Layer 3 (Foreground)
//Storyboard Layer 4 (Overlay)
//Storyboard Sound Samples

[TimingPoints]
31,387.096774193548,4,2,1,70,1,0
31,-62.5,4,2,1,70,0,0
418,-133.333333333333,4,2,1,70,0,0
1579,-76.9230769230769,4,2,1,70,0,0
3127,-62.5,4,2,1,70,0,0
3514,-133.333333333333,4,2,1,70,0,0
4676,-76.9230769230769,4,2,1,70,0,0
6224,-62.5,4,2,1,70,0,0
6611,-133.333333333333,4,2,1,70,0,0
7772,-76.9230769230769,4,2,1,70,0,0
10289,-100,4,2,1,50,0,0
10869,-100,4,2,1,80,0,0
12418,-166.666666666667,4,2,1,80,0,0
12805,-76.9230769230769,4,2,1,80,0,0
13192,-153.846153846154,4,2,1,80,0,0
13966,-166.666666666667,4,2,1,80,0,0
14353,-66.6666666666667,4,2,1,80,0,0
14740,-133.333333333333,4,2,1,80,0,0
15127,-76.9230769230769,4,2,1,80,0,0
17063,-166.666666666667,4,2,1,80,0,0
17450,-76.9230769230769,4,2,1,80,0,0
18224,-333.333333333333,4,2,1,80,0,0
18611,-76.9230769230769,4,2,1,80,0,0
21805,-66.6666666666667,4,2,1,60,0,0
21902,-66.6666666666667,4,2,1,62,0,0
21998,-66.6666666666667,4,2,1,64,0,0
22095,-66.6666666666667,4,2,1,66,0,0
22192,-66.6666666666667,4,2,1,68,0,0
22289,-66.6666666666667,4,2,1,70,0,0
22386,-66.6666666666667,4,2,1,72,0,0
22482,-66.6666666666667,4,2,1,74,0,0
22579,-66.6666666666667,4,2,1,76,0,0
22676,-66.6666666666667,4,2,1,78,0,0
22773,-66.6666666666667,4,2,1,80,0,0
22869,-66.6666666666667,4,2,1,82,0,0
22966,-66.6666666666667,4,2,1,84,0,0
23063,-66.6666666666667,4,2,1,86,0,0
23160,-66.6666666666667,4,2,1,5,0,0
23256,-55.5555555555556,4,2,1,80,0,0
24030,-100,4,2,1,80,0,0
24418,-66.6666666666667,4,2,1,80,0,0
24805,-250,4,2,1,80,0,0
25192,-250,4,2,1,90,0,0
26547,-33.3333333333333,4,2,1,90,0,0
30224,-66.6666666666667,4,2,1,90,0,0
30611,-133.333333333333,4,2,1,90,0,0
30998,-55.5555555555556,4,2,1,90,0,0
31385,-66.6666666666667,4,2,1,90,0,0
33708,-200,4,2,1,90,0,0
34095,-66.6666666666667,4,2,1,90,0,0
36418,-100,4,2,1,90,0,0
36805,-66.6666666666667,4,2,1,90,0,0
37192,-45.4545454545455,4,2,1,90,0,0
37579,-58.8235294117647,4,2,1,90,0,0
39901,-200,4,2,1,90,0,0
40289,-41.6666666666667,4,2,1,90,0,0
40676,-58.8235294117647,4,2,1,90,0,0
42998,-200,4,2,1,90,0,0
43289,-200,4,2,1,5,0,0
43385,-58.8235294117647,4,2,1,90,0,0
46095,-200,4,2,1,90,0,0
46482,-58.8235294117647,4,2,1,90,0,0
48030,-200,4,2,1,90,0,0
49579,-200,4,2,2,80,0,0
50740,-76.9230769230769,4,2,2,80,0,0
50934,-200,4,2,2,80,0,0
52676,-100,4,2,2,80,0,0
53450,-66.6666666666667,4,2,2,80,0,0
53837,-100,4,2,2,80,0,0
54611,-66.6666666666667,4,2,2,80,0,0
54998,-66.6666666666667,4,2,2,80,0,0
55772,-200,4,2,2,80,0,0
56547,-66.6666666666667,4,2,2,80,0,0
56934,-100,4,2,2,80,0,0
58095,-66.6666666666667,4,2,2,80,0,0
58482,-133.333333333333,4,2,2,80,0,0
58869,-100,4,2,2,80,0,0
59643,-66.6666666666667,4,2,2,80,0,0
60030,-100,4,2,2,80,0,0
60805,-133.333333333333,4,2,2,80,0,0
61966,-200,4,2,2,80,0,0
62740,-66.6666666666667,4,2,2,80,0,0
63321,-200,4,2,2,80,0,0
65063,-100,4,2,2,80,0,0
65837,-66.6666666666667,4,2,2,80,0,0
66224,-100,4,2,2,80,0,0
66998,-66.6666666666667,4,2,2,80,0,0
68160,-200,4,2,2,80,0,0
68934,-66.6666666666667,4,2,2,80,0,0
69321,-100,4,2,2,80,0,0
70482,-66.6666666666667,4,2,2,80,0,0
70869,-133.333333333333,4,2,2,80,0,0
71256,-100,4,2,2,80,0,0
72030,-66.6666666666667,4,2,2,80,0,0
72418,-100,4,2,2,80,0,0
73192,-133.333333333333,4,2,2,80,0,0
74353,-100,4,2,1,70,0,0
80160,-333.333333333333,4,2,1,70,0,0
80547,-66.6666666666667,4,2,1,80,0,0
82095,-66.6666666666667,4,2,1,90,0,0
83837,-66.6666666666667,4,2,1,60,0,0
83934,-66.6666666666667,4,2,1,62,0,0
84030,-66.6666666666667,4,2,1,64,0,0
84127,-66.6666666666667,4,2,1,66,0,0
84224,-66.6666666666667,4,2,1,68,0,0
84321,-66.6666666666667,4,2,1,70,0,0
84418,-66.6666666666667,4,2,1,72,0,0
84514,-66.6666666666667,4,2,1,74,0,0
84611,-66.6666666666667,4,2,1,76,0,0
84708,-66.6666666666667,4,2,1,78,0,0
84805,-66.6666666666667,4,2,1,80,0,0
84901,-66.6666666666667,4,2,1,82,0,0
84998,-66.6666666666667,4,2,1,84,0,0
85095,-66.6666666666667,4,2,1,86,0,0
85192,-55.5555555555556,4,2,1,88,0,0
85579,-55.5555555555556,4,2,1,80,0,0
85966,-100,4,2,1,80,0,0
86353,-66.6666666666667,4,2,1,80,0,0
86740,-250,4,2,1,70,0,0
89063,-66.6666666666667,4,2,1,70,0,0
89837,-333.333333333333,4,2,1,70,0,0
90224,-52.6315789473684,4,2,1,80,0,0
90611,-52.6315789473684,4,2,1,100,0,0
90950,-52.6315789473684,4,2,1,5,0,0
90998,-333.333333333333,4,2,1,100,0,0
91385,-52.6315789473684,4,2,1,100,0,0
91724,-52.6315789473684,4,2,1,5,0,0
91772,-333.333333333333,4,2,1,100,0,0
92160,-52.6315789473684,4,2,1,100,0,0
92353,-52.6315789473684,4,2,1,90,0,0
92547,-200,4,2,1,90,0,0
92692,-200,4,2,1,5,0,0
92740,-200,4,2,1,100,0,0
92934,-58.8235294117647,4,2,1,100,0,0
93321,-333.333333333333,4,2,1,100,0,0
93708,-52.6315789473684,4,2,1,100,0,0
94095,-133.333333333333,4,2,1,100,0,0
94482,-58.8235294117647,4,2,1,100,0,0
95595,-58.8235294117647,4,2,1,5,0,0
95643,-333.333333333333,4,2,1,90,0,0
96030,-133.333333333333,4,2,1,100,0,0
96418,-52.6315789473684,4,2,1,100,0,0
96805,-58.8235294117647,4,2,1,100,0,0
97192,-133.333333333333,4,2,1,100,0,0
97579,-66.6666666666667,4,2,1,100,0,0
97966,-66.6666666666667,4,2,1,90,0,0
99127,-66.6666666666667,4,2,1,80,0,0
99514,-100,4,2,1,80,0,0
100676,-100,4,2,1,90,0,0
101837,-200,4,2,1,80,0,0
101982,-200,4,2,1,5,0,0
102030,-200,4,2,1,80,0,0
102176,-200,4,2,1,5,0,0
102224,-333.333333333333,4,2,1,100,0,0
102998,-52.6315789473684,4,2,1,100,0,0
103337,-52.6315789473684,4,2,1,5,0,0
103385,-333.333333333333,4,2,1,100,0,0
103772,-52.6315789473684,4,2,1,100,0,0
104111,-52.6315789473684,4,2,1,5,0,0
104160,-333.333333333333,4,2,1,100,0,0
104547,-52.6315789473684,4,2,1,100,0,0
104934,-200,4,2,1,90,0,0
105321,-58.8235294117647,4,2,1,90,0,0
105708,-52.6315789473684,4,2,1,100,0,0
106095,-58.8235294117647,4,2,1,100,0,0
106482,-133.333333333333,4,2,1,100,0,0
106869,-333.333333333333,4,2,1,100,0,0
107256,-52.6315789473684,4,2,1,100,0,0
107982,-52.6315789473684,4,2,1,5,0,0
108030,-333.333333333333,4,2,1,100,0,0
108418,-52.6315789473684,4,2,1,90,0,0
110353,-52.6315789473684,4,2,1,80,0,0
114611,-52.6315789473684,4,2,1,5,0,0

[Colours]
Combo1 : 250,22,22
Combo2 : 184,69,69

[HitObjects]
22,61,31,6,0,L|203:29,1,184,0|0,1:0|0:0,0:0:0:0:
203,29,418,6,0,L|197:92,2,43.1250016450883
284,0,805,2,0,L|292:95,1,86.2500032901765,0|2,0:0|0:0,0:0:0:0:
294,103,1095,1,0,0:0:0:0:
296,123,1192,2,0,P|356:134|389:83,1,129.375004935265,0|2,0:0|0:3,0:0:0:0:
322,224,1579,6,0,P|307:257|313:294,1,74.7499965782167,8|0,0:0|0:0,0:0:0:0:
321,306,1772,1,0,1:0:0:0:
411,233,1869,6,0,P|419:268|407:303,1,74.7499965782167,8|0,0:0|0:0,0:0:0:0:
396,313,2062,1,0,1:0:0:0:
195,290,2160,6,0,P|208:324|238:345,1,74.7499965782167,8|0,0:0|0:0,0:0:0:0:
252,348,2353,1,0,1:0:0:0:
506,328,2450,6,0,P|486:359|453:375,1,74.7499965782167,8|0,0:0|0:0,0:0:0:0:
438,373,2643,1,0,1:0:0:0:
411,233,2740,5,8,0:0:0:0:
412,214,2836,1,8,0:0:0:0:
414,195,2933,1,0,1:0:0:0:
415,177,3030,1,0,0:0:0:0:
353,108,3127,6,0,B|433:60|433:60|494:128,1,184,2|0,1:0|0:0,1:0:0:0:
252,348,3514,6,0,L|166:340,2,86.2500032901765
113,220,4095,5,2,0:0:0:0:
93,228,4191,1,0,0:0:0:0:
73,237,4289,2,0,L|62:361,1,86.2500032901765
33,71,4676,6,0,L|128:79,1,74.7499965782167,8|0,0:0|0:0,0:0:0:0:
119,79,4869,1,0,1:0:0:0:
211,46,4966,6,0,L|202:141,1,74.7499965782167,8|0,0:0|0:0,0:0:0:0:
203,132,5159,1,0,1:0:0:0:
302,92,5256,6,0,L|397:100,1,74.7499965782167,8|0,0:0|0:0,0:0:0:0:
387,98,5450,1,4,3:0:0:0:
389,116,5546,1,4,3:0:0:0:
391,135,5643,1,4,3:0:0:0:
393,153,5740,1,4,3:0:0:0:
394,170,5837,6,0,B|472:183|472:183|447:325,1,224.24998973465,8|4,3:2|3:0,0:0:0:0:
330,367,6224,6,0,B|418:360|418:360|422:355|422:355|512:348,1,184,0|0,1:0|0:0,0:0:0:0:
365,284,6611,6,0,L|361:241,2,43.1250016450883
222,235,6998,2,0,L|229:320,1,86.2500032901765,0|2,0:0|0:0,0:0:0:0:
218,347,7289,1,0,0:0:0:0:
210,355,7385,2,0,L|82:371,1,129.375004935265,0|2,0:0|0:3,0:0:0:0:
32,112,7772,6,0,B|48:121|48:121|41:201,1,74.7499965782167,8|0,0:0|0:0,0:0:0:0:
41,201,7966,1,0,1:0:0:0:
145,123,8063,6,0,B|127:129|127:129|120:209,1,74.7499965782167,8|0,0:0|0:0,0:0:0:0:
120,209,8257,1,0,1:0:0:0:
279,131,8353,6,0,B|295:121|295:121|288:41,1,74.7499965782167,8|0,0:0|0:0,0:0:0:0:
288,42,8547,1,0,1:0:0:0:
392,120,8644,6,0,B|374:113|374:113|367:33,1,74.7499965782167,8|0,0:0|0:0,0:0:0:0:
367,34,8838,1,0,1:0:0:0:
459,92,8934,5,8,0:0:0:0:
469,119,9030,1,8,0:0:0:0:
466,146,9127,1,0,1:0:0:0:
452,170,9224,1,0,0:0:0:0:
429,185,9321,1,0,1:0:0:0:
65,68,10289,6,0,B|91:88|86:120|86:120|91:88|122:71,2,115,2|2|0,0:3|0:3|0:0,0:0:0:0:
256,32,10869,5,10,0:0:0:0:
256,32,11256,1,10,0:0:0:0:
107,308,11643,6,0,L|59:303,2,28.75,8|0|4,0:0|0:0|3:0,0:0:0:0:
277,321,11837,2,0,L|356:327,1,57.5,4|4,3:0|3:0,0:0:0:0:
204,364,12030,5,8,3:2:0:0:
198,336,12127,1,4,3:0:0:0:
192,308,12224,1,4,3:0:0:0:
186,280,12321,1,4,3:0:0:0:
181,252,12418,6,0,L|161:150,1,103.499996841431,4|0,1:0|0:0,0:0:0:0:
210,30,12805,6,0,P|261:14|304:48,1,112.124994867325,0|0,1:0|0:0,0:0:0:0:
312,65,12998,2,0,P|349:104|402:96,1,112.124994867325,2|0,0:1|0:0,0:0:0:0:
511,103,13192,6,2,P|475:64|421:72,1,112.124994867325,2|0,1:0|0:0,1:0:0:0:
402,95,13579,1,0,1:0:0:0:
385,331,13772,5,2,0:3:0:0:
383,347,13868,1,2,0:3:0:0:
342,258,13966,6,0,L|424:247,1,68.9999978942872,2|0,1:3|0:0,0:0:0:0:
100,332,14353,6,0,P|86:280|146:224,1,129.375004935265,0|0,1:0|0:0,0:0:0:0:
137,212,14547,2,0,P|148:150|105:106,1,129.375004935265,2|0,0:1|0:0,0:0:0:0:
136,211,14740,6,0,P|166:156|228:150,1,129.375004935265,2|2,1:0|0:3,0:0:0:0:
257,221,15127,1,2,1:3:0:0:
371,16,15321,5,2,0:3:0:0:
400,11,15417,1,2,0:3:0:0:
430,7,15514,2,0,L|422:106,2,99.6666621042889,0|0|0,1:0|3:0|3:0,0:0:0:0:
417,185,15901,6,0,L|411:293,1,74.7499965782167,0|0,1:0|0:0,0:0:0:0:
408,337,16095,1,2,0:1:0:0:
290,373,16289,6,0,B|410:362|410:362|413:358|413:358|512:350,1,224.24998973465,2|0,1:0|0:0,0:0:0:0:
512,327,16676,1,0,1:0:0:0:
292,357,16869,5,2,0:3:0:0:
290,373,16965,1,2,0:3:0:0:
222,336,17063,2,0,L|94:347,1,103.499996841431,2|0,1:3|0:0,0:0:0:0:
45,286,17450,6,0,P|50:249|80:228,2,74.7499965782167,2|2|2,1:3|0:3|0:3,0:0:0:0:
21,69,17837,6,0,L|12:164,1,74.7499965782167,0|0,1:0|0:0,0:0:0:0:
125,62,18030,2,0,L|116:157,1,74.7499965782167
256,276,18224,6,0,B|256:296|256:296|252:300|252:300|260:300|260:300,1,34.4999989471436,2|0,1:0|0:0,0:0:0:0:
364,73,18611,6,0,L|438:79,1,74.7499965782167,0|0,1:0|0:0,0:0:0:0:
458,189,18805,2,0,L|383:182,1,74.7499965782167,0|0,1:0|0:0,0:0:0:0:
359,60,18998,6,0,L|432:72,1,74.7499965782167,0|0,1:0|0:0,0:0:0:0:
463,202,19192,2,0,L|389:189,1,74.7499965782167,0|0,1:0|0:0,0:0:0:0:
356,46,19385,6,0,L|428:65,1,74.7499965782167,0|0,1:0|0:0,0:0:0:0:
466,216,19579,2,0,L|393:196,1,74.7499965782167,0|0,1:0|0:0,0:0:0:0:
355,31,19772,6,0,L|425:56,1,74.7499965782167,0|0,1:0|0:0,0:0:0:0:
467,231,19966,2,0,L|396:205,1,74.7499965782167,0|0,1:0|0:0,0:0:0:0:
166,49,20160,5,0,1:0:0:0:
206,69,20256,1,0,1:0:0:0:
221,112,20353,1,0,1:0:0:0:
200,152,20450,1,0,1:0:0:0:
156,165,20547,1,0,1:0:0:0:
112,178,20643,1,0,1:0:0:0:
91,218,20740,1,0,1:0:0:0:
106,261,20837,1,0,1:0:0:0:
146,281,20934,6,0,L|140:334,6,37.3749982891084,0|0|0|0|0|0|0,1:0|1:0|1:0|1:0|1:0|1:0|1:0,1:0:0:0:
235,329,21321,6,0,L|241:382,1,37.3749982891084,0|0,1:0|1:0,1:0:0:0:
246,336,21418,2,0,L|252:389,1,37.3749982891084,0|0,1:0|1:0,0:0:0:0:
315,300,21514,6,0,L|321:247,1,37.3749982891084,0|0,1:0|1:0,0:0:0:0:
326,293,21611,2,0,L|332:240,1,37.3749982891084,0|0,1:0|0:0,0:0:0:0:
394,337,21708,5,0,1:0:0:0:
256,192,21805,12,0,23160,3:0:0:0:
408,18,23256,6,0,B|439:12|439:12|456:110|456:110|447:124|447:124|340:143|340:143|332:141|332:141|322:85,1,310.499990524292,0|0,1:0|0:0,0:0:0:0:
380,250,23643,5,2,3:0:0:0:
378,265,23739,1,2,3:0:0:0:
467,296,23837,5,2,3:0:0:0:
465,311,23933,1,2,3:0:0:0:
383,359,24030,6,0,L|347:367,2,28.75,0|0|0,3:0|3:0|3:0,3:0:0:0:
283,379,24224,1,0,3:0:0:0:
400,103,24418,6,0,L|407:17,2,86.2500032901765,2|2|2,0:0|0:0|0:0,0:0:0:0:
467,222,24805,6,0,L|517:212,1,46,0|0,1:0|0:0,0:0:0:0:
316,88,25192,5,0,1:0:0:0:
312,103,25288,1,0,3:0:0:0:
309,118,25385,1,2,3:1:0:0:
306,133,25482,1,0,0:0:0:0:
240,72,25579,5,2,1:0:0:0:
236,87,25675,1,0,0:0:0:0:
233,102,25772,1,0,0:0:0:0:
230,117,25869,1,0,0:0:0:0:
164,56,25966,5,0,1:0:0:0:
160,71,26062,1,0,0:0:0:0:
157,86,26159,1,0,0:0:0:0:
154,101,26256,1,0,0:0:0:0:
60,229,26353,5,0,1:0:0:0:
63,244,26449,1,0,0:0:0:0:
66,259,26546,1,2,3:1:0:0:
69,274,26643,1,0,0:0:0:0:
136,213,26740,5,0,1:0:0:0:
139,228,26836,1,0,3:0:0:0:
142,243,26933,1,2,3:1:0:0:
145,258,27030,1,0,0:0:0:0:
212,197,27127,5,2,1:0:0:0:
215,212,27223,1,0,3:0:0:0:
218,227,27320,1,0,3:0:0:0:
221,242,27417,1,0,3:0:0:0:
238,322,27514,5,0,1:0:0:0:
269,118,27708,2,0,B|265:92|265:92|277:70|277:70|281:95|281:95|269:118,1,86.2500032901765,2|0,0:0|0:0,0:0:0:0:
336,312,27901,5,0,1:0:0:0:
325,297,27998,1,0,3:0:0:0:
323,310,28095,1,0,3:0:0:0:
338,299,28192,1,0,3:0:0:0:
418,236,28289,5,0,1:0:0:0:
403,247,28386,1,0,3:0:0:0:
416,249,28482,1,2,3:1:0:0:
405,234,28579,1,0,0:0:0:0:
363,139,28676,5,2,1:0:0:0:
374,154,28773,1,0,3:0:0:0:
376,141,28869,1,0,3:0:0:0:
361,152,28966,1,0,3:0:0:0:
280,212,29063,5,0,1:0:0:0:
295,201,29160,1,0,3:0:0:0:
282,199,29256,1,0,3:0:0:0:
293,214,29353,1,0,3:0:0:0:
327,322,29450,5,0,1:0:0:0:
368,328,29546,1,0,3:0:0:0:
403,305,29643,1,0,3:0:0:0:
414,264,29740,1,0,3:0:0:0:
330,334,29837,5,0,1:0:0:0:
362,359,29933,1,0,3:0:0:0:
404,357,30030,1,0,3:0:0:0:
434,327,30127,1,0,3:0:0:0:
414,264,30224,6,0,L|425:137,1,86.2500032901765,0|0,1:0|1:0,0:0:0:0:
431,176,30418,2,0,L|491:163,2,43.1250016450883,0|0|0,1:0|1:0|1:0,0:0:0:0:
286,74,30611,6,0,P|309:134|327:196,1,129.375004935265
330,334,30998,6,0,P|305:348|330:330,2,103.499996841431,2|0|0,1:2|0:0|0:0,0:0:0:0:
235,169,31385,6,0,P|209:201|227:238,1,86.2500032901765,8|0,1:2|3:0,0:0:0:0:
389,110,31579,2,0,P|414:77|396:40,1,86.2500032901765,2|0,3:1|0:0,0:0:0:0:
255,0,31772,6,0,P|301:120|339:244,1,258.75000987053,2|0,1:0|3:0,0:0:0:0:
273,384,32160,2,0,P|258:345|279:309,1,86.2500032901765,8|0,1:2|3:0,0:0:0:0:
434,286,32353,5,0,3:0:0:0:
407,318,32449,1,0,3:0:0:0:
366,317,32546,1,0,1:0:0:0:
389,110,32740,6,0,L|397:14,1,86.2500032901765,2|0,3:1|0:0,0:0:0:0:
497,38,32934,6,0,B|517:77|517:77|485:107,1,86.2500032901765,8|0,1:2|3:0,0:0:0:0:
280,84,33127,2,0,B|259:44|259:44|291:14,1,86.2500032901765,2|0,3:1|0:0,0:0:0:0:
290,203,33321,6,0,B|187:184|187:184|161:127|161:127|71:111,1,258.75000987053,2|0,1:0|3:0,0:0:0:0:
93,201,33708,6,2,L|99:258,1,57.5,8|0,1:2|0:0,1:0:0:0:
233,251,34095,6,2,B|268:275|268:275|410:250|410:250|417:208|454:191,1,258.75000987053,2|0,1:0|0:0,1:0:0:0:
327,168,34482,6,0,P|315:141|323:169,1,86.2500032901765,8|0,1:2|3:0,0:0:0:0:
489,262,34676,2,0,L|481:347,1,86.2500032901765,2|0,3:1|0:0,0:0:0:0:
233,251,34869,6,0,B|209:195|209:195|297:163|361:219|345:291,1,258.75000987053,2|0,1:0|3:0,0:0:0:0:
360,359,35256,6,0,P|348:385|356:357,1,86.2500032901765,8|0,1:2|3:0,0:0:0:0:
414,150,35450,5,0,3:0:0:0:
426,118,35546,1,0,3:0:0:0:
454,98,35643,2,0,L|457:52,6,43.1250016450883
262,18,36030,5,2,3:0:0:0:
254,94,36127,1,2,3:0:0:0:
253,25,36224,5,2,3:0:0:0:
261,84,36321,1,2,3:0:0:0:
252,10,36418,5,0,0:0:0:0:
88,2,36611,2,0,L|40:-2,2,28.75,0|0|0,1:0|1:0|1:0,1:0:0:0:
9,87,36805,6,0,L|17:172,1,86.2500032901765,8|0,0:0|0:0,0:0:0:0:
27,250,36998,1,0,1:0:0:0:
423,317,37192,6,0,B|433:259|433:259|429:253|429:253|347:239|347:239|359:256|359:256|344:337|344:337|348:348|348:348|429:362|429:362|417:345|417:345|423:317,1,379.500011581421,0|0,1:0|0:0,0:0:0:0:
419,114,37579,6,0,P|432:68|475:48,1,97.7500018644333,0|0,3:0|3:0,0:0:0:0:
321,85,37772,2,0,P|308:39|335:-1,1,97.7500018644333,2|0,3:1|0:0,0:0:0:0:
482,195,37966,6,0,P|369:106|226:115,1,293.2500055933,10|0,1:0|3:0,0:0:0:0:
143,96,38353,5,0,0:0:0:0:
134,73,38449,1,0,3:0:0:0:
136,49,38546,1,0,3:0:0:0:
148,27,38643,1,0,3:0:0:0:
246,28,38740,6,0,P|252:75|227:116,1,97.7500018644333,0|0,1:0|0:0,0:0:0:0:
102,176,38934,2,0,P|55:165|26:127,1,97.7500018644333,0|0,3:0|0:0,0:0:0:0:
221,274,39127,6,0,L|211:377,2,97.7500018644333,0|0|2,3:0|3:0|3:1,0:0:0:0:
361,290,39514,6,0,B|225:301|225:301|221:306|221:306|70:319,1,293.2500055933,10|0,1:0|3:0,0:0:0:0:
17,199,39901,6,0,L|19:167,1,28.75,0|0,1:0|0:0,0:0:0:0:
99,204,40095,2,0,L|101:172,1,28.75,2|0,3:0|0:0,0:0:0:0:
347,65,40289,6,0,B|328:19|357:-31|445:-36|477:45|438:115|364:110|381:91|325:51|263:132|302:210|376:217|403:159,1,413.999987365723,0|0,1:0|0:0,0:0:0:0:
256,294,40676,5,0,3:0:0:0:
269,370,40772,2,0,P|252:324|211:299,2,97.7500018644333,0|2|0,3:0|3:1|0:0,0:0:0:0:
8,341,41063,6,0,P|116:341|234:197,1,293.2500055933,10|0,1:2|3:0,0:0:0:0:
244,136,41450,1,0,0:0:0:0:
238,127,41547,1,0,3:0:0:0:
246,122,41643,1,0,3:0:0:0:
252,130,41740,1,0,3:0:0:0:
331,166,41837,6,0,P|369:195|390:239,1,97.7500018644333,0|0,1:0|0:0,0:0:0:0:
490,234,42030,2,0,P|493:185|475:140,1,97.7500018644333,0|0,3:0|3:0,0:0:0:0:
435,77,42224,1,0,0:0:0:0:
429,68,42321,1,0,3:0:0:0:
437,63,42417,1,0,3:0:0:0:
443,71,42514,1,0,3:0:0:0:
492,35,42611,6,0,L|394:26,1,97.7500018644333,8|0,1:0|0:0,0:0:0:0:
303,82,42805,5,0,1:0:0:0:
229,100,42902,1,0,1:0:0:0:
304,93,42998,2,0,P|298:123|290:195,1,86.25,8|0,1:0|0:0,0:0:0:0:
312,263,43385,6,0,P|360:289|391:251,2,97.7500018644333,0|0|0,1:0|0:0|0:0,0:0:0:0:
22,257,43772,6,0,P|51:295|65:342,1,97.7500018644333,0|0,3:0|3:0,0:0:0:0:
191,156,43966,2,0,P|205:109|234:70,1,97.7500018644333,2|0,3:1|0:0,0:0:0:0:
21,90,44160,6,0,P|112:204|166:339,1,293.2500055933,10|0,1:0|3:0,0:0:0:0:
179,364,44547,1,0,0:0:0:0:
173,373,44644,1,0,3:0:0:0:
181,378,44740,1,0,3:0:0:0:
187,370,44837,1,0,3:0:0:0:
257,324,44934,6,0,P|272:277|297:235,1,97.7500018644333,0|0,1:0|0:0,0:0:0:0:
150,67,45127,2,0,P|174:109|190:155,1,97.7500018644333,0|0,3:0|0:0,0:0:0:0:
374,144,45321,6,0,P|327:128|285:103,1,97.7500018644333,0|0,3:0|3:0,0:0:0:0:
110,282,45514,2,0,P|152:257|198:241,1,97.7500018644333,2|0,3:1|0:0,0:0:0:0:
417,279,45708,6,0,B|401:243|401:243|472:162|472:162|515:263|515:263|488:294,1,293.2500055933,10|0,1:0|3:0,0:0:0:0:
277,319,46095,6,0,B|284:328|284:328|272:357|272:357|251:333|251:333|256:323,1,86.25,0|0,1:0|0:0,1:0:0:0:
253,241,46482,6,0,L|243:129,1,97.7500018644333,8|0,1:0|0:0,0:0:0:0:
417,279,46676,1,0,1:0:0:0:
274,158,46869,6,0,L|283:46,1,97.7500018644333,8|0,1:0|0:0,0:0:0:0:
110,196,47063,1,0,1:0:0:0:
490,245,47256,5,8,1:0:0:0:
451,215,47352,1,0,1:0:0:0:
403,209,47449,1,8,1:0:0:0:
360,230,47546,1,0,1:0:0:0:
333,270,47643,6,0,L|337:325,2,48.8750009322167,8|0|0,1:0|1:0|1:0,1:0:0:0:
195,325,47837,2,0,L|192:277,2,48.8750009322167,8|0|0,1:0|1:0|1:0,1:0:0:0:
35,213,48030,6,0,L|109:196,1,76.6666666666667,0|0,1:0|0:0,0:0:0:0:
135,121,48418,5,4,3:0:0:0:
141,50,48547,2,0,L|143:18,3,19.1666666666667,4|4|4|4,3:0|3:0|3:0|3:0,0:0:0:0:
214,94,48805,6,0,L|216:125,5,19.1666666666667,8|4|4|4|4|4,3:2|3:0|3:0|3:0|3:0|3:0,0:0:0:0:
231,188,49192,6,0,L|320:207,1,86.25,8|0,3:2|0:0,0:0:0:0:
397,223,49579,6,0,L|402:251,1,28.75,6|0,1:2|0:0,0:0:0:0:
410,226,49772,2,0,L|415:254,1,28.75
409,333,49966,6,0,L|414:361,1,28.75
422,336,50159,2,0,L|427:364,1,28.75
470,138,50353,5,8,1:2:0:0:
470,138,50740,6,0,P|433:137|405:113,1,74.7499965782167,2|0,1:2|0:0,0:0:0:0:
346,34,50934,5,0,0:0:0:0:
346,34,51030,1,0,0:0:0:0:
346,34,51127,2,0,L|342:62,1,28.75
284,113,51321,1,0,0:0:0:0:
284,113,51418,1,0,0:0:0:0:
284,113,51514,2,0,L|280:141,1,28.75,2|0,0:0|0:0,0:0:0:0:
325,208,51708,1,0,1:0:0:0:
127,27,51901,5,8,1:2:0:0:
127,27,52289,2,0,P|159:52|163:94,1,86.25,2|0,1:2|0:0,0:0:0:0:
113,153,52676,6,0,L|-4:136,2,115,2|0|0,1:2|0:0|0:0,0:0:0:0:
186,167,53256,1,0,0:0:0:0:
47,340,53450,6,0,P|23:306|24:264,1,86.2500032901765,8|0,1:2|0:0,0:0:0:0:
52,196,53643,1,0,1:0:0:0:
61,348,53837,6,0,P|108:316|164:310,1,115,2|0,1:2|0:0,0:0:0:0:
164,310,54127,1,0,0:0:0:0:
164,310,54224,1,0,0:0:0:0:
264,216,54418,6,0,L|256:159,1,57.5,0|0,1:0|1:0,0:0:0:0:
256,57,54611,2,0,L|278:228,1,172.500006580353,2|0,0:0|0:0,0:0:0:0:
75,18,54998,5,8,1:2:0:0:
75,18,55385,1,2,1:2:0:0:
58,13,55482,1,0,0:0:0:0:
41,8,55579,1,0,0:0:0:0:
16,234,55772,6,0,L|20:205,1,28.75,2|0,1:2|0:0,0:0:0:0:
4,226,55966,2,0,L|8:197,1,28.75
42,126,56159,6,0,L|46:97,1,28.75
31,119,56353,2,0,L|35:90,1,28.75
94,351,56547,6,0,P|53:347|39:308,1,86.2500032901765,8|0,1:2|0:0,0:0:0:0:
110,278,56740,1,0,0:0:0:0:
110,278,56934,6,0,L|224:292,1,115,6|0,1:2|0:0,0:0:0:0:
224,292,57224,1,0,0:0:0:0:
224,292,57321,1,0,0:0:0:0:
362,368,57514,1,0,0:0:0:0:
362,368,57611,1,0,0:0:0:0:
362,368,57708,1,0,0:0:0:0:
264,384,57901,1,0,0:0:0:0:
419,227,58095,6,0,B|464:211|464:211|433:233,2,86.2500032901765,8|0|0,1:2|0:0|0:0,0:0:0:0:
322,276,58482,2,0,L|340:147,1,129.375004935265,2|0,1:2|0:0,0:0:0:0:
414,97,58869,6,0,P|467:91|476:38,2,115,2|0|0,1:2|0:0|0:0,0:0:0:0:
348,33,59450,1,0,0:0:0:0:
252,159,59643,6,0,L|236:74,1,86.2500032901765,8|0,1:2|0:0,0:0:0:0:
217,0,59837,1,0,0:0:0:0:
236,172,60030,6,0,L|346:203,1,115,2|0,1:2|0:0,0:0:0:0:
346,203,60321,1,0,0:0:0:0:
346,203,60418,1,0,0:0:0:0:
434,274,60611,5,0,1:0:0:0:
434,274,60805,2,0,L|350:295,1,86.2500032901765,2|0,1:2|0:0,0:0:0:0:
297,353,61095,1,0,1:0:0:0:
297,353,61192,1,8,1:2:0:0:
354,210,61385,1,0,1:0:0:0:
154,341,61579,1,8,1:2:0:0:
154,341,61966,6,0,P|136:241|117:143,1,201.25,6|0,1:2|0:0,0:0:0:0:
87,75,62740,6,0,L|1:60,1,86.2500032901765,8|0,1:2|0:0,0:0:0:0:
1,60,63127,6,0,L|87:75,1,86.2500032901765,6|0,1:2|0:0,0:0:0:0:
227,108,63321,5,0,0:0:0:0:
227,108,63417,1,0,0:0:0:0:
227,108,63514,2,0,L|231:136,1,28.75
248,215,63708,1,0,0:0:0:0:
248,215,63805,1,0,0:0:0:0:
248,215,63901,2,0,L|252:243,1,28.75,2|0,0:0|0:0,0:0:0:0:
274,314,64095,2,0,L|278:342,1,28.75,0|0,1:0|0:0,0:0:0:0:
361,104,64289,5,8,1:2:0:0:
361,104,64676,2,0,P|337:69|296:61,1,86.25,2|0,1:2|0:0,0:0:0:0:
268,129,65063,6,0,L|251:242,2,115,2|0|0,1:2|0:0|0:0,0:0:0:0:
221,71,65643,1,0,0:0:0:0:
369,212,65837,6,0,L|388:297,1,86.2500032901765,8|0,1:2|0:0,0:0:0:0:
412,372,66030,1,0,1:0:0:0:
452,180,66224,6,0,L|477:292,1,115,2|0,1:2|0:0,0:0:0:0:
478,292,66514,1,0,0:0:0:0:
478,292,66611,1,0,0:0:0:0:
234,366,66805,6,0,P|232:341|241:309,1,57.5,0|0,1:0|0:0,0:0:0:0:
279,206,66998,2,0,P|276:291|233:365,1,172.500006580353,2|0,1:2|0:0,0:0:0:0:
160,131,67385,5,8,1:2:0:0:
160,131,67772,5,2,1:2:0:0:
163,147,67869,1,0,0:0:0:0:
166,163,67966,1,0,0:0:0:0:
138,336,68160,6,0,L|110:328,1,28.75,2|0,1:2|0:0,0:0:0:0:
136,322,68353,2,0,L|108:314,1,28.75
29,314,68547,6,0,L|1:306,1,28.75
27,301,68740,2,0,L|0:293,1,28.75
303,239,68934,6,0,P|298:280|260:294,1,86.2500032901765,8|0,1:2|0:0,0:0:0:0:
230,223,69127,1,0,0:0:0:0:
230,223,69321,6,0,L|244:109,1,115,6|0,1:2|0:0,0:0:0:0:
244,108,69611,1,0,0:0:0:0:
244,108,69708,1,0,0:0:0:0:
195,26,69901,1,0,0:0:0:0:
195,26,69998,1,0,0:0:0:0:
195,26,70095,1,0,0:0:0:0:
109,87,70289,1,0,1:0:0:0:
402,40,70482,6,0,B|487:28,2,86.2500032901765,8|0|0,1:2|0:0|0:0,0:0:0:0:
338,109,70869,2,0,L|356:238,1,129.375004935265,2|0,1:2|0:0,0:0:0:0:
430,288,71256,6,0,P|483:294|492:347,2,115,2|0|0,1:2|0:0|0:0,0:0:0:0:
364,352,71837,1,0,0:0:0:0:
225,229,72030,6,0,L|240:144,1,86.2500032901765,8|0,1:2|0:0,0:0:0:0:
253,68,72224,1,0,1:0:0:0:
302,249,72418,6,0,L|325:133,1,115,2|0,1:2|0:0,0:0:0:0:
324,136,72708,1,0,0:0:0:0:
324,136,72805,1,0,0:0:0:0:
327,24,72998,5,0,1:0:0:0:
327,24,73192,2,0,L|243:45,1,86.2500032901765,2|0,1:2|0:0,0:0:0:0:
185,0,73482,1,0,1:0:0:0:
185,0,73579,1,8,1:2:0:0:
225,125,73772,1,0,1:0:0:0:
25,42,73966,1,8,1:2:0:0:
25,42,74353,6,0,P|107:45|145:118,1,172.5,0|0,1:0|0:0,0:0:0:0:
89,170,74740,2,0,L|83:227,2,57.5,0|0|2,1:0|0:0|0:1,0:0:0:0:
0,377,75127,6,2,L|170:352,1,172.5,2|0,1:0|0:0,1:0:0:0:
179,333,75514,1,0,1:0:0:0:
307,306,75708,5,0,0:0:0:0:
311,334,75804,1,0,0:0:0:0:
315,362,75901,2,0,P|369:369|408:328,1,115,0|0,1:0|0:0,0:0:0:0:
429,197,76289,6,0,P|408:223|410:256,1,57.5,0|0,1:0|0:0,0:0:0:0:
512,333,76482,2,0,P|499:302|469:287,1,57.5,2|0,0:1|0:0,0:0:0:0:
321,170,76676,6,0,B|412:161|412:161|416:157|416:157|491:151,1,172.5,2|2,1:0|0:3,0:0:0:0:
410,19,77063,2,0,L|404:76,1,57.5,2|0,1:3|0:0,0:0:0:0:
429,197,77256,5,2,0:3:0:0:
407,200,77352,1,2,0:3:0:0:
384,202,77450,2,0,L|371:282,2,76.6666666666667,0|0|0,1:0|3:0|3:0,0:0:0:0:
214,261,77837,6,0,P|195:239|174:219,1,57.5,0|0,1:0|0:0,0:0:0:0:
159,205,78030,1,2,0:1:0:0:
233,347,78224,6,0,P|248:262|274:179,1,172.5,2|0,1:0|0:0,0:0:0:0:
320,118,78611,2,0,P|395:124|382:202,1,172.5,0|0,1:0|0:0,0:0:0:0:
159,204,78998,6,0,P|144:120|118:37,1,172.5,0|0,1:0|0:0,0:0:0:0:
244,15,79385,2,0,P|233:49|226:85,2,57.5,0|0|0,1:0|0:0|0:0,0:0:0:0:
28,121,79772,6,0,P|44:153|57:187,1,57.5,0|0,1:0|0:0,0:0:0:0:
72,246,79966,2,0,P|70:282|64:317,1,57.5
256,108,80160,6,0,B|256:88|256:88|252:84|252:84|260:84|260:84,1,34.4999989471436,0|0,1:0|1:0,0:0:0:0:
314,234,80547,6,0,L|304:332,1,86.2500032901765,0|0,1:0|0:0,0:0:0:0:
177,273,80740,2,0,L|187:371,1,86.2500032901765,0|0,1:0|0:0,0:0:0:0:
324,233,80934,6,0,L|314:331,1,86.2500032901765,0|0,1:0|0:0,0:0:0:0:
167,272,81127,2,0,L|177:370,1,86.2500032901765,0|0,1:0|0:0,0:0:0:0:
334,232,81321,6,0,L|324:330,1,86.2500032901765,0|0,1:0|0:0,0:0:0:0:
157,271,81514,2,0,L|167:369,1,86.2500032901765,0|0,1:0|0:0,0:0:0:0:
344,231,81708,6,0,L|334:329,1,86.2500032901765,0|0,1:0|0:0,0:0:0:0:
147,270,81901,2,0,L|157:368,1,86.2500032901765,0|0,1:0|0:0,0:0:0:0:
338,67,82095,5,0,1:0:0:0:
318,27,82191,1,0,1:0:0:0:
275,12,82288,1,0,1:0:0:0:
235,33,82385,1,0,1:0:0:0:
222,77,82482,1,0,1:0:0:0:
209,121,82578,1,0,1:0:0:0:
169,142,82675,1,0,1:0:0:0:
126,127,82772,1,0,1:0:0:0:
106,87,82869,6,0,L|38:96,6,43.1250016450883,0|0|0|0|0|0|0,1:0|1:0|1:0|1:0|1:0|1:0|1:0,1:0:0:0:
73,191,83256,6,0,L|126:197,1,43.1250016450883,0|0,1:0|1:0,1:0:0:0:
80,202,83353,2,0,L|133:208,1,43.1250016450883,0|0,1:0|1:0,1:0:0:0:
44,271,83449,6,0,L|-9:277,1,43.1250016450883,0|0,1:0|1:0,1:0:0:0:
37,282,83546,2,0,L|-5:286,1,43.1250016450883,0|0,1:0|1:0,1:0:0:0:
81,350,83643,5,0,1:0:0:0:
256,192,83740,12,0,85095,0:0:0:0:
29,44,85192,6,0,B|45:138|45:138|54:145|54:145|180:122|180:122|187:113|187:113|173:34,1,310.499990524292
37,231,85579,5,2,3:0:0:0:
35,243,85675,1,0,3:0:0:0:
91,309,85772,5,2,3:0:0:0:
89,321,85868,1,0,3:0:0:0:
28,364,85966,6,0,L|-6:370,2,28.75,0|0|0,3:0|3:0|3:0,0:0:0:0:
161,343,86160,1,0,3:0:0:0:
98,118,86353,6,0,P|94:76|122:45,2,86.2500032901765,2|2|2,0:0|0:0|0:0,0:0:0:0:
82,235,86740,6,0,L|36:230,1,46,0|0,1:0|0:0,0:0:0:0:
79,91,87127,5,0,1:0:0:0:
87,98,87223,1,0,3:0:0:0:
94,108,87320,1,0,3:0:0:0:
98,118,87417,1,0,3:0:0:0:
175,100,87514,5,0,1:0:0:0:
178,111,87610,1,0,3:0:0:0:
179,124,87707,1,0,3:0:0:0:
177,135,87804,1,0,3:0:0:0:
256,151,87901,5,0,1:0:0:0:
252,163,87997,1,0,3:0:0:0:
246,176,88094,1,0,3:0:0:0:
238,185,88191,1,0,3:0:0:0:
170,233,88289,6,0,L|168:251,2,11.5,8|0|4,3:2|0:0|3:0,0:0:0:0:
161,315,88482,2,0,L|158:337,1,23,4|4,3:0|3:0,0:0:0:0:
284,257,88676,6,0,L|282:275,2,11.5,8|0|4,3:2|0:0|3:0,0:0:0:0:
275,339,88869,2,0,L|272:361,1,23,4|4,3:0|3:0,0:0:0:0:
444,168,89063,6,0,L|487:171,2,43.1250016450883,8|0|4,3:2|0:0|3:0,0:0:0:0:
319,35,89256,2,0,L|261:29,2,57.500002193451,4|4|4,3:0|3:0|3:0,0:0:0:0:
407,15,89450,6,0,L|398:110,1,86.2500032901765,4|0,3:0|0:0,0:0:0:0:
469,253,89643,2,0,P|491:271|470:250,1,86.2500032901765,4|0,3:0|0:0,0:0:0:0:
131,201,89837,6,0,L|126:257,1,51.7499984207154,4|0,1:0|0:0,0:0:0:0:
0,324,90224,6,0,B|12:301|12:301|240:261|240:261|248:301|283:324,1,327.749991248131,2|0,0:0|0:0,0:0:0:0:
338,120,90611,6,0,B|346:74|346:74|406:132|406:132|390:222|390:222|315:247|315:247|325:188,1,327.749991248131,10|0,1:0|0:0,0:0:0:0:
265,159,90998,6,2,L|213:169,1,51.7499984207154,2|0,0:3|0:0,1:0:0:0:
98,314,91385,6,0,B|114:219|114:219|118:220|118:220|141:90|141:90|137:89|137:89|154:-5,1,327.749991248131,0|0,1:0|0:0,0:0:0:0:
0,154,91772,6,0,L|50:144,1,51.7499984207154,2|0,0:3|0:0,0:0:0:0:
98,314,92160,6,0,P|75:342|102:316,1,109.24999708271,8|0,1:2|0:0,0:0:0:0:
188,278,92353,2,0,L|201:199,2,54.6249985413552,0|0|0,1:0|1:0|1:0,0:0:0:0:
397,318,92547,6,0,B|391:349|391:349|409:336|409:336|415:305,1,86.25,2|2,0:0|0:0,0:0:0:0:
429,226,92934,2,0,P|390:198|344:209,2,97.7500018644333,0|0|0,1:0|0:0|0:0,0:0:0:0:
98,314,93321,6,0,L|47:326,1,51.7499984207154,2|0,0:1|0:0,0:0:0:0:
0,67,93708,6,2,P|76:79|121:15,1,163.874995624065,10|0,1:0|0:0,1:0:0:0:
135,11,93901,6,0,P|189:66|162:140,1,163.874995624065
157,159,94095,6,0,P|170:219|227:242,1,129.375004935265
392,158,94482,6,0,P|380:112|409:75,1,97.7500018644333,0|0,1:0|0:0,0:0:0:0:
479,176,94676,2,0,P|508:138|496:93,1,97.7500018644333,2|0,0:0|0:0,0:0:0:0:
271,160,94869,6,0,P|405:208|449:343,1,293.2500055933,2|0,0:1|0:0,0:0:0:0:
92,355,95256,2,2,P|200:262|339:292,1,293.2500055933,10|0,1:0|0:0,1:0:0:0:
373,363,95643,6,2,P|362:377|371:362,1,51.7499984207154,2|0,0:3|0:0,0:3:0:0:
426,121,96030,6,2,P|360:144|338:210,1,129.375004935265,2|0,1:0|0:0,1:0:0:0:
198,311,96418,6,0,B|293:295|293:295|292:291|292:291|422:268|422:268|423:272|423:272|512:255,1,327.749991248131,2|0,0:1|0:0,0:0:0:0:
225,212,96805,6,2,B|169:202|169:202|166:197|166:197|181:110,1,146.62500279665,10|0,1:0|0:0,1:0:0:0:
185,101,96998,6,0,B|199:17|199:17|196:12|196:12|141:2,1,146.62500279665
123,0,97192,6,0,B|67:-9|67:-9|63:-6|63:-6|48:77,1,129.375004935265,0|2,0:0|0:3,0:0:0:0:
56,290,97579,6,0,L|59:332,6,43.1250016450883,0|0|0|0|0|0|0,1:0|0:0|0:0|0:0|0:0|0:0|0:0,0:0:0:0:
262,366,97966,5,2,3:0:0:0:
254,290,98063,1,2,3:0:0:0:
253,359,98160,5,2,3:0:0:0:
261,300,98257,1,2,3:0:0:0:
252,374,98354,5,0,0:0:0:0:
363,115,98547,6,0,L|320:111,2,43.1250016450883,0|0|0,1:0|1:0|1:0,0:0:0:0:
475,124,98740,6,0,P|444:153|431:194,1,86.2500032901765,8|0,1:2|0:0,0:0:0:0:
480,362,98934,1,0,1:0:0:0:
254,290,99127,6,2,B|393:277|393:277|397:281|397:281|517:270,1,258.75000987053,0|0,1:0|0:0,1:0:0:0:
431,193,99514,6,0,P|430:164|444:139,1,57.5,0|2,3:0|3:0,0:0:0:0:
348,205,99708,2,0,P|322:191|308:167,1,57.5,2|2,3:0|3:0,0:0:0:0:
204,99,99901,6,0,L|209:35,3,57.5,0|2|2|2,3:0|3:0|3:0|3:0,0:0:0:0:
133,61,100289,1,0,3:0:0:0:
119,64,100385,1,2,3:0:0:0:
105,67,100482,1,2,3:0:0:0:
91,71,100579,1,2,3:0:0:0:
22,91,100676,6,0,L|10:218,1,115,0|2,3:0|3:0,0:0:0:0:
15,235,100966,1,2,3:0:0:0:
15,235,101063,2,0,L|77:219,1,57.5,0|2,3:0|3:0,0:0:0:0:
142,255,101256,2,0,L|204:239,1,57.5,2|2,3:0|3:0,0:0:0:0:
256,192,101450,5,0,3:0:0:0:
252,181,101547,1,2,3:0:0:0:
260,181,101643,1,2,3:0:0:0:
256,170,101740,1,2,3:0:0:0:
256,96,101837,6,0,L|256:32,1,57.5,2|2,0:1|0:1,0:0:0:0:
399,66,102224,6,0,P|420:79|432:101,1,51.7499984207154,2|0,1:3|0:0,0:0:0:0:
426,240,102611,6,0,L|420:303,1,51.7499984207154,0|0,0:0|0:0,1:0:0:0:
432,378,102998,6,0,B|360:390|360:390|316:276|316:276|244:288|244:288|272:352,1,327.749991248131,10|0,1:0|0:0,0:0:0:0:
426,240,103385,6,2,L|430:188,1,51.7499984207154,2|0,0:3|0:0,1:0:0:0:
366,130,103772,6,0,B|373:42|373:42|377:34|377:34|509:46|509:46|512:50|512:50|504:146,1,327.749991248131,0|0,1:0|0:0,0:0:0:0:
426,240,104160,6,2,L|374:244,1,51.7499984207154,2|0,0:3|0:0,1:0:0:0:
261,311,104547,6,0,P|313:324|363:347,1,109.24999708271,8|0,1:2|0:0,0:0:0:0:
426,240,104740,5,0,1:0:0:0:
352,218,104837,1,0,1:0:0:0:
427,229,104934,2,0,P|421:199|413:127,1,86.25,8|0,0:0|0:0,0:0:0:0:
402,51,105321,6,0,P|435:17|483:19,2,97.7500018644333,2|2|2,1:3|0:3|0:3,0:0:0:0:
373,336,105708,6,0,B|366:373|303:391|269:339|286:280|340:258|386:289|382:341|382:341|408:371|408:371|463:361,1,327.749991248131,2|0,0:1|0:0,0:0:0:0:
463,136,106095,6,2,P|425:193|470:245,1,146.62500279665,10|0,1:0|0:0,1:0:0:0:
469,244,106289,2,0,P|507:187|462:135,1,146.62500279665
451,133,106482,6,0,P|411:87|443:36,1,129.375004935265,0|2,0:0|0:3,0:0:0:0:
469,244,106869,6,0,L|465:280,1,34.4999989471436,2|2,1:3|0:3,0:0:0:0:
173,317,107256,6,0,B|139:335|139:335|13:312|13:312|122:240|122:240|153:248,1,327.749991248131,2|0,0:1|0:0,0:0:0:0:
0,271,107643,6,2,B|33:252|33:252|159:275|159:275|50:347|50:347|19:339,1,327.749991248131,10|0,1:0|0:0,1:0:0:0:
50,85,108030,6,0,L|53:49,1,34.4999989471436,2|2,1:3|0:3,0:0:0:0:
268,10,108418,6,0,P|237:55|223:107,1,109.24999708271,10|0,1:2|0:0,0:0:0:0:
217,187,108611,2,0,P|213:241|227:293,1,109.24999708271,0|0,1:0|0:0,0:0:0:0:
387,34,108805,6,0,P|356:79|342:131,1,109.24999708271,8|0,1:2|0:0,0:0:0:0:
336,211,108998,2,0,P|332:265|346:317,1,109.24999708271,0|0,1:0|0:0,0:0:0:0:
434,324,109192,5,8,1:2:0:0:
443,318,109289,1,0,1:0:0:0:
434,313,109385,2,0,P|437:258|423:206,1,109.24999708271,8|0,1:2|1:0,0:0:0:0:
272,64,109579,6,0,L|267:9,1,54.6249985413552,10|0,1:2|3:0,3:0:0:0:
262,54,109676,2,0,L|257:0,1,54.6249985413552,0|0,1:0|3:0,3:0:0:0:
181,63,109772,6,0,L|176:117,1,54.6249985413552,8|0,1:2|3:0,3:0:0:0:
171,73,109869,2,0,L|166:127,1,54.6249985413552,0|0,1:0|3:0,3:0:0:0:
93,47,109966,5,0,1:0:0:0:
21,227,110353,5,4,3:0:0:0:
91,213,110482,5,4,3:0:0:0:
68,286,110611,5,4,3:0:0:0:
42,151,110740,6,0,L|32:78,5,72.8333313884736,8|4|4|4|0|4,3:2|3:0|3:0|3:0|3:0|3:0,0:0:0:0:
68,286,111127,6,0,L|80:357,1,72.8333313884736,8|0,3:2|0:0,0:0:0:0:
256,192,111514,5,2,0:0:0:0:
256,192,111611,12,0,114611,0:0:0:0:
