osu file format v14

[General]
AudioFilename: audio.mp3
AudioLeadIn: 0
PreviewTime: 95531
Countdown: 0
SampleSet: Normal
StackLeniency: 0.7
Mode: 1
LetterboxInBreaks: 0
WidescreenStoryboard: 1

[Editor]
Bookmarks: 9781,19381,28981,38581,48181,57781,67381,76981,96181,124981,134581,144181,163381,201781,211381,223381,252181
DistanceSpacing: 1
BeatDivisor: 4
GridSize: 32
TimelineZoom: 1.6

[Metadata]
Title:Aimai Attitude (feat. Nakamura Sanso)
TitleUnicode:曖昧アティテュード (feat. 中村さんそ)
Artist:rejection
ArtistUnicode:rejection
Creator:Faputa
Version:Kantan
Source:
Tags:arcpotato Stingy osu! Electronic Japanese Jpop J-pop pop featured artist fa dance edm
BeatmapID:3825429
BeatmapSetID:1846269

[Difficulty]
HPDrainRate:7
CircleSize:2
OverallDifficulty:3
ApproachRate:10
SliderMultiplier:1.4
SliderTickRate:1

[Events]
//Background and Video events
0,0,"ai.jpg",0,0
//Break Periods
//Storyboard Layer 0 (Background)
//Storyboard Layer 1 (Fail)
//Storyboard Layer 2 (Pass)
//Storyboard Layer 3 (Foreground)
//Storyboard Layer 4 (Overlay)
//Storyboard Sound Samples

[TimingPoints]
181,300,4,1,0,80,1,0
181,-111.111111111111,4,1,0,80,0,0
9681,-111.111111111111,4,1,0,90,0,0
29131,-111.111111111111,4,1,0,80,0,0
48131,-111.111111111111,4,1,0,90,0,0
57681,-111.111111111111,4,1,0,80,0,0
96131,-111.111111111111,4,1,0,90,0,0
96181,-111.111111111111,4,1,0,90,0,1
115381,-111.111111111111,4,1,0,90,0,0
124978,-111.111111111111,4,1,0,80,0,0
162781,-111.111111111111,4,1,0,50,0,0
163331,-111.111111111111,4,1,0,90,0,0
163381,-111.111111111111,4,1,0,90,0,1
182581,-111.111111111111,4,1,0,90,0,0
201031,-111.111111111111,4,1,0,70,0,0
211331,-111.111111111111,4,1,0,80,0,0
222681,-111.111111111111,4,1,0,70,0,0
223331,-111.111111111111,4,1,0,90,0,0
223381,-111.111111111111,4,1,0,90,0,1
242581,-111.111111111111,4,1,0,90,0,0
261731,-111.111111111111,4,1,0,80,0,0
262781,-111.111111111111,4,1,0,90,0,0

[HitObjects]
256,192,181,5,0,0:0:0:0:
256,192,781,1,8,0:0:0:0:
256,192,1681,1,8,0:0:0:0:
256,192,1981,1,0,0:0:0:0:
256,192,2581,1,0,0:0:0:0:
256,192,3181,1,8,0:0:0:0:
256,192,3781,1,0,0:0:0:0:
256,192,4081,1,0,0:0:0:0:
256,192,4381,1,8,0:0:0:0:
256,192,4981,1,0,0:0:0:0:
256,192,5581,1,8,0:0:0:0:
256,192,6481,1,8,0:0:0:0:
256,192,6781,1,0,0:0:0:0:
256,192,7381,1,4,0:0:0:0:
256,192,7981,1,0,0:0:0:0:
256,192,8281,1,0,0:0:0:0:
256,192,8881,1,8,0:0:0:0:
256,192,9181,1,8,0:0:0:0:
256,192,9781,1,12,0:0:0:0:
256,192,10381,1,0,0:0:0:0:
256,192,11281,1,8,0:0:0:0:
256,192,11581,1,0,0:0:0:0:
256,192,12181,1,4,0:0:0:0:
256,192,12781,1,0,0:0:0:0:
256,192,13381,1,8,0:0:0:0:
256,192,13981,1,0,0:0:0:0:
256,192,14281,1,0,0:0:0:0:
256,192,14581,1,12,0:0:0:0:
256,192,15181,1,0,0:0:0:0:
256,192,16081,1,8,0:0:0:0:
256,192,16381,1,0,0:0:0:0:
256,192,16981,1,4,0:0:0:0:
256,192,17581,1,8,0:0:0:0:
256,192,18181,1,0,0:0:0:0:
256,192,18481,1,0,0:0:0:0:
256,192,18781,1,0,0:0:0:0:
256,192,19381,1,12,0:0:0:0:
256,192,19981,1,0,0:0:0:0:
256,192,20881,1,8,0:0:0:0:
256,192,21181,1,0,0:0:0:0:
256,192,21781,1,4,0:0:0:0:
256,192,22381,1,0,0:0:0:0:
256,192,22981,1,8,0:0:0:0:
256,192,23581,1,0,0:0:0:0:
256,192,23881,1,0,0:0:0:0:
256,192,24181,1,12,0:0:0:0:
256,192,24781,1,0,0:0:0:0:
256,192,25681,1,8,0:0:0:0:
256,192,25981,1,0,0:0:0:0:
256,192,26581,1,4,0:0:0:0:
256,192,27181,1,8,0:0:0:0:
256,192,27781,1,8,0:0:0:0:
256,192,28081,1,8,0:0:0:0:
256,192,28381,1,8,0:0:0:0:
256,192,28981,1,4,0:0:0:0:
256,192,30181,1,0,0:0:0:0:
256,192,30781,1,8,0:0:0:0:
256,192,31381,1,0,0:0:0:0:
256,192,32581,1,8,0:0:0:0:
256,192,33181,1,8,0:0:0:0:
256,192,33781,1,0,0:0:0:0:
256,192,34981,1,0,0:0:0:0:
256,192,35581,1,8,0:0:0:0:
256,192,36181,1,0,0:0:0:0:
256,192,36781,1,0,0:0:0:0:
256,192,37381,1,8,0:0:0:0:
256,192,38581,1,4,0:0:0:0:
256,192,39181,1,8,0:0:0:0:
256,192,39781,1,8,0:0:0:0:
256,192,40381,1,0,0:0:0:0:
256,192,40681,1,0,0:0:0:0:
256,192,40981,1,8,0:0:0:0:
256,192,41581,1,0,0:0:0:0:
256,192,42181,1,8,0:0:0:0:
256,192,43381,1,0,0:0:0:0:
256,192,43981,1,8,0:0:0:0:
256,192,44581,1,0,0:0:0:0:
256,192,45181,1,8,0:0:0:0:
256,192,45481,1,8,0:0:0:0:
256,192,45781,1,0,0:0:0:0:
256,192,46381,1,8,0:0:0:0:
256,192,46981,1,0,0:0:0:0:
256,192,47281,1,0,0:0:0:0:
256,192,47581,1,0,0:0:0:0:
256,192,48181,1,12,0:0:0:0:
256,192,48781,1,0,0:0:0:0:
256,192,49681,1,8,0:0:0:0:
256,192,49981,1,0,0:0:0:0:
256,192,50581,1,4,0:0:0:0:
256,192,51181,1,0,0:0:0:0:
256,192,51781,1,8,0:0:0:0:
256,192,52381,1,0,0:0:0:0:
256,192,52681,1,0,0:0:0:0:
256,192,52981,1,12,0:0:0:0:
256,192,53581,1,0,0:0:0:0:
256,192,54481,1,8,0:0:0:0:
256,192,54781,1,0,0:0:0:0:
256,192,55381,1,4,0:0:0:0:
256,192,55981,1,8,0:0:0:0:
256,192,56581,1,0,0:0:0:0:
256,192,56881,1,0,0:0:0:0:
256,192,57181,1,8,0:0:0:0:
256,192,57781,1,4,0:0:0:0:
256,192,58381,1,0,0:0:0:0:
256,192,58981,1,0,0:0:0:0:
256,192,59581,1,8,0:0:0:0:
256,192,59881,1,8,0:0:0:0:
256,192,60181,1,0,0:0:0:0:
256,192,60781,1,0,0:0:0:0:
256,192,61381,1,8,0:0:0:0:
256,192,61681,1,0,0:0:0:0:
256,192,61981,1,8,0:0:0:0:
256,192,62581,1,0,0:0:0:0:
256,192,63181,1,0,0:0:0:0:
256,192,63781,1,0,0:0:0:0:
256,192,64381,1,8,0:0:0:0:
256,192,64681,1,8,0:0:0:0:
256,192,64981,1,0,0:0:0:0:
256,192,65581,1,0,0:0:0:0:
256,192,65881,1,8,0:0:0:0:
256,192,66781,1,8,0:0:0:0:
256,192,67381,1,4,0:0:0:0:
256,192,67981,1,0,0:0:0:0:
256,192,68581,1,8,0:0:0:0:
256,192,69181,1,0,0:0:0:0:
256,192,69481,1,8,0:0:0:0:
256,192,69781,1,0,0:0:0:0:
256,192,70381,1,0,0:0:0:0:
256,192,70981,1,8,0:0:0:0:
256,192,71281,1,0,0:0:0:0:
256,192,71581,1,8,0:0:0:0:
256,192,72181,1,0,0:0:0:0:
256,192,72781,1,0,0:0:0:0:
256,192,73381,1,8,0:0:0:0:
256,192,73981,1,0,0:0:0:0:
256,192,74281,1,0,0:0:0:0:
256,192,74581,1,8,0:0:0:0:
256,192,75181,1,0,0:0:0:0:
256,192,75481,1,8,0:0:0:0:
256,192,76381,1,8,0:0:0:0:
256,192,76981,1,4,0:0:0:0:
256,192,78181,1,0,0:0:0:0:
256,192,78781,1,0,0:0:0:0:
256,192,79381,1,8,0:0:0:0:
256,192,80581,1,0,0:0:0:0:
256,192,81781,1,8,0:0:0:0:
256,192,82981,1,0,0:0:0:0:
256,192,84181,1,8,0:0:0:0:
256,192,84781,1,8,0:0:0:0:
256,192,85381,1,0,0:0:0:0:
256,192,85981,1,8,0:0:0:0:
256,192,86581,1,4,0:0:0:0:
256,192,87781,1,8,0:0:0:0:
256,192,88381,1,0,0:0:0:0:
256,192,88981,1,8,0:0:0:0:
256,192,90181,1,0,0:0:0:0:
256,192,90781,1,8,0:0:0:0:
256,192,91381,1,0,0:0:0:0:
256,192,91981,1,0,0:0:0:0:
256,192,92581,1,8,0:0:0:0:
256,192,93181,1,0,0:0:0:0:
256,192,93781,1,8,0:0:0:0:
256,192,94081,1,8,0:0:0:0:
256,192,94381,1,0,0:0:0:0:
256,192,94681,1,0,0:0:0:0:
256,192,94981,1,8,0:0:0:0:
256,192,96181,1,12,0:0:0:0:
256,192,96781,1,8,0:0:0:0:
256,192,97081,1,0,0:0:0:0:
256,192,97381,1,8,0:0:0:0:
256,192,97681,1,0,0:0:0:0:
256,192,97981,1,8,0:0:0:0:
256,192,98581,1,0,0:0:0:0:
256,192,99181,1,0,0:0:0:0:
256,192,99781,1,8,0:0:0:0:
256,192,100681,1,0,0:0:0:0:
256,192,100981,1,8,0:0:0:0:
256,192,101581,1,8,0:0:0:0:
256,192,102181,1,0,0:0:0:0:
256,192,102481,1,0,0:0:0:0:
256,192,102781,1,8,0:0:0:0:
256,192,103081,1,0,0:0:0:0:
256,192,103381,1,8,0:0:0:0:
256,192,103981,1,8,0:0:0:0:
256,192,104281,1,8,0:0:0:0:
256,192,104581,1,0,0:0:0:0:
256,192,105781,1,12,0:0:0:0:
256,192,106381,1,8,0:0:0:0:
256,192,106981,1,0,0:0:0:0:
256,192,107281,1,0,0:0:0:0:
256,192,107581,1,8,0:0:0:0:
256,192,107881,1,8,0:0:0:0:
256,192,108181,1,0,0:0:0:0:
256,192,108781,1,0,0:0:0:0:
256,192,109081,1,0,0:0:0:0:
256,192,109381,1,8,0:0:0:0:
256,192,109981,1,0,0:0:0:0:
256,192,110581,1,8,0:0:0:0:
256,192,111181,1,8,0:0:0:0:
256,192,111781,1,0,0:0:0:0:
256,192,112381,1,8,0:0:0:0:
256,192,112981,1,4,0:0:0:0:
256,192,113581,1,4,0:0:0:0:
256,192,114031,1,12,0:0:0:0:
256,192,115381,1,12,0:0:0:0:
256,192,115981,1,0,0:0:0:0:
256,192,116881,1,8,0:0:0:0:
256,192,117181,1,0,0:0:0:0:
256,192,117781,1,4,0:0:0:0:
256,192,118381,1,0,0:0:0:0:
256,192,118981,1,8,0:0:0:0:
256,192,119581,1,0,0:0:0:0:
256,192,119881,1,0,0:0:0:0:
256,192,120181,1,12,0:0:0:0:
256,192,120781,1,0,0:0:0:0:
256,192,121681,1,8,0:0:0:0:
256,192,121981,1,0,0:0:0:0:
256,192,122581,1,4,0:0:0:0:
256,192,123181,1,8,0:0:0:0:
256,192,123781,1,8,0:0:0:0:
256,192,124081,1,8,0:0:0:0:
256,192,124381,1,8,0:0:0:0:
256,192,124981,1,4,0:0:0:0:
256,192,125581,1,0,0:0:0:0:
256,192,126181,1,0,0:0:0:0:
256,192,126781,1,8,0:0:0:0:
256,192,127081,1,8,0:0:0:0:
256,192,127381,1,0,0:0:0:0:
256,192,127981,1,0,0:0:0:0:
256,192,128581,1,8,0:0:0:0:
256,192,128881,1,0,0:0:0:0:
256,192,129181,1,8,0:0:0:0:
256,192,129781,1,0,0:0:0:0:
256,192,130381,1,0,0:0:0:0:
256,192,130981,1,0,0:0:0:0:
256,192,131581,1,8,0:0:0:0:
256,192,131881,1,8,0:0:0:0:
256,192,132181,1,0,0:0:0:0:
256,192,132781,1,0,0:0:0:0:
256,192,133081,1,8,0:0:0:0:
256,192,133981,1,8,0:0:0:0:
256,192,134581,1,4,0:0:0:0:
256,192,135181,1,0,0:0:0:0:
256,192,135781,1,8,0:0:0:0:
256,192,136381,1,0,0:0:0:0:
256,192,136681,1,8,0:0:0:0:
256,192,136981,1,0,0:0:0:0:
256,192,137581,1,0,0:0:0:0:
256,192,138181,1,8,0:0:0:0:
256,192,138481,1,0,0:0:0:0:
256,192,138781,1,8,0:0:0:0:
256,192,139381,1,0,0:0:0:0:
256,192,139981,1,0,0:0:0:0:
256,192,140431,1,12,0:0:0:0:
256,192,141781,1,8,0:0:0:0:
256,192,142381,1,0,0:0:0:0:
256,192,142681,1,8,0:0:0:0:
256,192,143581,1,8,0:0:0:0:
256,192,144181,1,4,0:0:0:0:
256,192,145381,1,0,0:0:0:0:
256,192,145981,1,0,0:0:0:0:
256,192,146581,1,8,0:0:0:0:
256,192,147781,1,0,0:0:0:0:
256,192,148981,1,8,0:0:0:0:
256,192,150181,1,0,0:0:0:0:
256,192,151381,1,8,0:0:0:0:
256,192,151981,1,8,0:0:0:0:
256,192,152581,1,0,0:0:0:0:
256,192,153181,1,8,0:0:0:0:
256,192,153781,1,4,0:0:0:0:
256,192,154981,1,8,0:0:0:0:
256,192,155581,1,0,0:0:0:0:
256,192,156181,1,8,0:0:0:0:
256,192,157381,1,0,0:0:0:0:
256,192,157981,1,8,0:0:0:0:
256,192,158581,1,0,0:0:0:0:
256,192,159181,1,0,0:0:0:0:
256,192,159781,1,8,0:0:0:0:
256,192,160381,1,0,0:0:0:0:
256,192,160981,1,8,0:0:0:0:
256,192,161281,1,8,0:0:0:0:
256,192,161581,1,0,0:0:0:0:
256,192,161881,1,0,0:0:0:0:
256,192,162181,1,8,0:0:0:0:
256,192,163381,1,12,0:0:0:0:
256,192,163981,1,8,0:0:0:0:
256,192,164281,1,0,0:0:0:0:
256,192,164581,1,8,0:0:0:0:
256,192,164881,1,0,0:0:0:0:
256,192,165181,1,8,0:0:0:0:
256,192,165781,1,0,0:0:0:0:
256,192,166381,1,0,0:0:0:0:
256,192,166981,1,8,0:0:0:0:
256,192,167881,1,0,0:0:0:0:
256,192,168181,1,8,0:0:0:0:
256,192,168781,1,8,0:0:0:0:
256,192,169381,1,0,0:0:0:0:
256,192,169681,1,0,0:0:0:0:
256,192,169981,1,8,0:0:0:0:
256,192,170281,1,0,0:0:0:0:
256,192,170581,1,8,0:0:0:0:
256,192,171181,1,8,0:0:0:0:
256,192,171481,1,8,0:0:0:0:
256,192,171781,1,0,0:0:0:0:
256,192,172981,1,12,0:0:0:0:
256,192,173581,1,8,0:0:0:0:
256,192,174181,1,0,0:0:0:0:
256,192,174481,1,0,0:0:0:0:
256,192,174781,1,8,0:0:0:0:
256,192,175081,1,8,0:0:0:0:
256,192,175381,1,0,0:0:0:0:
256,192,175981,1,0,0:0:0:0:
256,192,176281,1,0,0:0:0:0:
256,192,176581,1,8,0:0:0:0:
256,192,177181,1,0,0:0:0:0:
256,192,177781,1,8,0:0:0:0:
256,192,178381,1,8,0:0:0:0:
256,192,178981,1,0,0:0:0:0:
256,192,179581,1,8,0:0:0:0:
256,192,180181,1,4,0:0:0:0:
256,192,180781,1,4,0:0:0:0:
256,192,181231,1,12,0:0:0:0:
256,192,182581,1,12,0:0:0:0:
256,192,183181,1,8,0:0:0:0:
256,192,183781,1,8,0:0:0:0:
256,192,184081,1,0,0:0:0:0:
256,192,184381,1,8,0:0:0:0:
256,192,184681,1,8,0:0:0:0:
256,192,184981,1,0,0:0:0:0:
256,192,185581,1,0,0:0:0:0:
256,192,186181,1,8,0:0:0:0:
256,192,187081,1,0,0:0:0:0:
256,192,187381,1,8,0:0:0:0:
256,192,187981,1,8,0:0:0:0:
256,192,188581,1,8,0:0:0:0:
256,192,188881,1,0,0:0:0:0:
256,192,189181,1,8,0:0:0:0:
256,192,189481,1,8,0:0:0:0:
256,192,189781,1,0,0:0:0:0:
256,192,190381,1,0,0:0:0:0:
256,192,190681,1,0,0:0:0:0:
256,192,190981,1,8,0:0:0:0:
256,192,192181,1,12,0:0:0:0:
256,192,192781,1,8,0:0:0:0:
256,192,193381,1,8,0:0:0:0:
256,192,193681,1,8,0:0:0:0:
256,192,193981,1,0,0:0:0:0:
256,192,194281,1,8,0:0:0:0:
256,192,194581,1,0,0:0:0:0:
256,192,195181,1,8,0:0:0:0:
256,192,195781,1,0,0:0:0:0:
256,192,196981,1,8,0:0:0:0:
256,192,197581,1,0,0:0:0:0:
256,192,198181,1,8,0:0:0:0:
256,192,198481,1,8,0:0:0:0:
256,192,198781,1,0,0:0:0:0:
256,192,199381,1,8,0:0:0:0:
256,192,199681,1,8,0:0:0:0:
256,192,199981,1,0,0:0:0:0:
256,192,200281,1,0,0:0:0:0:
256,192,200581,1,8,0:0:0:0:
256,192,201781,1,12,0:0:0:0:
256,192,202981,1,0,0:0:0:0:
256,192,203581,1,0,0:0:0:0:
256,192,204181,1,8,0:0:0:0:
256,192,205381,1,8,0:0:0:0:
256,192,205981,1,0,0:0:0:0:
256,192,206581,1,8,0:0:0:0:
256,192,207781,1,0,0:0:0:0:
256,192,208981,1,8,0:0:0:0:
256,192,210181,1,0,0:0:0:0:
256,192,210781,1,0,0:0:0:0:
256,192,211381,1,12,0:0:0:0:
256,192,211981,1,8,0:0:0:0:
256,192,212581,1,0,0:0:0:0:
256,192,213181,1,0,0:0:0:0:
256,192,213781,1,12,0:0:0:0:
256,192,214681,1,0,0:0:0:0:
256,192,214981,1,8,0:0:0:0:
256,192,215581,1,8,0:0:0:0:
256,192,216181,1,4,0:0:0:0:
256,192,216781,1,0,0:0:0:0:
256,192,217381,1,0,0:0:0:0:
256,192,217981,1,0,0:0:0:0:
256,192,218581,1,4,0:0:0:0:
256,192,219181,1,8,0:0:0:0:
256,192,219481,1,8,0:0:0:0:
256,192,219781,1,0,0:0:0:0:
256,192,220381,1,0,0:0:0:0:
256,192,220981,1,8,0:0:0:0:
256,192,221281,1,8,0:0:0:0:
256,192,221581,1,0,0:0:0:0:
256,192,221881,1,0,0:0:0:0:
256,192,222181,1,8,0:0:0:0:
256,192,223081,1,4,0:0:0:0:
256,192,223381,1,12,0:0:0:0:
256,192,223981,1,8,0:0:0:0:
256,192,224281,1,0,0:0:0:0:
256,192,224581,1,8,0:0:0:0:
256,192,224881,1,0,0:0:0:0:
256,192,225181,1,8,0:0:0:0:
256,192,225781,1,0,0:0:0:0:
256,192,226381,1,0,0:0:0:0:
256,192,226981,1,8,0:0:0:0:
256,192,227881,1,0,0:0:0:0:
256,192,228181,1,8,0:0:0:0:
256,192,228781,1,8,0:0:0:0:
256,192,229381,1,0,0:0:0:0:
256,192,229681,1,0,0:0:0:0:
256,192,229981,1,8,0:0:0:0:
256,192,230281,1,0,0:0:0:0:
256,192,230581,1,8,0:0:0:0:
256,192,231181,1,8,0:0:0:0:
256,192,231481,1,8,0:0:0:0:
256,192,231781,1,0,0:0:0:0:
256,192,232981,1,12,0:0:0:0:
256,192,233581,1,8,0:0:0:0:
256,192,234181,1,0,0:0:0:0:
256,192,234481,1,0,0:0:0:0:
256,192,234781,1,8,0:0:0:0:
256,192,235081,1,8,0:0:0:0:
256,192,235381,1,0,0:0:0:0:
256,192,235981,1,0,0:0:0:0:
256,192,236281,1,0,0:0:0:0:
256,192,236581,1,8,0:0:0:0:
256,192,237181,1,0,0:0:0:0:
256,192,237781,1,8,0:0:0:0:
256,192,238381,1,8,0:0:0:0:
256,192,238981,1,0,0:0:0:0:
256,192,239581,1,8,0:0:0:0:
256,192,240181,1,4,0:0:0:0:
256,192,240781,1,4,0:0:0:0:
256,192,241231,1,12,0:0:0:0:
256,192,242581,1,12,0:0:0:0:
256,192,243181,1,0,0:0:0:0:
256,192,244081,1,8,0:0:0:0:
256,192,244381,1,0,0:0:0:0:
256,192,244981,1,4,0:0:0:0:
256,192,245581,1,0,0:0:0:0:
256,192,246181,1,8,0:0:0:0:
256,192,246781,1,0,0:0:0:0:
256,192,247081,1,0,0:0:0:0:
256,192,247381,1,12,0:0:0:0:
256,192,247981,1,0,0:0:0:0:
256,192,248881,1,8,0:0:0:0:
256,192,249181,1,0,0:0:0:0:
256,192,249781,1,4,0:0:0:0:
256,192,250381,1,8,0:0:0:0:
256,192,250981,1,0,0:0:0:0:
256,192,251281,1,0,0:0:0:0:
256,192,251581,1,0,0:0:0:0:
256,192,252181,1,12,0:0:0:0:
256,192,252781,1,0,0:0:0:0:
256,192,253681,1,8,0:0:0:0:
256,192,253981,1,0,0:0:0:0:
256,192,254581,1,4,0:0:0:0:
256,192,255181,1,0,0:0:0:0:
256,192,255781,1,8,0:0:0:0:
256,192,256381,1,0,0:0:0:0:
256,192,256681,1,0,0:0:0:0:
256,192,256981,1,12,0:0:0:0:
256,192,257581,1,0,0:0:0:0:
256,192,258481,1,8,0:0:0:0:
256,192,258781,1,0,0:0:0:0:
256,192,259381,1,4,0:0:0:0:
256,192,259981,1,8,0:0:0:0:
256,192,260581,1,8,0:0:0:0:
256,192,260881,1,8,0:0:0:0:
256,192,261181,1,8,0:0:0:0:
256,192,262081,1,0,0:0:0:0:
256,192,262381,1,0,0:0:0:0:
256,192,262831,1,12,0:0:0:0:
256,192,263581,1,12,0:0:0:0:
