osu file format v14

[General]
AudioFilename: audio.mp3
AudioLeadIn: 0
PreviewTime: 131349
Countdown: 0
SampleSet: None
StackLeniency: 0.7
Mode: 0
LetterboxInBreaks: 0
WidescreenStoryboard: 0

[Editor]
Bookmarks: 238196
DistanceSpacing: 0.9
BeatDivisor: 4
GridSize: 16
TimelineZoom: 2.8

[Metadata]
Title:girl A sang
TitleUnicode:少女Aを歌いました
Artist:rei sirose
ArtistUnicode:rei sirose
Creator:Melwoine
Version:Singing
Source:
Tags:
BeatmapID:1865418
BeatmapSetID:892384

[Difficulty]
HPDrainRate:6
CircleSize:4.7
OverallDifficulty:9
ApproachRate:9.5
SliderMultiplier:1.4
SliderTickRate:1

[Events]
//Background and Video events
0,0,"40449348_p0_master1200.jpg",0,0
//Break Periods
//Storyboard Layer 0 (Background)
//Storyboard Layer 1 (Fail)
//Storyboard Layer 2 (Pass)
//Storyboard Layer 3 (Foreground)
//Storyboard Sound Samples

[TimingPoints]
273,230.769230769231,4,3,0,50,1,0
3965,-76.9230769230769,4,3,0,50,0,0
22426,-100,4,3,0,50,0,0
64888,-66.6666666666667,4,3,0,50,0,0
65349,-83.3333333333333,4,3,0,50,0,0
65811,-125,4,3,0,50,0,0
66734,-64.5161290322581,4,3,0,50,0,1
68580,-64.5161290322581,4,3,0,50,0,1
90734,-133.333333333333,4,3,0,50,0,1
92580,-64.516129032258,4,3,0,50,0,1
96273,-133.333333333333,4,3,0,50,0,0
96273,-100,4,3,0,50,0,0
96503,-200,4,3,0,50,0,0
103657,-100,4,3,0,50,0,0
131349,-200,4,3,0,50,0,0
133196,-66.6666666666667,4,3,0,50,0,1
162734,-200,4,3,0,5,0,0
170119,-58.8235294117647,4,3,0,50,0,1
194119,-166.666666666667,4,3,0,50,0,0
201503,-71.4285714285714,4,3,0,50,0,1
216273,-100,4,3,0,50,0,0

[Colours]
Combo1 : 0,128,0
Combo2 : 149,74,0
Combo3 : 0,0,149
Combo4 : 128,0,128

[HitObjects]
400,131,273,6,0,L|389:217,3,70
487,206,849,2,0,L|498:292,3,70
265,185,1426,1,0,0:0:0:0:
265,185,1657,1,0,0:0:0:0:
265,185,1888,1,0,0:0:0:0:
89,173,2119,5,0,0:0:0:0:
41,99,2234,1,0,0:0:0:0:
114,51,2349,1,0,0:0:0:0:
194,128,2465,1,0,0:0:0:0:
88,86,2696,5,0,0:0:0:0:
106,0,2811,1,0,0:0:0:0:
191,17,2926,1,0,0:0:0:0:
194,128,3042,1,0,0:0:0:0:
323,53,3273,5,0,0:0:0:0:
323,53,3503,1,0,0:0:0:0:
323,53,3734,1,0,0:0:0:0:
427,240,3965,6,0,P|436:297|410:343,1,90.9999958343508
355,281,4196,2,0,P|308:266|258:276,1,90.9999958343508
184,336,4426,1,0,0:0:0:0:
267,271,4542,1,0,0:0:0:0:
306,368,4657,1,0,0:0:0:0:
355,281,4773,6,0,P|352:220|335:180,1,90.9999958343508
413,156,5003,2,0,P|372:116|331:106,1,90.9999958343508
246,112,5234,1,0,0:0:0:0:
216,200,5349,2,0,P|159:255|62:230,1,181.999991668702
31,166,5696,5,0,0:0:0:0:
81,82,5811,1,0,0:0:0:0:
129,168,5926,1,0,0:0:0:0:
10,178,6042,5,0,0:0:0:0:
80,55,6157,1,0,0:0:0:0:
152,180,6273,2,0,P|167:232|166:278,1,90.9999958343508
266,248,6503,2,0,L|256:203,3,45.4999979171754
336,301,6734,2,0,P|475:264|375:136,1,363.999983337403
200,65,7657,6,0,P|252:55|297:72,1,90.9999958343508
244,139,7888,2,0,P|287:150|331:139,1,90.9999958343508
399,100,8119,2,0,P|451:90|496:107,1,90.9999958343508
441,172,8349,2,0,P|451:224|434:269,1,90.9999958343508
359,212,8580,2,0,L|335:308,1,90.9999958343508
178,369,8811,1,0,0:0:0:0:
245,310,8926,2,0,L|267:221,1,90.9999958343508
288,135,9157,5,0,0:0:0:0:
203,152,9273,2,0,P|171:182|161:232,1,90.9999958343508
123,302,9503,6,0,P|89:266|83:208,1,90.9999958343508
161,228,9734,2,0,P|195:192|201:134,1,90.9999958343508
120,157,9965,2,0,P|86:121|80:63,1,90.9999958343508
171,81,10196,2,0,P|221:77|268:108,1,90.9999958343508
316,155,10426,2,0,L|426:136,1,90.9999958343508
501,120,10657,1,0,0:0:0:0:
467,211,10773,2,0,L|479:310,1,90.9999958343508
331,340,11003,5,0,0:0:0:0:
287,244,11119,2,0,L|376:202,1,90.9999958343508
466,210,11349,6,0,P|456:253|424:289,1,90.9999958343508
370,206,11580,2,0,P|340:172|329:128,1,90.9999958343508
418,129,11811,2,0,P|461:116|505:124,1,90.9999958343508
505,124,12042,2,0,P|513:79|500:36,1,90.9999958343508
431,48,12273,2,0,P|416:23|361:-2,1,90.9999958343508
275,21,12503,1,0,0:0:0:0:
283,114,12619,2,0,L|185:138,1,90.9999958343508
94,162,12849,5,0,0:0:0:0:
67,59,12965,2,0,P|115:48|154:69,1,90.9999958343508
194,135,13196,6,0,L|220:227,1,90.9999958343508
352,164,13426,2,0,L|326:256,1,90.9999958343508
147,265,13657,2,0,L|173:357,1,90.9999958343508
374,355,13888,2,0,P|397:312|399:268,1,90.9999958343508
352,164,14119,2,0,L|326:256,1,90.9999958343508
276,343,14349,1,0,0:0:0:0:
171,352,14465,2,0,P|120:347|81:365,1,90.9999958343508
19,384,14696,5,0,0:0:0:0:
0,309,14811,2,0,P|-1:262|15:217,1,90.9999958343508
54,167,15042,6,0,P|101:167|141:193,1,90.9999958343508
113,84,15273,2,0,P|166:82|200:58,1,90.9999958343508
200,235,15503,2,0,P|242:260|313:268,1,90.9999958343508
290,108,15734,2,0,P|328:76|386:75,1,90.9999958343508
362,163,15965,2,0,P|386:216|382:264,1,90.9999958343508
364,340,16196,1,0,0:0:0:0:
282,231,16311,2,0,P|246:177|231:135,1,90.9999958343508
197,56,16542,5,0,0:0:0:0:
119,80,16657,2,0,L|163:160,1,90.9999958343508
82,166,16888,6,0,L|61:273,1,90.9999958343508
168,269,17119,2,0,L|189:362,1,90.9999958343508
283,298,17349,2,0,L|382:349,1,90.9999958343508
391,243,17580,2,0,L|295:193,1,90.9999958343508
377,138,17811,2,0,L|281:88,1,90.9999958343508
213,48,18042,1,0,0:0:0:0:
204,135,18157,2,0,L|108:118,1,90.9999958343508
39,104,18388,5,0,0:0:0:0:
0,244,18503,2,0,L|77:183,1,90.9999958343508
56,307,18734,6,0,P|96:335|151:337,1,90.9999958343508
123,258,18965,2,0,P|170:247|215:216,1,90.9999958343508
219,325,19196,2,0,P|263:331|299:357,1,90.9999958343508
299,357,19426,2,0,P|325:320|331:276,1,90.9999958343508
315,197,19657,2,0,P|371:210|406:252,1,90.9999958343508
447,327,19888,1,0,0:0:0:0:
509,252,20003,2,0,L|499:161,1,90.9999958343508
486,67,20234,5,0,0:0:0:0:
393,136,20349,2,0,P|341:126|302:99,1,90.9999958343508
276,28,20580,6,0,P|227:24|174:39,1,90.9999958343508
107,52,20811,2,0,P|134:96|175:114,1,90.9999958343508
310,106,21042,2,0,P|283:150|243:174,1,90.9999958343508
159,212,21273,2,0,L|147:305,1,90.9999958343508
231,268,21503,2,0,L|331:275,1,90.9999958343508
426,280,21734,1,0,0:0:0:0:
330,355,21849,2,0,L|239:348,1,90.9999958343508
147,302,22080,5,0,0:0:0:0:
102,240,22196,2,0,L|9:274,1,90.9999958343508
14,352,22426,6,0,L|88:365,3,70
8,214,23003,1,0,0:0:0:0:
183,132,23119,1,0,0:0:0:0:
301,300,23349,1,0,0:0:0:0:
199,41,23580,1,0,0:0:0:0:
475,278,23926,1,0,0:0:0:0:
414,102,24042,1,0,0:0:0:0:
350,324,24273,6,0,P|384:337|422:334,3,70
395,256,24849,1,0,0:0:0:0:
255,123,24965,1,0,0:0:0:0:
206,352,25196,1,0,0:0:0:0:
425,161,25426,1,0,0:0:0:0:
158,48,25773,1,0,0:0:0:0:
76,205,25888,1,0,0:0:0:0:
228,155,26119,6,0,P|254:188|263:223,3,70
151,264,26696,1,0,0:0:0:0:
313,351,26811,1,0,0:0:0:0:
304,92,27042,1,0,0:0:0:0:
446,328,27273,1,0,0:0:0:0:
474,36,27619,1,0,0:0:0:0:
399,192,27734,1,0,0:0:0:0:
304,92,27965,6,0,L|226:103,4,70
383,38,28542,1,0,0:0:0:0:
399,192,28657,1,0,0:0:0:0:
171,31,28888,1,0,0:0:0:0:
294,232,29119,1,0,0:0:0:0:
136,138,29465,1,0,0:0:0:0:
69,298,29580,1,0,0:0:0:0:
193,282,29811,5,0,0:0:0:0:
210,358,29926,1,0,0:0:0:0:
267,304,30042,1,0,0:0:0:0:
249,229,30157,1,0,0:0:0:0:
176,96,30388,1,0,0:0:0:0:
347,158,30503,1,0,0:0:0:0:
236,0,30734,1,0,0:0:0:0:
512,95,30965,1,0,0:0:0:0:
512,362,31311,1,0,0:0:0:0:
379,231,31426,1,0,0:0:0:0:
283,352,31657,5,0,0:0:0:0:
303,277,31773,1,0,0:0:0:0:
291,201,31888,1,0,0:0:0:0:
271,126,32003,1,0,0:0:0:0:
132,160,32234,1,0,0:0:0:0:
114,317,32349,1,0,0:0:0:0:
26,89,32580,1,0,0:0:0:0:
324,177,32811,1,0,0:0:0:0:
11,343,33157,1,0,0:0:0:0:
132,160,33273,1,0,0:0:0:0:
11,116,33503,5,0,0:0:0:0:
9,193,33619,1,0,0:0:0:0:
59,251,33734,1,0,0:0:0:0:
132,272,33849,1,0,0:0:0:0:
324,177,34080,1,0,0:0:0:0:
214,67,34196,1,0,0:0:0:0:
281,303,34426,1,0,0:0:0:0:
440,130,34657,1,0,0:0:0:0:
509,326,35003,1,0,0:0:0:0:
382,231,35119,1,0,0:0:0:0:
354,325,35349,5,0,0:0:0:0:
281,303,35465,1,0,0:0:0:0:
236,242,35580,1,0,0:0:0:0:
245,165,35696,1,0,0:0:0:0:
437,168,35926,1,0,0:0:0:0:
353,33,36042,1,0,0:0:0:0:
176,192,36273,1,0,0:0:0:0:
5,11,36503,1,0,0:0:0:0:
37,301,36849,1,0,0:0:0:0:
64,131,36965,1,0,0:0:0:0:
205,285,37196,5,0,0:0:0:0:
274,235,37311,1,0,0:0:0:0:
213,297,37426,1,0,0:0:0:0:
261,226,37542,1,0,0:0:0:0:
414,370,37773,1,0,0:0:0:0:
449,176,37888,1,0,0:0:0:0:
449,176,38119,1,0,0:0:0:0:
449,176,38349,1,0,0:0:0:0:
149,151,38696,1,0,0:0:0:0:
296,57,38811,1,0,0:0:0:0:
322,265,39042,5,0,0:0:0:0:
256,149,39157,1,0,0:0:0:0:
270,281,39273,1,0,0:0:0:0:
313,159,39388,1,0,0:0:0:0:
155,315,39619,1,0,0:0:0:0:
122,143,39734,1,0,0:0:0:0:
122,143,39965,1,0,0:0:0:0:
122,143,40196,1,0,0:0:0:0:
10,367,40542,1,0,0:0:0:0:
106,241,40657,1,0,0:0:0:0:
150,349,40888,5,0,0:0:0:0:
239,251,41003,1,0,0:0:0:0:
270,380,41119,1,0,0:0:0:0:
178,284,41234,1,0,0:0:0:0:
369,128,41465,1,0,0:0:0:0:
356,310,41580,1,0,0:0:0:0:
356,310,41811,1,0,0:0:0:0:
356,310,42042,1,0,0:0:0:0:
247,44,42388,1,0,0:0:0:0:
130,183,42503,1,0,0:0:0:0:
309,202,42734,5,0,0:0:0:0:
424,137,42849,1,0,0:0:0:0:
292,110,42965,1,0,0:0:0:0:
407,47,43080,1,0,0:0:0:0:
379,251,43311,1,0,0:0:0:0:
292,110,43426,1,0,0:0:0:0:
288,114,43657,1,0,0:0:0:0:
288,114,43888,1,0,0:0:0:0:
230,313,44234,1,0,0:0:0:0:
165,171,44349,1,0,0:0:0:0:
71,316,44580,5,0,0:0:0:0:
50,207,44696,1,0,0:0:0:0:
100,346,44811,1,0,0:0:0:0:
121,226,44926,1,0,0:0:0:0:
230,313,45157,1,0,0:0:0:0:
286,150,45273,1,0,0:0:0:0:
380,372,45503,1,0,0:0:0:0:
183,137,45734,1,0,0:0:0:0:
455,325,46080,1,0,0:0:0:0:
416,169,46196,1,0,0:0:0:0:
337,300,46426,5,0,0:0:0:0:
406,249,46542,1,0,0:0:0:0:
300,231,46657,1,0,0:0:0:0:
264,334,46773,1,0,0:0:0:0:
125,255,47003,1,0,0:0:0:0:
185,119,47119,1,0,0:0:0:0:
338,314,47349,1,0,0:0:0:0:
198,207,47580,1,0,0:0:0:0:
438,159,47926,1,0,0:0:0:0:
352,30,48042,1,0,0:0:0:0:
121,44,48273,5,0,0:0:0:0:
42,127,48388,1,0,0:0:0:0:
1,40,48503,1,0,0:0:0:0:
107,107,48619,1,0,0:0:0:0:
7,256,48849,1,0,0:0:0:0:
144,179,48965,1,0,0:0:0:0:
76,375,49196,1,0,0:0:0:0:
251,135,49426,1,0,0:0:0:0:
418,368,49773,1,0,0:0:0:0:
257,318,49888,1,0,0:0:0:0:
372,237,50119,5,0,0:0:0:0:
419,135,50234,1,0,0:0:0:0:
373,33,50349,1,0,0:0:0:0:
263,8,50465,1,0,0:0:0:0:
258,235,50696,1,0,0:0:0:0:
327,104,50811,1,0,0:0:0:0:
86,170,51042,1,0,0:0:0:0:
316,308,51273,1,0,0:0:0:0:
257,33,51619,1,0,0:0:0:0:
203,177,51734,1,0,0:0:0:0:
422,129,51965,5,0,0:0:0:0:
422,129,52196,1,0,0:0:0:0:
466,235,52426,1,0,0:0:0:0:
466,235,52657,1,0,0:0:0:0:
341,137,52888,1,0,0:0:0:0:
341,137,53119,1,0,0:0:0:0:
297,243,53349,1,0,0:0:0:0:
297,243,53580,1,0,0:0:0:0:
180,66,53811,1,0,0:0:0:0:
180,66,54042,1,0,0:0:0:0:
224,172,54272,1,0,0:0:0:0:
224,172,54503,1,0,0:0:0:0:
73,137,54734,1,0,0:0:0:0:
73,137,54965,1,0,0:0:0:0:
29,243,55195,1,0,0:0:0:0:
29,243,55426,1,0,0:0:0:0:
170,328,55657,6,0,L|256:318,1,70
218,228,55888,2,0,L|304:238,1,70
336,324,56119,2,0,L|422:314,1,70
384,224,56350,2,0,L|470:234,1,70
512,315,56580,2,0,L|421:325,1,70
449,207,56811,2,0,L|358:196,1,70
296,309,57042,2,0,L|205:319,1,70
233,201,57273,2,0,L|142:190,1,70
29,172,57503,6,0,P|44:134|88:99,1,70
216,107,57734,2,0,P|201:69|157:34,1,70
114,264,57965,2,0,P|91:291|79:324,1,70
232,199,58196,2,0,P|255:226|267:259,1,70
505,172,58426,2,0,P|490:134|446:99,1,70
318,107,58657,2,0,P|333:69|377:34,1,70
419,264,58888,2,0,P|441:290|453:323,1,70
301,199,59119,2,0,P|278:225|266:258,1,70
213,338,59349,6,0,L|128:340,1,70
300,338,59580,2,0,L|385:340,1,70
199,227,59811,2,0,L|110:228,1,70
312,225,60042,2,0,L|411:228,1,70
180,111,60273,2,0,L|97:112,1,70
326,108,60504,2,0,L|410:112,1,70
155,5,60734,2,0,L|61:7,1,70
344,1,60965,2,0,L|420:5,1,70
423,26,61196,6,0,L|348:22,1,70
70,27,61427,2,0,L|144:25,1,70
403,140,61657,2,0,L|328:136,1,70
97,140,61888,2,0,L|171:138,1,70
388,263,62119,2,0,L|313:260,1,70
118,264,62350,2,0,L|192:262,1,70
375,384,62581,2,0,L|300:382,1,70
132,384,62812,2,0,L|206:382,1,70
182,251,63042,6,0,L|218:160,1,70
330,251,63273,2,0,L|294:160,1,70
152,274,63503,2,0,L|160:193,1,70
359,274,63734,2,0,L|352:193,1,70
110,307,63965,2,0,L|88:229,1,70
401,307,64196,2,0,L|424:229,1,70
67,342,64426,2,0,L|26:285,1,70
444,342,64657,2,0,L|485:285,1,70
322,176,64888,6,0,P|257:108|190:183,1,210.000008010865
322,176,65349,6,0,P|253:129|190:183,1,167.999994873047
308,173,65811,6,0,P|261:155|202:173,1,112
190,175,66273,5,0,0:0:0:0:
254,109,66388,1,0,0:0:0:0:
322,176,66503,1,0,0:0:0:0:
290,323,66734,6,0,P|352:322|395:298,1,108.500000827789
452,177,66965,2,0,P|473:231|463:286,1,108.500000827789
465,361,67196,1,0,0:0:0:0:
402,234,67311,1,0,0:0:0:0:
290,323,67426,2,0,P|228:322|188:290,1,108.500000827789
147,222,67657,1,0,0:0:0:0:
60,318,67773,1,0,0:0:0:0:
60,178,67888,1,0,0:0:0:0:
127,292,68003,1,0,0:0:0:0:
125,146,68119,1,0,0:0:0:0:
68,248,68234,1,0,0:0:0:0:
197,168,68349,2,0,P|249:150|308:146,1,108.500000827789
408,141,68580,6,0,P|380:98|319:56,1,108.500000827789
184,14,68811,2,0,P|216:54|274:81,1,108.500000827789
335,63,69042,1,0,0:0:0:0:
286,0,69157,1,0,0:0:0:0:
428,22,69273,2,0,P|472:68|486:126,1,108.500000827789
469,215,69503,1,0,0:0:0:0:
408,141,69619,1,0,0:0:0:0:
340,260,69734,1,0,0:0:0:0:
325,175,69849,1,0,0:0:0:0:
423,284,69964,1,0,0:0:0:0:
469,215,70080,1,0,0:0:0:0:
499,315,70196,2,0,P|453:360|387:360,1,108.500000827789
284,323,70426,6,0,P|235:305|163:308,1,108.500000827789
121,356,70657,2,0,P|103:296|120:253,1,108.500000827789
182,193,70888,1,0,0:0:0:0:
257,258,71003,1,0,0:0:0:0:
276,141,71119,2,0,P|251:81|205:55,1,108.500000827789
105,51,71349,1,0,0:0:0:0:
63,147,71465,1,0,0:0:0:0:
166,125,71580,1,0,0:0:0:0:
32,67,71696,1,0,0:0:0:0:
8,211,71811,1,0,0:0:0:0:
126,180,71926,1,0,0:0:0:0:
216,58,72042,2,0,P|288:39|348:46,1,108.500000827789
427,52,72273,6,0,P|411:103|416:157,1,108.500000827789
487,201,72503,2,0,P|496:252|476:306,1,108.500000827789
370,343,72734,1,0,0:0:0:0:
507,378,72849,1,0,0:0:0:0:
414,246,72965,2,0,P|372:212|275:195,1,108.500000827789
238,196,73196,1,0,0:0:0:0:
253,280,73311,1,0,0:0:0:0:
153,202,73426,1,0,0:0:0:0:
173,305,73542,1,0,0:0:0:0:
58,244,73657,1,0,0:0:0:0:
79,167,73773,1,0,0:0:0:0:
95,315,73888,2,0,P|129:374|184:380,1,108.500000827789
285,344,74119,5,0,0:0:0:0:
255,157,74234,2,0,P|237:100|207:60,1,108.500000827789
355,330,74465,5,0,0:0:0:0:
238,157,74580,2,0,P|194:109|156:88,1,108.500000827789
419,283,74811,5,0,0:0:0:0:
222,165,74926,2,0,P|155:138|119:135,1,108.500000827789
442,205,75157,5,0,0:0:0:0:
214,182,75272,2,0,P|142:185|107:198,1,108.500000827789
448,118,75503,5,0,0:0:0:0:
210,201,75618,2,0,P|139:238|111:267,1,108.500000827789
136,73,75965,5,0,0:0:0:0:
111,256,76080,2,0,P|185:281|227:273,1,108.500000827789
376,73,76311,5,0,0:0:0:0:
401,256,76426,2,0,P|327:281|285:273,1,108.500000827789
124,61,76657,5,0,0:0:0:0:
96,262,76772,2,0,P|177:289|224:281,1,108.500000827789
388,61,77003,5,0,0:0:0:0:
415,262,77118,2,0,P|334:289|287:281,1,108.500000827789
110,48,77349,5,0,0:0:0:0:
80,269,77464,2,0,P|170:299|220:290,1,108.500000827789
229,116,77811,5,0,0:0:0:0:
386,265,77926,2,0,P|401:175|397:137,1,108.500000827789
295,114,78157,5,0,0:0:0:0:
300,330,78272,2,0,P|374:276|398:247,1,108.500000827789
343,160,78503,5,0,0:0:0:0:
193,316,78618,2,0,P|283:331|321:327,1,108.500000827789
344,226,78849,5,0,0:0:0:0:
127,230,78964,2,0,P|180:304|209:328,1,108.500000827789
173,83,79311,5,0,0:0:0:0:
278,145,79426,2,0,P|273:83|251:44,1,108.500000827789
371,124,79657,2,0,P|346:171|343:225,1,108.500000827789
262,345,79888,2,0,P|310:320|364:318,1,108.500000827789
444,252,80119,2,0,P|390:249|343:225,1,108.500000827789
490,166,80349,2,0,P|480:102|445:63,1,108.500000827789
379,39,80580,1,0,0:0:0:0:
303,75,80696,1,0,0:0:0:0:
371,124,80811,1,0,0:0:0:0:
388,20,80926,1,0,0:0:0:0:
278,71,81042,1,0,0:0:0:0:
376,140,81157,1,0,0:0:0:0:
397,3,81273,1,0,0:0:0:0:
257,69,81389,1,0,0:0:0:0:
383,169,81503,6,0,P|442:192|485:227,1,108.500000827789
389,262,81734,2,0,P|330:285|284:318,1,108.500000827789
208,354,81965,1,0,0:0:0:0:
157,266,82080,1,0,0:0:0:0:
61,310,82196,2,0,P|70:243|100:184,1,108.500000827789
222,90,82426,2,0,P|213:157|183:216,1,108.500000827789
157,266,82657,1,0,0:0:0:0:
139,136,82773,1,0,0:0:0:0:
31,182,82888,1,0,0:0:0:0:
81,78,83003,1,0,0:0:0:0:
222,90,83119,2,0,P|213:157|183:216,1,108.500000827789
157,266,83349,6,0,P|214:257|281:265,1,108.500000827789
383,340,83580,2,0,P|326:349|259:341,1,108.500000827789
206,324,83811,1,0,0:0:0:0:
264,261,83926,1,0,0:0:0:0:
349,267,84042,2,0,P|346:206|331:161,1,108.500000827789
282,77,84273,1,0,0:0:0:0:
188,111,84388,1,0,0:0:0:0:
262,178,84503,1,0,0:0:0:0:
220,57,84619,1,0,0:0:0:0:
119,140,84734,1,0,0:0:0:0:
170,255,84849,1,0,0:0:0:0:
262,178,84965,2,0,P|284:132|281:74,1,108.500000827789
268,8,85196,6,0,P|329:-1|382:5,1,108.500000827789
512,64,85426,2,0,P|446:58|398:67,1,108.500000827789
285,120,85657,1,0,0:0:0:0:
268,8,85773,1,0,0:0:0:0:
403,67,85888,2,0,P|422:123|416:186,1,108.500000827789
373,270,86119,1,0,0:0:0:0:
342,159,86234,1,0,0:0:0:0:
244,279,86349,1,0,0:0:0:0:
318,223,86465,1,0,0:0:0:0:
305,336,86580,1,0,0:0:0:0:
242,194,86696,1,0,0:0:0:0:
151,315,86811,2,0,P|96:296|66:253,1,108.500000827789
160,216,87042,6,0,P|179:159|169:100,1,108.500000827789
87,155,87273,2,0,P|71:101|78:39,1,108.500000827789
209,16,87503,1,0,0:0:0:0:
305,26,87619,1,0,0:0:0:0:
376,83,87734,2,0,P|331:114|277:113,1,108.500000827789
207,85,87965,1,0,0:0:0:0:
141,172,88080,1,0,0:0:0:0:
241,194,88196,1,0,0:0:0:0:
137,101,88311,1,0,0:0:0:0:
180,229,88426,1,0,0:0:0:0:
264,129,88542,1,0,0:0:0:0:
152,30,88657,2,0,P|97:30|46:46,1,108.500000827789
36,192,88888,5,0,0:0:0:0:
200,167,89003,2,0,P|259:171|319:203,1,108.500000827789
0,113,89234,5,0,0:0:0:0:
163,87,89349,2,0,P|222:91|282:123,1,108.500000827789
74,272,89580,5,0,0:0:0:0:
239,248,89695,2,0,P|298:252|358:284,1,108.500000827789
0,87,89926,5,0,0:0:0:0:
196,55,90041,2,0,P|267:59|339:98,1,108.500000827789
89,278,90272,5,0,0:0:0:0:
288,249,90387,2,0,P|359:253|431:292,1,108.500000827789
401,52,90734,5,0,0:0:0:0:
468,184,90849,2,0,L|475:261,1,52.5000020027161
401,52,91081,5,0,0:0:0:0:
345,220,91196,2,0,L|301:274,1,52.5000020027161
401,52,91427,5,0,0:0:0:0:
210,146,91542,2,0,L|135:154,1,52.5000020027161
401,52,91773,5,0,0:0:0:0:
318,293,91888,2,0,L|281:345,1,52.5000020027161
401,52,92119,5,0,0:0:0:0:
501,322,92234,2,0,L|513:395,1,52.5000020027161
221,43,92580,5,0,0:0:0:0:
197,259,92696,2,0,L|69:237,1,108.500000827789
164,115,92926,5,0,0:0:0:0:
299,284,93042,2,0,L|192:358,1,108.500000827789
171,197,93273,5,0,0:0:0:0:
385,221,93389,2,0,L|363:349,1,108.500000827789
237,244,93619,5,0,0:0:0:0:
405,109,93735,2,0,L|479:215,1,108.500000827789
467,197,93965,6,0,P|491:141|487:86,1,108.500000827789
427,6,94196,2,0,P|403:62|407:117,1,108.500000827789
467,197,94426,2,0,P|467:250|444:299,1,108.500000827789
376,333,94657,2,0,P|421:374|494:356,1,108.500000827789
508,317,94888,1,0,0:0:0:0:
401,238,95003,1,0,0:0:0:0:
268,290,95119,2,0,P|244:231|268:175,1,108.500000827789
309,100,95349,1,0,0:0:0:0:
236,23,95465,1,0,0:0:0:0:
206,123,95580,1,0,0:0:0:0:
329,93,95696,1,0,0:0:0:0:
218,12,95812,1,0,0:0:0:0:
203,144,95927,1,0,0:0:0:0:
354,78,96042,1,0,0:0:0:0:
195,0,96158,1,0,0:0:0:0:
201,168,96273,6,0,P|213:197|216:238,1,52.5000020027161
195,296,96503,2,0,P|234:300|268:321,1,70
314,360,96849,1,0,0:0:0:0:
344,289,96965,1,0,0:0:0:0:
394,353,97080,2,0,L|410:389,2,35
429,279,97426,1,0,0:0:0:0:
400,207,97542,1,0,0:0:0:0:
480,217,97657,2,0,L|516:231,2,35
455,138,98003,1,0,0:0:0:0:
400,68,98119,6,0,L|370:89,1,35
287,120,98349,1,0,0:0:0:0:
215,89,98465,1,0,0:0:0:0:
279,40,98580,2,0,L|315:24,2,35
193,8,98926,1,0,0:0:0:0:
127,62,99042,1,0,0:0:0:0:
41,90,99157,1,0,0:0:0:0:
50,6,99273,1,0,0:0:0:0:
127,62,99388,1,0,0:0:0:0:
154,149,99503,2,0,L|146:186,2,35
226,99,99849,1,0,0:0:0:0:
248,188,99965,6,0,P|245:242|216:287,1,105
135,306,100426,2,0,L|128:343,1,35
48,380,100657,1,0,0:0:0:0:
43,288,100773,1,0,0:0:0:0:
104,216,100888,1,0,0:0:0:0:
88,125,101003,1,0,0:0:0:0:
13,183,101119,1,0,0:0:0:0:
104,216,101234,1,0,0:0:0:0:
192,172,101349,2,0,L|235:166,1,35
319,150,101580,1,0,0:0:0:0:
393,202,101696,1,0,0:0:0:0:
371,294,101811,1,0,0:0:0:0:
299,241,101926,1,0,0:0:0:0:
216,288,102042,1,0,0:0:0:0:
182,378,102157,1,0,0:0:0:0:
280,354,102273,5,0,0:0:0:0:
216,288,102388,1,0,0:0:0:0:
105,288,102503,2,0,L|64:305,1,35
0,323,102734,2,0,L|3:277,1,35
15,170,102965,1,0,0:0:0:0:
204,68,103196,1,0,0:0:0:0:
291,254,103657,6,0,P|325:270|371:268,3,70
195,142,104234,5,0,0:0:0:0:
148,301,104349,1,0,0:0:0:0:
148,301,104580,1,0,0:0:0:0:
315,186,104811,1,0,0:0:0:0:
92,211,105157,1,0,0:0:0:0:
177,39,105273,1,0,0:0:0:0:
392,87,105503,6,0,P|425:110|453:151,3,70
351,252,106080,1,0,0:0:0:0:
443,132,106196,1,0,0:0:0:0:
443,132,106426,1,0,0:0:0:0:
487,327,106657,1,0,0:0:0:0:
259,173,107003,1,0,0:0:0:0:
200,326,107119,1,0,0:0:0:0:
83,205,107349,6,0,P|77:150|79:124,3,70
182,141,107926,1,0,0:0:0:0:
331,221,108042,1,0,0:0:0:0:
331,221,108273,1,0,0:0:0:0:
296,23,108503,1,0,0:0:0:0:
471,94,108849,1,0,0:0:0:0:
311,124,108965,1,0,0:0:0:0:
460,251,109196,6,0,L|470:323,3,70
325,332,109773,1,0,0:0:0:0:
379,174,109888,1,0,0:0:0:0:
379,174,110119,1,0,0:0:0:0:
150,257,110349,1,0,0:0:0:0:
235,54,110696,1,0,0:0:0:0:
236,189,110811,1,0,0:0:0:0:
381,38,111042,5,0,0:0:0:0:
381,38,111157,1,0,0:0:0:0:
381,38,111273,1,0,0:0:0:0:
381,38,111388,1,0,0:0:0:0:
301,95,111619,1,0,0:0:0:0:
390,185,111734,1,0,0:0:0:0:
390,185,111965,1,0,0:0:0:0:
234,274,112196,1,0,0:0:0:0:
509,208,112542,1,0,0:0:0:0:
406,321,112657,1,0,0:0:0:0:
230,351,112888,5,0,0:0:0:0:
230,351,113003,1,0,0:0:0:0:
230,351,113119,1,0,0:0:0:0:
230,351,113234,1,0,0:0:0:0:
305,166,113465,1,0,0:0:0:0:
175,258,113580,1,0,0:0:0:0:
175,258,113811,1,0,0:0:0:0:
323,363,114042,1,0,0:0:0:0:
115,174,114388,1,0,0:0:0:0:
76,303,114504,1,0,0:0:0:0:
232,78,114734,5,0,0:0:0:0:
232,78,114849,1,0,0:0:0:0:
232,78,114965,1,0,0:0:0:0:
232,78,115080,1,0,0:0:0:0:
333,174,115311,1,0,0:0:0:0:
370,41,115426,1,0,0:0:0:0:
370,41,115657,1,0,0:0:0:0:
483,218,115888,1,0,0:0:0:0:
260,123,116234,1,0,0:0:0:0:
175,258,116349,1,0,0:0:0:0:
332,265,116580,5,0,0:0:0:0:
332,265,116695,1,0,0:0:0:0:
332,265,116811,1,0,0:0:0:0:
332,265,116926,1,0,0:0:0:0:
411,132,117157,1,0,0:0:0:0:
477,261,117273,1,0,0:0:0:0:
477,261,117503,1,0,0:0:0:0:
355,355,117734,1,0,0:0:0:0:
353,124,118080,1,0,0:0:0:0:
402,248,118196,1,0,0:0:0:0:
255,260,118426,5,0,0:0:0:0:
256,123,118657,1,0,0:0:0:0:
303,240,118888,1,0,0:0:0:0:
208,143,119119,1,0,0:0:0:0:
324,192,119349,1,0,0:0:0:0:
187,191,119580,1,0,0:0:0:0:
304,144,119811,1,0,0:0:0:0:
207,239,120041,1,0,0:0:0:0:
352,96,120273,5,0,0:0:0:0:
159,287,120504,1,0,0:0:0:0:
392,192,120735,1,0,0:0:0:0:
119,191,120966,1,0,0:0:0:0:
351,288,121196,1,0,0:0:0:0:
160,95,121427,1,0,0:0:0:0:
255,328,121658,1,0,0:0:0:0:
256,55,121889,1,0,0:0:0:0:
181,299,122119,6,0,P|195:255|193:212,1,70
331,85,122349,2,0,P|317:129|319:172,1,70
127,214,122580,2,0,P|168:193|197:161,1,70
384,169,122810,2,0,P|343:190|314:222,1,70
149,116,123042,2,0,P|193:131|235:129,1,70
363,267,123272,2,0,P|319:253|275:255,1,70
233,63,123503,2,0,P|254:104|286:133,1,70
278,320,123733,2,0,P|257:279|225:250,1,70
369,197,123965,6,0,L|389:124,1,70
143,197,124196,2,0,L|123:124,1,70
369,197,124426,2,0,L|411:133,1,70
143,197,124657,2,0,L|101:133,1,70
369,197,124888,2,0,L|424:149,1,70
143,197,125119,2,0,L|88:149,1,70
369,197,125349,2,0,L|439:168,1,70
143,197,125580,2,0,L|73:168,1,70
268,337,125811,6,0,P|240:316|225:285,1,70
243,46,126042,2,0,P|271:67|286:98,1,70
157,300,126273,2,0,P|164:253|194:219,1,70
355,84,126503,2,0,P|347:130|318:165,1,70
111,201,126734,2,0,P|144:171|191:163,1,70
401,183,126964,2,0,P|368:213|321:221,1,70
147,95,127196,2,0,P|191:97|228:130,1,70
364,288,127426,2,0,P|320:286|285:259,1,70
227,56,127657,6,0,L|248:121,1,70
228,327,127888,2,0,L|249:261,1,70
224,42,128119,2,0,L|248:114,1,70
224,341,128350,2,0,L|248:269,1,70
221,27,128580,2,0,L|247:106,1,70
221,356,128811,2,0,L|247:277,1,70
217,10,129042,2,0,L|246:98,1,70
217,373,129273,2,0,L|246:285,1,70
392,163,129503,6,0,L|326:184,1,70
121,164,129734,2,0,L|186:185,1,70
405,160,129965,2,0,L|333:184,1,70
106,160,130196,2,0,L|178:184,1,70
420,157,130426,2,0,L|341:183,1,70
91,157,130657,2,0,L|170:183,1,70
437,153,130888,2,0,L|349:182,1,70
74,153,131119,2,0,L|162:182,1,70
378,54,131349,6,0,L|347:84,1,35
256,115,131811,6,0,L|256:157,1,35
133,54,132273,6,0,L|163:84,1,35
354,79,132734,5,0,0:0:0:0:
255,17,132850,1,0,0:0:0:0:
158,79,132965,1,0,0:0:0:0:
257,113,133196,6,0,P|298:153|322:198,1,105.000004005432
413,208,133426,2,0,P|438:253|476:289,1,105.000004005432
355,291,133657,1,0,0:0:0:0:
320,194,133773,1,0,0:0:0:0:
246,275,133888,2,0,P|185:300|118:289,1,105.000004005432
56,263,134119,1,0,0:0:0:0:
182,192,134234,1,0,0:0:0:0:
44,171,134349,1,0,0:0:0:0:
188,160,134464,1,0,0:0:0:0:
73,84,134580,1,0,0:0:0:0:
208,135,134695,1,0,0:0:0:0:
135,17,134811,2,0,P|189:8|239:17,1,105.000004005432
319,62,135042,6,0,P|370:70|421:61,1,105.000004005432
488,164,135273,2,0,P|436:154|385:163,1,105.000004005432
281,218,135503,1,0,0:0:0:0:
382,277,135619,1,0,0:0:0:0:
385,163,135734,1,0,0:0:0:0:
267,224,135849,1,0,0:0:0:0:
398,272,135965,1,0,0:0:0:0:
378,137,136080,1,0,0:0:0:0:
252,237,136196,1,0,0:0:0:0:
416,266,136312,1,0,0:0:0:0:
365,111,136427,1,0,0:0:0:0:
216,94,136542,1,0,0:0:0:0:
109,188,136657,2,0,P|85:244|80:296,1,105.000004005432
169,348,136888,6,0,P|221:329|288:338,1,105.000004005432
449,334,137119,2,0,P|397:353|330:344,1,105.000004005432
232,260,137349,1,0,0:0:0:0:
321,135,137465,1,0,0:0:0:0:
373,219,137580,1,0,0:0:0:0:
311,286,137696,1,0,0:0:0:0:
210,155,137811,1,0,0:0:0:0:
145,247,137926,1,0,0:0:0:0:
295,207,138042,1,0,0:0:0:0:
274,60,138157,1,0,0:0:0:0:
148,98,138273,1,0,0:0:0:0:
195,215,138388,1,0,0:0:0:0:
270,149,138503,2,0,P|323:119|401:120,1,105.000004005432
436,81,138734,6,0,P|397:42|317:54,1,105.000004005432
274,60,138965,6,0,P|222:54|187:16,1,105.000004005432
126,0,139196,1,0,0:0:0:0:
22,103,139311,1,0,0:0:0:0:
31,15,139426,1,0,0:0:0:0:
89,144,139542,1,0,0:0:0:0:
133,72,139657,1,0,0:0:0:0:
183,198,139773,1,0,0:0:0:0:
200,116,139888,1,0,0:0:0:0:
101,222,140003,1,0,0:0:0:0:
24,175,140119,1,0,0:0:0:0:
0,271,140234,1,0,0:0:0:0:
101,222,140349,2,0,P|141:264|159:321,1,105.000004005432
164,381,140580,5,0,0:0:0:0:
375,233,140696,2,0,P|390:164|391:111,1,105.000004005432
198,384,140926,5,0,0:0:0:0:
380,201,141042,2,0,P|382:130|374:78,1,105.000004005432
232,384,141273,5,0,0:0:0:0:
379,172,141389,2,0,P|369:102|352:51,1,105.000004005432
266,375,141619,5,0,0:0:0:0:
373,140,141735,2,0,P|351:72|325:26,1,105.000004005432
301,364,141965,5,0,0:0:0:0:
365,113,142081,2,0,P|332:50|298:9,1,105.000004005432
137,45,142426,5,0,0:0:0:0:
58,266,142542,2,0,P|102:301|154:310,1,105.000004005432
375,45,142773,5,0,0:0:0:0:
454,266,142889,2,0,P|410:301|358:310,1,105.000004005432
125,30,143119,5,0,0:0:0:0:
38,273,143235,2,0,P|86:311|143:321,1,105.000004005432
386,30,143466,5,0,0:0:0:0:
473,273,143582,2,0,P|425:311|368:321,1,105.000004005432
112,14,143811,5,0,0:0:0:0:
16,281,143927,2,0,P|69:323|132:334,1,105.000004005432
486,286,144273,5,0,0:0:0:0:
196,68,144388,2,0,L|79:93,1,105.000004005432
27,286,144619,5,0,0:0:0:0:
316,68,144734,2,0,L|433:93,1,105.000004005432
486,286,144965,5,0,0:0:0:0:
196,68,145080,2,0,L|79:93,1,105.000004005432
27,286,145311,5,0,0:0:0:0:
316,68,145426,2,0,L|433:93,1,105.000004005432
499,197,145773,5,0,0:0:0:0:
363,255,145888,2,0,P|328:204|339:158,1,105.000004005432
418,89,146119,2,0,P|453:38|442:-8,1,105.000004005432
303,0,146349,2,0,P|242:20|217:74,1,105.000004005432
211,139,146580,1,0,0:0:0:0:
131,60,146696,1,0,0:0:0:0:
86,228,146811,1,0,0:0:0:0:
123,149,146926,1,0,0:0:0:0:
194,298,147042,1,0,0:0:0:0:
175,215,147157,1,0,0:0:0:0:
282,323,147273,1,0,0:0:0:0:
259,239,147388,1,0,0:0:0:0:
367,354,147503,1,0,0:0:0:0:
343,251,147619,1,0,0:0:0:0:
282,323,147734,1,0,0:0:0:0:
259,239,147849,1,0,0:0:0:0:
367,354,147965,2,0,P|421:364|483:345,1,105.000004005432
487,251,148196,6,0,P|489:190|477:139,1,105.000004005432
412,74,148426,1,0,0:0:0:0:
386,179,148542,1,0,0:0:0:0:
326,65,148657,2,0,P|286:30|224:37,1,105.000004005432
163,99,148888,1,0,0:0:0:0:
203,213,149003,1,0,0:0:0:0:
286,123,149119,1,0,0:0:0:0:
164,75,149234,1,0,0:0:0:0:
187,218,149349,1,0,0:0:0:0:
304,128,149465,1,0,0:0:0:0:
166,55,149580,2,0,P|131:113|125:172,1,105.000004005432
162,230,149811,6,0,B|216:251|216:251|280:241,1,105.000004005432
355,208,150042,2,0,L|344:313,1,105.000004005432
448,291,150273,1,0,0:0:0:0:
512,187,150388,1,0,0:0:0:0:
476,74,150503,2,0,P|436:35|383:15,1,105.000004005432
292,25,150734,1,0,0:0:0:0:
361,144,150849,1,0,0:0:0:0:
230,107,150965,1,0,0:0:0:0:
356,66,151080,1,0,0:0:0:0:
301,196,151196,1,0,0:0:0:0:
296,89,151311,1,0,0:0:0:0:
193,170,151426,2,0,P|164:216|162:283,1,105.000004005432
111,353,151657,6,0,P|82:309|76:257,1,105.000004005432
17,142,151888,2,0,P|-1:190|0:243,1,105.000004005432
82,77,152119,1,0,0:0:0:0:
105,177,152234,1,0,0:0:0:0:
110,65,152349,1,0,0:0:0:0:
105,177,152464,1,0,0:0:0:0:
143,60,152580,1,0,0:0:0:0:
105,177,152695,1,0,0:0:0:0:
179,64,152811,1,0,0:0:0:0:
105,177,152926,1,0,0:0:0:0:
216,79,153042,1,0,0:0:0:0:
105,177,153157,1,0,0:0:0:0:
251,105,153273,2,0,P|317:105|368:119,1,105.000004005432
423,190,153503,6,0,P|371:200|319:199,1,105.000004005432
238,185,153734,2,0,L|250:298,1,105.000004005432
262,367,153965,1,0,0:0:0:0:
332,268,154080,1,0,0:0:0:0:
427,344,154196,2,0,P|475:301|489:248,1,105.000004005432
473,148,154426,1,0,0:0:0:0:
508,216,154542,1,0,0:0:0:0:
489,78,154657,1,0,0:0:0:0:
395,153,154773,1,0,0:0:0:0:
416,14,154888,1,0,0:0:0:0:
425,92,155003,1,0,0:0:0:0:
330,23,155119,1,0,0:0:0:0:
354,95,155234,1,0,0:0:0:0:
198,42,155349,5,0,0:0:0:0:
356,287,155465,2,0,P|373:234|362:167,1,105.000004005432
223,26,155696,5,0,0:0:0:0:
342,308,155812,2,0,P|369:256|370:185,1,105.000004005432
252,15,156042,5,0,0:0:0:0:
323,327,156158,2,0,P|361:279|375:206,1,105.000004005432
284,8,156388,5,0,0:0:0:0:
301,344,156504,2,0,P|348:301|376:228,1,105.000004005432
318,7,156734,5,0,0:0:0:0:
274,357,156850,2,0,P|331:322|373:251,1,105.000004005432
15,293,157196,5,0,0:0:0:0:
252,104,157311,2,0,L|339:169,1,105.000004005432
0,250,157542,5,0,0:0:0:0:
266,105,157657,2,0,L|340:184,1,105.000004005432
0,204,157888,5,0,0:0:0:0:
287,107,158003,2,0,L|346:197,1,105.000004005432
1,159,158234,5,0,0:0:0:0:
300,113,158349,2,0,L|343:213,1,105.000004005432
11,115,158580,5,0,0:0:0:0:
314,123,158695,2,0,L|339:229,1,105.000004005432
368,350,159042,5,0,0:0:0:0:
440,9,159157,2,0,B|380:-4|380:-4|301:7,1,105.000004005432
316,374,159388,5,0,0:0:0:0:
475,64,159503,2,0,B|421:35|421:35|341:27,1,105.000004005432
260,384,159734,5,0,0:0:0:0:
494,126,159849,2,0,B|449:84|449:84|374:55,1,105.000004005432
204,381,160080,5,0,0:0:0:0:
496,192,160195,2,0,B|463:140|463:140|398:93,1,105.000004005432
138,153,160426,6,0,P|131:229|135:266,1,105.000004005432
378,257,160657,2,0,P|381:204|374:153,1,105.000004005432
276,46,160888,2,0,P|244:88|244:171,1,105.000004005432
236,338,161119,2,0,P|268:296|268:213,1,105.000004005432
235,138,161349,1,0,0:0:0:0:
347,217,161465,1,0,0:0:0:0:
337,104,161580,1,0,0:0:0:0:
225,222,161696,1,0,0:0:0:0:
300,167,161811,1,0,0:0:0:0:
340,302,161926,1,0,0:0:0:0:
281,255,162042,1,0,0:0:0:0:
236,338,162157,1,0,0:0:0:0:
225,222,162273,1,0,0:0:0:0:
340,302,162388,1,0,0:0:0:0:
347,217,162503,1,0,0:0:0:0:
437,331,162619,1,0,0:0:0:0:
462,205,162734,6,0,B|451:83|314:108|314:108|246:118|226:74|226:74|192:143|131:146|131:146|114:162|89:178|89:178|113:173|130:193,1,525
185,236,164580,6,0,L|188:312,1,70
96,293,164926,2,0,L|117:363,1,70
36,168,165503,2,0,L|27:212,1,35
112,136,165734,2,0,L|118:180,1,35
189,108,165965,2,0,L|210:147,1,35
125,52,166196,1,0,0:0:0:0:
125,52,166311,1,0,0:0:0:0:
51,24,166426,2,0,P|30:56|30:99,1,70
36,168,166773,2,0,P|48:233|7:303,1,140
97,325,167349,2,0,L|137:307,1,35
190,270,167580,2,0,L|220:299,1,35
210,172,167811,1,0,0:0:0:0:
146,211,168042,1,0,0:0:0:0:
146,211,168157,1,0,0:0:0:0:
146,211,168273,2,0,B|142:156|142:156|169:108,1,105
219,52,168734,2,0,P|176:36|116:53,1,105
45,101,169196,2,0,L|49:140,1,35
113,175,169426,2,0,L|110:214,1,35
32,270,169657,2,0,L|39:320,1,35
131,354,169888,2,0,L|139:311,1,35
156,235,170119,6,0,P|215:237|272:258,1,119.000002269745
337,287,170349,1,0,0:0:0:0:
331,191,170465,1,0,0:0:0:0:
421,275,170580,1,0,0:0:0:0:
451,144,170696,1,0,0:0:0:0:
406,203,170811,1,0,0:0:0:0:
391,66,170926,1,0,0:0:0:0:
373,137,171042,1,0,0:0:0:0:
322,17,171157,1,0,0:0:0:0:
274,133,171273,1,0,0:0:0:0:
235,27,171388,1,0,0:0:0:0:
211,164,171503,1,0,0:0:0:0:
324,84,171619,1,0,0:0:0:0:
320,193,171734,1,0,0:0:0:0:
210,94,171849,1,0,0:0:0:0:
68,329,171965,5,0,0:0:0:0:
423,61,172080,2,0,P|442:116|435:182,1,119.000002269745
47,294,172311,5,0,0:0:0:0:
443,91,172426,2,0,P|452:149|434:213,1,119.000002269745
32,256,172657,5,0,0:0:0:0:
457,126,172772,2,0,P|457:184|427:243,1,119.000002269745
24,216,173003,5,0,0:0:0:0:
466,162,173118,2,0,P|455:219|416:272,1,119.000002269745
23,176,173349,5,0,0:0:0:0:
468,198,173464,2,0,P|447:253|399:299,1,119.000002269745
229,0,173811,5,0,0:0:0:0:
6,367,173926,2,0,P|90:368|142:348,1,119.000002269745
283,0,174157,5,0,0:0:0:0:
506,367,174272,2,0,P|422:368|370:348,1,119.000002269745
229,0,174503,5,0,0:0:0:0:
6,367,174618,2,0,P|90:368|142:348,1,119.000002269745
283,0,174849,5,0,0:0:0:0:
506,367,174964,2,0,P|422:368|370:348,1,119.000002269745
229,0,175196,5,0,0:0:0:0:
6,367,175311,2,0,P|90:368|142:348,1,119.000002269745
505,7,175657,5,0,0:0:0:0:
299,342,175773,2,0,L|214:239,1,119.000002269745
7,7,176003,5,0,0:0:0:0:
213,342,176119,2,0,L|298:239,1,119.000002269745
505,7,176349,5,0,0:0:0:0:
299,342,176465,2,0,L|197:255,1,119.000002269745
7,7,176695,5,0,0:0:0:0:
213,342,176811,2,0,L|314:255,1,119.000002269745
407,176,177042,5,0,0:0:0:0:
440,285,177157,1,0,0:0:0:0:
494,168,177273,1,0,0:0:0:0:
367,249,177388,1,0,0:0:0:0:
357,83,177503,1,0,0:0:0:0:
319,181,177619,1,0,0:0:0:0:
220,129,177734,2,0,P|230:70|261:20,1,119.000002269745
364,7,177965,5,0,0:0:0:0:
292,114,178080,1,0,0:0:0:0:
176,33,178196,1,0,0:0:0:0:
211,212,178311,1,0,0:0:0:0:
292,114,178426,1,0,0:0:0:0:
304,255,178542,1,0,0:0:0:0:
165,149,178657,2,0,P|135:197|153:272,1,119.000002269745
212,350,178888,5,0,0:0:0:0:
237,272,179003,1,0,0:0:0:0:
296,327,179119,1,0,0:0:0:0:
272,184,179234,1,0,0:0:0:0:
378,294,179349,2,0,P|427:294|410:233,1,119.000002269745
347,196,179580,5,0,0:0:0:0:
500,155,179696,1,0,0:0:0:0:
306,101,179811,1,0,0:0:0:0:
471,222,179926,1,0,0:0:0:0:
476,59,180042,1,0,0:0:0:0:
415,174,180157,1,0,0:0:0:0:
385,43,180273,2,0,P|326:12|268:14,1,119.000002269745
178,30,180503,5,0,0:0:0:0:
235,129,180619,1,0,0:0:0:0:
94,71,180734,1,0,0:0:0:0:
28,167,180849,1,0,0:0:0:0:
158,113,180965,1,0,0:0:0:0:
27,24,181080,1,0,0:0:0:0:
105,158,181196,2,0,P|120:229|123:283,1,119.000002269745
95,359,181426,5,0,0:0:0:0:
201,205,181542,1,0,0:0:0:0:
271,332,181657,1,0,0:0:0:0:
201,277,181773,1,0,0:0:0:0:
265,132,181888,1,0,0:0:0:0:
360,263,182003,1,0,0:0:0:0:
279,207,182119,1,0,0:0:0:0:
352,343,182234,1,0,0:0:0:0:
435,217,182349,1,0,0:0:0:0:
483,304,182465,1,0,0:0:0:0:
355,165,182580,2,0,P|335:96|347:50,1,119.000002269745
473,17,182811,5,0,0:0:0:0:
431,104,182926,1,0,0:0:0:0:
375,0,183042,1,0,0:0:0:0:
278,115,183157,1,0,0:0:0:0:
366,74,183273,1,0,0:0:0:0:
279,188,183388,1,0,0:0:0:0:
280,38,183503,1,0,0:0:0:0:
162,111,183619,1,0,0:0:0:0:
208,46,183734,1,0,0:0:0:0:
205,176,183849,1,0,0:0:0:0:
278,115,183965,2,0,P|338:143|355:201,1,119.000002269745
332,285,184196,5,0,0:0:0:0:
219,300,184311,1,0,0:0:0:0:
273,195,184426,1,0,0:0:0:0:
350,275,184542,1,0,0:0:0:0:
220,316,184657,1,0,0:0:0:0:
258,183,184772,1,0,0:0:0:0:
370,267,184888,1,0,0:0:0:0:
223,340,185003,1,0,0:0:0:0:
238,164,185118,1,0,0:0:0:0:
395,258,185234,1,0,0:0:0:0:
224,363,185349,1,0,0:0:0:0:
217,145,185464,1,0,0:0:0:0:
420,252,185580,1,0,0:0:0:0:
225,382,185695,1,0,0:0:0:0:
190,126,185811,6,0,P|243:95|305:92,1,119.000002269745
374,100,186042,1,0,0:0:0:0:
329,171,186157,1,0,0:0:0:0:
374,100,186273,6,0,P|355:45|300:19,1,119.000002269745
61,58,186734,5,0,0:0:0:0:
105,299,186849,2,0,P|202:274|229:254,1,119.000002269745
70,46,187080,5,0,0:0:0:0:
118,311,187195,2,0,P|192:303|254:261,1,119.000002269745
83,28,187426,5,0,0:0:0:0:
136,319,187541,2,0,P|196:316|256:286,1,119.000002269745
91,19,187773,5,0,0:0:0:0:
148,334,187888,2,0,P|213:330|271:302,1,119.000002269745
107,6,188119,5,0,0:0:0:0:
169,352,188234,2,0,P|240:348|304:316,1,119.000002269745
440,238,188580,5,0,0:0:0:0:
72,146,188696,2,0,P|49:216|53:282,1,119.000002269745
429,269,188926,5,0,0:0:0:0:
82,114,189042,2,0,P|47:179|40:245,1,119.000002269745
413,298,189273,5,0,0:0:0:0:
98,85,189389,2,0,P|53:143|34:207,1,119.000002269745
392,323,189619,5,0,0:0:0:0:
119,60,189735,2,0,P|64:109|35:168,1,119.000002269745
367,345,189965,5,0,0:0:0:0:
144,38,190081,2,0,P|82:77|42:130,1,119.000002269745
498,9,190426,5,0,0:0:0:0:
120,375,190542,2,0,P|58:365|0:340,1,119.000002269745
14,9,190773,5,0,0:0:0:0:
390,375,190889,2,0,P|452:365|511:340,1,119.000002269745
498,9,191119,5,0,0:0:0:0:
120,375,191235,2,0,P|58:365|0:340,1,119.000002269745
14,9,191466,5,0,0:0:0:0:
390,375,191582,2,0,P|452:365|511:340,1,119.000002269745
419,185,191811,5,0,0:0:0:0:
346,284,191926,1,0,0:0:0:0:
304,158,192042,1,0,0:0:0:0:
352,215,192157,1,0,0:0:0:0:
439,116,192273,1,0,0:0:0:0:
481,228,192388,1,0,0:0:0:0:
491,160,192503,1,0,0:0:0:0:
413,253,192619,1,0,0:0:0:0:
370,130,192734,2,0,P|321:72|269:55,1,119.000002269745
187,52,192965,5,0,0:0:0:0:
221,168,193080,1,0,0:0:0:0:
234,98,193196,1,0,0:0:0:0:
152,194,193311,1,0,0:0:0:0:
99,89,193426,1,0,0:0:0:0:
167,123,193542,1,0,0:0:0:0:
124,17,193657,1,0,0:0:0:0:
89,157,193773,1,0,0:0:0:0:
39,56,193888,1,0,0:0:0:0:
0,181,194003,1,0,0:0:0:0:
147,207,194119,6,0,L|150:263,1,41.9999987182618
151,327,194349,1,0,0:0:0:0:
151,327,194465,1,0,0:0:0:0:
151,327,194580,1,0,0:0:0:0:
151,327,194696,1,0,0:0:0:0:
188,329,194811,1,0,0:0:0:0:
224,318,194926,1,0,0:0:0:0:
254,295,195042,1,0,0:0:0:0:
284,273,195157,1,0,0:0:0:0:
321,270,195273,1,0,0:0:0:0:
354,286,195388,1,0,0:0:0:0:
385,306,195503,6,0,L|430:333,1,41.9999987182618
455,311,195734,2,0,P|456:285|448:264,1,41.9999987182618
437,233,195965,1,0,0:0:0:0:
414,202,196080,1,0,0:0:0:0:
380,184,196196,1,0,0:0:0:0:
358,153,196311,1,0,0:0:0:0:
351,115,196426,1,0,0:0:0:0:
366,80,196542,1,0,0:0:0:0:
397,58,196657,1,0,0:0:0:0:
434,63,196773,1,0,0:0:0:0:
460,89,196888,2,0,P|475:112|479:136,1,41.9999987182618
478,163,197119,5,0,0:0:0:0:
461,197,197234,1,0,0:0:0:0:
434,223,197349,2,0,P|408:234|378:234,1,41.9999987182618
370,206,197580,2,0,P|349:209|330:219,1,41.9999987182618
303,246,197811,1,0,0:0:0:0:
273,268,197926,1,0,0:0:0:0:
235,264,198042,1,0,0:0:0:0:
213,233,198157,1,0,0:0:0:0:
217,195,198273,6,0,P|222:173|217:143,1,41.9999987182618
199,122,198503,1,0,0:0:0:0:
163,107,198619,1,0,0:0:0:0:
127,120,198734,1,0,0:0:0:0:
89,118,198849,1,0,0:0:0:0:
66,87,198965,1,0,0:0:0:0:
64,49,199080,1,0,0:0:0:0:
85,18,199196,6,0,P|101:8|130:4,1,41.9999987182618
161,4,199426,1,0,0:0:0:0:
190,27,199542,1,0,0:0:0:0:
223,44,199657,1,0,0:0:0:0:
262,30,199773,1,0,0:0:0:0:
296,15,199888,1,0,0:0:0:0:
332,23,200003,1,0,0:0:0:0:
410,56,200119,5,0,0:0:0:0:
377,140,200234,1,0,0:0:0:0:
301,93,200349,2,0,P|275:123|271:144,1,41.9999987182618
263,247,200580,1,0,0:0:0:0:
396,218,200811,1,0,0:0:0:0:
171,132,201042,5,0,0:0:0:0:
109,253,201157,1,0,0:0:0:0:
162,109,201273,5,0,0:0:0:0:
87,254,201388,1,0,0:0:0:0:
226,255,201503,6,0,P|240:306|225:352,1,97.9999970092774
279,257,201734,2,0,P|325:283|347:327,1,97.9999970092774
319,221,201965,2,0,P|370:208|416:222,1,97.9999970092774
247,172,202196,2,0,L|216:78,1,97.9999970092774
274,36,202426,2,0,L|305:130,1,97.9999970092774
366,173,202657,1,0,0:0:0:0:
385,79,202773,2,0,P|435:106|456:160,1,97.9999970092774
450,251,203003,5,0,0:0:0:0:
453,141,203119,2,0,P|461:88|491:42,1,97.9999970092774
422,11,203349,6,0,P|355:6|315:11,1,97.9999970092774
300,95,203580,2,0,P|233:90|193:95,1,97.9999970092774
177,176,203811,2,0,P|110:171|70:176,1,97.9999970092774
18,257,204042,2,0,L|133:267,1,97.9999970092774
131,332,204273,2,0,L|246:342,1,97.9999970092774
326,349,204503,1,0,0:0:0:0:
287,256,204619,2,0,P|315:195|347:170,1,97.9999970092774
420,135,204849,5,0,0:0:0:0:
430,244,204965,2,0,P|441:313|453:352,1,97.9999970092774
500,215,205196,6,0,P|501:150|496:106,1,97.9999970092774
420,135,205426,2,0,P|421:86|417:37,1,97.9999970092774
327,97,205657,2,0,P|328:48|324:0,1,97.9999970092774
211,104,205888,2,0,P|201:154|204:209,1,97.9999970092774
287,203,206119,2,0,P|297:253|294:308,1,97.9999970092774
237,373,206349,1,0,0:0:0:0:
191,298,206465,2,0,P|154:258|98:248,1,97.9999970092774
15,257,206696,5,0,0:0:0:0:
52,157,206811,2,0,P|85:115|140:104,1,97.9999970092774
239,113,207042,6,0,B|256:160|256:160|264:223,1,97.9999970092774
327,187,207273,2,0,B|344:234|344:234|352:297,1,97.9999970092774
419,264,207503,2,0,B|436:311|436:311|444:374,1,97.9999970092774
507,262,207734,2,0,L|490:154,1,97.9999970092774
411,178,207965,2,0,L|384:77,1,97.9999970092774
351,6,208196,1,0,0:0:0:0:
297,83,208311,2,0,P|263:44|260:-21,1,97.9999970092774
165,21,208542,5,0,0:0:0:0:
115,99,208657,2,0,L|144:203,1,97.9999970092774
187,287,208888,6,0,P|239:273|261:236,1,97.9999970092774
336,241,209119,2,0,P|322:189|285:167,1,97.9999970092774
291,98,209349,2,0,P|239:112|217:149,1,97.9999970092774
183,218,209580,2,0,L|86:236,1,97.9999970092774
5,252,209811,2,0,L|33:142,1,97.9999970092774
57,70,210042,1,0,0:0:0:0:
120,146,210157,2,0,L|170:61,1,97.9999970092774
224,5,210388,5,0,0:0:0:0:
262,100,210503,2,0,P|317:88|376:96,1,97.9999970092774
437,105,210734,6,0,L|445:231,1,97.9999970092774
354,221,210965,2,0,L|395:329,1,97.9999970092774
285,339,211196,2,0,L|372:393,1,97.9999970092774
236,242,211426,2,0,P|247:174|276:123,1,97.9999970092774
336,152,211657,2,0,P|353:106|359:57,1,97.9999970092774
311,0,211888,1,0,0:0:0:0:
256,81,212003,2,0,L|148:102,1,97.9999970092774
54,127,212234,5,0,0:0:0:0:
108,35,212349,2,0,L|204:16,1,97.9999970092774
311,0,212580,6,0,L|390:64,1,97.9999970092774
444,110,212811,2,0,L|380:189,1,97.9999970092774
339,241,213042,2,0,L|418:305,1,97.9999970092774
476,348,213273,2,0,P|428:379|366:360,1,97.9999970092774
311,338,213503,2,0,P|262:336|224:364,1,97.9999970092774
154,369,213734,1,0,0:0:0:0:
190,277,213849,2,0,P|197:231|161:164,1,97.9999970092774
110,117,214080,5,0,0:0:0:0:
110,239,214196,2,0,P|100:295|55:333,1,97.9999970092774
26,251,214426,6,0,P|22:192|29:127,1,97.9999970092774
176,94,214657,2,0,P|173:143|178:192,1,97.9999970092774
328,144,214888,2,0,P|323:95|326:46,1,97.9999970092774
457,27,215119,2,0,P|486:84|463:114,1,97.9999970092774
415,150,215349,2,0,P|399:194|429:230,1,97.9999970092774
506,253,215580,1,0,0:0:0:0:
458,358,215696,2,0,P|419:328|351:320,1,97.9999970092774
266,335,215926,5,0,0:0:0:0:
307,228,216042,2,0,P|299:165|281:125,1,97.9999970092774
