osu file format v14

[General]
AudioFilename: audio.mp3
AudioLeadIn: 0
PreviewTime: 223324
Countdown: 0
SampleSet: Soft
StackLeniency: 0.4
Mode: 0
LetterboxInBreaks: 0
WidescreenStoryboard: 1

[Editor]
Bookmarks: 255252
DistanceSpacing: 0.1
BeatDivisor: 4
GridSize: 32
TimelineZoom: 1.6

[Metadata]
Title:Totemo Suteki na Rokugatsu deshita
TitleUnicode:とても素敵な六月でした
Artist:rei sirose
ArtistUnicode:rei sirose
Creator:SMOKELIND
Version:Chifu's Insane
Source:
Tags:白瀬玲 dustcell ema EM A Kudou Chitose 久遠千歳 Kudo vtuber youtube virtual youtuber Japanese Mechari J Rock J-Rock JRock Hatsune Miku It was a very beautiful June Cover Vocaloid Eight 8 Fuju Chiga
BeatmapID:3008913
BeatmapSetID:1404349

[Difficulty]
HPDrainRate:5.4
CircleSize:4.2
OverallDifficulty:8
ApproachRate:9
SliderMultiplier:1.6
SliderTickRate:1

[Events]
//Background and Video events
0,0,"72525842_p0.jpg",0,0
Video,50,"vid.mp4"
//Break Periods
2,39238,56724
2,71238,73867
2,121524,129867
2,205845,219009
2,251595,252867
//Storyboard Layer 0 (Background)
//Storyboard Layer 1 (Fail)
//Storyboard Layer 2 (Pass)
//Storyboard Layer 3 (Foreground)
//Storyboard Layer 4 (Overlay)
//Storyboard Sound Samples

[TimingPoints]
2467,285.714285714286,4,2,77,77,1,0
20324,-181.818181818182,4,2,77,47,0,0
20752,-95.2380952380952,4,2,77,77,0,0
39038,-95.2380952380952,4,2,77,47,0,0
57324,-117.647058823529,4,3,77,57,0,0
71038,-117.647058823529,4,2,77,27,0,0
74467,-117.647058823529,4,2,77,77,0,0
75038,-285.714285714283,4,2,77,77,0,0
75609,-86.9565217391302,4,2,77,77,0,0
103038,-95.2380952380952,4,2,77,77,0,0
121324,-95.2380952380952,4,2,77,47,0,0
130467,-117.647058823529,4,2,77,57,0,0
146467,-117.647058823529,4,2,77,27,0,0
148752,-117.647058823529,4,3,77,57,0,0
162181,-117.647058823529,4,2,77,57,0,0
162467,-105.263157894737,4,2,77,57,0,0
164895,-105.263157894737,4,2,77,5,0,0
165038,-105.263157894737,4,2,77,67,0,0
165181,-105.263157894737,4,2,77,5,0,0
165324,-105.263157894737,4,2,77,67,0,0
165467,-105.263157894737,4,2,77,5,0,0
165609,-105.263157894737,4,2,77,67,0,0
165824,-105.263157894737,4,2,77,67,0,0
165895,-95.2380952380954,4,2,77,77,0,0
167038,-86.9565217391302,4,2,77,77,0,0
194467,-86.9565217391302,4,2,77,27,0,0
195467,-86.9565217391302,4,2,77,47,0,0
195609,-105.263157894737,4,2,77,47,0,0
196752,-181.818181818182,4,2,77,47,0,0
205324,-181.818181818182,4,2,77,27,0,0
205895,-181.818181818182,4,3,77,57,0,0
219895,-181.818181818182,4,2,77,27,0,0
223609,-333.333333333333,4,2,77,27,0,0
224181,-66.6666666666667,4,2,77,77,0,0
224467,-86.9565217391304,4,2,77,77,0,0
237895,-66.6666666666667,4,2,77,77,0,0
238181,-86.9565217391304,4,2,77,77,0,0
251609,-86.9565217391304,4,2,77,27,0,0
253467,-285.714285714286,4,2,77,47,0,0
253895,-95.2380952380952,4,2,77,77,0,0
272657,-95.2380952380952,4,2,77,27,0,0

[Colours]
Combo1 : 255,190,168
Combo2 : 255,226,168

[HitObjects]
18,108,20324,6,0,P|42:155|94:151,1,110.000003356934,4|0,1:0|0:0,0:0:0:0:
90,147,20752,1,6,1:0:0:0:
196,90,20895,1,2,0:0:0:0:
116,3,21038,1,2,1:0:0:0:
205,95,21181,2,0,L|288:83,1,83.9999974365235,10|0,0:0|0:0,0:0:0:0:
394,157,21467,1,2,1:0:0:0:
292,323,21609,2,0,P|268:290|276:250,1,83.9999974365235,10|0,0:0|1:0,0:0:0:0:
276,250,21824,5,0,0:0:0:0:
276,250,21895,1,2,0:0:0:0:
386,275,22038,1,2,1:0:0:0:
282,160,22181,2,0,P|254:212|194:209,1,125.999996154785,10|0,0:0|0:0,0:0:0:0:
194,209,22467,1,2,1:0:0:0:
27,92,22609,1,2,1:0:0:0:
87,45,22752,2,0,L|211:61,1,125.999996154785,10|0,0:0|0:0,0:0:0:0:
211,61,23038,6,0,B|181:89|181:89|201:127,1,83.9999974365235,6|0,1:0|0:0,0:0:0:0:
425,218,23324,1,2,1:0:0:0:
430,138,23467,2,0,B|379:126|353:163|368:190|340:220|294:201,1,167.999994873047,10|0,0:0|1:0,0:0:0:0:
61,272,23895,1,8,0:0:0:0:
117,324,24038,2,0,P|197:301|280:288,1,167.999994873047,0|2,1:0|1:0,0:0:0:0:
395,384,24467,2,0,P|367:354|371:313,1,83.9999974365235,10|2,0:0|1:0,0:0:0:0:
498,92,24752,2,0,P|486:131|448:148,1,83.9999974365235,0|2,0:0|1:0,0:0:0:0:
192,148,25038,2,0,P|231:138|265:162,1,83.9999974365235,10|8,0:0|0:0,0:0:0:0:
265,162,25252,5,8,0:0:0:0:
265,162,25324,2,0,L|246:244,1,83.9999974365235,6|2,1:0|0:0,0:0:0:0:
54,107,25609,1,2,1:0:0:0:
125,81,25752,2,0,L|144:-1,1,83.9999974365235,10|0,0:0|0:0,0:0:0:0:
134,179,26038,5,2,1:0:0:0:
11,218,26181,2,0,P|59:155|134:179,1,167.999994873047,10|2,0:0|0:0,0:0:0:0:
189,382,26609,1,2,1:0:0:0:
247,310,26752,2,0,L|164:292,1,83.9999974365235,10|0,0:0|0:0,0:0:0:0:
399,204,27038,2,0,L|316:221,1,83.9999974365235,2|2,1:0|1:0,0:0:0:0:
264,25,27324,2,0,P|212:55|217:114,1,125.999996154785,10|0,0:0|0:0,0:0:0:0:
217,114,27609,6,0,L|381:79,1,167.999994873047,6|2,1:0|1:0,0:0:0:0:
442,323,28038,2,0,L|359:340,1,83.9999974365235,10|0,0:0|0:0,0:0:0:0:
281,295,28324,1,0,1:0:0:0:
324,219,28467,1,8,0:0:0:0:
70,323,28752,6,0,L|152:340,1,83.9999974365235,2|2,0:0|1:0,0:0:0:0:
214,141,29038,2,0,L|157:203,1,83.9999974365235,10|2,0:0|1:0,0:0:0:0:
299,354,29324,2,0,L|272:274,1,83.9999974365235,0|0,0:0|1:0,0:0:0:0:
67,125,29609,1,8,0:0:0:0:
67,125,29681,1,8,0:0:0:0:
67,125,29752,1,8,0:0:0:0:
67,125,29824,1,8,0:0:0:0:
68,124,29895,6,0,B|110:86|164:102|164:102|187:141|213:140,1,167.999994873047,6|2,1:0|1:0,0:0:0:0:
331,11,30324,2,0,L|248:27,1,83.9999974365235,10|0,0:0|0:0,0:0:0:0:
377,144,30609,1,2,1:0:0:0:
271,233,30752,2,0,L|353:216,1,83.9999974365235,10|0,0:0|1:0,0:0:0:0:
196,349,31038,6,0,L|114:366,1,83.9999974365235,2|2,0:0|1:0,0:0:0:0:
127,272,31324,2,0,L|44:288,1,83.9999974365235,10|0,0:0|0:0,0:0:0:0:
194,53,31609,1,2,1:0:0:0:
119,116,31752,1,0,1:0:0:0:
183,190,31895,2,0,L|306:215,1,125.999996154785,10|0,0:0|0:0,0:0:0:0:
306,215,32181,6,0,L|341:51,1,167.999994873047,6|2,1:0|1:0,0:0:0:0:
183,190,32609,2,0,L|162:271,1,83.9999974365235,10|0,0:0|0:0,0:0:0:0:
297,360,32895,1,0,1:0:0:0:
369,384,33038,2,0,L|404:220,1,167.999994873047,10|2,0:0|0:0,0:0:0:0:
335,152,33467,1,2,1:0:0:0:
407,95,33609,1,10,0:0:0:0:
211,243,33895,6,0,L|129:224,1,83.9999974365235,0|2,0:0|1:0,0:0:0:0:
8,68,34181,2,0,L|26:149,1,83.9999974365235,10|8,0:0|0:0,0:0:0:0:
26,149,34395,1,8,0:0:0:0:
26,149,34467,2,0,L|44:230,1,83.9999974365235,6|2,1:0|0:0,0:0:0:0:
190,160,34752,1,2,1:0:0:0:
261,291,34895,1,10,0:0:0:0:
261,291,35038,2,0,P|223:360|144:354,1,167.999994873047,2|10,0:0|0:0,0:0:0:0:
350,240,35609,5,2,0:0:0:0:
291,168,35752,1,2,1:0:0:0:
363,108,35895,2,0,P|404:113|445:124,1,83.9999974365235,10|2,0:0|0:0,0:0:0:0:
285,176,36181,2,0,P|243:170|202:159,1,83.9999974365235,0|2,1:0|1:0,0:0:0:0:
95,0,36467,2,0,P|112:60|121:122,1,125.999996154785,10|0,0:0|0:0,0:0:0:0:
121,122,36752,6,0,P|110:205|89:286,1,167.999994873047,6|2,1:0|1:0,0:0:0:0:
62,384,37181,2,0,P|106:317|185:325,1,167.999994873047,10|0,0:0|1:0,0:0:0:0:
32,183,37609,1,10,0:0:0:0:
187,46,37752,6,0,P|231:112|310:104,1,167.999994873047,4|0,1:0|1:0,0:0:0:0:
432,0,38181,2,0,L|414:82,1,83.9999974365235,8|0,0:0|0:0,0:0:0:0:
414,82,38395,1,8,0:0:0:0:
414,82,38467,1,4,1:0:0:0:
346,167,38609,1,4,1:0:0:0:
429,252,38752,1,8,0:0:0:0:
429,252,38824,1,8,0:0:0:0:
429,252,38895,1,8,0:0:0:0:
429,252,38967,1,8,0:0:0:0:
429,252,39038,1,0,1:2:0:0:
435,43,57324,6,0,L|417:108,1,68.0000012969971,2|0,3:0|0:0,0:0:0:0:
425,115,57538,1,0,3:0:0:0:
430,121,57609,1,2,3:0:0:0:
371,191,57752,1,2,3:0:0:0:
439,250,57895,1,2,3:0:0:0:
293,356,58324,5,2,3:0:0:0:
237,299,58467,2,0,L|170:314,1,68.0000012969971,2|0,1:0|0:0,0:0:0:0:
164,312,58681,1,0,3:0:0:0:
157,309,58752,1,2,3:0:0:0:
77,263,58895,1,2,3:0:0:0:
137,188,59038,1,2,3:0:0:0:
507,51,59467,6,0,L|474:40,1,34.0000006484985,2|0,1:0|0:0,0:0:0:0:
402,94,59609,6,0,L|414:160,1,68.0000012969971,2|0,1:0|0:0,0:0:0:0:
419,165,59824,1,0,0:0:0:0:
423,169,59895,1,2,0:0:0:0:
486,234,60038,1,2,3:0:0:0:
431,295,60181,1,2,3:0:0:0:
228,384,60467,6,0,L|161:371,1,68.0000012969971,2|0,3:0|3:0,3:0:0:0:
75,267,60752,2,0,P|64:236|79:207,1,68.0000012969971,2|0,1:0|0:0,0:0:0:0:
79,207,60967,1,0,3:0:0:0:
79,207,61038,1,0,3:0:0:0:
156,159,61181,1,0,0:0:0:0:
107,87,61324,1,2,3:0:0:0:
219,268,61609,5,2,3:0:0:0:
302,247,61752,1,2,1:0:0:0:
385,226,61895,2,0,L|368:160,1,68.0000012969971,2|0,1:0|0:0,0:0:0:0:
170,17,62181,1,2,3:0:0:0:
262,75,62324,2,0,L|130:110,1,136.000002593994,2|0,3:0|3:0,3:0:0:0:
368,160,62752,2,0,L|385:226,1,68.0000012969971,2|2,3:0|3:0,0:0:0:0:
446,310,63038,2,0,L|512:293,1,68.0000012969971,0|0,1:0|0:0,3:0:0:0:
512,294,63252,1,0,3:0:0:0:
512,294,63324,1,0,3:0:0:0:
384,225,63467,5,2,3:0:0:0:
367,153,63609,1,2,3:0:0:0:
384,225,63752,1,2,3:0:0:0:
367,153,63894,1,2,3:0:0:0:
283,51,64038,2,0,L|250:59,1,34.0000006484985,2|0,1:0|0:0,0:0:0:0:
262,139,64181,2,0,P|224:87|160:95,1,136.000002593994,2|2,1:0|3:0,3:0:0:0:
166,92,64538,1,0,0:0:0:0:
174,90,64609,2,0,P|200:153|209:220,1,136.000002593994,2|0,3:0|3:0,3:0:0:0:
122,314,65038,2,0,P|107:283|100:250,1,68.0000012969971,2|2,3:0|3:0,0:0:0:0:
327,384,65324,6,0,P|341:353|348:320,1,68.0000012969971,2|0,1:0|0:0,3:0:0:0:
275,287,65609,2,0,P|260:317|253:350,1,68.0000012969971,2|0,3:0|0:0,3:0:0:0:
327,384,65895,1,2,3:0:0:0:
485,76,66467,6,0,L|407:92,1,68.0000012969971,2|0,1:0|0:0,0:0:0:0:
415,95,66681,1,0,3:0:0:0:
411,101,66752,1,2,3:0:0:0:
353,167,66895,1,2,3:0:0:0:
416,229,67038,1,2,3:0:0:0:
227,49,67467,5,2,3:0:0:0:
307,66,67609,2,0,L|291:-12,1,68.0000012969971,2|0,1:0|0:0,0:0:0:0:
299,2,67824,1,0,3:0:0:0:
304,5,67895,1,2,3:0:0:0:
227,49,68038,1,2,3:0:0:0:
259,129,68181,1,2,3:0:0:0:
143,263,68609,6,0,L|109:269,1,34.0000006484985,2|0,1:0|0:0,0:0:0:0:
38,247,68752,2,0,L|24:180,1,68.0000012969971,2|0,1:0|0:0,3:0:0:0:
30,176,68967,1,0,3:0:0:0:
34,171,69038,1,2,3:0:0:0:
101,119,69181,1,2,3:0:0:0:
37,60,69324,1,2,3:0:0:0:
24,180,69609,2,0,L|38:247,1,68.0000012969971,2|0,3:0|0:0,0:0:0:0:
70,384,69895,6,0,P|100:326|165:325,1,136.000002593994,2|0,1:0|3:0,3:0:0:0:
322,300,70467,2,0,L|256:282,1,68.0000012969971,2|0,3:0|3:0,0:0:0:0:
152,158,70752,2,0,L|217:175,1,68.0000012969971,2|2,3:0|3:0,0:0:0:0:
322,300,71038,1,2,1:0:0:0:
166,57,74467,5,8,0:0:0:0:
258,384,74752,5,8,0:0:0:0:
106,6,75038,6,0,P|117:31|123:58,1,55.9999982910157,10|0,0:0|0:0,0:0:0:0:
399,13,75609,6,0,P|373:76|360:144,1,138.000002632141,6|0,1:0|0:0,0:0:0:0:
360,144,75895,2,0,L|449:167,1,92.0000017547608,8|0,0:0|0:0,0:0:0:0:
449,167,76109,1,0,0:0:0:0:
449,167,76181,1,2,1:0:0:0:
283,208,76324,1,0,1:0:0:0:
416,324,76467,2,0,L|326:300,1,92.0000017547608,10|0,0:0|0:0,0:0:0:0:
174,168,76752,6,0,P|90:204|109:298,1,184.000003509522,2|8,1:0|0:0,0:0:0:0:
96,284,77324,2,0,B|127:247|127:247|111:205,1,92.0000017547608,2|0,0:0|0:0,0:0:0:0:
126,66,77609,2,0,L|36:87,1,92.0000017547608,10|0,0:0|0:0,0:0:0:0:
204,257,77895,2,0,L|381:208,1,184.000003509522,6|8,1:0|0:0,0:0:0:0:
464,42,78324,1,2,0:0:0:0:
464,42,78395,1,0,0:0:0:0:
464,42,78467,2,0,P|425:62|426:106,1,92.0000017547608,2|0,1:0|1:0,0:0:0:0:
385,335,78752,5,8,0:0:0:0:
458,270,78895,1,2,0:0:0:0:
381,208,79038,2,0,L|247:244,1,138.000002632141,2|0,1:0|0:0,0:0:0:0:
247,244,79324,2,0,L|157:222,1,92.0000017547608,8|0,0:0|1:0,0:0:0:0:
28,294,79609,2,0,L|117:315,1,92.0000017547608,2|0,0:0|1:0,0:0:0:0:
171,120,79895,2,0,L|81:98,1,92.0000017547608,10|0,0:0|0:0,0:0:0:0:
247,244,80181,6,0,L|381:208,1,138.000002632141,6|0,1:0|0:0,0:0:0:0:
381,208,80467,2,0,L|470:229,1,92.0000017547608,8|0,0:0|0:0,0:0:0:0:
285,11,80752,1,2,1:0:0:0:
341,90,80895,1,0,1:0:0:0:
260,141,81038,2,0,L|170:119,1,92.0000017547608,8|0,0:0|0:0,0:0:0:0:
96,320,81324,2,0,P|45:279|54:213,1,138.000002632141,2|0,1:0|0:0,0:0:0:0:
54,213,81609,2,0,L|143:234,1,92.0000017547608,10|0,0:0|1:0,0:0:0:0:
303,59,81895,2,0,L|281:148,1,92.0000017547608,2|0,0:0|1:0,0:0:0:0:
455,307,82181,2,0,L|365:285,1,92.0000017547608,10|0,0:0|0:0,0:0:0:0:
162,384,82467,6,0,P|213:343|204:277,1,138.000002632141,6|0,1:0|0:0,0:0:0:0:
203,276,82752,2,0,P|168:248|174:204,1,92.0000017547608,8|2,0:0|0:0,0:0:0:0:
368,118,83038,2,0,P|402:145|396:189,1,92.0000017547608,2|0,1:0|1:0,0:0:0:0:
246,94,83324,2,0,L|268:5,1,92.0000017547608,8|2,0:0|0:0,0:0:0:0:
475,206,83609,2,0,L|430:384,1,184.000003509522,2|8,1:0|0:0,0:0:0:0:
368,118,84038,1,0,1:0:0:0:
368,118,84109,1,0,0:0:0:0:
368,118,84181,2,0,L|390:29,1,92.0000017547608,2|0,0:0|1:0,0:0:0:0:
253,216,84467,1,10,0:0:0:0:
253,216,84752,6,0,P|219:295|132:292,1,184.000003509522,6|8,1:0|0:0,0:0:0:0:
60,151,85181,1,2,0:0:0:0:
60,151,85324,2,0,P|105:158|148:174,1,92.0000017547608,2|0,1:0|1:0,0:0:0:0:
297,0,85609,2,0,P|289:41|273:84,1,92.0000017547608,10|0,0:0|0:0,0:0:0:0:
132,292,85895,6,0,P|52:258|55:171,1,184.000003509522,2|8,1:0|0:0,0:0:0:0:
250,278,86324,1,0,1:0:0:0:
250,278,86395,1,0,0:0:0:0:
250,278,86467,2,0,P|295:285|338:301,1,92.0000017547608,2|0,0:0|1:0,0:0:0:0:
409,146,86752,1,10,0:0:0:0:
409,146,86895,2,0,P|431:144|453:138,1,46.0000008773804,2|0,0:0|0:0,0:0:0:0:
318,125,87038,6,0,P|396:163|397:250,1,184.000003509522,6|8,1:0|0:0,0:0:0:0:
240,150,87467,1,2,0:0:0:0:
182,95,87609,2,0,P|200:55|244:52,1,92.0000017547608,2|0,1:0|1:0,0:0:0:0:
279,318,87895,2,0,P|218:291|210:225,1,138.000002632141,8|0,0:0|0:0,0:0:0:0:
210,225,88181,2,0,L|299:246,1,92.0000017547608,2|0,1:0|0:0,0:0:0:0:
139,377,88467,2,0,L|49:356,1,92.0000017547608,8|0,0:0|1:0,0:0:0:0:
131,111,88752,6,0,P|73:141|81:205,1,138.000002632141,2|0,0:0|0:0,0:0:0:0:
82,206,89038,2,0,L|171:226,1,92.0000017547608,10|0,0:0|0:0,0:0:0:0:
436,58,89324,2,0,B|379:29|338:69|366:103|319:135|283:116,1,184.000003509522,6|8,1:0|0:0,0:0:0:0:
383,372,89895,5,2,1:0:0:0:
457,314,90038,1,0,1:0:0:0:
401,243,90181,2,0,L|310:260,1,92.0000017547608,8|0,0:0|0:0,0:0:0:0:
182,173,90467,2,0,P|175:105|157:38,1,138.000002632141,2|0,1:0|0:0,0:0:0:0:
157,38,90752,2,0,L|66:55,1,92.0000017547608,10|0,0:0|1:0,0:0:0:0:
253,246,91038,2,0,P|282:212|274:168,1,92.0000017547608,2|0,0:0|1:0,0:0:0:0:
142,125,91324,1,10,0:0:0:0:
142,125,91395,1,0,0:0:0:0:
142,125,91467,1,2,0:0:0:0:
13,275,91609,6,0,P|43:355|129:352,1,184.000003509522,6|8,1:0|0:0,0:0:0:0:
414,222,92181,5,0,1:0:0:0:
346,283,92324,1,0,1:0:0:0:
404,349,92467,2,0,L|494:332,1,92.0000017547608,8|0,0:0|0:0,0:0:0:0:
356,154,92752,2,0,L|265:170,1,92.0000017547608,8|0,0:0|0:0,0:0:0:0:
86,82,93038,1,0,1:0:0:0:
159,0,93181,2,0,L|182:135,1,138.000002632141,10|0,0:0|0:0,0:0:0:0:
182,135,93467,2,0,L|173:180,1,46.0000008773804,2|0,1:0|0:0,0:0:0:0:
53,296,93609,5,10,0:0:0:0:
53,296,93681,1,8,0:0:0:0:
53,296,93752,1,10,0:0:0:0:
53,296,93824,1,8,0:0:0:0:
53,296,93895,2,0,L|71:205,1,92.0000017547608,6|0,1:0|0:0,0:0:0:0:
262,225,94181,2,0,L|253:270,1,46.0000008773804,8|0,0:0|0:0,0:0:0:0:
149,383,94324,2,0,L|167:292,1,92.0000017547608,2|0,1:0|0:0,0:0:0:0:
304,158,94609,5,2,1:0:0:0:
304,158,94752,1,10,0:0:0:0:
348,225,94895,2,0,L|329:315,1,92.0000017547608,2|0,1:0|0:0,0:0:0:0:
512,130,95181,2,0,L|421:111,1,92.0000017547608,2|8,1:0|0:0,0:0:0:0:
421,111,95395,1,0,0:0:0:0:
421,111,95467,1,2,1:0:0:0:
233,0,95609,2,0,L|251:90,1,92.0000017547608,2|0,0:0|1:0,0:0:0:0:
131,244,95895,5,10,0:0:0:0:
67,203,96038,1,10,0:0:0:0:
67,203,96109,1,8,0:0:0:0:
66,202,96181,2,0,P|92:122|177:132,1,184.000003509522,6|8,1:0|0:0,0:0:0:0:
262,300,96609,2,0,P|243:361|179:355,1,138.000002632141,2|0,1:0|0:0,0:0:0:0:
179,355,96895,2,0,P|164:338|164:315,1,46.0000008773804,2|0,1:0|0:0,0:0:0:0:
323,217,97038,1,10,0:0:0:0:
323,217,97181,2,0,P|368:225|411:240,1,92.0000017547608,2|0,1:0|0:0,0:0:0:0:
512,127,97467,2,0,P|466:118|423:103,1,92.0000017547608,2|10,1:0|0:0,0:0:0:0:
186,9,97752,6,0,P|263:42|241:123,1,184.000003509522,2|2,1:0|1:0,0:0:0:0:
45,160,98181,1,10,0:0:0:0:
141,172,98324,1,0,0:0:0:0:
141,172,98395,1,8,0:0:0:0:
141,172,98467,2,0,P|63:139|85:58,1,184.000003509522,6|8,1:0|0:0,0:0:0:0:
325,216,98895,2,0,P|279:224|236:239,1,92.0000017547608,2|0,1:0|0:0,0:0:0:0:
115,253,99181,5,2,1:0:0:0:
78,336,99324,1,10,0:0:0:0:
157,371,99467,2,0,P|202:362|245:347,1,92.0000017547608,2|0,1:0|0:0,0:0:0:0:
325,216,99752,1,2,1:0:0:0:
388,178,99895,2,0,P|433:186|476:201,1,92.0000017547608,10|2,0:0|1:0,0:0:0:0:
327,0,100181,2,0,P|318:45|303:88,1,92.0000017547608,2|0,0:0|1:0,0:0:0:0:
174,285,100467,2,0,P|126:240|153:181,1,138.000002632141,10|8,0:0|0:0,0:0:0:0:
153,181,100752,6,0,L|252:204,1,92.0000017547608,6|0,1:0|0:0,0:0:0:0:
348,98,101038,2,0,L|303:86,1,46.0000008773804,8|0,0:0|0:0,0:0:0:0:
259,288,101181,2,0,L|357:310,1,92.0000017547608,0|0,1:0|0:0,0:0:0:0:
427,274,101467,1,0,1:0:0:0:
392,195,101609,1,8,0:0:0:0:
162,349,101895,6,0,L|260:371,1,92.0000017547608,10|8,0:0|0:0,0:0:0:0:
251,369,102109,1,8,0:0:0:0:
251,369,102181,1,10,0:0:0:0:
127,269,102324,1,10,0:3:0:0:
127,269,102395,1,0,0:0:0:0:
127,269,102467,1,0,0:0:0:0:
202,210,102609,2,0,L|246:219,1,46.0000008773804,2|0,1:0|0:0,0:0:0:0:
319,159,102752,2,0,P|327:144|316:157,1,46.0000008773804,6|0,1:0|0:0,0:0:0:0:
319,159,103038,5,6,1:0:0:0:
239,76,103181,1,2,0:0:0:0:
332,14,103324,1,10,0:0:0:0:
174,122,103467,2,0,P|139:65|162:36,1,83.9999974365235,10|0,0:0|0:0,0:0:0:0:
319,159,103752,1,2,1:0:0:0:
210,321,103895,2,0,L|233:232,1,83.9999974365235,10|0,0:0|1:0,0:0:0:0:
231,239,104109,1,0,0:0:0:0:
231,239,104181,5,2,0:0:0:0:
320,268,104324,1,2,1:0:0:0:
143,367,104467,2,0,B|116:354|83:349|83:349|85:304|130:292,1,125.999996154785,10|0,0:0|0:0,0:0:0:0:
114,297,104752,1,2,1:0:0:0:
280,384,104895,1,0,1:0:0:0:
344,339,105038,2,0,P|348:303|303:263,1,83.9999974365235,10|0,0:0|0:0,0:0:0:0:
512,100,105324,6,0,P|456:123|444:182,1,125.999996154785,6|0,1:0|0:0,0:0:0:0:
444,182,105609,1,2,1:0:0:0:
337,0,105752,2,0,P|437:40|472:4,1,167.999994873047,10|0,0:0|1:0,0:0:0:0:
222,148,106181,1,10,0:0:0:0:
157,105,106324,2,0,B|134:66|156:11|187:7|187:7|158:41|173:92,1,167.999994873047,0|2,1:0|1:0,0:0:0:0:
0,220,106752,2,0,L|28:121,1,83.9999974365235,10|2,0:0|1:0,0:0:0:0:
201,301,107038,1,2,0:0:0:0:
177,222,107181,1,0,1:0:0:0:
3,384,107324,2,0,P|41:337|77:345,1,83.9999974365235,8|8,0:0|0:0,0:0:0:0:
59,337,107538,1,8,0:0:0:0:
59,337,107609,6,0,B|76:356|92:366|92:366|71:368|51:359,1,83.9999974365235,6|2,1:0|0:0,0:0:0:0:
261,253,107895,1,2,1:0:0:0:
201,301,108038,2,0,P|206:343|218:383,1,83.9999974365235,10|0,0:0|0:0,0:0:0:0:
357,195,108324,5,2,1:0:0:0:
248,144,108467,2,0,P|332:130|356:197,1,167.999994873047,10|2,0:0|0:0,0:0:0:0:
452,6,108895,1,2,1:0:0:0:
512,58,109038,2,0,P|480:89|426:69,1,83.9999974365235,10|0,0:0|0:0,0:0:0:0:
196,8,109324,1,2,1:0:0:0:
273,31,109467,1,0,1:0:0:0:
111,165,109609,2,0,P|103:126|75:36,1,125.999996154785,10|0,0:0|0:0,0:0:0:0:
78,43,109895,6,0,P|7:53|21:130,1,167.999994873047,6|2,1:0|1:0,0:0:0:0:
254,190,110324,2,0,P|296:225|274:271,1,83.9999974365235,10|0,0:0|0:0,0:0:0:0:
157,380,110609,1,0,1:0:0:0:
184,298,110752,1,10,0:0:0:0:
157,380,110895,2,0,B|129:338|78:355|78:355|29:374|-2:327,1,167.999994873047,0|2,1:0|1:0,0:0:0:0:
347,306,111324,2,0,P|327:350|318:390,1,83.9999974365235,10|2,0:0|1:0,0:0:0:0:
177,198,111609,2,0,P|225:193|264:181,1,83.9999974365235,0|2,0:0|1:0,0:0:0:0:
421,22,111895,1,10,0:0:0:0:
421,22,111967,1,8,0:0:0:0:
421,22,112038,1,8,0:0:0:0:
421,22,112109,1,8,0:0:0:0:
421,22,112181,6,0,P|499:21|499:98,1,167.999994873047,6|2,1:0|1:0,0:0:0:0:
298,69,112609,2,0,P|288:21|323:-3,1,83.9999974365235,10|2,0:0|0:0,0:0:0:0:
449,164,112895,1,2,1:0:0:0:
345,250,113038,2,0,P|358:206|371:156,1,83.9999974365235,10|0,0:0|1:0,0:0:0:0:
512,384,113324,6,0,P|484:345|438:354,1,83.9999974365235,2|2,0:0|1:0,0:0:0:0:
300,384,113609,2,0,P|244:370|153:356,1,125.999996154785,10|0,0:0|0:0,0:0:0:0:
176,358,113895,1,2,1:0:0:0:
260,285,114038,1,0,1:0:0:0:
91,366,114181,2,0,P|74:319|142:294,1,125.999996154785,10|0,0:0|0:0,0:0:0:0:
131,288,114467,6,0,B|137:244|160:211|160:211|149:168|89:159|67:206,1,167.999994873047,6|2,1:0|1:0,0:0:0:0:
224,45,114895,2,0,P|165:40|142:-2,1,83.9999974365235,10|0,0:0|0:0,0:0:0:0:
346,201,115181,1,0,1:0:0:0:
395,140,115324,2,0,B|428:120|475:134|485:167|485:167|484:216|544:231,1,167.999994873047,10|2,0:0|0:0,0:0:0:0:
224,45,115752,1,2,1:0:0:0:
310,22,115895,2,0,L|286:112,1,83.9999974365235,10|2,0:0|1:0,0:0:0:0:
116,262,116181,1,0,0:0:0:0:
93,179,116324,1,2,1:0:0:0:
235,291,116467,2,0,L|211:381,1,83.9999974365235,10|8,0:0|0:0,0:0:0:0:
213,372,116681,1,8,0:0:0:0:
213,372,116752,6,0,P|162:378|136:338,1,83.9999974365235,6|2,1:0|0:0,0:0:0:0:
320,249,117038,1,2,1:0:0:0:
430,384,117181,2,0,B|460:391|497:369|499:340|499:340|472:372|425:366,1,167.999994873047,10|2,0:0|1:0,0:0:0:0:
320,249,117609,2,0,P|358:196|416:229,1,125.999996154785,10|0,0:0|0:0,0:0:0:0:
407,212,117895,6,0,P|451:201|497:194,1,83.9999974365235,2|2,0:0|1:0,0:0:0:0:
346,14,118181,2,0,P|333:57|316:100,1,83.9999974365235,10|2,0:0|0:0,0:0:0:0:
91,94,118467,1,0,1:0:0:0:
226,156,118609,1,2,1:0:0:0:
91,94,118752,2,0,P|20:141|46:190,1,125.999996154785,10|0,0:0|0:0,0:0:0:0:
39,179,119038,6,0,B|61:133|21:98|21:98|-19:65|5:14,1,167.999994873047,6|2,1:0|1:0,0:0:0:0:
99,234,119467,2,0,B|144:208|201:238|195:281|195:281|176:258|141:252,1,167.999994873047,10|0,0:0|1:0,0:0:0:0:
7,335,119895,1,10,0:0:0:0:
245,384,120038,6,0,P|327:359|408:344,1,167.999994873047,6|2,1:0|1:0,0:0:0:0:
512,228,120467,2,0,P|454:216|398:200,1,83.9999974365235,10|0,0:0|0:0,0:0:0:0:
429,210,120681,1,8,0:0:0:0:
429,210,120752,1,4,1:0:0:0:
328,129,120895,1,4,1:0:0:0:
289,259,121038,1,8,0:0:0:0:
289,259,121109,1,8,0:0:0:0:
289,259,121181,1,8,0:0:0:0:
289,259,121252,1,8,0:0:0:0:
289,259,121324,5,0,1:0:0:0:
14,378,130467,6,0,L|91:362,1,68.0000012969971,0|0,1:0|0:0,0:0:0:0:
66,282,130752,2,0,L|0:295,1,68.0000012969971,0|0,1:0|0:0,0:0:0:0:
246,381,131038,2,0,P|209:332|255:278,1,136.000002593994,2|2,1:0|1:0,0:0:0:0:
248,279,131609,6,0,B|297:270|320:302|301:324|334:352|389:338,1,136.000002593994,2|2,1:0|1:0,0:0:0:0:
444,384,132038,2,0,L|465:246,1,136.000002593994,2|0,0:0|0:0,0:0:0:0:
370,193,132467,2,0,L|384:286,1,68.0000012969971,2|0,1:0|0:0,0:0:0:0:
512,117,132752,6,0,P|444:127|403:58,1,136.000002593994,2|0,1:0|1:0,0:0:0:0:
404,79,133324,2,0,P|441:81|462:105,1,68.0000012969971,2|0,1:0|0:0,0:0:0:0:
333,120,133609,1,2,1:0:0:0:
333,120,133752,2,0,L|260:135,1,68.0000012969971,2|0,0:0|1:0,0:0:0:0:
232,215,134038,6,0,L|84:184,1,136.000002593994
26,218,134467,1,2,1:0:0:0:
165,113,134752,1,2,1:0:0:0:
88,3,135038,6,0,P|20:11|43:68,1,136.000002593994,2|2,1:0|1:0,0:0:0:0:
98,114,135467,2,0,B|49:63|49:63|67:125,1,136.000002593994,2|0,0:0|0:0,0:0:0:0:
14,243,135895,1,2,1:0:0:0:
80,198,136038,6,0,B|125:208|125:208|162:234|162:234|211:245,1,136.000002593994,2|0,0:0|0:0,0:0:0:0:
289,202,136467,1,2,1:0:0:0:
289,202,136609,2,0,P|240:233|238:325,1,136.000002593994,2|0,0:0|0:0,0:0:0:0:
142,353,137038,2,0,P|177:378|223:361,1,68.0000012969971,2|2,1:0|0:0,0:0:0:0:
306,302,137324,6,0,B|355:293|378:325|359:347|392:375|447:361,1,136.000002593994,0|0,1:0|1:0,0:0:0:0:
487,332,137752,1,0,0:0:0:0:
487,332,137895,2,0,P|468:273|449:195,1,136.000002593994,0|0,1:0|1:0,0:0:0:0:
306,302,138467,5,0,1:0:0:0:
306,302,138609,2,0,P|276:311|237:321,1,68.0000012969971,0|0,0:0|1:0,0:0:0:0:
180,371,138895,2,0,P|138:326|201:275,1,136.000002593994
175,274,139252,1,0,0:0:0:0:
175,274,139324,2,0,B|184:241|184:241|147:261,1,68.0000012969971,0|0,1:0|0:0,0:0:0:0:
0,154,139609,6,0,P|36:162|78:167,1,68.0000012969971,0|0,1:0|0:0,0:0:0:0:
81,86,139895,2,0,P|47:81|14:73,1,68.0000012969971,0|0,1:0|0:0,0:0:0:0:
171,18,140181,2,0,P|247:0|274:51,1,136.000002593994,2|2,1:0|1:0,0:0:0:0:
273,40,140752,6,0,B|293:24|331:25|348:48|348:48|357:84|402:89,1,136.000002593994,2|2,1:0|1:0,0:0:0:0:
444,33,141181,2,0,P|421:101|401:176,1,136.000002593994,2|0,0:0|0:0,0:0:0:0:
459,219,141609,2,0,P|487:193|476:151,1,68.0000012969971,2|0,1:0|0:0,0:0:0:0:
488,289,141895,6,0,P|451:235|386:240,1,136.000002593994,2|2,1:0|1:0,0:0:0:0:
349,318,142324,1,2,0:0:0:0:
349,318,142467,2,0,P|361:349|370:382,1,68.0000012969971,2|0,1:0|0:0,0:0:0:0:
279,351,142752,1,2,1:0:0:0:
279,351,142895,2,0,P|274:321|259:272,1,68.0000012969971,2|0,0:0|1:0,0:0:0:0:
205,378,143181,6,0,P|132:371|121:292,1,136.000002593994
148,252,143609,1,2,1:0:0:0:
33,377,143895,1,2,1:0:0:0:
0,212,144181,5,2,1:0:0:0:
205,378,144467,1,2,1:0:0:0:
245,309,144609,2,0,P|326:282|376:314,1,136.000002593994,2|0,0:0|0:0,0:0:0:0:
499,232,145038,1,2,1:0:0:0:
499,232,145181,2,0,B|490:267|447:278|447:278|461:247|447:204,1,136.000002593994,2|0,0:0|0:0,0:0:0:0:
484,147,145609,1,2,1:0:0:0:
484,147,145752,2,0,P|419:115|396:159,1,136.000002593994,2|0,0:0|0:0,0:0:0:0:
301,189,146181,2,0,P|319:227|381:227,1,102.000001945496,2|0,1:0|0:0,0:0:0:0:
374,231,146467,5,2,1:0:0:0:
374,231,148752,6,0,L|302:245,1,68.0000012969971,2|0,0:0|0:0,0:0:0:0:
302,252,148967,1,0,0:0:0:0:
295,257,149038,1,2,0:0:0:0:
212,212,149181,1,2,0:0:0:0:
274,143,149324,1,2,0:0:0:0:
210,384,149752,5,2,0:0:0:0:
169,318,149895,2,0,P|130:299|101:311,1,68.0000012969971,2|0,1:0|0:0,0:0:0:0:
103,315,150109,1,0,0:0:0:0:
99,324,150181,1,2,0:0:0:0:
23,381,150324,1,2,0:0:0:0:
0,291,150467,1,2,0:0:0:0:
210,384,150895,6,0,L|262:375,1,34.0000006484985,2|0,1:0|0:0,0:0:0:0:
285,315,151038,6,0,L|367:329,1,68.0000012969971,2|0,1:0|0:0,0:0:0:0:
357,336,151252,1,0,0:0:0:0:
365,343,151324,1,2,0:0:0:0:
443,275,151467,1,2,0:0:0:0:
491,364,151609,1,2,0:0:0:0:
295,213,151895,2,0,P|297:167|326:148,1,68.0000012969971,2|0,0:0|0:0,0:0:0:0:
475,112,152181,6,0,L|457:29,1,68.0000012969971,2|0,1:0|0:0,0:0:0:0:
467,36,152395,1,0,0:0:0:0:
473,28,152467,1,0,0:0:0:0:
381,71,152609,1,0,0:0:0:0:
317,6,152752,1,2,0:0:0:0:
140,115,153038,1,2,0:0:0:0:
156,194,153181,1,2,1:0:0:0:
177,271,153324,6,0,P|216:273|249:244,1,68.0000012969971,2|0,1:0|0:0,0:0:0:0:
71,172,153609,1,2,0:0:0:0:
15,223,153752,2,0,P|3:281|63:321,1,136.000002593994,2|0,0:0|0:0,0:0:0:0:
181,363,154181,2,0,P|142:361|109:390,1,68.0000012969971,2|2,0:0|0:0,0:0:0:0:
304,224,154467,6,0,P|341:236|394:244,1,68.0000012969971,0|0,1:0|0:0,0:0:0:0:
380,241,154681,1,0,0:0:0:0:
390,237,154752,1,0,0:0:0:0:
364,141,154895,1,2,0:0:0:0:
386,67,155038,1,2,0:0:0:0:
364,141,155181,1,2,0:0:0:0:
386,67,155324,1,2,0:0:0:0:
261,135,155467,2,0,P|262:114|281:92,1,34.0000006484985,2|0,1:0|0:0,0:0:0:0:
195,177,155609,6,0,P|163:146|90:165,1,102.000001945496,2|0,1:0|0:0,0:0:0:0:
101,160,155895,1,2,0:0:0:0:
54,64,156038,2,0,P|66:34|78:-12,1,68.0000012969971,2|0,0:0|0:0,0:0:0:0:
152,27,156324,1,2,0:0:0:0:
152,27,156467,2,0,P|140:56|128:103,1,68.0000012969971,2|2,0:0|0:0,0:0:0:0:
0,277,156752,6,0,P|27:260|73:273,1,68.0000012969971,2|0,1:0|0:0,0:0:0:0:
74,342,157038,2,0,P|46:358|1:346,1,68.0000012969971,2|0,0:0|0:0,0:0:0:0:
135,215,157324,1,0,1:0:0:0:
135,215,157895,6,0,P|168:223|207:229,1,68.0000012969971,2|0,1:0|0:0,0:0:0:0:
211,228,158109,1,0,0:0:0:0:
221,226,158181,1,2,0:0:0:0:
278,155,158324,1,2,0:0:0:0:
341,221,158467,1,2,0:0:0:0:
501,7,158895,5,2,0:0:0:0:
423,13,159038,2,0,P|413:56|443:90,1,68.0000012969971,2|0,1:0|0:0,0:0:0:0:
430,81,159252,1,0,0:0:0:0:
440,84,159324,1,2,0:0:0:0:
506,150,159467,1,2,0:0:0:0:
454,224,159609,1,2,0:0:0:0:
296,32,160038,6,0,P|273:39|243:44,1,34.0000006484985,2|0,1:0|0:0,0:0:0:0:
215,101,160181,2,0,P|182:89|139:83,1,68.0000012969971,2|0,1:0|0:0,0:0:0:0:
139,85,160395,1,0,0:0:0:0:
130,90,160467,1,2,0:0:0:0:
48,152,160609,1,2,0:0:0:0:
17,59,160752,1,2,0:0:0:0:
91,288,161038,2,0,P|79:324|70:366,1,68.0000012969971,2|0,0:0|0:0,0:0:0:0:
179,229,161324,6,0,P|245:221|265:279,1,136.000002593994,2|0,1:0|0:0,0:0:0:0:
377,362,161752,1,0,0:0:0:0:
377,362,161895,2,0,P|358:335|306:343,1,68.0000012969971,2|0,0:0|0:0,0:0:0:0:
72,353,162181,2,0,B|57:373|29:380|29:380|55:384|81:378,1,102.000001945496,10|0,0:0|0:0,0:0:0:0:
95,278,162467,6,0,P|73:222|60:126,1,151.999995941162,6|0,1:0|1:0,0:0:0:0:
59,131,163038,2,0,P|115:110|145:133,1,75.9999979705811,2|0,1:0|3:0,0:0:0:0:
277,8,163324,1,0,1:0:0:0:
201,0,163467,1,0,3:0:0:0:
353,26,163609,6,0,L|512:3,1,151.999995941162,0|0,1:0|1:0,0:0:0:0:
405,99,164038,1,2,3:0:0:0:
405,99,164181,2,0,L|512:83,1,75.9999979705811,2|0,1:0|3:0,0:0:0:0:
337,201,164467,1,10,0:0:0:0:
464,290,164609,1,8,0:0:0:0:
464,290,164681,1,8,0:0:0:0:
464,290,164752,6,0,B|486:262|486:262|462:215,1,75.9999979705811,10|0,0:0|0:0,0:0:0:0:
285,166,165038,2,0,B|302:203|302:203|350:201,1,75.9999979705811,8|0,0:0|0:0,0:0:0:0:
492,33,165324,2,0,B|451:29|451:29|428:72,1,75.9999979705811,8|0,0:0|0:0,0:0:0:0:
490,337,165609,2,0,L|466:218,1,113.999996955872,10|0,0:0|0:0,0:0:0:0:
512,162,165895,6,0,B|460:143|427:186|442:190|423:240|359:226,1,167.999994873047,14|0,0:0|1:0,0:0:0:0:
296,89,166324,2,0,P|287:30|307:86,1,167.999994873047,14|0,0:0|1:0,0:0:0:0:
281,294,166752,1,10,0:0:0:0:
277,314,166823,1,8,0:0:0:0:
273,335,166894,1,8,0:0:0:0:
269,355,166966,1,8,0:0:0:0:
265,376,167038,6,0,P|206:337|143:363,1,138.000002632141,6|0,1:0|0:0,0:0:0:0:
147,358,167324,2,0,B|118:320|118:320|153:281,1,92.0000017547608,8|0,0:0|0:0,0:0:0:0:
148,287,167538,1,0,0:0:0:0:
148,287,167609,1,2,1:0:0:0:
0,213,167752,1,0,1:0:0:0:
115,85,167895,2,0,L|93:181,1,92.0000017547608,10|0,0:0|0:0,0:0:0:0:
324,72,168181,6,0,B|322:18|267:-10|229:12|229:12|270:7|294:41,1,184.000003509522,2|8,1:0|0:0,0:0:0:0:
423,177,168609,1,0,1:0:0:0:
275,240,168752,2,0,P|256:201|277:153,1,92.0000017547608,2|0,0:0|1:0,0:0:0:0:
389,308,169038,1,8,0:0:0:0:
371,384,169181,1,0,0:0:0:0:
423,176,169324,6,0,B|454:65|454:65|440:112|378:119,1,184.000003509522,6|8,1:0|0:0,0:0:0:0:
269,0,169752,1,2,0:0:0:0:
269,0,169824,1,0,0:0:0:0:
269,0,169895,2,0,P|315:19|363:26,1,92.0000017547608,2|0,1:0|1:0,0:0:0:0:
218,188,170181,2,0,P|208:113|181:47,1,138.000002632141,8|0,0:0|0:0,0:0:0:0:
185,55,170467,6,0,B|149:103|88:97|88:97|125:121|166:103,1,184.000003509522,2|8,1:0|0:0,0:0:0:0:
103,0,170895,1,0,1:0:0:0:
18,150,171038,2,0,P|-13:107|20:65,1,92.0000017547608,2|0,0:0|1:0,0:0:0:0:
209,231,171324,2,0,P|139:214|91:269,1,138.000002632141,10|0,0:0|0:0,0:0:0:0:
94,255,171609,6,0,P|182:253|295:237,1,184.000003509522,6|8,1:0|0:0,0:0:0:0:
425,314,172038,1,0,0:0:0:0:
346,384,172181,2,0,P|324:358|337:303,1,92.0000017547608,2|0,1:0|1:0,0:0:0:0:
476,178,172467,2,0,P|500:110|429:61,1,138.000002632141,8|0,0:0|0:0,0:0:0:0:
460,65,172752,5,2,1:0:0:0:
460,65,173038,2,0,B|432:52|408:68|408:68|419:126,1,92.0000017547608,10|0,0:0|1:0,0:0:0:0:
206,13,173324,1,2,0:0:0:0:
326,35,173467,1,0,1:0:0:0:
275,194,173609,2,0,P|266:151|249:100,1,92.0000017547608,10|0,0:0|0:0,0:0:0:0:
0,16,173895,6,0,B|9:67|70:86|102:67|102:67|65:70|43:49,1,184.000003509522,2|8,1:0|0:0,0:0:0:0:
206,13,174324,1,0,0:0:0:0:
55,192,174467,2,0,P|89:150|133:151,1,92.0000017547608,2|0,1:0|1:0,0:0:0:0:
310,288,174752,1,8,0:0:0:0:
136,239,174895,1,2,0:0:0:0:
321,300,175038,6,0,B|391:292|391:292|441:312|441:312|511:305,1,184.000003509522,2|8,1:0|0:0,0:0:0:0:
259,384,175467,1,0,1:0:0:0:
199,330,175609,2,0,P|208:291|216:226,1,92.0000017547608,2|0,0:0|1:0,0:0:0:0:
142,225,175824,1,0,0:0:0:0:
142,225,175895,2,0,P|133:264|125:329,1,92.0000017547608,10|0,0:0|0:0,0:0:0:0:
346,171,176181,6,0,P|378:118|306:59,1,138.000002632141,6|0,1:0|0:0,0:0:0:0:
338,61,176467,2,0,B|310:57|291:73|291:73|316:78|329:96,1,92.0000017547608,8|0,0:0|0:0,0:0:0:0:
326,92,176681,1,0,0:0:0:0:
326,92,176752,1,2,1:0:0:0:
417,0,176895,1,0,1:0:0:0:
221,98,177038,2,0,P|206:48|252:20,1,92.0000017547608,10|0,0:0|0:0,0:0:0:0:
360,222,177324,6,0,B|391:271|364:322|324:298|297:348|324:407,1,184.000003509522,2|8,1:0|0:0,0:0:0:0:
239,240,177752,1,0,1:0:0:0:
408,378,177895,2,0,P|453:366|510:359,1,92.0000017547608,2|0,0:0|1:0,0:0:0:0:
239,240,178181,2,0,P|172:257|90:267,1,138.000002632141,10|0,0:0|0:0,0:0:0:0:
103,266,178467,6,0,B|63:242|62:177|110:157|110:157|82:183|90:217,1,184.000003509522,6|8,1:0|0:0,0:0:0:0:
0,273,178895,1,2,0:0:0:0:
191,171,179038,2,0,P|186:113|119:102,1,92.0000017547608,2|0,1:0|1:0,0:0:0:0:
119,338,179324,2,0,P|186:321|268:311,1,138.000002632141,8|0,0:0|0:0,0:0:0:0:
254,311,179609,6,0,B|303:282|362:327|312:360|367:392|412:376,1,184.000003509522,2|8,1:0|0:0,0:0:0:0:
512,229,180038,1,0,1:0:0:0:
512,229,180109,1,0,0:0:0:0:
512,229,180181,2,0,P|476:271|423:253,1,92.0000017547608,2|0,0:0|1:0,0:0:0:0:
352,83,180467,2,0,B|386:23|386:23|381:91,1,138.000002632141,10|0,0:0|0:0,0:0:0:0:
381,91,180752,6,0,B|369:51|333:33|293:46|293:46|271:97|208:86,1,184.000003509522,6|8,1:0|0:0,0:0:0:0:
6,30,181181,1,0,0:0:0:0:
135,0,181324,2,0,P|123:43|107:113,1,92.0000017547608,2|0,1:0|1:0,0:0:0:0:
56,288,181609,2,0,P|39:218|20:149,1,138.000002632141,8|0,0:0|0:0,0:0:0:0:
21,154,181895,5,2,1:0:0:0:
21,154,182181,2,0,B|56:121|56:121|102:139,1,92.0000017547608,10|0,0:0|1:0,0:0:0:0:
256,289,182467,2,0,B|189:311|189:311|144:259,1,138.000002632141,2|2,0:0|0:0,0:0:0:0:
144,259,182752,1,8,0:0:0:0:
275,384,182895,1,2,0:0:0:0:
306,202,183038,6,0,L|272:396,1,184.000003509522,6|8,1:0|0:0,0:0:0:0:
461,107,183609,1,0,1:0:0:0:
382,91,183752,1,0,1:0:0:0:
461,107,183895,2,0,P|478:58|445:29,1,92.0000017547608,8|0,0:0|0:0,0:0:0:0:
306,202,184181,6,0,P|380:192|412:263,1,138.000002632141,8|0,0:0|0:0,0:0:0:0:
412,237,184467,1,0,1:0:0:0:
300,90,184609,2,0,P|309:49|320:-7,1,92.0000017547608,10|0,0:0|0:0,0:0:0:0:
137,183,184895,1,2,1:0:0:0:
78,123,185038,1,10,0:0:0:0:
92,105,185109,1,8,0:0:0:0:
112,94,185180,1,10,0:0:0:0:
135,92,185252,1,8,0:0:0:0:
152,93,185324,6,0,L|131:-7,1,92.0000017547608,6|0,1:0|0:0,0:0:0:0:
0,190,185609,2,0,L|52:201,1,46.0000008773804,8|0,0:0|0:0,0:0:0:0:
98,256,185752,2,0,L|188:236,1,92.0000017547608,2|0,1:0|0:0,0:0:0:0:
280,367,186038,1,2,1:0:0:0:
202,354,186181,1,10,0:0:0:0:
384,381,186324,6,0,P|403:345|362:298,1,92.0000017547608,2|0,1:0|0:0,0:0:0:0:
188,236,186609,2,0,P|209:270|270:258,1,92.0000017547608,2|8,1:0|0:0,0:0:0:0:
426,113,186895,1,2,1:0:0:0:
330,86,187038,2,0,P|344:139|352:186,1,92.0000017547608,2|0,0:0|1:0,0:0:0:0:
488,13,187324,1,10,0:0:0:0:
233,98,187467,1,10,0:0:0:0:
233,98,187538,1,8,0:0:0:0:
233,98,187609,6,0,B|196:111|141:79|191:46|132:1|83:30,1,184.000003509522,6|8,1:0|0:0,0:0:0:0:
0,203,188038,2,0,P|60:197|146:170,1,138.000002632141,2|0,1:0|0:0,0:0:0:0:
134,175,188324,2,0,P|123:201|116:238,1,46.0000008773804,2|0,1:0|0:0,0:0:0:0:
69,368,188467,1,10,0:0:0:0:
69,368,188609,6,0,P|47:324|75:286,1,92.0000017547608,2|0,1:0|0:0,0:0:0:0:
220,204,188895,2,0,P|240:164|217:126,1,92.0000017547608,2|8,1:0|0:0,0:0:0:0:
373,332,189181,1,2,1:0:0:0:
421,269,189324,2,0,P|464:283|515:313,1,92.0000017547608,0|2,0:0|1:0,0:0:0:0:
357,97,189609,2,0,P|403:91|465:70,1,92.0000017547608,10|0,0:0|0:0,0:0:0:0:
453,84,189824,1,8,0:0:0:0:
453,84,189895,6,0,P|466:21|359:30,1,184.000003509522,6|8,1:0|0:0,0:0:0:0:
316,194,190324,2,0,P|262:209|229:168,1,92.0000017547608,2|0,1:0|0:0,0:0:0:0:
83,44,190609,1,2,1:0:0:0:
83,44,190681,1,0,0:0:0:0:
83,44,190752,1,10,0:0:0:0:
191,0,190895,6,0,P|178:45|167:97,1,92.0000017547608,2|0,1:0|0:0,0:0:0:0:
31,255,191181,1,2,1:0:0:0:
5,165,191324,1,10,0:0:0:0:
148,258,191467,1,2,1:0:0:0:
27,378,191609,2,0,P|69:343|112:358,1,92.0000017547608,2|0,0:0|1:0,0:0:0:0:
332,222,191895,2,0,P|287:226|257:194,1,92.0000017547608,10|0,0:0|0:0,0:0:0:0:
257,194,192109,1,8,0:0:0:0:
257,194,192181,6,0,L|232:319,1,92.0000017547608,2|0,1:0|0:0,0:0:0:0:
379,384,192467,2,0,P|378:360|364:313,1,46.0000008773804,8|0,0:0|0:0,0:0:0:0:
423,277,192609,2,0,P|470:292|519:294,1,92.0000017547608,0|0,1:0|0:0,0:0:0:0:
315,129,192895,1,0,1:0:0:0:
394,43,193038,2,0,P|415:88|384:131,1,92.0000017547608,8|0,0:0|1:0,0:0:0:0:
152,21,193324,5,10,0:0:0:0:
152,21,193395,1,0,0:0:0:0:
152,21,193467,2,0,P|176:28|210:32,1,46.0000008773804,8|8,0:0|0:0,0:0:0:0:
271,20,193609,5,10,0:0:0:0:
50,120,193752,1,10,0:0:0:0:
50,120,194038,5,2,1:0:0:0:
164,157,194181,1,2,1:0:0:0:
164,157,195467,1,8,0:3:0:0:
164,157,195538,1,8,0:3:0:0:
164,157,195609,5,8,0:0:0:0:
146,257,195752,1,8,0:0:0:0:
128,357,196038,5,8,0:0:0:0:
128,357,196324,5,8,0:3:0:0:
146,257,196467,1,8,0:3:0:0:
164,157,196752,5,0,1:0:0:0:
146,257,196895,1,0,0:0:0:0:
296,177,197181,5,0,0:0:0:0:
350,124,197324,1,0,1:0:0:0:
300,69,197467,2,0,L|239:82,1,44.0000013427735,0|0,0:0|1:0,0:0:0:0:
416,173,197752,5,0,0:0:0:0:
416,173,197895,1,0,1:0:0:0:
416,173,198038,2,0,L|477:160,1,44.0000013427735,0|0,0:0|1:0,0:0:0:0:
231,328,198467,2,0,L|240:371,1,44.0000013427735,0|0,1:0|0:0,0:0:0:0:
318,354,198752,2,0,L|308:310,1,44.0000013427735,0|0,1:0|0:0,0:0:0:0:
191,259,199038,6,0,L|200:215,2,44.0000013427735,0|0|0,1:0|0:0|1:0,0:0:0:0:
138,172,199467,1,0,0:0:0:0:
138,172,199609,2,0,L|147:128,2,44.0000013427735,0|0|0,1:0|0:0|1:0,0:0:0:0:
228,100,200038,1,0,0:0:0:0:
194,19,200181,1,0,1:0:0:0:
112,45,200324,1,0,0:0:0:0:
365,0,200609,1,0,0:0:0:0:
365,0,200752,2,0,P|324:11|318:52,1,88.000002685547,0|0,1:0|1:0,0:0:0:0:
433,125,201324,5,0,1:0:0:0:
394,200,201467,1,0,0:0:0:0:
314,175,201609,2,0,L|272:160,1,44.0000013427735,0|0,1:0|0:0,0:0:0:0:
211,231,201895,2,0,L|226:273,2,44.0000013427735,0|0|0,1:0|0:0|0:0,0:0:0:0:
92,160,202324,5,0,0:0:0:0:
92,160,202467,2,0,L|133:145,1,44.0000013427735,0|0,1:0|0:0,0:0:0:0:
168,33,202752,2,0,P|178:52|182:73,1,44.0000013427735,0|0,1:0|0:0,0:0:0:0:
92,160,203038,2,0,P|70:198|64:241,2,88.000002685547,0|0|0,1:0|1:0|1:0,0:0:0:0:
165,228,203752,1,0,0:0:0:0:
378,323,204038,5,0,0:0:0:0:
329,382,204181,1,0,1:0:0:0:
263,347,204324,1,0,0:0:0:0:
223,248,204609,5,0,0:0:0:0:
263,347,204752,2,0,L|278:289,1,44.0000013427735,0|0,1:0|0:0,0:0:0:0:
172,192,205038,1,4,1:0:0:0:
256,192,219609,5,2,1:0:0:0:
256,192,219681,12,0,223038,0:0:0:0:
168,47,223609,6,0,L|122:61,1,47.9999985351563,2|2,0:0|0:0,0:0:0:0:
61,30,224181,6,0,B|153:24|149:82|238:67,1,180.000006866455,6|0,1:0|0:0,0:0:0:0:
233,67,224467,2,0,L|321:41,1,92.0000017547608,8|0,0:0|0:0,0:0:0:0:
433,277,224752,1,2,1:0:0:0:
493,213,224895,1,0,1:0:0:0:
425,151,225038,2,0,L|336:176,1,92.0000017547608,10|0,0:0|0:0,0:0:0:0:
96,198,225324,6,0,P|179:214|175:298,1,184.000003509522,2|10,1:0|0:0,0:0:0:0:
175,298,225895,2,0,P|139:272|148:230,1,92.0000017547608,2|0,0:0|0:0,0:0:0:0:
233,67,226181,2,0,P|268:92|259:134,1,92.0000017547608,10|0,0:0|0:0,0:0:0:0:
413,338,226467,2,0,B|368:352|326:320|360:277|322:236|273:255,1,184.000003509522,6|8,1:0|0:0,0:0:0:0:
394,75,226895,1,0,0:0:0:0:
394,75,226967,1,0,0:0:0:0:
394,75,227038,2,0,P|403:117|367:142,1,92.0000017547608,2|0,1:0|1:0,0:0:0:0:
151,293,227324,5,8,0:0:0:0:
71,246,227467,1,0,0:0:0:0:
124,163,227609,2,0,P|190:144|258:134,1,138.000002632141,2|0,1:0|0:0,0:0:0:0:
258,134,227895,2,0,P|302:146|347:153,1,92.0000017547608,8|0,0:0|1:0,0:0:0:0:
308,372,228181,2,0,P|263:359|218:352,1,92.0000017547608,2|0,0:0|1:0,0:0:0:0:
402,223,228467,2,0,P|461:247|453:311,1,138.000002632141,10|0,0:0|0:0,0:0:0:0:
375,334,228752,6,0,P|365:242|347:152,1,184.000003509522,6|8,1:0|0:0,0:0:0:0:
151,40,229324,5,2,1:0:0:0:
79,10,229467,1,0,1:0:0:0:
22,64,229609,2,0,P|28:132|40:200,1,138.000002632141,8|0,0:0|0:0,0:0:0:0:
40,200,229895,2,0,P|85:191|130:185,1,92.0000017547608,2|0,1:0|0:0,0:0:0:0:
275,207,230181,2,0,P|244:172|217:135,1,92.0000017547608,10|0,0:0|1:0,0:0:0:0:
164,0,230467,2,0,P|149:43|131:85,1,92.0000017547608,2|0,0:0|1:0,0:0:0:0:
292,290,230752,2,0,P|314:224|340:160,1,138.000002632141,10|0,0:0|0:0,0:0:0:0:
390,308,231038,6,0,B|304:294|303:364|214:342,1,184.000003509522,6|8,1:0|0:0,0:0:0:0:
60,94,231609,1,2,1:0:0:0:
147,129,231752,1,0,1:0:0:0:
112,226,231895,2,0,L|22:246,1,92.0000017547608,8|2,0:0|0:0,0:0:0:0:
242,110,232181,6,0,L|221:20,1,92.0000017547608,2|0,1:0|0:0,0:0:0:0:
478,149,232467,2,0,P|433:198|367:188,1,138.000002632141,8|0,0:0|0:0,0:0:0:0:
367,188,232752,1,2,0:0:0:0:
321,133,232895,1,0,1:0:0:0:
381,90,233038,1,8,0:0:0:0:
321,308,233324,6,0,P|255:318|210:269,1,138.000002632141,6|0,1:0|0:0,0:0:0:0:
210,269,233609,2,0,L|226:178,1,92.0000017547608,8|2,0:0|0:0,0:0:0:0:
100,8,233895,1,2,1:0:0:0:
167,55,234038,1,0,1:0:0:0:
120,131,234181,2,0,L|29:147,1,92.0000017547608,10|0,0:0|0:0,0:0:0:0:
28,301,234467,2,0,L|208:268,1,184.000003509522,2|8,1:0|0:0,0:0:0:0:
209,268,235038,1,2,0:0:0:0:
131,249,235181,2,0,L|115:158,1,92.0000017547608,0|10,1:0|0:0,0:0:0:0:
383,99,235467,5,0,0:0:0:0:
336,39,235609,2,0,P|275:63|277:128,1,138.000002632141,6|0,1:0|0:0,0:0:0:0:
277,128,235895,2,0,L|293:219,1,92.0000017547608,8|2,0:0|0:0,0:0:0:0:
443,384,236181,1,2,1:0:0:0:
512,333,236324,1,0,1:0:0:0:
472,256,236467,2,0,L|381:272,1,92.0000017547608,8|2,0:0|0:0,0:0:0:0:
218,383,236752,6,0,L|82:357,1,138.000002632141,2|0,1:0|0:0,0:0:0:0:
82,357,237038,2,0,L|99:266,1,92.0000017547608,8|0,0:0|1:0,0:0:0:0:
250,123,237324,1,2,0:0:0:0:
194,25,237467,1,0,1:0:0:0:
85,66,237609,1,10,0:0:0:0:
85,66,237895,6,0,B|178:58|172:126|253:111,1,180.000006866455,6|0,1:0|0:0,0:0:0:0:
253,111,238181,2,0,P|261:66|276:22,1,92.0000017547608,8|0,0:0|0:0,0:0:0:0:
265,217,238467,1,2,1:0:0:0:
207,286,238609,1,0,1:0:0:0:
127,242,238752,2,0,P|119:196|104:153,1,92.0000017547608,8|0,0:0|0:0,0:0:0:0:
363,222,239038,2,0,P|374:290|394:355,1,138.000002632141,2|0,1:0|0:0,0:0:0:0:
394,355,239324,2,0,L|484:337,1,92.0000017547608,10|0,0:0|1:0,0:0:0:0:
295,305,239609,1,2,0:0:0:0:
295,305,239752,1,0,1:0:0:0:
453,203,239895,2,0,L|362:221,1,92.0000017547608,10|0,0:0|0:0,0:0:0:0:
180,292,240181,6,0,P|120:227|154:147,1,184.000003509522,6|8,1:0|0:0,0:0:0:0:
434,175,240752,1,0,1:0:0:0:
512,135,240895,1,0,1:0:0:0:
469,45,241038,2,0,L|333:71,1,138.000002632141,10|0,0:0|0:0,0:0:0:0:
333,71,241324,2,0,L|242:52,1,92.0000017547608,10|0,0:0|0:0,0:0:0:0:
64,281,241609,1,0,1:0:0:0:
15,177,241752,2,0,L|151:203,1,138.000002632141,10|0,0:0|0:0,0:0:0:0:
150,202,242038,2,0,L|141:248,1,46.0000008773804,2|0,1:0|0:0,0:0:0:0:
57,361,242180,5,10,0:0:0:0:
57,361,242252,1,8,0:0:0:0:
57,361,242323,1,10,0:0:0:0:
57,361,242395,1,8,0:0:0:0:
58,362,242466,2,0,P|42:319|63:280,1,92.0000017547608,6|0,1:0|0:0,0:0:0:0:
259,140,242752,2,0,L|250:186,1,46.0000008773804,8|0,0:0|0:0,0:0:0:0:
295,249,242895,2,0,L|385:265,1,92.0000017547608,2|0,1:0|0:0,0:0:0:0:
212,80,243180,5,2,1:0:0:0:
212,80,243323,1,10,0:0:0:0:
270,26,243467,2,0,L|360:42,1,92.0000017547608,2|0,1:0|0:0,0:0:0:0:
70,203,243752,2,0,L|160:219,1,92.0000017547608,2|8,1:0|0:0,0:0:0:0:
160,219,243966,1,0,0:0:0:0:
160,219,244038,1,2,1:0:0:0:
301,364,244181,2,0,L|391:380,1,92.0000017547608,2|0,0:0|1:0,0:0:0:0:
368,187,244466,5,10,0:0:0:0:
379,98,244609,1,10,0:0:0:0:
379,98,244680,1,8,0:0:0:0:
379,98,244752,2,0,P|461:104|458:187,1,184.000003509522,6|8,1:0|0:0,0:0:0:0:
329,276,245181,2,0,P|266:271|268:209,1,138.000002632141,2|0,1:0|0:0,0:0:0:0:
268,209,245466,2,0,L|260:256,1,46.0000008773804,2|0,1:0|0:0,0:0:0:0:
218,101,245609,1,10,0:0:0:0:
218,101,245752,2,0,L|128:78,1,92.0000017547608,2|0,1:0|0:0,0:0:0:0:
186,185,246038,2,0,L|96:162,1,92.0000017547608,2|8,1:0|0:0,0:0:0:0:
75,343,246324,5,2,1:0:0:0:
107,273,246467,2,0,P|166:296|154:359,1,138.000002632141,2|0,0:0|0:0,0:0:0:0:
154,359,246752,2,0,L|147:313,1,46.0000008773804,10|0,0:0|0:0,0:0:0:0:
186,185,246895,1,0,0:0:0:0:
186,185,246966,1,8,0:0:0:0:
186,185,247038,2,0,P|126:161|138:98,1,138.000002632141,6|0,1:0|0:0,0:0:0:0:
137,98,247324,1,8,0:0:0:0:
359,192,247466,2,0,L|268:209,1,92.0000017547608,2|0,1:0|0:0,0:0:0:0:
251,64,247752,5,2,1:0:0:0:
311,0,247895,1,10,0:0:0:0:
406,18,248038,2,0,L|388:108,1,92.0000017547608,2|0,1:0|0:0,0:0:0:0:
401,384,248324,1,2,1:0:0:0:
488,327,248467,1,10,0:0:0:0:
431,238,248609,1,2,1:0:0:0:
431,238,248752,2,0,L|340:255,1,92.0000017547608,2|0,0:0|1:0,0:0:0:0:
168,0,249038,6,0,L|189:135,1,138.000002632141,10|8,0:0|0:0,0:0:0:0:
189,136,249324,2,0,P|165:172|121:170,1,92.0000017547608,6|0,1:0|0:0,0:0:0:0:
61,86,249609,6,0,L|106:93,1,46.0000008773804,8|0,0:0|0:0,0:0:0:0:
22,234,249752,2,0,L|112:247,1,92.0000017547608,0|0,1:0|0:0,0:0:0:0:
179,308,250038,1,0,1:0:0:0:
129,378,250180,1,8,0:0:0:0:
285,192,250467,6,0,P|316:156|289:103,1,92.0000017547608,10|8,0:0|0:0,0:0:0:0:
306,116,250680,1,8,0:0:0:0:
306,116,250752,1,10,0:0:0:0:
145,36,250895,1,10,0:3:0:0:
145,36,250966,1,0,0:0:0:0:
145,36,251038,1,0,0:0:0:0:
212,81,251180,2,0,L|222:125,1,46.0000008773804,2|0,1:0|0:0,0:0:0:0:
180,192,251324,2,0,L|190:236,1,46.0000008773804,6|0,1:0|0:0,0:0:0:0:
454,26,253467,6,0,L|385:39,1,69.9999978637696,4|0,1:0|0:0,0:0:0:0:
385,39,253895,1,6,1:0:0:0:
324,121,254038,1,2,0:0:0:0:
406,182,254181,1,2,1:0:0:0:
467,100,254324,1,10,0:0:0:0:
281,206,254467,6,0,L|198:222,1,83.9999974365235,2|2,0:0|1:0,0:0:0:0:
430,302,254752,2,0,P|436:343|446:384,1,83.9999974365235,10|0,0:0|1:0,0:0:0:0:
355,326,255038,2,0,P|334:269|375:226,1,125.999996154785,2|0,0:0|0:0,0:0:0:0:
375,226,255324,2,0,P|368:184|358:143,1,83.9999974365235,10|0,0:0|0:0,0:0:0:0:
242,19,255609,1,2,1:0:0:0:
155,80,255752,1,0,1:0:0:0:
219,161,255895,1,10,0:0:0:0:
218,161,256181,6,0,P|196:219|180:280,1,125.999996154785,6|0,1:0|0:0,0:0:0:0:
180,280,256467,1,2,1:0:0:0:
70,98,256609,2,0,P|85:136|98:177,1,83.9999974365235,10|0,0:0|0:0,0:0:0:0:
218,161,256895,1,0,1:0:0:0:
28,355,257038,2,0,P|12:316|0:275,1,83.9999974365235,10|0,0:0|1:0,0:0:0:0:
241,237,257324,2,0,P|279:252|320:265,1,83.9999974365235,2|2,0:0|1:0,0:0:0:0:
218,161,257609,1,10,0:0:0:0:
218,161,257895,5,0,0:0:0:0:
281,101,258038,1,2,1:0:0:0:
224,21,258181,1,10,0:0:0:0:
224,21,258252,1,8,0:0:0:0:
224,21,258324,1,8,0:0:0:0:
224,21,258395,1,8,0:0:0:0:
224,21,258467,2,0,B|150:28|144:80|68:76,1,167.999994873047,6|2,1:0|1:0,0:0:0:0:
218,161,258895,2,0,L|300:146,1,83.9999974365235,10|0,0:0|0:0,0:0:0:0:
390,204,259181,1,2,1:0:0:0:
390,204,259252,1,0,0:0:0:0:
390,204,259324,1,10,0:0:0:0:
313,294,259467,5,0,1:0:0:0:
250,349,259609,2,0,P|239:308|235:266,1,83.9999974365235,2|2,0:0|1:0,0:0:0:0:
375,121,259895,2,0,P|385:161|389:203,1,83.9999974365235,10|0,0:0|0:0,0:0:0:0:
165,324,260181,1,2,1:0:0:0:
79,316,260324,1,0,1:0:0:0:
72,231,260467,1,10,0:0:0:0:
72,231,260752,6,0,P|113:163|192:172,1,167.999994873047,6|2,1:0|1:0,0:0:0:0:
317,247,261181,2,0,L|235:265,1,83.9999974365235,10|0,0:0|0:0,0:0:0:0:
382,108,261467,1,0,1:0:0:0:
321,59,261609,2,0,L|239:77,1,83.9999974365235,10|0,0:0|1:0,0:0:0:0:
390,283,261895,5,2,0:0:0:0:
390,283,262038,1,2,1:0:0:0:
431,217,262181,2,0,L|512:198,1,83.9999974365235,10|2,0:0|1:0,0:0:0:0:
256,107,262467,1,0,0:0:0:0:
256,107,262609,1,2,1:0:0:0:
321,49,262752,2,0,L|339:130,1,83.9999974365235,10|8,0:0|0:0,0:0:0:0:
339,130,262967,5,8,0:0:0:0:
339,130,263038,2,0,L|357:211,1,83.9999974365235,6|2,1:0|0:0,0:0:0:0:
312,297,263324,1,2,1:0:0:0:
182,384,263467,2,0,P|175:323|220:283,1,125.999996154785,10|0,0:0|0:0,0:0:0:0:
220,283,263752,1,2,1:0:0:0:
224,168,263895,2,0,P|185:183|145:197,1,83.9999974365235,10|0,0:0|0:0,0:0:0:0:
70,6,264181,5,2,0:0:0:0:
11,75,264324,1,2,1:0:0:0:
87,117,264467,2,0,P|145:93|204:72,1,125.999996154785,10|0,0:0|0:0,0:0:0:0:
204,72,264752,1,2,1:0:0:0:
301,144,264895,1,0,1:0:0:0:
374,47,265038,2,0,P|432:70|491:91,1,125.999996154785,10|0,0:0|0:0,0:0:0:0:
491,91,265324,6,0,P|418:115|432:191,1,167.999994873047,6|2,1:0|1:0,0:0:0:0:
483,327,265752,2,0,P|492:286|512:249,1,83.9999974365235,10|0,0:0|0:0,0:0:0:0:
432,191,266038,1,0,1:0:0:0:
398,384,266181,2,0,P|379:302|344:226,1,167.999994873047,10|2,0:0|0:0,0:0:0:0:
256,76,266609,5,2,1:0:0:0:
199,146,266752,2,0,L|281:161,1,83.9999974365235,10|2,0:0|1:0,0:0:0:0:
197,333,267038,1,0,0:0:0:0:
197,333,267181,1,2,1:0:0:0:
158,277,267324,2,0,L|75:261,1,83.9999974365235,10|8,0:0|0:0,0:0:0:0:
75,261,267538,5,8,0:0:0:0:
75,261,267609,2,0,L|45:57,1,167.999994873047,6|2,1:0|1:0,0:0:0:0:
203,82,268038,2,0,L|190:0,1,83.9999974365235,10|0,0:0|0:0,0:0:0:0:
431,83,268324,1,2,1:0:0:0:
400,150,268467,2,0,P|359:159|318:164,1,83.9999974365235,10|0,0:0|1:0,0:0:0:0:
437,384,268752,5,2,0:0:0:0:
497,315,268895,1,2,1:0:0:0:
438,248,269038,2,0,P|375:258|314:272,1,125.999996154785,10|0,0:0|0:0,0:0:0:0:
314,272,269324,1,0,1:0:0:0:
243,365,269467,1,2,1:0:0:0:
219,259,269609,2,0,P|233:197|243:135,1,125.999996154785,10|0,0:0|0:0,0:0:0:0:
243,135,269895,6,0,P|232:72|218:11,1,125.999996154785,6|0,1:0|0:0,0:0:0:0:
218,11,270181,1,2,1:0:0:0:
486,183,270324,2,0,P|403:196|321:216,1,167.999994873047,10|2,0:0|1:0,0:0:0:0:
148,252,270752,1,8,0:0:0:0:
177,384,270895,6,0,B|178:301|234:323|229:228,1,167.999994873047,6|2,1:0|1:0,0:0:0:0:
153,108,271324,2,0,P|112:106|83:135,1,83.9999974365235,8|0,0:0|0:0,0:0:0:0:
83,135,271538,1,8,0:0:0:0:
83,135,271609,2,0,L|93:175,1,41.9999987182618,4|0,1:0|0:0,0:0:0:0:
148,252,271752,2,0,L|137:292,1,41.9999987182618,4|0,1:0|0:0,0:0:0:0:
35,361,271895,1,8,0:0:0:0:
35,361,271967,1,8,0:0:0:0:
35,361,272038,1,8,0:0:0:0:
35,361,272109,1,8,0:0:0:0:
35,361,272181,1,0,0:0:0:0:
256,192,273181,12,0,282467,0:0:0:0:
