osu file format v14

[General]
AudioFilename: audio.mp3
AudioLeadIn: 0
PreviewTime: 133850
Countdown: 0
SampleSet: Normal
StackLeniency: 0.7
Mode: 1
LetterboxInBreaks: 0
WidescreenStoryboard: 1

[Editor]
Bookmarks: 1040,13302,20310,34324,41331,48339,62353,74616,88631,102645,116660,123667,130675,134178,146441,158704,165711,172718,179726
DistanceSpacing: 0.5
BeatDivisor: 8
GridSize: 32
TimelineZoom: 2.7

[Metadata]
Title:Lost Umbrella
TitleUnicode:ロストアンブレラ
Artist:rei sirose
ArtistUnicode:rei sirose
Creator:gaston_2199
Version:Waribashi's Inner Oni
Source:
Tags:稲葉曇 inabakumori anticyclone ぬくぬくにぎりめし nukunukunigirimeshi 白瀬玲 dustcell ema EM A 久遠千歳 Kudou Chitose Kudo vtuber virtual youtuber youtube cover japanese rock jrock j-rock KTYN KitajimaYN yuni Waribashi
BeatmapID:2941146
BeatmapSetID:1425118

[Difficulty]
HPDrainRate:5.5
CircleSize:2
OverallDifficulty:6.3
ApproachRate:10
SliderMultiplier:1.4
SliderTickRate:1

[Events]
//Background and Video events
0,0,"67493108_p0.jpg",0,0
//Break Periods
2,13501,19858
2,116859,122340
//Storyboard Layer 0 (Background)
//Storyboard Layer 1 (Fail)
//Storyboard Layer 2 (Pass)
//Storyboard Layer 3 (Foreground)
//Storyboard Layer 4 (Overlay)
//Storyboard Sound Samples

[TimingPoints]
164,218.978102189781,4,1,0,70,1,8
1039,437.956204379562,4,1,0,70,1,0
1039,-83.3333333333334,4,1,0,70,0,0
8046,218.978102189781,4,1,0,70,1,0
8046,-125,4,1,0,70,0,0
13292,-166.666666666667,4,1,0,60,0,0
20300,-100,4,1,0,80,0,0
34752,-111.111111111111,4,1,0,80,0,0
36066,-100,4,1,0,80,0,0
36504,-111.111111111111,4,1,0,80,0,0
37818,-100,4,1,0,80,0,0
38256,-111.111111111111,4,1,0,80,0,0
39570,-100,4,1,0,80,0,0
40008,-111.111111111111,4,1,0,80,0,0
41321,-100,4,1,0,80,0,0
41759,-111.111111111111,4,1,0,80,0,0
42197,-100,4,1,0,80,0,0
42635,-111.111111111111,4,1,0,80,0,0
43073,-100,4,1,0,80,0,0
43511,-111.111111111111,4,1,0,80,0,0
43949,-100,4,1,0,80,0,0
44387,-111.111111111111,4,1,0,80,0,0
44825,-100,4,1,0,80,0,0
45044,-111.111111111111,4,1,0,80,0,0
45263,-100,4,1,0,80,0,0
45482,-111.111111111111,4,1,0,80,0,0
45701,-100,4,1,0,80,0,0
45920,-111.111111111111,4,1,0,80,0,0
46139,-100,4,1,0,80,0,0
46358,-111.111111111111,4,1,0,80,0,0
46577,-100,4,1,0,80,0,0
47453,-111.111111111111,4,1,0,80,0,0
47562,-112.667804611493,4,1,0,80,0,0
47672,-114.268737216185,4,1,0,80,0,0
47891,-117.611221992358,4,1,0,80,0,0
48000,-119.356810022153,4,1,0,80,0,0
48110,-121.154994796393,4,1,0,80,0,0
48219,-123.008341195616,4,1,0,80,0,0
48337,-124.91911487312,4,1,0,80,0,1
48909,-124.91911487312,4,1,0,70,0,1
58848,-125,4,1,0,60,0,0
59716,-153.753901505251,4,1,0,60,0,0
60592,-199.68888471761,4,1,0,60,0,0
61905,-76.9230769230769,4,1,0,80,0,0
62352,-100,4,1,0,90,0,1
69359,-100,4,1,0,80,0,0
69797,-90.9090909090909,4,1,0,90,0,1
69898,-100,4,1,0,90,0,1
73735,-90.9090909090909,4,1,0,90,0,1
74177,-111.111111111111,4,1,0,60,0,0
74278,-108.138269917447,4,1,0,60,0,0
74387,-105.320252557966,4,1,0,60,0,0
74497,-102.645482007787,4,1,0,60,0,0
74611,-100,4,1,0,80,0,0
80738,-100,4,1,0,70,0,0
80847,-102.564102564103,4,1,0,70,0,0
80957,-105.263157894737,4,1,0,70,0,0
81066,-108.108108108108,4,1,0,70,0,0
81175,-111.111111111111,4,1,0,70,0,0
81285,-114.285714285714,4,1,0,70,0,0
81394,-117.647058823529,4,1,0,70,0,0
81504,-121.212121212121,4,1,0,70,0,0
81613,-100,4,1,0,80,0,0
88840,-111.111111111111,4,1,0,70,0,0
94976,-125,4,1,0,70,0,0
95628,-111.111111111111,4,1,0,70,0,0
102635,-100,4,1,0,80,0,0
103073,-111.111111111111,4,1,0,80,0,0
104387,-100,4,1,0,80,0,0
104825,-111.111111111111,4,1,0,80,0,0
106139,-100,4,1,0,80,0,0
106577,-111.111111111111,4,1,0,80,0,0
107891,-100,4,1,0,80,0,0
108329,-111.111111111111,4,1,0,80,0,0
109642,-100,4,1,0,80,0,0
110080,-111.111111111111,4,1,0,80,0,0
110518,-100,4,1,0,80,0,0
110956,-111.111111111111,4,1,0,80,0,0
111394,-100,4,1,0,80,0,0
111832,-111.111111111111,4,1,0,80,0,0
112270,-100,4,1,0,80,0,0
112708,-111.111111111111,4,1,0,80,0,0
113146,-100,4,1,0,80,0,0
113365,-111.111111111111,4,1,0,80,0,0
113584,-100,4,1,0,80,0,0
113803,-111.111111111111,4,1,0,80,0,0
114022,-100,4,1,0,80,0,0
114241,-111.111111111111,4,1,0,80,0,0
114460,-100,4,1,0,80,0,0
114679,-111.111111111111,4,1,0,80,0,0
114898,-100,4,1,0,80,0,0
115774,-111.111111111111,4,1,0,80,0,0
115884,-112.667804611493,4,1,0,80,0,0
115994,-114.268737216185,4,1,0,80,0,0
116213,-117.611221992358,4,1,0,80,0,0
116322,-119.356810022153,4,1,0,80,0,0
116432,-121.154994796393,4,1,0,80,0,0
116541,-123.008341195616,4,1,0,80,0,0
116651,-124.91911487312,4,1,0,80,0,0
116764,-124.91911487312,4,1,0,70,0,0
123110,-119.430650204346,4,1,0,70,0,0
123165,-118.550412970364,4,1,0,70,0,0
123219,-117.682917500744,4,1,0,70,0,0
123438,-114.336545046884,4,1,0,70,0,0
123657,-111.175098556725,4,1,0,80,0,0
130665,-100,4,1,0,80,0,0
132416,-93.0569294377221,4,1,0,80,0,0
132635,-87.0153138250801,4,1,0,80,0,0
132854,-81.7104280482484,4,1,0,80,0,0
133073,-77.0151396361497,4,1,0,80,0,0
133301,218.978102189781,4,1,0,20,1,8
134094,-100,4,1,0,70,0,8
134176,437.956204379562,4,1,0,70,1,0
134176,-83.3333333333333,4,1,0,70,0,0
140633,-83.3333333333333,4,1,0,60,0,0
141183,218.978102189781,4,1,0,60,1,0
141183,-125,4,1,0,60,0,0
145562,218.978102189781,4,1,0,60,1,8
145998,-133.333333333333,4,1,0,60,0,0
146437,-100,4,1,0,90,0,1
153445,-100,4,1,0,80,0,0
153883,-90.9090909090909,4,1,0,90,0,1
153980,-100,4,1,0,90,0,1
157823,-90.9090909090909,4,1,0,90,0,1
158262,-111.111111111111,4,1,0,80,0,0
158700,-100,4,1,0,90,0,1
172167,-100,4,1,0,90,0,0
172713,-100,4,1,0,80,0,0
173146,-111.111111111111,4,1,0,80,0,0
174460,-100,4,1,0,80,0,0
174898,-111.111111111111,4,1,0,80,0,0
176212,-100,4,1,0,80,0,0
176650,-111.111111111111,4,1,0,80,0,0
177964,-100,4,1,0,80,0,0
178402,-111.111111111111,4,1,0,80,0,0
179716,-100,4,1,0,80,0,0
180154,-111.111111111111,4,1,0,80,0,0
181467,-100,4,1,0,80,0,0
181905,-111.111111111111,4,1,0,80,0,0
183219,-100,4,1,0,80,0,0
183657,-111.111111111111,4,1,0,80,0,0
184971,-100,4,1,0,80,0,0
185409,-111.111111111111,4,1,0,80,0,0
186722,-100,4,1,0,80,0,0
187160,-111.111111111111,4,1,0,80,0,0
187598,-100,4,1,0,80,0,0
188036,-111.111111111111,4,1,0,80,0,0
188474,-100,4,1,0,80,0,0
188912,-111.111111111111,4,1,0,80,0,0
189350,-100,4,1,0,80,0,0
189788,-111.111111111111,4,1,0,80,0,0
190226,-100,4,1,0,80,0,0
190445,-111.111111111111,4,1,0,80,0,0
190664,-100,4,1,0,80,0,0
190883,-111.111111111111,4,1,0,80,0,0
191102,-100,4,1,0,80,0,0
191321,-111.111111111111,4,1,0,80,0,0
191540,-100,4,1,0,80,0,0
191759,-111.111111111111,4,1,0,80,0,0
191978,-100,4,1,0,80,0,0
192854,-111.111111111111,4,1,0,80,0,0
192963,-112.676056338028,4,1,0,80,0,0
193073,-114.285714285714,4,1,0,80,0,0
193183,-115.942028985507,4,1,0,80,0,0
193292,-117.647058823529,4,1,0,80,0,0
193401,-119.402985074627,4,1,0,80,0,0
193511,-121.212121212121,4,1,0,80,0,0
193620,-123.076923076923,4,1,0,80,0,0
193730,-125,4,1,0,80,0,0

[HitObjects]
200,152,1039,5,0,0:0:0:0:
200,152,1914,1,0,0:0:0:0:
198,130,2790,1,8,0:0:0:0:
163,125,4542,1,8,0:0:0:0:
163,125,5418,1,8,0:0:0:0:
161,166,6294,1,0,0:0:0:0:
161,166,7608,1,8,0:0:0:0:
161,166,8046,1,4,0:0:0:0:
161,166,8264,1,8,0:0:0:0:
161,166,8483,1,0,0:0:0:0:
141,145,8593,1,0,0:0:0:0:
141,150,8702,1,8,0:0:0:0:
190,109,8921,1,0,0:0:0:0:
185,111,9140,1,8,0:0:0:0:
185,111,9250,1,0,0:0:0:0:
166,119,9469,1,0,0:0:0:0:
180,158,9578,1,8,0:0:0:0:
166,138,9797,1,0,0:0:0:0:
166,138,10016,1,8,0:0:0:0:
166,138,10235,1,0,0:0:0:0:
166,138,10345,1,0,0:0:0:0:
165,146,10454,1,8,0:0:0:0:
165,146,10673,1,0,0:0:0:0:
165,146,10892,1,8,0:0:0:0:
165,146,11002,1,0,0:0:0:0:
165,146,11221,1,0,0:0:0:0:
165,146,11330,1,8,0:0:0:0:
165,146,11440,1,8,0:0:0:0:
165,146,11549,1,0,0:0:0:0:
165,146,11768,1,8,0:0:0:0:
165,146,11878,1,8,0:0:0:0:
165,146,11987,1,0,0:0:0:0:
165,146,12097,1,0,0:0:0:0:
165,146,12206,1,8,0:0:0:0:
127,85,12425,1,4,0:0:0:0:
127,85,12644,1,4,0:0:0:0:
127,85,12863,1,8,0:0:0:0:
181,194,13301,1,4,0:0:0:0:
176,102,20308,5,4,0:0:0:0:
176,102,20527,1,8,0:0:0:0:
169,153,20637,1,0,0:0:0:0:
169,153,20746,1,8,0:0:0:0:
169,153,20801,1,0,0:0:0:0:
169,153,20856,1,0,0:0:0:0:
176,103,20965,1,8,0:0:0:0:
173,116,21075,1,8,0:0:0:0:
168,158,21184,1,0,0:0:0:0:
168,158,21239,1,0,0:0:0:0:
168,158,21294,1,0,0:0:0:0:
143,179,21403,1,8,0:0:0:0:
166,168,21513,1,8,0:0:0:0:
167,165,21622,1,0,0:0:0:0:
166,168,21732,1,0,0:0:0:0:
173,116,21841,1,8,0:0:0:0:
166,168,21896,1,8,0:0:0:0:
166,168,21951,1,8,0:0:0:0:
176,87,22005,1,8,0:0:0:0:
166,168,22060,1,0,0:0:0:0:
166,168,22279,1,8,0:0:0:0:
166,168,22389,1,0,0:0:0:0:
166,168,22498,1,8,0:0:0:0:
165,176,22553,1,0,0:0:0:0:
165,178,22608,1,0,0:0:0:0:
173,116,22717,1,8,0:0:0:0:
173,116,22827,1,8,0:0:0:0:
162,179,22936,1,0,0:0:0:0:
162,179,22991,1,0,0:0:0:0:
162,179,23046,1,0,0:0:0:0:
161,187,23155,1,8,0:0:0:0:
161,188,23264,1,8,0:0:0:0:
161,187,23319,1,8,0:0:0:0:
179,112,23374,1,0,0:0:0:0:
161,188,23483,1,0,0:0:0:0:
173,116,23593,1,8,0:0:0:0:
161,193,23812,1,0,0:0:0:0:
161,193,24031,1,8,0:0:0:0:
161,193,24140,1,0,0:0:0:0:
161,193,24250,1,8,0:0:0:0:
161,193,24305,1,0,0:0:0:0:
161,193,24359,1,0,0:0:0:0:
173,116,24469,1,8,0:0:0:0:
173,116,24578,1,8,0:0:0:0:
161,195,24688,1,0,0:0:0:0:
161,195,24743,1,0,0:0:0:0:
161,195,24797,1,0,0:0:0:0:
150,140,24907,1,8,0:0:0:0:
159,205,25016,1,8,0:0:0:0:
161,203,25126,1,0,0:0:0:0:
159,205,25235,1,0,0:0:0:0:
173,116,25345,1,8,0:0:0:0:
159,205,25400,1,8,0:0:0:0:
160,216,25454,1,8,0:0:0:0:
171,82,25509,1,8,0:0:0:0:
160,216,25564,1,0,0:0:0:0:
149,153,25783,1,8,0:0:0:0:
150,163,25892,1,0,0:0:0:0:
151,168,26002,1,8,0:0:0:0:
166,76,26056,1,0,0:0:0:0:
150,163,26111,1,0,0:0:0:0:
173,116,26221,1,8,0:0:0:0:
173,116,26330,1,8,0:0:0:0:
201,99,26440,1,0,0:0:0:0:
166,77,26494,1,0,0:0:0:0:
166,77,26549,1,0,0:0:0:0:
166,77,26659,1,8,0:0:0:0:
166,77,26768,1,0,0:0:0:0:
166,77,26878,1,8,0:0:0:0:
166,83,26932,1,8,0:0:0:0:
202,147,26987,1,0,0:0:0:0:
202,147,27042,1,0,0:0:0:0:
193,152,27097,1,8,0:0:0:0:
176,102,27316,5,4,0:0:0:0:
165,102,27425,1,0,0:0:0:0:
176,102,27535,1,8,0:0:0:0:
169,153,27644,1,0,0:0:0:0:
169,153,27754,1,8,0:0:0:0:
169,153,27808,1,0,0:0:0:0:
169,153,27863,1,0,0:0:0:0:
176,103,27973,1,8,0:0:0:0:
173,116,28082,1,8,0:0:0:0:
168,158,28191,1,0,0:0:0:0:
168,158,28246,1,0,0:0:0:0:
168,158,28301,1,0,0:0:0:0:
131,87,28410,1,8,0:0:0:0:
166,168,28520,1,8,0:0:0:0:
167,165,28629,1,0,0:0:0:0:
166,168,28739,1,0,0:0:0:0:
173,116,28848,1,8,0:0:0:0:
166,168,28903,1,8,0:0:0:0:
166,168,28958,1,8,0:0:0:0:
166,61,29013,1,8,0:0:0:0:
166,168,29067,1,0,0:0:0:0:
165,102,29177,1,0,0:0:0:0:
166,168,29286,1,8,0:0:0:0:
166,168,29396,1,0,0:0:0:0:
166,168,29505,1,8,0:0:0:0:
165,176,29560,1,0,0:0:0:0:
165,178,29615,1,0,0:0:0:0:
173,116,29724,1,8,0:0:0:0:
173,116,29834,1,8,0:0:0:0:
162,179,29943,1,0,0:0:0:0:
162,179,29998,1,0,0:0:0:0:
162,179,30053,1,0,0:0:0:0:
161,187,30162,1,8,0:0:0:0:
161,188,30272,1,8,0:0:0:0:
161,187,30327,1,8,0:0:0:0:
179,112,30381,1,0,0:0:0:0:
161,188,30491,1,0,0:0:0:0:
173,116,30600,1,8,0:0:0:0:
161,193,30819,1,0,0:0:0:0:
165,102,30929,1,0,0:0:0:0:
161,193,31038,1,8,0:0:0:0:
161,193,31148,1,0,0:0:0:0:
161,193,31257,1,8,0:0:0:0:
161,193,31312,1,0,0:0:0:0:
161,193,31367,1,0,0:0:0:0:
173,116,31476,1,8,0:0:0:0:
173,116,31586,1,8,0:0:0:0:
161,195,31695,1,0,0:0:0:0:
161,195,31750,1,0,0:0:0:0:
161,195,31805,1,0,0:0:0:0:
161,203,31914,1,8,0:0:0:0:
159,205,32024,1,8,0:0:0:0:
161,203,32133,1,0,0:0:0:0:
159,205,32243,1,0,0:0:0:0:
173,116,32352,1,8,0:0:0:0:
159,205,32407,1,8,0:0:0:0:
160,216,32462,1,8,0:0:0:0:
156,71,32516,1,8,0:0:0:0:
160,216,32571,1,0,0:0:0:0:
173,81,32681,1,0,0:0:0:0:
149,153,32790,1,8,0:0:0:0:
150,163,32900,1,0,0:0:0:0:
151,168,33009,1,8,0:0:0:0:
166,76,33064,1,0,0:0:0:0:
150,163,33118,1,0,0:0:0:0:
173,116,33228,1,8,0:0:0:0:
173,116,33337,1,8,0:0:0:0:
201,99,33447,1,0,0:0:0:0:
166,77,33556,1,0,0:0:0:0:
166,77,33611,1,0,0:0:0:0:
166,77,33666,1,8,0:0:0:0:
160,49,33775,1,8,0:0:0:0:
160,53,33830,1,8,0:0:0:0:
181,67,33885,1,0,0:0:0:0:
166,83,33994,1,0,0:0:0:0:
193,152,34104,1,8,0:0:0:0:
176,81,34323,1,4,0:0:0:0:
176,81,34542,1,4,0:0:0:0:
176,81,34761,1,8,0:0:0:0:
176,151,34870,1,8,0:0:0:0:
176,151,34980,1,0,0:0:0:0:
186,81,35089,1,8,0:0:0:0:
185,88,35199,1,0,0:0:0:0:
185,88,35308,1,0,0:0:0:0:
185,88,35418,1,8,0:0:0:0:
176,151,35527,1,8,0:0:0:0:
174,98,35637,1,0,0:0:0:0:
185,88,35856,1,8,0:0:0:0:
174,98,36075,1,4,0:0:0:0:
174,98,36294,1,4,0:0:0:0:
174,98,36513,1,0,0:0:0:0:
165,82,36622,1,0,0:0:0:0:
185,88,36732,1,8,0:0:0:0:
174,98,36841,1,8,0:0:0:0:
156,133,36951,1,0,0:0:0:0:
165,82,37060,1,0,0:0:0:0:
185,88,37170,1,8,0:0:0:0:
142,102,37279,1,0,0:0:0:0:
174,189,37389,1,0,0:0:0:0:
158,85,37608,1,8,0:0:0:0:
160,118,37827,1,4,0:0:0:0:
160,118,38046,1,4,0:0:0:0:
167,179,38264,1,8,0:0:0:0:
167,179,38374,1,0,0:0:0:0:
167,179,38483,1,8,0:0:0:0:
167,179,38593,1,8,0:0:0:0:
165,188,38702,1,0,0:0:0:0:
174,145,38812,1,0,0:0:0:0:
176,152,38921,1,8,0:0:0:0:
183,96,39031,1,0,0:0:0:0:
229,158,39140,1,0,0:0:0:0:
157,92,39359,1,8,0:0:0:0:
157,92,39578,1,4,0:0:0:0:
157,92,39797,1,4,0:0:0:0:
157,92,40016,1,0,0:0:0:0:
164,58,40126,1,0,0:0:0:0:
164,67,40235,1,8,0:0:0:0:
171,74,40345,1,0,0:0:0:0:
171,74,40454,1,0,0:0:0:0:
171,74,40564,1,0,0:0:0:0:
153,122,40673,1,8,0:0:0:0:
153,122,40783,1,8,0:0:0:0:
153,122,40892,1,0,0:0:0:0:
153,122,41111,1,8,0:0:0:0:
168,105,41330,1,4,0:0:0:0:
168,105,41549,1,4,0:0:0:0:
183,96,41768,1,8,0:0:0:0:
183,96,41987,1,8,0:0:0:0:
168,105,42206,1,4,0:0:0:0:
168,105,42425,1,4,0:0:0:0:
183,96,42644,1,8,0:0:0:0:
183,96,42863,1,8,0:0:0:0:
168,105,43082,1,4,0:0:0:0:
181,111,43301,1,4,0:0:0:0:
183,96,43520,1,8,0:0:0:0:
183,96,43739,1,8,0:0:0:0:
168,105,43958,1,4,0:0:0:0:
168,105,44177,1,4,0:0:0:0:
181,111,44396,1,8,0:0:0:0:
181,111,44615,1,0,0:0:0:0:
168,105,44834,1,4,0:0:0:0:
181,111,45053,1,8,0:0:0:0:
168,105,45272,1,4,0:0:0:0:
181,111,45491,1,8,0:0:0:0:
168,105,45710,1,4,0:0:0:0:
181,111,45929,1,8,0:0:0:0:
168,106,46148,1,4,0:0:0:0:
181,111,46367,1,8,0:0:0:0:
168,106,46586,1,4,0:0:0:0:
146,108,46805,1,4,0:0:0:0:
149,117,47024,1,4,0:0:0:0:
209,120,47243,1,4,0:0:0:0:
159,107,47462,1,0,0:0:0:0:
178,152,47571,1,8,0:0:0:0:
178,152,47681,1,0,0:0:0:0:
178,152,47900,1,8,0:0:0:0:
163,107,48009,1,0,0:0:0:0:
163,124,48118,1,8,0:0:0:0:
162,130,48228,1,8,0:0:0:0:
198,217,48337,1,4,0:0:0:0:
183,117,48556,1,0,0:0:0:0:
186,123,48775,1,0,0:0:0:0:
209,88,48994,1,0,0:0:0:0:
209,88,49213,1,8,0:0:0:0:
183,117,49432,1,0,0:0:0:0:
207,91,49651,1,8,0:0:0:0:
207,91,49870,1,8,0:0:0:0:
207,91,50089,1,8,0:0:0:0:
176,106,50308,1,0,0:0:0:0:
207,91,50527,1,8,0:0:0:0:
207,91,50746,1,8,0:0:0:0:
167,181,50965,1,0,0:0:0:0:
176,106,51184,1,0,0:0:0:0:
207,91,51403,1,8,0:0:0:0:
176,106,51622,1,0,0:0:0:0:
167,181,51841,1,8,0:0:0:0:
176,106,52060,1,0,0:0:0:0:
176,106,52279,1,0,0:0:0:0:
176,106,52498,1,0,0:0:0:0:
168,107,52717,1,8,0:0:0:0:
176,106,52936,1,0,0:0:0:0:
176,106,53155,1,0,0:0:0:0:
175,102,53374,1,8,0:0:0:0:
175,102,53593,1,8,0:0:0:0:
175,102,53812,1,0,0:0:0:0:
175,102,54031,1,8,0:0:0:0:
175,102,54250,1,8,0:0:0:0:
175,102,54469,1,8,0:0:0:0:
175,102,54688,1,0,0:0:0:0:
175,102,54907,1,8,0:0:0:0:
173,78,55126,1,8,0:0:0:0:
176,106,55345,1,4,0:0:0:0:
186,135,55564,1,0,0:0:0:0:
202,127,55783,1,0,0:0:0:0:
176,106,56002,1,8,0:0:0:0:
176,106,56221,1,8,0:0:0:0:
202,127,56440,1,0,0:0:0:0:
221,73,56659,1,0,0:0:0:0:
176,106,56878,1,8,0:0:0:0:
181,94,57097,1,8,0:0:0:0:
221,73,57316,1,0,0:0:0:0:
156,52,57535,1,8,0:0:0:0:
175,79,57754,1,8,0:0:0:0:
221,74,57973,1,0,0:0:0:0:
192,112,58191,1,8,0:0:0:0:
192,112,58410,1,8,0:0:0:0:
201,173,58629,1,0,0:0:0:0:
201,173,58848,1,8,0:0:0:0:
201,173,59724,1,0,0:0:0:0:
201,173,60600,1,8,0:0:0:0:
213,77,61914,1,6,0:0:0:0:
142,127,62352,1,4,0:0:0:0:
205,117,62571,1,8,0:0:0:0:
205,117,62681,1,0,0:0:0:0:
205,117,62790,1,8,0:0:0:0:
205,117,62845,1,0,0:0:0:0:
205,117,62900,1,0,0:0:0:0:
205,117,63009,1,8,0:0:0:0:
152,178,63118,1,8,0:0:0:0:
205,117,63228,1,0,0:0:0:0:
205,117,63283,1,0,0:0:0:0:
205,117,63337,1,8,0:0:0:0:
205,117,63447,1,8,0:0:0:0:
205,117,63502,1,8,0:0:0:0:
199,121,63556,1,0,0:0:0:0:
199,123,63666,1,8,0:0:0:0:
199,121,63775,1,0,0:0:0:0:
205,117,63885,1,8,0:0:0:0:
189,120,63940,1,0,0:0:0:0:
189,122,63994,1,8,0:0:0:0:
197,134,64104,1,0,0:0:0:0:
205,117,64323,1,8,0:0:0:0:
197,134,64432,1,0,0:0:0:0:
197,140,64487,1,0,0:0:0:0:
197,140,64542,1,8,0:0:0:0:
197,134,64651,1,0,0:0:0:0:
205,117,64761,1,8,0:0:0:0:
197,134,64816,1,8,0:0:0:0:
197,134,64870,1,0,0:0:0:0:
162,158,64925,1,0,0:0:0:0:
197,140,64980,1,8,0:0:0:0:
197,134,65089,1,0,0:0:0:0:
205,117,65199,1,8,0:0:0:0:
189,120,65254,1,8,0:0:0:0:
197,134,65308,1,0,0:0:0:0:
197,140,65418,1,8,0:0:0:0:
197,134,65527,1,0,0:0:0:0:
197,140,65637,1,8,0:0:0:0:
197,134,65691,1,0,0:0:0:0:
197,134,65746,1,8,0:0:0:0:
197,140,65801,1,8,0:0:0:0:
197,140,65856,1,0,0:0:0:0:
197,140,66075,1,8,0:0:0:0:
197,140,66184,1,0,0:0:0:0:
197,140,66239,1,0,0:0:0:0:
197,140,66294,1,8,0:0:0:0:
197,140,66403,1,0,0:0:0:0:
197,140,66513,1,8,0:0:0:0:
186,97,66622,1,8,0:0:0:0:
186,97,66732,1,0,0:0:0:0:
162,158,66786,1,0,0:0:0:0:
162,158,66841,1,0,0:0:0:0:
180,104,66951,1,8,0:0:0:0:
161,132,67060,1,0,0:0:0:0:
156,166,67115,1,8,0:0:0:0:
156,166,67170,1,0,0:0:0:0:
162,158,67279,1,0,0:0:0:0:
171,132,67389,1,8,0:0:0:0:
162,158,67443,1,8,0:0:0:0:
162,158,67498,1,0,0:0:0:0:
164,163,67608,1,0,0:0:0:0:
164,163,67772,1,0,0:0:0:0:
171,132,67827,1,8,0:0:0:0:
164,163,67936,1,0,0:0:0:0:
164,163,68046,1,8,0:0:0:0:
164,163,68100,1,8,0:0:0:0:
164,163,68155,1,0,0:0:0:0:
171,132,68264,1,8,0:0:0:0:
176,72,68374,1,8,0:0:0:0:
176,72,68483,1,0,0:0:0:0:
154,123,68702,1,8,0:0:0:0:
164,164,68812,1,8,0:0:0:0:
164,164,68921,1,0,0:0:0:0:
143,192,68976,1,0,0:0:0:0:
164,164,69031,1,0,0:0:0:0:
171,132,69140,1,8,0:0:0:0:
191,76,69250,1,0,0:0:0:0:
164,164,69359,1,0,0:0:0:0:
153,97,69688,1,0,0:0:0:0:
164,164,69797,1,6,0:0:0:0:
164,164,70016,1,8,0:0:0:0:
205,117,70235,1,0,0:0:0:0:
205,117,70290,1,0,0:0:0:0:
205,117,70345,1,8,0:0:0:0:
205,117,70454,1,8,0:0:0:0:
205,117,70509,1,8,0:0:0:0:
199,121,70564,1,0,0:0:0:0:
199,123,70673,1,8,0:0:0:0:
199,121,70783,1,0,0:0:0:0:
205,117,70892,1,8,0:0:0:0:
189,120,70947,1,0,0:0:0:0:
189,122,71002,1,8,0:0:0:0:
197,134,71111,1,0,0:0:0:0:
176,121,71275,1,0,0:0:0:0:
205,117,71330,1,8,0:0:0:0:
197,134,71440,1,0,0:0:0:0:
197,140,71494,1,0,0:0:0:0:
197,140,71549,1,8,0:0:0:0:
197,134,71659,1,0,0:0:0:0:
205,117,71768,1,8,0:0:0:0:
197,134,71823,1,8,0:0:0:0:
197,134,71878,1,0,0:0:0:0:
162,158,71932,1,0,0:0:0:0:
197,140,71987,1,8,0:0:0:0:
197,134,72097,1,0,0:0:0:0:
205,117,72206,1,8,0:0:0:0:
189,120,72261,1,8,0:0:0:0:
197,134,72316,1,0,0:0:0:0:
197,140,72425,1,8,0:0:0:0:
197,134,72535,1,0,0:0:0:0:
197,140,72589,1,0,0:0:0:0:
159,67,72644,1,8,0:0:0:0:
197,134,72699,1,0,0:0:0:0:
197,134,72754,1,8,0:0:0:0:
197,140,72808,1,8,0:0:0:0:
197,140,72863,1,0,0:0:0:0:
197,140,73082,1,8,0:0:0:0:
197,140,73191,1,0,0:0:0:0:
197,140,73246,1,0,0:0:0:0:
197,140,73301,1,8,0:0:0:0:
197,140,73410,1,0,0:0:0:0:
197,140,73520,1,8,0:0:0:0:
186,97,73629,1,8,0:0:0:0:
155,99,73739,1,4,0:0:0:0:
155,96,73958,1,4,0:0:0:0:
155,96,74177,1,8,0:0:0:0:
155,96,74286,1,8,0:0:0:0:
153,104,74396,1,8,0:0:0:0:
153,112,74505,1,8,0:0:0:0:
193,166,74615,1,4,0:0:0:0:
176,102,74834,1,8,0:0:0:0:
169,153,74943,1,0,0:0:0:0:
169,153,75053,1,8,0:0:0:0:
169,153,75108,1,0,0:0:0:0:
169,153,75162,1,0,0:0:0:0:
176,103,75272,1,8,0:0:0:0:
173,116,75381,1,8,0:0:0:0:
168,158,75491,1,0,0:0:0:0:
168,158,75545,1,0,0:0:0:0:
168,158,75600,1,0,0:0:0:0:
167,165,75710,1,8,0:0:0:0:
166,168,75819,1,8,0:0:0:0:
167,165,75929,1,0,0:0:0:0:
166,168,76038,1,0,0:0:0:0:
173,116,76148,1,8,0:0:0:0:
166,168,76202,1,8,0:0:0:0:
166,168,76257,1,8,0:0:0:0:
155,128,76312,1,8,0:0:0:0:
166,168,76367,1,0,0:0:0:0:
166,168,76586,1,8,0:0:0:0:
166,168,76695,1,0,0:0:0:0:
166,168,76805,1,8,0:0:0:0:
165,176,76859,1,0,0:0:0:0:
165,178,76914,1,0,0:0:0:0:
173,116,77024,1,8,0:0:0:0:
173,116,77133,1,8,0:0:0:0:
162,179,77243,1,0,0:0:0:0:
162,179,77297,1,0,0:0:0:0:
162,179,77352,1,0,0:0:0:0:
170,138,77407,1,0,0:0:0:0:
161,187,77462,1,8,0:0:0:0:
170,126,77571,1,8,0:0:0:0:
170,126,77626,1,8,0:0:0:0:
179,112,77681,1,0,0:0:0:0:
161,188,77790,1,0,0:0:0:0:
173,116,77900,1,8,0:0:0:0:
178,149,77954,1,0,0:0:0:0:
178,149,78009,1,8,0:0:0:0:
178,149,78064,1,8,0:0:0:0:
161,193,78118,1,0,0:0:0:0:
161,193,78337,1,8,0:0:0:0:
161,193,78447,1,0,0:0:0:0:
161,193,78556,1,8,0:0:0:0:
161,193,78611,1,0,0:0:0:0:
161,193,78666,1,0,0:0:0:0:
173,116,78775,1,8,0:0:0:0:
173,116,78885,1,8,0:0:0:0:
161,195,78994,1,0,0:0:0:0:
161,195,79049,1,0,0:0:0:0:
161,195,79104,1,0,0:0:0:0:
161,203,79213,1,8,0:0:0:0:
159,205,79323,1,8,0:0:0:0:
161,203,79432,1,0,0:0:0:0:
159,205,79542,1,0,0:0:0:0:
173,116,79651,1,8,0:0:0:0:
159,205,79706,1,8,0:0:0:0:
160,216,79761,1,8,0:0:0:0:
155,128,79816,1,8,0:0:0:0:
160,216,79870,1,0,0:0:0:0:
149,153,80089,1,8,0:0:0:0:
150,163,80199,1,0,0:0:0:0:
151,168,80308,1,8,0:0:0:0:
166,76,80363,1,0,0:0:0:0:
150,163,80418,1,0,0:0:0:0:
173,116,80527,1,8,0:0:0:0:
173,116,80637,1,8,0:0:0:0:
201,99,80746,1,0,0:0:0:0:
161,102,80856,1,0,0:0:0:0:
157,115,80965,1,8,0:0:0:0:
157,117,81075,1,0,0:0:0:0:
157,115,81184,1,8,0:0:0:0:
157,117,81294,1,8,0:0:0:0:
156,122,81403,1,0,0:0:0:0:
156,125,81513,1,8,0:0:0:0:
176,102,81622,5,4,0:0:0:0:
176,102,81841,1,8,0:0:0:0:
169,153,81951,1,0,0:0:0:0:
169,153,82060,1,8,0:0:0:0:
169,153,82115,1,0,0:0:0:0:
169,153,82170,1,0,0:0:0:0:
176,103,82279,1,8,0:0:0:0:
173,116,82389,1,8,0:0:0:0:
168,158,82498,1,0,0:0:0:0:
168,158,82553,1,0,0:0:0:0:
168,158,82608,1,0,0:0:0:0:
167,165,82717,1,8,0:0:0:0:
166,168,82827,1,8,0:0:0:0:
167,165,82936,1,0,0:0:0:0:
166,168,83045,1,0,0:0:0:0:
173,116,83155,1,8,0:0:0:0:
166,168,83210,1,8,0:0:0:0:
166,168,83264,1,8,0:0:0:0:
156,125,83319,1,8,0:0:0:0:
166,168,83374,1,0,0:0:0:0:
165,102,83483,1,0,0:0:0:0:
166,168,83593,1,8,0:0:0:0:
166,168,83702,1,0,0:0:0:0:
166,168,83812,1,8,0:0:0:0:
165,176,83867,1,0,0:0:0:0:
165,178,83921,1,0,0:0:0:0:
173,116,84031,1,8,0:0:0:0:
173,116,84140,1,8,0:0:0:0:
162,179,84250,1,0,0:0:0:0:
162,179,84305,1,0,0:0:0:0:
162,179,84359,1,0,0:0:0:0:
172,117,84414,1,0,0:0:0:0:
161,187,84469,1,8,0:0:0:0:
161,188,84578,1,8,0:0:0:0:
161,187,84633,1,8,0:0:0:0:
179,112,84688,1,0,0:0:0:0:
161,188,84797,1,0,0:0:0:0:
173,116,84907,1,8,0:0:0:0:
155,128,84962,1,0,0:0:0:0:
155,128,85016,1,8,0:0:0:0:
155,128,85071,1,8,0:0:0:0:
161,193,85126,1,0,0:0:0:0:
165,102,85235,1,0,0:0:0:0:
161,193,85345,1,8,0:0:0:0:
161,193,85454,1,0,0:0:0:0:
161,193,85564,1,8,0:0:0:0:
161,193,85618,1,0,0:0:0:0:
161,193,85673,1,0,0:0:0:0:
173,116,85783,1,8,0:0:0:0:
173,116,85892,1,8,0:0:0:0:
161,195,86002,1,0,0:0:0:0:
161,195,86056,1,0,0:0:0:0:
161,195,86111,1,0,0:0:0:0:
161,203,86221,1,8,0:0:0:0:
159,205,86330,1,8,0:0:0:0:
162,178,86385,1,8,0:0:0:0:
161,203,86440,1,0,0:0:0:0:
159,205,86549,1,0,0:0:0:0:
173,116,86659,1,8,0:0:0:0:
159,205,86713,1,8,0:0:0:0:
160,216,86768,1,8,0:0:0:0:
143,83,86823,1,8,0:0:0:0:
160,216,86878,1,0,0:0:0:0:
173,81,86987,1,0,0:0:0:0:
149,153,87097,1,8,0:0:0:0:
150,163,87206,1,0,0:0:0:0:
151,168,87316,1,8,0:0:0:0:
166,76,87370,1,0,0:0:0:0:
150,163,87425,1,0,0:0:0:0:
173,116,87535,1,8,0:0:0:0:
173,116,87644,1,8,0:0:0:0:
201,99,87754,1,0,0:0:0:0:
166,77,87863,1,0,0:0:0:0:
166,77,87918,1,0,0:0:0:0:
166,77,87973,1,8,0:0:0:0:
160,49,88082,1,8,0:0:0:0:
160,53,88137,1,8,0:0:0:0:
181,67,88191,1,0,0:0:0:0:
166,83,88301,1,0,0:0:0:0:
193,152,88410,1,8,0:0:0:0:
155,128,88520,1,8,0:0:0:0:
176,81,88629,1,4,0:0:0:0:
175,173,88848,1,0,0:0:0:0:
131,110,88958,1,8,0:0:0:0:
181,117,89067,1,0,0:0:0:0:
155,128,89286,1,8,0:0:0:0:
201,127,89396,1,0,0:0:0:0:
184,165,89505,1,0,0:0:0:0:
171,168,89615,1,0,0:0:0:0:
155,128,89724,1,8,0:0:0:0:
174,112,89834,1,0,0:0:0:0:
166,83,89943,1,8,0:0:0:0:
175,173,90162,1,8,0:0:0:0:
161,128,90272,1,8,0:0:0:0:
161,128,90381,1,0,0:0:0:0:
155,128,90600,1,8,0:0:0:0:
171,148,90710,1,8,0:0:0:0:
161,128,90819,1,0,0:0:0:0:
186,70,90929,1,8,0:0:0:0:
192,160,91148,1,8,0:0:0:0:
192,160,91257,1,0,0:0:0:0:
146,134,91367,1,0,0:0:0:0:
155,128,91476,1,8,0:0:0:0:
175,82,91586,1,8,0:0:0:0:
181,133,91695,1,0,0:0:0:0:
193,129,91805,1,0,0:0:0:0:
181,163,91914,1,8,0:0:0:0:
167,119,92133,1,0,0:0:0:0:
175,173,92352,1,0,0:0:0:0:
131,110,92462,1,8,0:0:0:0:
131,110,92571,1,0,0:0:0:0:
196,94,92790,1,0,0:0:0:0:
168,136,92900,1,8,0:0:0:0:
168,136,93009,1,0,0:0:0:0:
181,107,93118,1,0,0:0:0:0:
181,107,93228,1,8,0:0:0:0:
168,136,93337,1,0,0:0:0:0:
168,136,93447,1,8,0:0:0:0:
175,173,93666,1,8,0:0:0:0:
206,148,93775,1,8,0:0:0:0:
168,64,93885,1,0,0:0:0:0:
155,128,94104,1,8,0:0:0:0:
211,170,94213,1,0,0:0:0:0:
170,92,94323,1,0,0:0:0:0:
168,101,94432,1,0,0:0:0:0:
155,128,94542,1,8,0:0:0:0:
211,170,94651,1,8,0:0:0:0:
262,136,94761,1,0,0:0:0:0:
100,87,94980,1,8,0:0:0:0:
176,88,95089,1,0,0:0:0:0:
214,125,95144,1,0,0:0:0:0:
189,117,95199,1,8,0:0:0:0:
214,125,95418,1,8,0:0:0:0:
209,172,95637,1,4,0:0:0:0:
199,109,95856,1,8,0:0:0:0:
157,57,95965,1,0,0:0:0:0:
199,109,96075,1,8,0:0:0:0:
171,79,96294,1,8,0:0:0:0:
197,86,96403,1,8,0:0:0:0:
214,156,96513,1,0,0:0:0:0:
195,118,96622,1,0,0:0:0:0:
171,79,96732,1,8,0:0:0:0:
163,132,96841,1,0,0:0:0:0:
163,133,96951,1,0,0:0:0:0:
170,144,97060,1,0,0:0:0:0:
170,144,97170,1,8,0:0:0:0:
211,165,97389,1,0,0:0:0:0:
161,100,97498,1,0,0:0:0:0:
189,136,97608,1,8,0:0:0:0:
113,139,97717,1,0,0:0:0:0:
176,95,97827,1,8,0:0:0:0:
113,139,98045,1,8,0:0:0:0:
113,139,98155,1,8,0:0:0:0:
189,136,98264,1,0,0:0:0:0:
201,190,98374,1,8,0:0:0:0:
156,65,98593,1,0,0:0:0:0:
189,136,98702,1,8,0:0:0:0:
156,65,98812,1,8,0:0:0:0:
226,173,98921,1,0,0:0:0:0:
163,85,99140,1,0,0:0:0:0:
161,100,99250,1,8,0:0:0:0:
172,143,99359,1,8,0:0:0:0:
161,100,99469,1,0,0:0:0:0:
172,143,99578,1,8,0:0:0:0:
171,79,99797,1,8,0:0:0:0:
172,152,99907,1,8,0:0:0:0:
172,152,100016,1,0,0:0:0:0:
175,171,100126,1,0,0:0:0:0:
172,143,100235,1,8,0:0:0:0:
175,173,100345,1,0,0:0:0:0:
189,136,100454,1,8,0:0:0:0:
141,130,100673,1,8,0:0:0:0:
173,141,100783,1,0,0:0:0:0:
173,141,100892,1,12,0:0:0:0:
175,171,101111,1,0,0:0:0:0:
158,79,101221,1,0,0:0:0:0:
162,145,101330,1,8,0:0:0:0:
175,171,101440,1,8,0:0:0:0:
175,171,101549,1,0,0:0:0:0:
162,145,101659,1,0,0:0:0:0:
162,145,101768,1,8,0:0:0:0:
209,124,101987,1,8,0:0:0:0:
162,145,102097,1,8,0:0:0:0:
162,145,102206,1,0,0:0:0:0:
209,124,102316,1,8,0:0:0:0:
161,96,102425,1,0,0:0:0:0:
176,81,102644,1,4,0:0:0:0:
176,81,102863,1,4,0:0:0:0:
176,81,103082,1,8,0:0:0:0:
222,195,103191,1,8,0:0:0:0:
222,195,103301,1,0,0:0:0:0:
186,81,103410,1,8,0:0:0:0:
185,88,103520,1,0,0:0:0:0:
185,88,103629,1,0,0:0:0:0:
185,88,103739,1,8,0:0:0:0:
222,198,103848,1,8,0:0:0:0:
174,98,103958,1,0,0:0:0:0:
144,127,104067,1,0,0:0:0:0:
185,88,104177,1,8,0:0:0:0:
174,98,104396,1,4,0:0:0:0:
174,98,104615,1,4,0:0:0:0:
174,98,104834,1,0,0:0:0:0:
165,82,104943,1,0,0:0:0:0:
185,88,105053,1,8,0:0:0:0:
174,98,105162,1,8,0:0:0:0:
156,133,105272,1,0,0:0:0:0:
165,82,105381,1,0,0:0:0:0:
185,88,105491,1,8,0:0:0:0:
142,102,105600,1,0,0:0:0:0:
191,144,105710,1,0,0:0:0:0:
191,144,105819,1,0,0:0:0:0:
191,144,105929,1,8,0:0:0:0:
160,118,106148,1,4,0:0:0:0:
160,118,106367,1,4,0:0:0:0:
167,179,106586,1,8,0:0:0:0:
167,179,106695,1,0,0:0:0:0:
167,179,106805,1,8,0:0:0:0:
167,179,106914,1,8,0:0:0:0:
165,188,107024,1,0,0:0:0:0:
222,198,107133,1,0,0:0:0:0:
222,198,107243,1,8,0:0:0:0:
222,198,107352,1,8,0:0:0:0:
191,143,107462,1,0,0:0:0:0:
191,143,107571,1,0,0:0:0:0:
157,92,107681,1,8,0:0:0:0:
157,92,107900,1,4,0:0:0:0:
157,92,108118,1,4,0:0:0:0:
157,92,108337,1,0,0:0:0:0:
164,58,108447,1,0,0:0:0:0:
164,67,108556,1,8,0:0:0:0:
171,74,108666,1,0,0:0:0:0:
171,74,108775,1,0,0:0:0:0:
171,74,108885,1,0,0:0:0:0:
153,122,108994,1,8,0:0:0:0:
153,122,109104,1,8,0:0:0:0:
153,122,109213,1,0,0:0:0:0:
191,143,109323,1,0,0:0:0:0:
153,122,109432,1,8,0:0:0:0:
168,105,109651,1,4,0:0:0:0:
168,105,109870,1,4,0:0:0:0:
183,96,110089,1,8,0:0:0:0:
183,96,110308,1,8,0:0:0:0:
168,105,110527,1,4,0:0:0:0:
168,105,110746,1,4,0:0:0:0:
183,96,110965,1,8,0:0:0:0:
183,96,111184,1,8,0:0:0:0:
168,105,111403,1,4,0:0:0:0:
181,111,111622,1,4,0:0:0:0:
183,96,111841,1,8,0:0:0:0:
183,96,112060,1,8,0:0:0:0:
168,105,112279,1,4,0:0:0:0:
168,105,112498,1,4,0:0:0:0:
181,111,112717,1,8,0:0:0:0:
181,111,112936,1,0,0:0:0:0:
168,105,113155,1,4,0:0:0:0:
181,111,113374,1,8,0:0:0:0:
168,105,113593,1,4,0:0:0:0:
181,111,113812,1,8,0:0:0:0:
168,105,114031,1,4,0:0:0:0:
181,111,114250,1,8,0:0:0:0:
168,106,114469,1,4,0:0:0:0:
181,111,114688,1,8,0:0:0:0:
168,106,114907,1,4,0:0:0:0:
206,79,115126,1,4,0:0:0:0:
201,85,115345,1,4,0:0:0:0:
201,85,115564,1,4,0:0:0:0:
207,170,115783,1,0,0:0:0:0:
178,152,115892,1,8,0:0:0:0:
178,152,116002,1,0,0:0:0:0:
178,152,116221,1,8,0:0:0:0:
163,107,116330,1,0,0:0:0:0:
163,124,116440,1,8,0:0:0:0:
162,130,116549,1,8,0:0:0:0:
201,175,116659,1,4,0:0:0:0:
236,163,122790,5,0,0:0:0:0:
236,163,123118,1,0,0:0:0:0:
237,170,123173,1,0,0:0:0:0:
237,170,123228,1,8,0:0:0:0:
237,170,123447,1,0,0:0:0:0:
185,82,123666,1,14,0:0:0:0:
199,146,123885,1,0,0:0:0:0:
201,116,124104,1,0,0:0:0:0:
186,152,124213,1,8,0:0:0:0:
186,152,124323,1,0,0:0:0:0:
199,146,124432,1,0,0:0:0:0:
193,112,124542,1,14,0:0:0:0:
201,129,124761,1,0,0:0:0:0:
201,129,124870,1,0,0:0:0:0:
201,129,124980,1,8,0:0:0:0:
201,129,125089,1,8,0:0:0:0:
201,129,125199,1,0,0:0:0:0:
193,112,125418,1,14,0:0:0:0:
201,129,125637,1,0,0:0:0:0:
201,129,125856,1,8,0:0:0:0:
201,129,125965,1,8,0:0:0:0:
201,129,126075,1,0,0:0:0:0:
199,146,126184,1,0,0:0:0:0:
193,112,126294,1,14,0:0:0:0:
180,144,126513,1,8,0:0:0:0:
151,112,126622,1,0,0:0:0:0:
151,112,126732,1,8,0:0:0:0:
181,112,126841,1,8,0:0:0:0:
181,107,126951,1,0,0:0:0:0:
151,112,127060,1,0,0:0:0:0:
193,112,127170,1,14,0:0:0:0:
151,112,127389,1,0,0:0:0:0:
180,144,127608,1,0,0:0:0:0:
180,99,127717,1,8,0:0:0:0:
170,114,127827,1,0,0:0:0:0:
186,168,127936,1,0,0:0:0:0:
193,112,128045,1,14,0:0:0:0:
180,99,128264,1,0,0:0:0:0:
187,93,128483,1,8,0:0:0:0:
187,93,128593,1,8,0:0:0:0:
182,108,128702,1,0,0:0:0:0:
182,108,128812,1,0,0:0:0:0:
193,112,128921,1,14,0:0:0:0:
182,108,129140,1,0,0:0:0:0:
182,108,129250,1,0,0:0:0:0:
182,108,129359,1,8,0:0:0:0:
182,108,129469,1,0,0:0:0:0:
182,108,129578,1,8,0:0:0:0:
182,108,129688,1,8,0:0:0:0:
182,108,129797,1,0,0:0:0:0:
134,112,129943,1,8,0:0:0:0:
134,112,130089,1,8,0:0:0:0:
181,109,130235,1,0,0:0:0:0:
176,81,130673,1,4,0:0:0:0:
155,128,130892,1,8,0:0:0:0:
181,117,131111,1,0,0:0:0:0:
204,110,131221,1,0,0:0:0:0:
155,128,131330,1,8,0:0:0:0:
120,153,131440,1,8,0:0:0:0:
184,165,131549,1,0,0:0:0:0:
155,128,131768,1,8,0:0:0:0:
180,125,131878,1,0,0:0:0:0:
180,125,132097,1,0,0:0:0:0:
161,128,132206,1,8,0:0:0:0:
161,128,132316,1,8,0:0:0:0:
152,92,132425,1,4,0:0:0:0:
176,126,132644,1,4,0:0:0:0:
176,126,132863,1,4,0:0:0:0:
176,126,133082,1,4,0:0:0:0:
200,152,134176,5,0,0:0:0:0:
200,152,135051,1,0,0:0:0:0:
160,143,135927,1,8,0:0:0:0:
160,143,137679,1,8,0:0:0:0:
160,143,138555,1,8,0:0:0:0:
161,166,139431,1,0,0:0:0:0:
193,154,140635,1,0,0:0:0:0:
193,154,140690,1,0,0:0:0:0:
161,166,140745,1,8,0:0:0:0:
221,152,141183,1,4,0:0:0:0:
183,104,141511,1,0,0:0:0:0:
221,152,141620,1,8,0:0:0:0:
171,102,141839,1,0,0:0:0:0:
171,102,141949,1,8,0:0:0:0:
171,102,142058,1,0,0:0:0:0:
150,86,142168,1,0,0:0:0:0:
150,92,142277,1,8,0:0:0:0:
191,162,142387,1,0,0:0:0:0:
186,87,142496,1,8,0:0:0:0:
116,89,142715,1,0,0:0:0:0:
188,98,142825,1,8,0:0:0:0:
122,92,142934,1,0,0:0:0:0:
133,88,143263,1,0,0:0:0:0:
188,98,143372,1,8,0:0:0:0:
188,98,143591,1,8,0:0:0:0:
126,94,143701,1,8,0:0:0:0:
126,94,143810,1,0,0:0:0:0:
188,98,143920,1,8,0:0:0:0:
124,105,144029,1,0,0:0:0:0:
124,105,144139,1,0,0:0:0:0:
188,98,144248,1,8,0:0:0:0:
156,67,144467,1,8,0:0:0:0:
188,98,144577,1,8,0:0:0:0:
156,67,144686,1,0,0:0:0:0:
141,75,145999,1,8,0:0:0:0:
141,75,146218,1,8,0:0:0:0:
142,127,146437,1,4,0:0:0:0:
205,117,146656,1,8,0:0:0:0:
205,117,146766,1,0,0:0:0:0:
205,117,146875,1,8,0:0:0:0:
205,117,146930,1,0,0:0:0:0:
205,117,146985,1,0,0:0:0:0:
205,117,147094,1,8,0:0:0:0:
186,113,147204,1,8,0:0:0:0:
205,117,147313,1,0,0:0:0:0:
205,117,147368,1,0,0:0:0:0:
205,117,147423,1,8,0:0:0:0:
205,117,147532,1,8,0:0:0:0:
205,117,147587,1,8,0:0:0:0:
199,121,147642,1,0,0:0:0:0:
199,123,147751,1,8,0:0:0:0:
199,121,147861,1,0,0:0:0:0:
205,117,147970,1,8,0:0:0:0:
175,140,148025,1,8,0:0:0:0:
175,143,148080,1,0,0:0:0:0:
171,155,148134,1,8,0:0:0:0:
197,134,148189,1,0,0:0:0:0:
167,158,148299,1,0,0:0:0:0:
205,117,148408,1,8,0:0:0:0:
197,134,148518,1,0,0:0:0:0:
197,140,148572,1,0,0:0:0:0:
197,140,148627,1,8,0:0:0:0:
197,134,148737,1,0,0:0:0:0:
205,117,148846,1,8,0:0:0:0:
197,134,148901,1,8,0:0:0:0:
197,134,148956,1,0,0:0:0:0:
162,158,149010,1,0,0:0:0:0:
197,140,149065,1,8,0:0:0:0:
197,134,149175,1,0,0:0:0:0:
205,117,149284,1,8,0:0:0:0:
189,120,149339,1,8,0:0:0:0:
197,134,149394,1,0,0:0:0:0:
197,140,149503,1,8,0:0:0:0:
197,134,149613,1,0,0:0:0:0:
197,140,149722,1,8,0:0:0:0:
197,134,149777,1,0,0:0:0:0:
197,134,149832,1,8,0:0:0:0:
197,140,149886,1,8,0:0:0:0:
197,140,149941,1,0,0:0:0:0:
197,140,150160,1,8,0:0:0:0:
197,140,150270,1,0,0:0:0:0:
197,140,150324,1,0,0:0:0:0:
197,140,150379,1,8,0:0:0:0:
197,140,150489,1,0,0:0:0:0:
197,140,150598,1,8,0:0:0:0:
186,97,150707,1,8,0:0:0:0:
186,97,150817,1,0,0:0:0:0:
162,158,150872,1,0,0:0:0:0:
162,158,150926,1,0,0:0:0:0:
180,104,151036,1,8,0:0:0:0:
162,158,151145,1,0,0:0:0:0:
162,158,151200,1,8,0:0:0:0:
162,158,151255,1,0,0:0:0:0:
162,158,151364,1,0,0:0:0:0:
171,132,151474,1,8,0:0:0:0:
162,158,151529,1,8,0:0:0:0:
162,158,151583,1,0,0:0:0:0:
164,163,151693,1,0,0:0:0:0:
181,97,151802,1,0,0:0:0:0:
164,163,151857,1,0,0:0:0:0:
171,132,151912,1,8,0:0:0:0:
164,163,152021,1,0,0:0:0:0:
164,163,152131,1,8,0:0:0:0:
164,163,152186,1,8,0:0:0:0:
164,163,152240,1,0,0:0:0:0:
179,100,152295,1,0,0:0:0:0:
171,132,152350,1,8,0:0:0:0:
176,72,152459,1,8,0:0:0:0:
176,72,152569,1,0,0:0:0:0:
154,123,152788,1,8,0:0:0:0:
164,164,152897,1,8,0:0:0:0:
164,164,153007,1,0,0:0:0:0:
183,169,153062,1,0,0:0:0:0:
164,164,153116,1,0,0:0:0:0:
171,132,153226,1,8,0:0:0:0:
191,76,153335,1,0,0:0:0:0:
164,164,153445,1,0,0:0:0:0:
153,97,153773,1,0,0:0:0:0:
164,164,153883,1,6,0:0:0:0:
164,164,154102,1,8,0:0:0:0:
205,117,154321,1,0,0:0:0:0:
205,117,154375,1,0,0:0:0:0:
205,117,154430,1,8,0:0:0:0:
205,117,154540,1,8,0:0:0:0:
205,117,154594,1,8,0:0:0:0:
199,121,154649,1,0,0:0:0:0:
199,123,154759,1,8,0:0:0:0:
199,121,154868,1,0,0:0:0:0:
205,117,154978,1,8,0:0:0:0:
175,143,155032,1,8,0:0:0:0:
175,143,155087,1,0,0:0:0:0:
175,143,155142,1,8,0:0:0:0:
197,134,155197,1,0,0:0:0:0:
171,133,155306,1,0,0:0:0:0:
205,117,155416,1,8,0:0:0:0:
197,134,155525,1,0,0:0:0:0:
197,140,155580,1,0,0:0:0:0:
197,140,155634,1,8,0:0:0:0:
197,134,155744,1,0,0:0:0:0:
205,117,155853,1,8,0:0:0:0:
197,134,155908,1,8,0:0:0:0:
197,134,155963,1,0,0:0:0:0:
162,158,156018,1,0,0:0:0:0:
197,140,156072,1,8,0:0:0:0:
197,134,156182,1,0,0:0:0:0:
205,117,156291,1,8,0:0:0:0:
189,120,156346,1,8,0:0:0:0:
197,134,156401,1,0,0:0:0:0:
197,140,156510,1,8,0:0:0:0:
197,134,156620,1,0,0:0:0:0:
197,140,156675,1,0,0:0:0:0:
159,67,156729,1,8,0:0:0:0:
197,134,156784,1,0,0:0:0:0:
197,134,156839,1,8,0:0:0:0:
197,140,156894,1,8,0:0:0:0:
197,140,156948,1,0,0:0:0:0:
197,140,157167,1,8,0:0:0:0:
197,140,157277,1,0,0:0:0:0:
197,140,157332,1,0,0:0:0:0:
197,140,157386,1,8,0:0:0:0:
197,140,157496,1,0,0:0:0:0:
197,140,157605,1,8,0:0:0:0:
186,97,157715,1,8,0:0:0:0:
155,99,157824,1,4,0:0:0:0:
155,96,158043,1,4,0:0:0:0:
155,96,158262,1,8,0:0:0:0:
206,137,158700,1,4,0:0:0:0:
176,138,158919,1,8,0:0:0:0:
160,133,159029,1,0,0:0:0:0:
126,150,159138,1,0,0:0:0:0:
176,119,159193,1,0,0:0:0:0:
160,133,159248,1,0,0:0:0:0:
160,133,159357,1,8,0:0:0:0:
126,150,159467,1,0,0:0:0:0:
126,150,159576,1,8,0:0:0:0:
264,187,159631,1,8,0:0:0:0:
149,130,159686,1,0,0:0:0:0:
175,96,159795,1,8,0:0:0:0:
175,96,159905,1,0,0:0:0:0:
185,103,160124,1,0,0:0:0:0:
176,137,160233,1,8,0:0:0:0:
161,109,160452,1,0,0:0:0:0:
176,137,160671,1,8,0:0:0:0:
161,120,160780,1,0,0:0:0:0:
178,192,160890,1,0,0:0:0:0:
177,81,160945,1,0,0:0:0:0:
151,129,160999,1,0,0:0:0:0:
151,130,161109,1,8,0:0:0:0:
206,138,161218,1,8,0:0:0:0:
206,138,161328,1,0,0:0:0:0:
151,139,161437,1,0,0:0:0:0:
167,128,161492,1,0,0:0:0:0:
116,137,161547,1,8,0:0:0:0:
162,54,161602,1,8,0:0:0:0:
219,109,161656,1,0,0:0:0:0:
152,92,161766,1,8,0:0:0:0:
196,155,161875,1,0,0:0:0:0:
196,155,161985,1,8,0:0:0:0:
158,86,162040,1,8,0:0:0:0:
217,141,162094,1,8,0:0:0:0:
181,131,162149,1,8,0:0:0:0:
193,166,162204,1,0,0:0:0:0:
176,138,162423,1,8,0:0:0:0:
160,133,162532,1,0,0:0:0:0:
178,77,162642,1,8,0:0:0:0:
178,192,162697,1,0,0:0:0:0:
160,133,162751,1,0,0:0:0:0:
160,133,162861,1,8,0:0:0:0:
183,138,162970,1,0,0:0:0:0:
183,139,163080,1,8,0:0:0:0:
183,139,163134,1,8,0:0:0:0:
183,92,163189,1,0,0:0:0:0:
168,152,163244,1,0,0:0:0:0:
141,114,163299,1,8,0:0:0:0:
136,127,163408,1,0,0:0:0:0:
170,52,163627,1,0,0:0:0:0:
181,98,163737,1,8,0:0:0:0:
161,109,163956,1,0,0:0:0:0:
176,137,164175,1,8,0:0:0:0:
161,120,164284,1,0,0:0:0:0:
178,77,164394,1,8,0:0:0:0:
178,77,164448,1,0,0:0:0:0:
151,129,164503,1,0,0:0:0:0:
151,130,164613,1,8,0:0:0:0:
161,77,164722,1,8,0:0:0:0:
156,80,164832,1,0,0:0:0:0:
215,133,164886,1,0,0:0:0:0:
156,82,164941,1,8,0:0:0:0:
156,82,164996,1,0,0:0:0:0:
169,98,165051,1,8,0:0:0:0:
168,101,165160,1,0,0:0:0:0:
202,143,165270,1,8,0:0:0:0:
161,83,165379,1,8,0:0:0:0:
164,121,165489,1,0,0:0:0:0:
158,75,165707,1,4,0:0:0:0:
176,138,165926,1,8,0:0:0:0:
160,133,166036,1,0,0:0:0:0:
183,97,166145,1,0,0:0:0:0:
176,138,166200,1,0,0:0:0:0:
160,133,166255,1,0,0:0:0:0:
198,87,166310,1,0,0:0:0:0:
160,133,166364,1,8,0:0:0:0:
183,92,166474,1,8,0:0:0:0:
183,92,166583,1,0,0:0:0:0:
146,146,166638,1,0,0:0:0:0:
198,87,166693,1,0,0:0:0:0:
175,96,166802,1,8,0:0:0:0:
175,96,166912,1,0,0:0:0:0:
198,87,167021,1,8,0:0:0:0:
165,129,167076,1,0,0:0:0:0:
185,103,167131,1,0,0:0:0:0:
176,137,167240,1,8,0:0:0:0:
161,109,167459,1,0,0:0:0:0:
176,137,167678,1,8,0:0:0:0:
161,120,167788,1,0,0:0:0:0:
164,98,167897,1,0,0:0:0:0:
175,96,167952,1,0,0:0:0:0:
151,129,168007,1,0,0:0:0:0:
151,130,168116,1,8,0:0:0:0:
206,138,168226,1,8,0:0:0:0:
206,138,168335,1,0,0:0:0:0:
165,129,168445,1,0,0:0:0:0:
175,108,168499,1,0,0:0:0:0:
116,137,168554,1,8,0:0:0:0:
219,109,168664,1,0,0:0:0:0:
152,92,168773,1,8,0:0:0:0:
156,133,168828,1,8,0:0:0:0:
196,155,168883,1,0,0:0:0:0:
170,80,168937,1,0,0:0:0:0:
196,155,168992,1,8,0:0:0:0:
193,166,169211,1,0,0:0:0:0:
176,138,169430,1,8,0:0:0:0:
160,133,169540,1,0,0:0:0:0:
176,138,169649,1,8,0:0:0:0:
158,72,169704,1,0,0:0:0:0:
160,133,169759,1,0,0:0:0:0:
198,87,169813,1,0,0:0:0:0:
160,133,169868,1,8,0:0:0:0:
183,92,169978,1,8,0:0:0:0:
183,92,170087,1,0,0:0:0:0:
146,146,170142,1,0,0:0:0:0:
198,87,170197,1,8,0:0:0:0:
141,114,170306,1,8,0:0:0:0:
136,127,170416,1,0,0:0:0:0:
158,101,170470,1,0,0:0:0:0:
221,152,170525,1,0,0:0:0:0:
233,158,170634,1,0,0:0:0:0:
233,158,170744,1,8,0:0:0:0:
161,109,170963,1,0,0:0:0:0:
176,137,171182,1,8,0:0:0:0:
161,120,171291,1,0,0:0:0:0:
171,113,171401,1,8,0:0:0:0:
190,91,171456,1,0,0:0:0:0:
192,61,171510,1,0,0:0:0:0:
151,130,171620,1,8,0:0:0:0:
161,77,171729,1,8,0:0:0:0:
156,80,171839,1,0,0:0:0:0:
221,147,171894,1,0,0:0:0:0:
166,49,171948,1,8,0:0:0:0:
190,91,172003,1,0,0:0:0:0:
190,91,172058,1,8,0:0:0:0:
168,101,172167,1,0,0:0:0:0:
181,72,172715,1,4,0:0:0:0:
181,72,172934,1,4,0:0:0:0:
175,110,173153,1,0,0:0:0:0:
175,110,173262,1,0,0:0:0:0:
175,110,173372,1,8,0:0:0:0:
164,116,173591,1,0,0:0:0:0:
164,116,173700,1,0,0:0:0:0:
165,126,173810,1,8,0:0:0:0:
165,127,173919,1,0,0:0:0:0:
165,126,174029,1,0,0:0:0:0:
165,127,174138,1,0,0:0:0:0:
166,136,174248,1,8,0:0:0:0:
166,136,174467,1,4,0:0:0:0:
133,142,174686,1,4,0:0:0:0:
133,142,174905,1,0,0:0:0:0:
133,142,175014,1,0,0:0:0:0:
133,142,175124,1,8,0:0:0:0:
133,142,175343,1,0,0:0:0:0:
133,142,175452,1,0,0:0:0:0:
149,117,175562,1,8,0:0:0:0:
147,108,175671,1,8,0:0:0:0:
147,108,175780,1,0,0:0:0:0:
151,133,175890,1,0,0:0:0:0:
151,131,175999,1,8,0:0:0:0:
133,142,176218,1,4,0:0:0:0:
133,142,176437,1,4,0:0:0:0:
151,135,176656,1,0,0:0:0:0:
151,135,176766,1,0,0:0:0:0:
151,135,176875,1,8,0:0:0:0:
151,135,177094,1,0,0:0:0:0:
156,145,177204,1,0,0:0:0:0:
156,145,177313,1,8,0:0:0:0:
156,145,177423,1,0,0:0:0:0:
156,145,177532,1,0,0:0:0:0:
156,145,177642,1,0,0:0:0:0:
155,153,177751,1,8,0:0:0:0:
133,142,177970,5,4,0:0:0:0:
133,142,178189,1,4,0:0:0:0:
155,153,178408,1,0,0:0:0:0:
155,153,178518,1,0,0:0:0:0:
155,153,178627,1,8,0:0:0:0:
155,153,178846,1,0,0:0:0:0:
168,145,178956,1,0,0:0:0:0:
159,178,179065,1,8,0:0:0:0:
159,178,179175,1,0,0:0:0:0:
159,178,179284,1,8,0:0:0:0:
159,178,179394,1,0,0:0:0:0:
159,178,179503,1,8,0:0:0:0:
176,81,179722,5,4,0:0:0:0:
176,81,179941,1,4,0:0:0:0:
176,81,180160,1,8,0:0:0:0:
222,195,180270,1,8,0:0:0:0:
222,195,180379,1,0,0:0:0:0:
186,81,180489,1,8,0:0:0:0:
185,88,180598,1,0,0:0:0:0:
185,88,180707,1,0,0:0:0:0:
185,88,180817,1,8,0:0:0:0:
222,198,180926,1,8,0:0:0:0:
174,98,181036,1,0,0:0:0:0:
144,127,181145,1,0,0:0:0:0:
185,88,181255,1,8,0:0:0:0:
174,98,181474,1,4,0:0:0:0:
174,98,181693,1,4,0:0:0:0:
174,98,181912,1,0,0:0:0:0:
165,82,182021,1,0,0:0:0:0:
185,88,182131,1,8,0:0:0:0:
174,98,182240,1,8,0:0:0:0:
156,133,182350,1,0,0:0:0:0:
165,82,182459,1,0,0:0:0:0:
185,88,182569,1,8,0:0:0:0:
142,102,182678,1,0,0:0:0:0:
191,144,182788,1,0,0:0:0:0:
191,144,182897,1,0,0:0:0:0:
191,144,183007,1,8,0:0:0:0:
160,118,183226,1,4,0:0:0:0:
160,118,183445,1,4,0:0:0:0:
167,179,183664,1,8,0:0:0:0:
167,179,183773,1,0,0:0:0:0:
167,179,183883,1,8,0:0:0:0:
167,179,183992,1,8,0:0:0:0:
165,188,184102,1,0,0:0:0:0:
222,198,184211,1,0,0:0:0:0:
222,198,184321,1,8,0:0:0:0:
222,198,184430,1,8,0:0:0:0:
191,143,184540,1,0,0:0:0:0:
191,143,184649,1,0,0:0:0:0:
157,92,184759,1,8,0:0:0:0:
157,92,184978,1,4,0:0:0:0:
157,92,185197,1,4,0:0:0:0:
157,92,185416,1,0,0:0:0:0:
164,58,185525,1,0,0:0:0:0:
164,67,185634,1,8,0:0:0:0:
171,74,185744,1,0,0:0:0:0:
171,74,185853,1,0,0:0:0:0:
171,74,185963,1,0,0:0:0:0:
153,122,186072,1,8,0:0:0:0:
153,122,186182,1,8,0:0:0:0:
153,122,186291,1,0,0:0:0:0:
191,143,186401,1,0,0:0:0:0:
153,122,186510,1,8,0:0:0:0:
168,105,186729,1,4,0:0:0:0:
168,105,186948,1,4,0:0:0:0:
183,96,187167,1,8,0:0:0:0:
129,110,187277,1,0,0:0:0:0:
183,96,187386,1,8,0:0:0:0:
168,105,187605,1,4,0:0:0:0:
168,105,187824,1,4,0:0:0:0:
183,96,188043,1,8,0:0:0:0:
165,95,188153,1,0,0:0:0:0:
183,96,188262,1,8,0:0:0:0:
168,105,188481,1,4,0:0:0:0:
181,111,188700,1,4,0:0:0:0:
183,96,188919,1,8,0:0:0:0:
129,110,189029,1,0,0:0:0:0:
183,96,189138,1,8,0:0:0:0:
168,105,189357,1,4,0:0:0:0:
168,105,189576,1,4,0:0:0:0:
181,111,189795,1,8,0:0:0:0:
165,95,189905,1,8,0:0:0:0:
181,111,190014,1,0,0:0:0:0:
129,110,190124,1,8,0:0:0:0:
168,105,190233,1,4,0:0:0:0:
181,111,190452,1,8,0:0:0:0:
168,105,190671,1,4,0:0:0:0:
181,111,190890,1,8,0:0:0:0:
168,105,191109,1,4,0:0:0:0:
181,111,191328,1,8,0:0:0:0:
168,106,191547,1,4,0:0:0:0:
181,111,191766,1,8,0:0:0:0:
168,106,191985,1,4,0:0:0:0:
164,70,192204,1,4,0:0:0:0:
160,82,192423,1,4,0:0:0:0:
158,89,192642,1,4,0:0:0:0:
207,170,192861,1,0,0:0:0:0:
178,152,192970,1,8,0:0:0:0:
178,152,193080,1,0,0:0:0:0:
161,126,193189,1,0,0:0:0:0:
178,152,193299,1,8,0:0:0:0:
165,56,193408,1,8,0:0:0:0:
166,81,193518,1,0,0:0:0:0:
164,68,193627,1,8,0:0:0:0:
220,136,193737,1,4,0:0:0:0:
