osu file format v14

[General]
AudioFilename: audio.mp3
AudioLeadIn: 0
PreviewTime: 133850
Countdown: 0
SampleSet: Normal
StackLeniency: 0.7
Mode: 1
LetterboxInBreaks: 0
WidescreenStoryboard: 1

[Editor]
Bookmarks: 1040,13302,20310,34324,41331,48339,62353,74616,88631,102645,116660,123667,130675,134178,146441,158704,165711,172718,179726
DistanceSpacing: 0.5
BeatDivisor: 4
GridSize: 32
TimelineZoom: 1.700001

[Metadata]
Title:Lost Umbrella
TitleUnicode:ロストアンブレラ
Artist:rei sirose
ArtistUnicode:rei sirose
Creator:gaston_2199
Version:Oni
Source:
Tags:稲葉曇 inabakumori anticyclone ぬくぬくにぎりめし nukunukunigirimeshi 白瀬玲 dustcell ema EM A 久遠千歳 Kudou Chitose Kudo vtuber virtual youtuber youtube cover japanese rock jrock j-rock KTYN KitajimaYN yuni Waribashi
BeatmapID:2960095
BeatmapSetID:1425118

[Difficulty]
HPDrainRate:5
CircleSize:2
OverallDifficulty:5.5
ApproachRate:10
SliderMultiplier:1.4
SliderTickRate:1

[Events]
//Background and Video events
0,0,"67493108_p0.jpg",0,0
//Break Periods
2,13501,19858
2,116859,122340
//Storyboard Layer 0 (Background)
//Storyboard Layer 1 (Fail)
//Storyboard Layer 2 (Pass)
//Storyboard Layer 3 (Foreground)
//Storyboard Layer 4 (Overlay)
//Storyboard Sound Samples

[TimingPoints]
164,218.978102189781,4,1,0,70,1,8
1039,437.956204379562,4,1,0,70,1,0
8046,218.978102189781,4,1,0,70,1,0
8046,-166.666666666667,4,1,0,70,0,0
13292,-200,4,1,0,60,0,0
20300,-133.333333333333,4,1,0,80,0,0
34319,-117.647058823529,4,1,0,80,0,0
34752,-133.333333333333,4,1,0,80,0,0
36066,-117.647058823529,4,1,0,80,0,0
36504,-133.333333333333,4,1,0,80,0,0
37818,-117.647058823529,4,1,0,80,0,0
38256,-133.333333333333,4,1,0,80,0,0
39570,-117.647058823529,4,1,0,80,0,0
40008,-133.333333333333,4,1,0,80,0,0
41321,-117.647058823529,4,1,0,80,0,0
41759,-133.333333333333,4,1,0,80,0,0
42197,-117.647058823529,4,1,0,80,0,0
42635,-133.333333333333,4,1,0,80,0,0
43073,-117.647058823529,4,1,0,80,0,0
43511,-133.333333333333,4,1,0,80,0,0
43949,-117.647058823529,4,1,0,80,0,0
44387,-133.333333333333,4,1,0,80,0,0
44825,-117.647058823529,4,1,0,80,0,0
45044,-133.333333333333,4,1,0,80,0,0
45263,-117.647058823529,4,1,0,80,0,0
45482,-133.333333333333,4,1,0,80,0,0
45701,-117.647058823529,4,1,0,80,0,0
45920,-133.333333333333,4,1,0,80,0,0
46139,-117.647058823529,4,1,0,80,0,0
46358,-133.333333333333,4,1,0,80,0,0
46579,-117.647058823529,4,1,0,80,0,0
46907,-124.502558271745,4,1,0,80,0,0
47017,-126.984126984127,4,1,0,80,0,0
47236,-132.231404958678,4,1,0,80,0,0
47455,-137.931034482759,4,1,0,80,0,0
47564,-140.954986121727,4,1,0,80,0,0
47674,-144.144144144144,4,1,0,80,0,0
47893,-150.943396226415,4,1,0,80,0,0
48112,-158.415841584158,4,1,0,80,0,0
48337,-166.666666666667,4,1,0,80,0,1
48443,-166.522901894698,4,1,0,70,0,1
58848,-166.666666666667,4,1,0,60,0,0
59716,-153.753901505251,4,1,0,60,0,0
60592,-199.68888471761,4,1,0,60,0,0
61905,-111.111111111111,4,1,0,80,0,0
62352,-117.647058823529,4,1,0,90,0,1
69359,-117.647058823529,4,1,0,80,0,0
69797,-117.647058823529,4,1,0,90,0,1
74177,-117.647058823529,4,1,0,60,0,0
74575,-133.333333333333,4,1,0,80,0,0
81071,-153.846153846154,4,1,0,70,0,0
81618,-133.333333333333,4,1,0,80,0,0
88840,-133.333333333333,4,1,0,70,0,0
102635,-117.647058823529,4,1,0,80,0,0
103073,-133.333333333333,4,1,0,80,0,0
104387,-117.647058823529,4,1,0,80,0,0
104825,-133.333333333333,4,1,0,80,0,0
106139,-117.647058823529,4,1,0,80,0,0
106577,-133.333333333333,4,1,0,80,0,0
107891,-117.647058823529,4,1,0,80,0,0
108329,-133.333333333333,4,1,0,80,0,0
109642,-117.647058823529,4,1,0,80,0,0
110080,-133.333333333333,4,1,0,80,0,0
110518,-117.647058823529,4,1,0,80,0,0
110956,-133.333333333333,4,1,0,80,0,0
111394,-117.647058823529,4,1,0,80,0,0
111832,-133.333333333333,4,1,0,80,0,0
112270,-117.647058823529,4,1,0,80,0,0
112708,-133.333333333333,4,1,0,80,0,0
113146,-117.647058823529,4,1,0,80,0,0
113365,-133.333333333333,4,1,0,80,0,0
113584,-117.647058823529,4,1,0,80,0,0
113803,-133.333333333333,4,1,0,80,0,0
114022,-117.647058823529,4,1,0,80,0,0
114241,-133.333333333333,4,1,0,80,0,0
114460,-117.647058823529,4,1,0,80,0,0
114679,-133.333333333333,4,1,0,80,0,0
114898,-117.647058823529,4,1,0,80,0,0
115219,-124.502558271745,4,1,0,80,0,0
115329,-126.984126984127,4,1,0,80,0,0
115548,-132.231404958678,4,1,0,80,0,0
115767,-137.931034482759,4,1,0,80,0,0
115876,-140.954986121727,4,1,0,80,0,0
115986,-144.144144144144,4,1,0,80,0,0
116205,-150.943396226415,4,1,0,80,0,0
116424,-158.415841584158,4,1,0,80,0,0
116659,-166.522901894698,4,1,0,70,0,0
130665,-133.333333333333,4,1,0,80,0,0
132416,-111.111111111111,4,1,0,80,0,0
133301,218.978102189781,4,1,0,20,1,8
134094,-111.111111111111,4,1,0,70,0,8
134176,437.956204379562,4,1,0,70,1,0
141183,218.978102189781,4,1,0,60,1,0
141183,-166.666666666667,4,1,0,60,0,0
145562,218.978102189781,4,1,0,60,1,8
145993,-200,4,1,0,60,0,0
146437,-117.647058823529,4,1,0,90,0,1
153445,-117.647058823529,4,1,0,80,0,0
153883,-117.647058823529,4,1,0,90,0,1
158262,-111.111111111111,4,1,0,80,0,0
158700,-117.647058823529,4,1,0,90,0,1
172167,-117.647058823529,4,1,0,90,0,0
172713,-117.647058823529,4,1,0,80,0,0
173146,-133.333333333333,4,1,0,80,0,0
174460,-117.647058823529,4,1,0,80,0,0
174898,-133.333333333333,4,1,0,80,0,0
176212,-117.647058823529,4,1,0,80,0,0
176650,-133.333333333333,4,1,0,80,0,0
177964,-117.647058823529,4,1,0,80,0,0
178402,-133.333333333333,4,1,0,80,0,0
179716,-117.647058823529,4,1,0,80,0,0
180154,-133.333333333333,4,1,0,80,0,0
181467,-117.647058823529,4,1,0,80,0,0
181905,-133.333333333333,4,1,0,80,0,0
183219,-117.647058823529,4,1,0,80,0,0
183657,-133.333333333333,4,1,0,80,0,0
184971,-117.647058823529,4,1,0,80,0,0
185409,-133.333333333333,4,1,0,80,0,0
186722,-117.647058823529,4,1,0,80,0,0
187160,-133.333333333333,4,1,0,80,0,0
187598,-117.647058823529,4,1,0,80,0,0
188036,-133.333333333333,4,1,0,80,0,0
188474,-117.647058823529,4,1,0,80,0,0
188912,-133.333333333333,4,1,0,80,0,0
189350,-117.647058823529,4,1,0,80,0,0
189788,-133.333333333333,4,1,0,80,0,0
190226,-117.647058823529,4,1,0,80,0,0
190445,-133.333333333333,4,1,0,80,0,0
190664,-117.647058823529,4,1,0,80,0,0
190883,-133.333333333333,4,1,0,80,0,0
191102,-117.647058823529,4,1,0,80,0,0
191321,-133.333333333333,4,1,0,80,0,0
191540,-117.647058823529,4,1,0,80,0,0
191759,-133.333333333333,4,1,0,80,0,0
191978,-117.647058823529,4,1,0,80,0,0
192304,-124.502558271745,4,1,0,80,0,0
192414,-126.984126984127,4,1,0,80,0,0
192633,-132.231404958678,4,1,0,80,0,0
192852,-137.931034482759,4,1,0,80,0,0
192961,-140.954986121727,4,1,0,80,0,0
193071,-144.144144144144,4,1,0,80,0,0
193290,-150.943396226415,4,1,0,80,0,0
193509,-158.415841584158,4,1,0,80,0,0
193728,-166.666666666667,4,1,0,80,0,0

[HitObjects]
256,192,1039,5,0,0:0:0:0:
256,192,1914,1,0,0:0:0:0:
256,192,2790,1,8,0:0:0:0:
256,192,4542,1,0,0:0:0:0:
256,192,5418,1,8,0:0:0:0:
256,192,6294,1,0,0:0:0:0:
256,192,8046,1,4,0:0:0:0:
256,192,8264,1,8,0:0:0:0:
256,192,8483,1,0,0:0:0:0:
256,192,8593,1,0,0:0:0:0:
256,192,8702,1,8,0:0:0:0:
256,192,8921,1,0,0:0:0:0:
256,192,9140,1,8,0:0:0:0:
256,192,9250,1,0,0:0:0:0:
256,192,9469,1,0,0:0:0:0:
256,192,9578,1,8,0:0:0:0:
256,192,9797,1,0,0:0:0:0:
256,128,10016,1,8,0:0:0:0:
256,128,10235,1,0,0:0:0:0:
256,128,10345,1,0,0:0:0:0:
256,128,10454,1,8,0:0:0:0:
256,128,10673,1,0,0:0:0:0:
256,128,10892,1,8,0:0:0:0:
256,128,11002,1,0,0:0:0:0:
256,128,11221,1,0,0:0:0:0:
256,128,11330,1,8,0:0:0:0:
256,128,11549,1,0,0:0:0:0:
256,128,11768,1,8,0:0:0:0:
256,128,11987,1,0,0:0:0:0:
256,128,12097,1,0,0:0:0:0:
256,96,12206,1,8,0:0:0:0:
256,96,12425,1,4,0:0:0:0:
256,96,12644,1,4,0:0:0:0:
256,96,13301,1,12,0:0:0:0:
256,128,20308,5,4,0:0:0:0:
256,96,20527,1,8,0:0:0:0:
256,96,20637,1,0,0:0:0:0:
256,96,20746,1,8,0:0:0:0:
256,96,20965,1,8,0:0:0:0:
256,96,21075,1,8,0:0:0:0:
256,96,21184,1,0,0:0:0:0:
256,96,21403,1,8,0:0:0:0:
256,96,21513,1,0,0:0:0:0:
256,64,21841,1,8,0:0:0:0:
256,64,21896,1,8,0:0:0:0:
222,72,21951,1,8,0:0:0:0:
256,64,22060,1,0,0:0:0:0:
256,64,22279,1,8,0:0:0:0:
256,64,22389,1,0,0:0:0:0:
256,64,22498,1,8,0:0:0:0:
256,64,22717,1,8,0:0:0:0:
256,64,22827,1,8,0:0:0:0:
256,64,22936,1,0,0:0:0:0:
220,27,22991,1,0,0:0:0:0:
256,64,23046,1,0,0:0:0:0:
256,64,23155,1,8,0:0:0:0:
256,64,23374,1,0,0:0:0:0:
256,64,23483,1,0,0:0:0:0:
256,64,23593,1,8,0:0:0:0:
256,128,23812,1,0,0:0:0:0:
256,96,24031,1,8,0:0:0:0:
256,96,24140,1,0,0:0:0:0:
256,96,24250,1,8,0:0:0:0:
256,96,24469,1,8,0:0:0:0:
256,96,24578,1,8,0:0:0:0:
256,96,24688,1,0,0:0:0:0:
256,96,24907,1,8,0:0:0:0:
256,96,25016,1,0,0:0:0:0:
256,64,25345,1,8,0:0:0:0:
220,17,25400,1,8,0:0:0:0:
238,85,25454,1,8,0:0:0:0:
256,64,25564,1,0,0:0:0:0:
256,64,25783,1,8,0:0:0:0:
256,64,25892,1,0,0:0:0:0:
256,64,26002,1,8,0:0:0:0:
256,64,26221,1,8,0:0:0:0:
256,64,26330,1,8,0:0:0:0:
256,64,26440,1,0,0:0:0:0:
256,64,26659,1,8,0:0:0:0:
256,128,26713,1,8,0:0:0:0:
256,64,26768,1,0,0:0:0:0:
256,32,26878,1,8,0:0:0:0:
256,128,26987,1,0,0:0:0:0:
256,64,27097,1,8,0:0:0:0:
256,128,27316,1,4,0:0:0:0:
256,96,27535,1,8,0:0:0:0:
256,96,27644,1,0,0:0:0:0:
256,96,27754,1,8,0:0:0:0:
256,96,27973,1,8,0:0:0:0:
256,96,28082,1,8,0:0:0:0:
256,96,28191,1,0,0:0:0:0:
256,96,28410,1,8,0:0:0:0:
256,96,28520,1,0,0:0:0:0:
256,64,28848,1,8,0:0:0:0:
256,64,28903,1,8,0:0:0:0:
221,48,28958,1,8,0:0:0:0:
256,64,29067,1,0,0:0:0:0:
256,64,29286,1,8,0:0:0:0:
256,64,29396,1,0,0:0:0:0:
256,64,29505,1,8,0:0:0:0:
256,64,29724,1,8,0:0:0:0:
256,64,29834,1,8,0:0:0:0:
256,64,29943,1,0,0:0:0:0:
341,119,29998,1,0,0:0:0:0:
256,64,30053,1,0,0:0:0:0:
256,64,30162,1,8,0:0:0:0:
256,64,30381,1,0,0:0:0:0:
256,64,30491,1,0,0:0:0:0:
256,64,30600,1,8,0:0:0:0:
256,128,30819,1,0,0:0:0:0:
256,96,31038,1,8,0:0:0:0:
256,96,31148,1,0,0:0:0:0:
256,96,31257,1,8,0:0:0:0:
256,96,31476,1,8,0:0:0:0:
256,96,31586,1,8,0:0:0:0:
256,96,31695,1,0,0:0:0:0:
256,96,31914,1,8,0:0:0:0:
256,96,32024,1,0,0:0:0:0:
256,64,32352,1,8,0:0:0:0:
256,64,32407,1,8,0:0:0:0:
223,63,32462,1,8,0:0:0:0:
256,64,32571,1,0,0:0:0:0:
256,64,32790,1,8,0:0:0:0:
256,64,32900,1,0,0:0:0:0:
256,64,33009,1,8,0:0:0:0:
256,64,33228,1,0,0:0:0:0:
256,64,33337,1,0,0:0:0:0:
256,64,33447,1,8,0:0:0:0:
256,64,33666,1,0,0:0:0:0:
256,64,33775,1,8,0:0:0:0:
256,64,33830,1,8,0:0:0:0:
256,32,33885,1,0,0:0:0:0:
256,64,33994,1,0,0:0:0:0:
256,64,34104,1,8,0:0:0:0:
256,64,34323,1,4,0:0:0:0:
256,64,34542,1,4,0:0:0:0:
256,64,34761,1,8,0:0:0:0:
256,64,34980,1,8,0:0:0:0:
270,40,35089,1,0,0:0:0:0:
256,64,35308,1,0,0:0:0:0:
256,64,35418,1,8,0:0:0:0:
256,64,35637,1,0,0:0:0:0:
256,64,35746,1,0,0:0:0:0:
256,64,35856,1,8,0:0:0:0:
256,64,36075,1,4,0:0:0:0:
256,64,36294,1,4,0:0:0:0:
256,64,36513,1,8,0:0:0:0:
256,64,36732,1,8,0:0:0:0:
256,64,36951,1,0,0:0:0:0:
256,64,37170,1,8,0:0:0:0:
254,51,37279,1,0,0:0:0:0:
256,64,37389,1,8,0:0:0:0:
256,64,37827,1,4,0:0:0:0:
256,64,38046,1,4,0:0:0:0:
256,64,38264,1,8,0:0:0:0:
256,64,38483,1,8,0:0:0:0:
256,64,38593,1,8,0:0:0:0:
256,64,38812,1,0,0:0:0:0:
256,64,38921,1,8,0:0:0:0:
256,64,39140,1,8,0:0:0:0:
256,64,39250,1,0,0:0:0:0:
256,64,39359,1,8,0:0:0:0:
256,64,39578,1,4,0:0:0:0:
256,64,39797,1,4,0:0:0:0:
256,64,40016,1,8,0:0:0:0:
256,64,40235,1,8,0:0:0:0:
256,64,40454,1,0,0:0:0:0:
234,42,40564,1,0,0:0:0:0:
256,64,40673,1,8,0:0:0:0:
256,64,40783,1,0,0:0:0:0:
256,64,40892,1,8,0:0:0:0:
256,64,41330,1,4,0:0:0:0:
256,64,41549,1,4,0:0:0:0:
288,96,41768,1,8,0:0:0:0:
288,96,41987,1,8,0:0:0:0:
288,96,42206,1,4,0:0:0:0:
256,96,42425,1,4,0:0:0:0:
288,96,42644,1,8,0:0:0:0:
256,64,42863,1,8,0:0:0:0:
224,64,43082,1,4,0:0:0:0:
288,96,43301,1,4,0:0:0:0:
256,96,43520,1,8,0:0:0:0:
256,96,43739,1,8,0:0:0:0:
256,96,43958,1,4,0:0:0:0:
256,96,44177,1,4,0:0:0:0:
288,96,44396,1,8,0:0:0:0:
288,96,44615,1,8,0:0:0:0:
288,96,44834,1,4,0:0:0:0:
256,64,45272,1,4,0:0:0:0:
256,64,45491,1,8,0:0:0:0:
256,64,45710,1,4,0:0:0:0:
256,64,46148,1,4,0:0:0:0:
256,64,46367,1,8,0:0:0:0:
256,64,46586,1,4,0:0:0:0:
243,57,46914,1,8,0:0:0:0:
256,64,47024,1,0,0:0:0:0:
256,64,47243,1,8,0:0:0:0:
256,64,47462,1,0,0:0:0:0:
256,64,47571,1,8,0:0:0:0:
256,64,47681,1,0,0:0:0:0:
288,64,47900,1,8,0:0:0:0:
256,64,48118,1,0,0:0:0:0:
288,64,48337,1,12,0:0:0:0:
224,64,48775,1,0,0:0:0:0:
224,64,48994,1,0,0:0:0:0:
224,64,49213,1,8,0:0:0:0:
224,64,49651,1,8,0:0:0:0:
224,64,49870,1,0,0:0:0:0:
224,64,50089,1,8,0:0:0:0:
224,64,50527,1,8,0:0:0:0:
224,64,50746,1,8,0:0:0:0:
224,64,50965,1,0,0:0:0:0:
224,64,51184,1,0,0:0:0:0:
224,64,51403,1,8,0:0:0:0:
224,64,51841,1,8,0:0:0:0:
224,64,52279,1,0,0:0:0:0:
224,64,52498,1,0,0:0:0:0:
224,64,52717,1,8,0:0:0:0:
224,64,53155,1,0,0:0:0:0:
224,64,53374,1,8,0:0:0:0:
224,64,53593,1,8,0:0:0:0:
224,64,54031,1,8,0:0:0:0:
224,64,54250,1,8,0:0:0:0:
224,64,54469,1,0,0:0:0:0:
224,64,54688,1,0,0:0:0:0:
224,64,54907,1,8,0:0:0:0:
224,64,55126,1,8,0:0:0:0:
224,64,55345,1,4,0:0:0:0:
208,53,55783,1,0,0:0:0:0:
224,64,56002,1,0,0:0:0:0:
224,64,56221,1,8,0:0:0:0:
224,64,56659,1,0,0:0:0:0:
224,64,56878,1,8,0:0:0:0:
224,64,57097,1,8,0:0:0:0:
224,64,57535,1,8,0:0:0:0:
224,64,57754,1,0,0:0:0:0:
224,64,58191,1,8,0:0:0:0:
224,64,58410,1,8,0:0:0:0:
224,64,58629,1,8,0:0:0:0:
224,64,58848,1,0,0:0:0:0:
256,64,61914,1,12,0:0:0:0:
256,128,62352,5,4,0:0:0:0:
288,64,62681,1,0,0:0:0:0:
288,64,62790,1,8,0:0:0:0:
256,192,63009,1,0,0:0:0:0:
256,192,63228,1,8,0:0:0:0:
256,192,63337,1,0,0:0:0:0:
256,192,63447,1,8,0:0:0:0:
256,192,63666,1,0,0:0:0:0:
219,54,63885,1,8,0:0:0:0:
224,64,63994,1,8,0:0:0:0:
224,64,64104,1,0,0:0:0:0:
256,192,64213,1,0,0:0:0:0:
224,64,64323,1,8,0:0:0:0:
224,64,64542,1,0,0:0:0:0:
224,64,64761,1,8,0:0:0:0:
227,55,64816,1,8,0:0:0:0:
224,64,64870,1,0,0:0:0:0:
224,64,64980,1,8,0:0:0:0:
256,32,65199,1,8,0:0:0:0:
256,32,65308,1,0,0:0:0:0:
256,32,65363,1,0,0:0:0:0:
256,32,65418,1,8,0:0:0:0:
256,63,65527,1,0,0:0:0:0:
256,32,65637,1,8,0:0:0:0:
256,32,65856,1,0,0:0:0:0:
241,31,66075,1,0,0:0:0:0:
256,32,66184,1,8,0:0:0:0:
256,32,66294,1,0,0:0:0:0:
245,35,66403,1,0,0:0:0:0:
224,192,66513,1,8,0:0:0:0:
224,192,66732,1,0,0:0:0:0:
224,192,66951,1,8,0:0:0:0:
224,192,67060,1,8,0:0:0:0:
224,192,67170,1,0,0:0:0:0:
224,192,67389,1,8,0:0:0:0:
224,192,67498,1,0,0:0:0:0:
224,192,67608,1,8,0:0:0:0:
224,192,67827,1,8,0:0:0:0:
225,179,67881,1,8,0:0:0:0:
224,192,67936,1,0,0:0:0:0:
224,192,68046,1,8,0:0:0:0:
224,192,68155,1,0,0:0:0:0:
224,192,68264,1,8,0:0:0:0:
224,192,68374,1,8,0:0:0:0:
224,192,68483,1,0,0:0:0:0:
224,192,68702,1,8,0:0:0:0:
224,192,68812,1,8,0:0:0:0:
224,192,68921,1,0,0:0:0:0:
133,96,69031,1,0,0:0:0:0:
224,192,69140,1,8,0:0:0:0:
224,192,69359,1,4,0:0:0:0:
256,160,69797,1,12,0:0:0:0:
256,160,70016,1,0,0:0:0:0:
256,160,70235,1,8,0:0:0:0:
256,96,70345,1,0,0:0:0:0:
256,96,70454,1,8,0:0:0:0:
256,96,70673,1,0,0:0:0:0:
256,96,70892,1,8,0:0:0:0:
256,96,71002,1,8,0:0:0:0:
256,96,71111,1,0,0:0:0:0:
256,63,71166,1,0,0:0:0:0:
230,70,71221,1,0,0:0:0:0:
256,96,71330,1,8,0:0:0:0:
256,96,71549,1,0,0:0:0:0:
256,96,71768,1,8,0:0:0:0:
256,96,71878,1,0,0:0:0:0:
230,70,71932,1,0,0:0:0:0:
256,96,71987,1,8,0:0:0:0:
256,96,72206,1,8,0:0:0:0:
256,96,72261,1,8,0:0:0:0:
256,96,72316,1,0,0:0:0:0:
224,64,72425,1,8,0:0:0:0:
256,63,72535,1,0,0:0:0:0:
256,96,72644,1,8,0:0:0:0:
224,64,72754,1,8,0:0:0:0:
256,96,72863,1,0,0:0:0:0:
256,96,73082,1,8,0:0:0:0:
256,96,73191,1,8,0:0:0:0:
256,96,73301,1,0,0:0:0:0:
256,96,73410,1,0,0:0:0:0:
256,96,73520,1,8,0:0:0:0:
256,96,73739,1,4,0:0:0:0:
256,96,73958,1,4,0:0:0:0:
256,128,74615,5,4,0:0:0:0:
256,96,74834,1,8,0:0:0:0:
256,96,74943,1,0,0:0:0:0:
256,96,75053,1,8,0:0:0:0:
256,96,75272,1,8,0:0:0:0:
256,96,75381,1,8,0:0:0:0:
256,96,75491,1,0,0:0:0:0:
256,96,75710,1,8,0:0:0:0:
256,96,75819,1,0,0:0:0:0:
256,64,76148,1,8,0:0:0:0:
225,60,76202,1,8,0:0:0:0:
223,61,76257,1,8,0:0:0:0:
256,64,76367,1,0,0:0:0:0:
256,64,76586,1,8,0:0:0:0:
256,64,76695,1,0,0:0:0:0:
256,64,76805,1,8,0:0:0:0:
256,64,77024,1,8,0:0:0:0:
256,64,77133,1,8,0:0:0:0:
256,64,77243,1,0,0:0:0:0:
257,88,77297,1,0,0:0:0:0:
256,64,77352,1,0,0:0:0:0:
256,64,77462,1,8,0:0:0:0:
256,64,77681,1,0,0:0:0:0:
256,64,77900,1,8,0:0:0:0:
256,64,78009,1,8,0:0:0:0:
256,128,78118,1,0,0:0:0:0:
256,96,78337,1,8,0:0:0:0:
256,96,78447,1,0,0:0:0:0:
256,96,78556,1,8,0:0:0:0:
256,96,78775,1,8,0:0:0:0:
256,96,78885,1,8,0:0:0:0:
256,160,78994,1,0,0:0:0:0:
256,96,79213,1,8,0:0:0:0:
256,96,79323,1,0,0:0:0:0:
256,64,79651,1,8,0:0:0:0:
196,24,79706,1,8,0:0:0:0:
196,24,79761,1,8,0:0:0:0:
256,64,79870,1,0,0:0:0:0:
256,64,80089,1,8,0:0:0:0:
256,64,80199,1,0,0:0:0:0:
256,64,80308,1,8,0:0:0:0:
256,64,80527,1,8,0:0:0:0:
256,64,80637,1,8,0:0:0:0:
256,64,80746,1,0,0:0:0:0:
256,64,81075,1,0,0:0:0:0:
254,76,81129,1,0,0:0:0:0:
256,32,81184,1,8,0:0:0:0:
256,128,81622,1,4,0:0:0:0:
256,96,81841,1,8,0:0:0:0:
256,96,81951,1,0,0:0:0:0:
256,96,82060,1,8,0:0:0:0:
256,96,82279,1,8,0:0:0:0:
256,96,82389,1,8,0:0:0:0:
256,96,82498,1,0,0:0:0:0:
256,96,82717,1,8,0:0:0:0:
256,96,82827,1,0,0:0:0:0:
256,64,83155,1,8,0:0:0:0:
256,64,83210,1,8,0:0:0:0:
256,64,83264,1,8,0:0:0:0:
256,64,83374,1,0,0:0:0:0:
256,64,83593,1,8,0:0:0:0:
256,64,83702,1,0,0:0:0:0:
256,64,83812,1,8,0:0:0:0:
256,64,84031,1,8,0:0:0:0:
256,64,84140,1,8,0:0:0:0:
256,64,84250,1,0,0:0:0:0:
245,49,84305,1,0,0:0:0:0:
256,64,84359,1,0,0:0:0:0:
256,64,84469,1,8,0:0:0:0:
256,64,84688,1,0,0:0:0:0:
256,64,84907,1,8,0:0:0:0:
256,64,85016,1,8,0:0:0:0:
256,128,85126,1,0,0:0:0:0:
256,96,85345,1,8,0:0:0:0:
256,96,85454,1,0,0:0:0:0:
256,96,85564,1,8,0:0:0:0:
256,96,85783,1,8,0:0:0:0:
256,96,85892,1,8,0:0:0:0:
256,96,86002,1,0,0:0:0:0:
256,96,86221,1,8,0:0:0:0:
256,96,86330,1,0,0:0:0:0:
199,72,86440,1,8,0:0:0:0:
199,72,86549,1,0,0:0:0:0:
256,64,86659,1,8,0:0:0:0:
222,55,86713,1,8,0:0:0:0:
256,64,86768,1,8,0:0:0:0:
64,352,86878,1,0,0:0:0:0:
256,64,87097,1,8,0:0:0:0:
256,64,87206,1,0,0:0:0:0:
256,64,87316,1,8,0:0:0:0:
256,64,87535,1,0,0:0:0:0:
256,64,87644,1,0,0:0:0:0:
256,64,87754,1,8,0:0:0:0:
256,64,87973,1,0,0:0:0:0:
256,64,88082,1,0,0:0:0:0:
256,32,88191,1,8,0:0:0:0:
256,64,88246,1,0,0:0:0:0:
256,64,88301,1,8,0:0:0:0:
256,64,88629,1,4,0:0:0:0:
256,64,88848,1,8,0:0:0:0:
256,64,88958,1,0,0:0:0:0:
256,64,89067,1,8,0:0:0:0:
256,64,89286,1,0,0:0:0:0:
256,64,89505,1,8,0:0:0:0:
256,64,89615,1,8,0:0:0:0:
256,64,89724,1,0,0:0:0:0:
256,64,89943,1,8,0:0:0:0:
256,64,90162,1,8,0:0:0:0:
256,64,90272,1,0,0:0:0:0:
256,64,90600,1,8,0:0:0:0:
256,64,90710,1,0,0:0:0:0:
256,64,90819,1,8,0:0:0:0:
256,64,90929,1,8,0:0:0:0:
226,60,91148,1,0,0:0:0:0:
256,64,91367,1,0,0:0:0:0:
256,64,91476,1,8,0:0:0:0:
256,64,91586,1,8,0:0:0:0:
256,64,91695,1,0,0:0:0:0:
256,64,91914,1,8,0:0:0:0:
256,64,92352,1,8,0:0:0:0:
256,64,92462,1,0,0:0:0:0:
256,64,92681,1,0,0:0:0:0:
256,64,92790,1,8,0:0:0:0:
256,64,92900,1,0,0:0:0:0:
256,64,93009,1,8,0:0:0:0:
256,64,93228,1,8,0:0:0:0:
256,64,93447,1,0,0:0:0:0:
256,64,93666,1,8,0:0:0:0:
256,64,93775,1,8,0:0:0:0:
256,64,93885,1,0,0:0:0:0:
258,126,94104,1,8,0:0:0:0:
266,103,94213,1,0,0:0:0:0:
258,126,94323,1,8,0:0:0:0:
258,126,94432,1,0,0:0:0:0:
258,126,94542,1,8,0:0:0:0:
258,126,94761,1,0,0:0:0:0:
289,110,94980,1,8,0:0:0:0:
258,126,95089,1,0,0:0:0:0:
283,110,95144,1,0,0:0:0:0:
258,126,95199,1,8,0:0:0:0:
256,64,95637,1,4,0:0:0:0:
256,32,95856,1,8,0:0:0:0:
256,64,96075,1,0,0:0:0:0:
256,64,96184,1,0,0:0:0:0:
256,64,96294,1,8,0:0:0:0:
256,64,96513,1,8,0:0:0:0:
256,64,96622,1,8,0:0:0:0:
256,64,96732,1,0,0:0:0:0:
256,64,96951,1,8,0:0:0:0:
256,64,97060,1,0,0:0:0:0:
256,64,97170,1,8,0:0:0:0:
256,64,97608,1,8,0:0:0:0:
256,64,97717,1,8,0:0:0:0:
256,64,97827,1,0,0:0:0:0:
256,64,97936,1,0,0:0:0:0:
256,64,98045,1,8,0:0:0:0:
256,64,98264,1,0,0:0:0:0:
256,64,98483,1,8,0:0:0:0:
256,64,98702,1,8,0:0:0:0:
256,64,98812,1,0,0:0:0:0:
256,64,98921,1,8,0:0:0:0:
256,96,99359,1,8,0:0:0:0:
256,96,99469,1,0,0:0:0:0:
256,96,99578,1,8,0:0:0:0:
256,96,99688,1,8,0:0:0:0:
256,96,99797,1,0,0:0:0:0:
256,96,100016,1,8,0:0:0:0:
256,96,100126,1,0,0:0:0:0:
243,115,100345,1,0,0:0:0:0:
256,96,100454,1,8,0:0:0:0:
256,96,100673,1,8,0:0:0:0:
256,96,100892,1,4,0:0:0:0:
256,96,101111,1,8,0:0:0:0:
256,96,101330,1,0,0:0:0:0:
256,96,101440,1,0,0:0:0:0:
256,96,101549,1,8,0:0:0:0:
256,96,101768,1,0,0:0:0:0:
256,96,101987,1,8,0:0:0:0:
256,96,102097,1,0,0:0:0:0:
256,96,102316,1,8,0:0:0:0:
256,96,102425,1,8,0:0:0:0:
256,64,102644,1,4,0:0:0:0:
256,64,102863,1,4,0:0:0:0:
256,64,103082,1,8,0:0:0:0:
256,64,103301,1,8,0:0:0:0:
270,40,103410,1,0,0:0:0:0:
256,64,103629,1,0,0:0:0:0:
256,64,103739,1,8,0:0:0:0:
256,64,103958,1,0,0:0:0:0:
256,64,104067,1,0,0:0:0:0:
256,64,104177,1,8,0:0:0:0:
256,64,104396,1,4,0:0:0:0:
256,64,104615,1,4,0:0:0:0:
256,64,104834,1,8,0:0:0:0:
256,64,105053,1,8,0:0:0:0:
256,64,105272,1,0,0:0:0:0:
256,64,105491,1,8,0:0:0:0:
256,64,105600,1,0,0:0:0:0:
256,64,105710,1,8,0:0:0:0:
256,64,106148,1,4,0:0:0:0:
256,64,106367,1,4,0:0:0:0:
256,64,106586,1,8,0:0:0:0:
256,64,106805,1,8,0:0:0:0:
256,64,106914,1,8,0:0:0:0:
256,64,107133,1,0,0:0:0:0:
256,64,107243,1,8,0:0:0:0:
256,64,107462,1,8,0:0:0:0:
256,64,107571,1,0,0:0:0:0:
256,64,107681,1,8,0:0:0:0:
256,64,107900,1,4,0:0:0:0:
256,64,108118,1,4,0:0:0:0:
256,64,108337,1,8,0:0:0:0:
256,64,108556,1,0,0:0:0:0:
256,64,108775,1,8,0:0:0:0:
234,42,108885,1,8,0:0:0:0:
256,64,108994,1,0,0:0:0:0:
228,63,109104,1,0,0:0:0:0:
256,64,109213,1,8,0:0:0:0:
256,64,109651,1,4,0:0:0:0:
256,64,109870,1,4,0:0:0:0:
288,96,110089,1,8,0:0:0:0:
288,96,110308,1,8,0:0:0:0:
288,96,110527,1,4,0:0:0:0:
256,96,110746,1,4,0:0:0:0:
288,96,110965,1,8,0:0:0:0:
256,64,111184,1,8,0:0:0:0:
224,64,111403,1,4,0:0:0:0:
288,96,111622,1,4,0:0:0:0:
256,96,111841,1,8,0:0:0:0:
256,96,112060,1,8,0:0:0:0:
256,96,112279,1,4,0:0:0:0:
256,96,112498,1,4,0:0:0:0:
288,96,112717,1,8,0:0:0:0:
288,96,112936,1,8,0:0:0:0:
288,96,113155,1,4,0:0:0:0:
256,64,113593,1,4,0:0:0:0:
256,64,113812,1,8,0:0:0:0:
256,64,114031,1,4,0:0:0:0:
256,64,114469,1,4,0:0:0:0:
256,64,114688,1,8,0:0:0:0:
256,64,114907,1,4,0:0:0:0:
217,46,115235,1,8,0:0:0:0:
256,64,115345,1,0,0:0:0:0:
256,64,115564,1,8,0:0:0:0:
256,64,115783,1,0,0:0:0:0:
256,64,115892,1,8,0:0:0:0:
256,64,116002,1,0,0:0:0:0:
288,64,116221,5,8,0:0:0:0:
256,64,116440,1,0,0:0:0:0:
288,64,116659,1,12,0:0:0:0:
256,192,122790,5,0,0:0:0:0:
256,192,123118,1,0,0:0:0:0:
256,192,123173,1,0,0:0:0:0:
256,192,123228,1,8,0:0:0:0:
256,192,123447,1,0,0:0:0:0:
256,192,123666,1,12,0:0:0:0:
224,192,123885,1,8,0:0:0:0:
224,192,124104,1,0,0:0:0:0:
224,192,124213,1,8,0:0:0:0:
224,128,124542,1,12,0:0:0:0:
224,128,124761,1,0,0:0:0:0:
256,192,124980,1,8,0:0:0:0:
224,128,125089,1,0,0:0:0:0:
224,128,125199,1,8,0:0:0:0:
224,128,125418,1,4,0:0:0:0:
256,192,125637,1,8,0:0:0:0:
243,115,125856,1,8,0:0:0:0:
256,192,125965,1,8,0:0:0:0:
256,192,126075,1,8,0:0:0:0:
256,192,126294,1,4,0:0:0:0:
256,160,126513,1,8,0:0:0:0:
256,160,126732,1,8,0:0:0:0:
256,192,127170,1,12,0:0:0:0:
224,192,127389,1,0,0:0:0:0:
224,192,127608,1,8,0:0:0:0:
243,115,127717,1,8,0:0:0:0:
224,192,127827,1,0,0:0:0:0:
224,128,128045,1,12,0:0:0:0:
224,128,128264,1,0,0:0:0:0:
243,115,128483,1,8,0:0:0:0:
224,128,128593,1,0,0:0:0:0:
224,128,128702,1,8,0:0:0:0:
224,128,128921,1,4,0:0:0:0:
256,192,129140,1,8,0:0:0:0:
243,115,129359,1,0,0:0:0:0:
233,67,129469,1,0,0:0:0:0:
256,192,129578,1,8,0:0:0:0:
256,192,129797,1,0,0:0:0:0:
224,64,129943,1,8,0:0:0:0:
256,160,130089,1,8,0:0:0:0:
256,160,130235,1,0,0:0:0:0:
256,160,130673,1,12,0:0:0:0:
256,128,130892,1,8,0:0:0:0:
256,64,131002,1,0,0:0:0:0:
288,96,131111,1,8,0:0:0:0:
224,32,131330,1,0,0:0:0:0:
256,64,131440,1,0,0:0:0:0:
256,64,131549,1,8,0:0:0:0:
256,64,131768,1,8,0:0:0:0:
256,64,131878,1,0,0:0:0:0:
224,32,132097,1,0,0:0:0:0:
256,96,132206,1,8,0:0:0:0:
256,96,132425,1,12,0:0:0:0:
256,96,132644,1,12,0:0:0:0:
256,96,132863,1,12,0:0:0:0:
256,96,133082,1,12,0:0:0:0:
256,192,134176,5,0,0:0:0:0:
256,192,135051,1,0,0:0:0:0:
256,192,135927,1,8,0:0:0:0:
256,192,137679,1,0,0:0:0:0:
256,192,138555,1,8,0:0:0:0:
256,192,139431,5,0,0:0:0:0:
256,192,140635,1,0,0:0:0:0:
256,183,140690,1,0,0:0:0:0:
256,192,140745,1,8,0:0:0:0:
256,192,141183,5,4,0:0:0:0:
256,192,141511,1,0,0:0:0:0:
288,160,141620,1,8,0:0:0:0:
288,96,141839,1,0,0:0:0:0:
288,96,141949,1,8,0:0:0:0:
256,192,142058,1,0,0:0:0:0:
256,192,142277,1,0,0:0:0:0:
256,96,142496,1,8,0:0:0:0:
256,192,142715,1,8,0:0:0:0:
256,96,142825,1,8,0:0:0:0:
256,192,142934,1,0,0:0:0:0:
256,96,143263,1,0,0:0:0:0:
256,128,143372,1,8,0:0:0:0:
256,128,143591,1,8,0:0:0:0:
256,128,143810,1,0,0:0:0:0:
174,52,143920,1,8,0:0:0:0:
256,128,144029,1,0,0:0:0:0:
224,96,144248,1,8,0:0:0:0:
256,128,144467,1,8,0:0:0:0:
174,52,144577,1,8,0:0:0:0:
256,128,144686,1,0,0:0:0:0:
256,96,145999,1,0,0:0:0:0:
256,96,146218,1,0,0:0:0:0:
256,128,146437,5,12,0:0:0:0:
288,64,146766,1,0,0:0:0:0:
288,64,146875,1,8,0:0:0:0:
256,192,147094,1,0,0:0:0:0:
256,192,147313,1,8,0:0:0:0:
256,192,147423,1,0,0:0:0:0:
256,192,147532,1,8,0:0:0:0:
256,192,147751,1,0,0:0:0:0:
219,54,147970,1,8,0:0:0:0:
224,64,148080,1,8,0:0:0:0:
224,64,148189,1,0,0:0:0:0:
256,192,148299,1,0,0:0:0:0:
224,64,148408,1,8,0:0:0:0:
224,64,148627,1,0,0:0:0:0:
224,64,148846,1,8,0:0:0:0:
227,55,148901,1,8,0:0:0:0:
224,64,148956,1,0,0:0:0:0:
224,64,149065,1,8,0:0:0:0:
256,32,149284,1,8,0:0:0:0:
256,32,149394,1,0,0:0:0:0:
256,32,149448,1,0,0:0:0:0:
256,32,149503,1,8,0:0:0:0:
259,53,149613,1,0,0:0:0:0:
256,32,149722,1,8,0:0:0:0:
256,32,149941,1,0,0:0:0:0:
241,31,150160,1,0,0:0:0:0:
256,32,150270,1,8,0:0:0:0:
256,32,150379,1,0,0:0:0:0:
245,35,150489,1,0,0:0:0:0:
224,192,150598,1,8,0:0:0:0:
224,192,150817,1,0,0:0:0:0:
224,192,151036,1,8,0:0:0:0:
224,192,151145,1,8,0:0:0:0:
224,192,151255,1,0,0:0:0:0:
224,192,151474,1,8,0:0:0:0:
224,192,151583,1,0,0:0:0:0:
224,192,151693,1,8,0:0:0:0:
224,192,151912,1,8,0:0:0:0:
225,179,151967,1,8,0:0:0:0:
224,192,152021,1,0,0:0:0:0:
224,192,152131,1,8,0:0:0:0:
224,192,152240,1,0,0:0:0:0:
224,192,152350,1,8,0:0:0:0:
224,192,152459,1,8,0:0:0:0:
224,192,152569,1,0,0:0:0:0:
224,192,152788,1,8,0:0:0:0:
224,192,152897,1,8,0:0:0:0:
224,192,153007,1,0,0:0:0:0:
155,103,153116,1,0,0:0:0:0:
224,192,153226,1,8,0:0:0:0:
224,192,153445,1,4,0:0:0:0:
256,160,153883,1,12,0:0:0:0:
256,160,154102,1,0,0:0:0:0:
256,160,154321,1,8,0:0:0:0:
256,96,154430,1,0,0:0:0:0:
256,96,154540,1,8,0:0:0:0:
256,96,154759,1,0,0:0:0:0:
256,96,154978,5,8,0:0:0:0:
231,72,155087,1,0,0:0:0:0:
256,96,155197,1,8,0:0:0:0:
265,157,155251,1,0,0:0:0:0:
256,96,155306,1,0,0:0:0:0:
256,96,155416,5,8,0:0:0:0:
256,96,155634,1,0,0:0:0:0:
256,96,155853,1,8,0:0:0:0:
256,96,155963,1,0,0:0:0:0:
120,74,156018,1,0,0:0:0:0:
256,96,156072,1,8,0:0:0:0:
256,96,156291,1,8,0:0:0:0:
256,96,156346,1,8,0:0:0:0:
256,96,156401,1,8,0:0:0:0:
224,64,156510,1,0,0:0:0:0:
256,96,156620,1,0,0:0:0:0:
256,96,156729,1,8,0:0:0:0:
224,64,156839,1,8,0:0:0:0:
256,96,156948,1,0,0:0:0:0:
256,96,157167,1,8,0:0:0:0:
256,96,157277,1,8,0:0:0:0:
256,96,157386,1,0,0:0:0:0:
256,96,157496,1,0,0:0:0:0:
256,96,157605,1,8,0:0:0:0:
256,96,157824,1,4,0:0:0:0:
256,96,158043,1,4,0:0:0:0:
256,128,158700,5,4,0:0:0:0:
256,96,158919,1,8,0:0:0:0:
256,96,159029,1,0,0:0:0:0:
256,96,159138,1,8,0:0:0:0:
256,96,159357,1,0,0:0:0:0:
256,96,159467,1,0,0:0:0:0:
256,96,159576,1,8,0:0:0:0:
256,96,159795,1,8,0:0:0:0:
256,96,159905,1,0,0:0:0:0:
256,64,160124,1,0,0:0:0:0:
256,64,160233,1,8,0:0:0:0:
224,64,160343,1,8,0:0:0:0:
256,64,160452,1,0,0:0:0:0:
256,64,160671,1,8,0:0:0:0:
256,64,160780,1,0,0:0:0:0:
256,64,160890,1,8,0:0:0:0:
256,64,161109,1,8,0:0:0:0:
256,64,161218,1,8,0:0:0:0:
256,64,161328,1,0,0:0:0:0:
256,64,161547,1,8,0:0:0:0:
256,64,161602,1,8,0:0:0:0:
256,64,161656,1,0,0:0:0:0:
256,64,161766,1,8,0:0:0:0:
256,64,161875,1,0,0:0:0:0:
256,96,161985,1,8,0:0:0:0:
256,128,162204,1,0,0:0:0:0:
256,96,162423,1,8,0:0:0:0:
256,96,162532,1,0,0:0:0:0:
256,64,162642,1,8,0:0:0:0:
256,96,162861,1,0,0:0:0:0:
256,96,163080,1,8,0:0:0:0:
256,64,163189,1,0,0:0:0:0:
256,96,163299,1,0,0:0:0:0:
256,96,163408,1,8,0:0:0:0:
256,96,163627,1,0,0:0:0:0:
256,64,163737,1,8,0:0:0:0:
256,64,163956,1,0,0:0:0:0:
256,64,164175,1,8,0:0:0:0:
256,64,164284,1,0,0:0:0:0:
256,64,164394,1,8,0:0:0:0:
256,64,164613,1,0,0:0:0:0:
256,64,164832,1,8,0:0:0:0:
256,64,164886,1,8,0:0:0:0:
256,64,164941,1,0,0:0:0:0:
256,64,165051,1,8,0:0:0:0:
256,64,165160,1,8,0:0:0:0:
224,32,165270,1,0,0:0:0:0:
256,64,165379,1,0,0:0:0:0:
256,64,165489,1,8,0:0:0:0:
256,128,165707,5,4,0:0:0:0:
256,96,165926,1,8,0:0:0:0:
256,96,166036,1,0,0:0:0:0:
256,96,166145,1,8,0:0:0:0:
256,96,166364,1,0,0:0:0:0:
204,29,166474,1,0,0:0:0:0:
256,96,166583,1,8,0:0:0:0:
256,96,166802,1,8,0:0:0:0:
256,96,166912,1,0,0:0:0:0:
256,64,167131,1,0,0:0:0:0:
256,64,167240,1,8,0:0:0:0:
224,64,167350,1,8,0:0:0:0:
256,64,167459,1,0,0:0:0:0:
256,64,167678,1,8,0:0:0:0:
256,64,167788,1,0,0:0:0:0:
256,64,167897,1,8,0:0:0:0:
256,64,168116,1,8,0:0:0:0:
256,64,168226,1,8,0:0:0:0:
256,64,168335,1,0,0:0:0:0:
256,64,168554,1,8,0:0:0:0:
256,64,168664,1,0,0:0:0:0:
256,64,168718,1,0,0:0:0:0:
256,64,168773,1,8,0:0:0:0:
256,64,168883,1,0,0:0:0:0:
256,96,168992,1,8,0:0:0:0:
256,128,169211,1,0,0:0:0:0:
256,96,169430,1,8,0:0:0:0:
256,96,169540,1,0,0:0:0:0:
256,64,169649,1,8,0:0:0:0:
256,96,169868,1,0,0:0:0:0:
256,96,170087,1,8,0:0:0:0:
256,64,170197,1,0,0:0:0:0:
256,96,170306,1,0,0:0:0:0:
256,96,170416,1,8,0:0:0:0:
256,96,170634,1,0,0:0:0:0:
256,64,170744,1,8,0:0:0:0:
256,64,170963,1,0,0:0:0:0:
256,64,171182,1,8,0:0:0:0:
256,64,171291,1,0,0:0:0:0:
256,64,171401,1,8,0:0:0:0:
256,64,171620,1,0,0:0:0:0:
256,64,171839,1,0,0:0:0:0:
256,64,171894,1,0,0:0:0:0:
256,64,171948,1,0,0:0:0:0:
221,75,172058,1,8,0:0:0:0:
256,64,172167,1,0,0:0:0:0:
206,27,172715,1,4,0:0:0:0:
206,27,172934,1,4,0:0:0:0:
256,64,173153,5,8,0:0:0:0:
189,49,173262,1,0,0:0:0:0:
203,43,173372,1,8,0:0:0:0:
256,64,173591,1,0,0:0:0:0:
256,64,173700,1,0,0:0:0:0:
256,64,173810,1,8,0:0:0:0:
256,64,174029,1,0,0:0:0:0:
256,64,174138,1,0,0:0:0:0:
256,64,174248,1,8,0:0:0:0:
256,64,174467,1,4,0:0:0:0:
256,64,174686,1,4,0:0:0:0:
256,64,174905,1,0,0:0:0:0:
164,53,175014,1,0,0:0:0:0:
256,64,175124,1,8,0:0:0:0:
256,64,175343,1,0,0:0:0:0:
256,64,175452,1,0,0:0:0:0:
256,64,175562,1,8,0:0:0:0:
256,64,175999,1,8,0:0:0:0:
256,64,176218,1,4,0:0:0:0:
256,64,176437,1,4,0:0:0:0:
256,64,176656,1,0,0:0:0:0:
256,64,176766,1,0,0:0:0:0:
256,64,176875,1,8,0:0:0:0:
256,64,177094,1,0,0:0:0:0:
256,64,177204,1,0,0:0:0:0:
256,64,177313,1,8,0:0:0:0:
256,64,177532,1,0,0:0:0:0:
256,64,177642,1,0,0:0:0:0:
256,64,177751,1,8,0:0:0:0:
256,64,177970,1,4,0:0:0:0:
256,64,178189,1,4,0:0:0:0:
256,64,178408,1,0,0:0:0:0:
226,27,178518,1,0,0:0:0:0:
256,64,178627,1,8,0:0:0:0:
256,64,178846,1,0,0:0:0:0:
256,64,178956,1,0,0:0:0:0:
256,64,179065,1,8,0:0:0:0:
256,64,179284,1,8,0:0:0:0:
256,64,179722,1,4,0:0:0:0:
256,64,179941,1,4,0:0:0:0:
256,64,180160,1,8,0:0:0:0:
256,64,180379,1,0,0:0:0:0:
256,64,180598,1,8,0:0:0:0:
256,64,180707,1,0,0:0:0:0:
256,64,180817,1,8,0:0:0:0:
256,64,181036,1,0,0:0:0:0:
247,55,181145,1,0,0:0:0:0:
256,64,181255,1,8,0:0:0:0:
256,64,181474,1,4,0:0:0:0:
256,64,181693,1,4,0:0:0:0:
256,64,181912,1,8,0:0:0:0:
256,64,182131,1,8,0:0:0:0:
256,64,182350,1,0,0:0:0:0:
256,64,182569,1,8,0:0:0:0:
256,64,182678,1,0,0:0:0:0:
256,64,182788,1,8,0:0:0:0:
256,64,183226,1,4,0:0:0:0:
256,64,183445,1,4,0:0:0:0:
256,64,183664,1,8,0:0:0:0:
256,64,183883,1,8,0:0:0:0:
256,64,183992,1,0,0:0:0:0:
256,64,184211,1,0,0:0:0:0:
256,64,184321,1,8,0:0:0:0:
256,64,184540,1,8,0:0:0:0:
241,87,184649,1,0,0:0:0:0:
256,64,184759,1,8,0:0:0:0:
256,64,184978,1,4,0:0:0:0:
256,64,185197,1,4,0:0:0:0:
256,64,185416,1,8,0:0:0:0:
256,64,185634,1,8,0:0:0:0:
256,64,185853,1,0,0:0:0:0:
234,53,185963,1,0,0:0:0:0:
256,64,186072,1,8,0:0:0:0:
256,64,186182,1,0,0:0:0:0:
256,64,186291,1,8,0:0:0:0:
256,64,186729,1,4,0:0:0:0:
256,64,186948,1,4,0:0:0:0:
288,96,187167,1,8,0:0:0:0:
288,96,187386,1,8,0:0:0:0:
288,96,187605,1,4,0:0:0:0:
256,96,187824,1,4,0:0:0:0:
288,96,188043,1,8,0:0:0:0:
256,64,188262,1,8,0:0:0:0:
224,64,188481,1,4,0:0:0:0:
288,96,188700,1,4,0:0:0:0:
256,96,188919,1,8,0:0:0:0:
256,96,189138,1,8,0:0:0:0:
256,96,189357,1,4,0:0:0:0:
256,96,189576,1,4,0:0:0:0:
288,96,189795,1,8,0:0:0:0:
288,96,190014,1,8,0:0:0:0:
288,96,190233,1,4,0:0:0:0:
256,64,190671,1,4,0:0:0:0:
256,64,190890,1,8,0:0:0:0:
256,64,191109,1,4,0:0:0:0:
256,64,191547,1,4,0:0:0:0:
256,64,191766,1,8,0:0:0:0:
256,64,191985,1,4,0:0:0:0:
204,19,192313,1,8,0:0:0:0:
256,64,192423,1,0,0:0:0:0:
256,64,192642,1,8,0:0:0:0:
256,64,192861,1,0,0:0:0:0:
256,64,192970,1,8,0:0:0:0:
256,64,193080,1,0,0:0:0:0:
288,64,193299,1,8,0:0:0:0:
256,64,193518,1,8,0:0:0:0:
288,64,193737,1,4,0:0:0:0:
