osu file format v14

[General]
AudioFilename: audio.mp3
AudioLeadIn: 0
PreviewTime: 133850
Countdown: 0
SampleSet: Normal
StackLeniency: 0.7
Mode: 1
LetterboxInBreaks: 0
WidescreenStoryboard: 1

[Editor]
Bookmarks: 1040,13302,20310,34324,41331,48339,62353,74616,88631,102645,116660,123667,130675,134178,146441,158704,165711,172718,179726
DistanceSpacing: 0.5
BeatDivisor: 4
GridSize: 32
TimelineZoom: 2.199999

[Metadata]
Title:Lost Umbrella
TitleUnicode:ロストアンブレラ
Artist:rei sirose
ArtistUnicode:rei sirose
Creator:gaston_2199
Version:Muzukashii
Source:
Tags:稲葉曇 inabakumori anticyclone ぬくぬくにぎりめし nukunukunigirimeshi 白瀬玲 dustcell ema EM A 久遠千歳 Kudou Chitose Kudo vtuber virtual youtuber youtube cover japanese rock jrock j-rock KTYN KitajimaYN yuni Waribashi
BeatmapID:2976732
BeatmapSetID:1425118

[Difficulty]
HPDrainRate:6
CircleSize:2
OverallDifficulty:5
ApproachRate:10
SliderMultiplier:1.4
SliderTickRate:1

[Events]
//Background and Video events
0,0,"67493108_p0.jpg",0,0
//Break Periods
2,13501,19858
2,116859,122340
//Storyboard Layer 0 (Background)
//Storyboard Layer 1 (Fail)
//Storyboard Layer 2 (Pass)
//Storyboard Layer 3 (Foreground)
//Storyboard Layer 4 (Overlay)
//Storyboard Sound Samples

[TimingPoints]
164,218.978102189781,4,1,0,70,1,8
1039,437.956204379562,4,1,0,70,1,0
8046,218.978102189781,4,1,0,70,1,0
8046,-153.846153846154,4,1,0,70,0,0
13292,-153.846153846154,4,1,0,60,0,0
20300,-142.857142857143,4,1,0,80,0,0
48337,-142.857142857143,4,1,0,80,0,1
48443,-166.527893422148,4,1,0,70,0,1
58848,-166.666666666667,4,1,0,60,0,0
61905,-125,4,1,0,80,0,0
62352,-133.333333333333,4,1,0,90,0,1
69359,-133.333333333333,4,1,0,80,0,0
69797,-133.333333333333,4,1,0,90,0,1
74177,-142.857142857143,4,1,0,60,0,0
74575,-142.857142857143,4,1,0,80,0,0
81071,-142.857142857143,4,1,0,70,0,0
81618,-142.857142857143,4,1,0,80,0,0
88840,-153.846153846154,4,1,0,70,0,0
102635,-142.857142857143,4,1,0,80,0,0
116764,-142.755174875089,4,1,0,70,0,0
130665,-142.857142857143,4,1,0,80,0,0
132416,-125,4,1,0,80,0,0
133301,218.978102189781,4,1,0,20,1,8
134094,-125,4,1,0,70,0,8
134176,437.956204379562,4,1,0,70,1,0
141183,218.978102189781,4,1,0,60,1,0
141183,-153.846153846154,4,1,0,60,0,0
145562,218.978102189781,4,1,0,60,1,8
145993,-200,4,1,0,60,0,0
146437,-133.333333333333,4,1,0,90,0,1
153445,-133.333333333333,4,1,0,80,0,0
153883,-133.333333333333,4,1,0,90,0,1
158262,-133.333333333333,4,1,0,80,0,0
158700,-133.333333333333,4,1,0,90,0,1
172167,-133.333333333333,4,1,0,90,0,0
172713,-142.857142857143,4,1,0,80,0,0

[HitObjects]
256,192,1039,5,0,0:0:0:0:
256,192,1914,1,0,0:0:0:0:
256,192,2790,1,8,0:0:0:0:
256,192,4542,1,0,0:0:0:0:
256,192,5418,1,8,0:0:0:0:
256,192,6294,1,0,0:0:0:0:
256,192,8046,1,4,0:0:0:0:
256,192,8483,1,0,0:0:0:0:
256,192,8702,1,8,0:0:0:0:
256,192,8921,1,0,0:0:0:0:
240,161,9140,1,8,0:0:0:0:
256,192,9578,1,8,0:0:0:0:
256,192,9797,1,0,0:0:0:0:
256,128,10235,1,0,0:0:0:0:
256,128,10454,1,8,0:0:0:0:
256,128,10673,1,0,0:0:0:0:
229,118,10892,1,8,0:0:0:0:
256,128,11330,1,8,0:0:0:0:
256,128,11549,1,0,0:0:0:0:
256,128,11987,1,0,0:0:0:0:
256,96,12206,1,8,0:0:0:0:
256,96,12425,1,4,0:0:0:0:
256,96,12644,1,4,0:0:0:0:
256,96,13301,1,12,0:0:0:0:
256,128,20308,5,4,0:0:0:0:
147,113,20527,1,0,0:0:0:0:
256,96,20746,1,8,0:0:0:0:
176,72,20965,1,8,0:0:0:0:
239,97,21075,1,0,0:0:0:0:
256,96,21184,1,0,0:0:0:0:
256,96,21513,1,8,0:0:0:0:
256,64,22060,1,0,0:0:0:0:
256,64,22279,1,0,0:0:0:0:
256,64,22498,1,8,0:0:0:0:
267,87,22717,1,8,0:0:0:0:
250,93,22827,1,8,0:0:0:0:
256,64,22936,1,0,0:0:0:0:
256,64,23155,1,8,0:0:0:0:
250,93,23374,1,0,0:0:0:0:
256,64,23593,1,8,0:0:0:0:
256,128,23812,1,0,0:0:0:0:
256,96,24031,1,0,0:0:0:0:
256,96,24250,1,8,0:0:0:0:
195,61,24469,1,0,0:0:0:0:
243,63,24578,1,8,0:0:0:0:
256,96,24688,1,0,0:0:0:0:
256,96,25016,1,8,0:0:0:0:
256,64,25564,1,0,0:0:0:0:
256,64,25783,1,0,0:0:0:0:
256,64,26002,1,8,0:0:0:0:
248,114,26221,1,8,0:0:0:0:
259,78,26330,1,0,0:0:0:0:
259,78,26440,1,0,0:0:0:0:
256,64,26659,1,8,0:0:0:0:
256,32,26878,1,0,0:0:0:0:
246,55,26987,1,8,0:0:0:0:
256,64,27097,1,8,0:0:0:0:
256,128,27316,1,4,0:0:0:0:
185,82,27535,1,0,0:0:0:0:
256,96,27754,1,8,0:0:0:0:
256,96,27973,1,8,0:0:0:0:
244,108,28082,1,0,0:0:0:0:
256,96,28191,1,0,0:0:0:0:
256,96,28520,1,8,0:0:0:0:
256,64,29067,1,0,0:0:0:0:
256,64,29286,1,0,0:0:0:0:
256,64,29505,1,8,0:0:0:0:
256,106,29724,1,8,0:0:0:0:
256,106,29834,1,8,0:0:0:0:
256,64,29943,1,0,0:0:0:0:
256,64,30162,1,8,0:0:0:0:
263,95,30381,1,0,0:0:0:0:
256,64,30600,1,8,0:0:0:0:
256,128,30819,1,0,0:0:0:0:
256,96,31038,1,0,0:0:0:0:
256,96,31257,1,8,0:0:0:0:
187,47,31476,1,0,0:0:0:0:
247,90,31586,1,8,0:0:0:0:
256,96,31695,1,0,0:0:0:0:
256,96,32024,1,8,0:0:0:0:
256,64,32571,1,0,0:0:0:0:
256,64,32790,1,0,0:0:0:0:
256,64,33009,1,8,0:0:0:0:
272,76,33228,1,0,0:0:0:0:
245,97,33337,1,0,0:0:0:0:
256,64,33447,1,8,0:0:0:0:
212,37,33666,1,0,0:0:0:0:
256,32,33775,1,8,0:0:0:0:
228,73,33994,1,0,0:0:0:0:
218,74,34104,1,8,0:0:0:0:
256,64,34323,1,4,0:0:0:0:
256,64,34542,1,4,0:0:0:0:
256,64,34980,1,8,0:0:0:0:
256,64,35418,1,8,0:0:0:0:
256,64,35637,1,0,0:0:0:0:
256,64,35856,1,8,0:0:0:0:
256,64,36075,1,4,0:0:0:0:
256,64,36294,1,4,0:0:0:0:
217,49,36513,1,8,0:0:0:0:
256,64,36732,1,8,0:0:0:0:
217,49,36951,1,0,0:0:0:0:
256,64,37170,1,8,0:0:0:0:
256,64,37389,1,8,0:0:0:0:
256,64,37827,1,4,0:0:0:0:
256,64,38046,1,4,0:0:0:0:
256,64,38483,1,8,0:0:0:0:
256,64,38921,1,8,0:0:0:0:
256,64,39140,1,0,0:0:0:0:
256,64,39359,1,8,0:0:0:0:
256,64,39578,1,4,0:0:0:0:
256,64,39797,1,4,0:0:0:0:
197,66,40016,1,8,0:0:0:0:
256,64,40235,1,0,0:0:0:0:
197,66,40454,1,0,0:0:0:0:
256,64,40673,1,8,0:0:0:0:
256,64,40892,1,8,0:0:0:0:
256,64,41330,1,4,0:0:0:0:
256,64,41549,1,4,0:0:0:0:
288,96,42206,1,4,0:0:0:0:
256,96,42425,1,4,0:0:0:0:
224,64,43082,1,4,0:0:0:0:
288,96,43301,1,4,0:0:0:0:
256,96,43958,1,4,0:0:0:0:
256,96,44177,1,4,0:0:0:0:
288,96,44834,1,4,0:0:0:0:
256,64,45272,1,4,0:0:0:0:
256,64,45710,1,4,0:0:0:0:
256,64,46148,1,4,0:0:0:0:
256,64,46586,1,8,0:0:0:0:
256,64,47024,1,8,0:0:0:0:
195,99,47243,1,0,0:0:0:0:
256,64,47462,1,8,0:0:0:0:
166,88,47571,1,8,0:0:0:0:
166,88,47681,1,8,0:0:0:0:
288,64,47900,1,0,0:0:0:0:
166,88,48118,1,0,0:0:0:0:
288,64,48337,1,12,0:0:0:0:
224,64,49213,1,8,0:0:0:0:
224,64,49651,1,8,0:0:0:0:
224,64,49870,1,0,0:0:0:0:
224,64,50089,1,8,0:0:0:0:
224,64,50527,1,8,0:0:0:0:
229,101,50746,1,8,0:0:0:0:
224,64,50965,1,0,0:0:0:0:
224,64,51403,1,8,0:0:0:0:
224,64,51841,1,8,0:0:0:0:
224,64,52717,1,0,0:0:0:0:
224,64,53374,1,8,0:0:0:0:
224,64,53593,1,0,0:0:0:0:
224,64,54031,1,8,0:0:0:0:
224,64,54250,1,8,0:0:0:0:
224,64,54469,1,0,0:0:0:0:
224,64,54688,1,0,0:0:0:0:
224,64,54907,1,8,0:0:0:0:
224,64,55345,1,4,0:0:0:0:
224,64,56002,1,0,0:0:0:0:
224,64,56221,1,8,0:0:0:0:
224,64,56878,1,8,0:0:0:0:
224,64,57097,1,0,0:0:0:0:
224,64,57535,1,8,0:0:0:0:
224,64,57754,1,0,0:0:0:0:
224,64,58191,1,8,0:0:0:0:
224,64,58410,1,8,0:0:0:0:
230,103,58629,1,8,0:0:0:0:
224,64,58848,1,0,0:0:0:0:
256,64,61914,1,12,0:0:0:0:
256,128,62352,5,4,0:0:0:0:
288,64,62790,1,8,0:0:0:0:
169,95,63228,1,8,0:0:0:0:
177,40,63337,1,0,0:0:0:0:
256,192,63447,1,8,0:0:0:0:
256,192,63666,1,0,0:0:0:0:
181,27,63885,1,8,0:0:0:0:
224,64,64104,1,8,0:0:0:0:
259,84,64323,1,0,0:0:0:0:
224,64,64542,1,0,0:0:0:0:
224,64,64761,1,8,0:0:0:0:
208,40,64870,1,8,0:0:0:0:
224,64,64980,1,8,0:0:0:0:
256,32,65199,1,0,0:0:0:0:
246,73,65308,1,0,0:0:0:0:
256,32,65418,1,8,0:0:0:0:
191,50,65637,1,8,0:0:0:0:
256,32,65856,1,0,0:0:0:0:
256,88,66184,1,8,0:0:0:0:
256,88,66294,1,0,0:0:0:0:
256,88,66403,1,0,0:0:0:0:
223,66,66513,1,8,0:0:0:0:
224,192,66732,1,0,0:0:0:0:
224,192,66951,1,8,0:0:0:0:
224,192,67170,1,0,0:0:0:0:
233,61,67389,1,8,0:0:0:0:
220,44,67498,1,0,0:0:0:0:
224,192,67608,1,0,0:0:0:0:
227,123,67827,1,8,0:0:0:0:
224,192,68046,1,8,0:0:0:0:
224,43,68264,1,0,0:0:0:0:
218,29,68483,1,0,0:0:0:0:
224,192,68702,1,8,0:0:0:0:
224,192,68812,1,8,0:0:0:0:
224,192,68921,1,0,0:0:0:0:
221,79,69031,5,0,0:0:0:0:
224,192,69140,1,8,0:0:0:0:
224,192,69359,1,4,0:0:0:0:
256,160,69797,1,12,0:0:0:0:
256,160,70235,1,0,0:0:0:0:
226,111,70345,1,0,0:0:0:0:
256,96,70454,1,8,0:0:0:0:
256,96,70673,1,8,0:0:0:0:
256,96,70892,1,0,0:0:0:0:
256,96,71111,1,8,0:0:0:0:
154,146,71221,1,8,0:0:0:0:
233,96,71330,1,8,0:0:0:0:
256,96,71549,1,0,0:0:0:0:
256,96,71768,1,8,0:0:0:0:
227,88,71878,1,0,0:0:0:0:
256,96,71987,1,8,0:0:0:0:
256,96,72206,1,8,0:0:0:0:
224,64,72425,1,0,0:0:0:0:
256,96,72644,1,8,0:0:0:0:
224,64,72754,1,0,0:0:0:0:
256,96,73082,1,8,0:0:0:0:
228,88,73191,1,8,0:0:0:0:
256,96,73301,1,0,0:0:0:0:
256,96,73520,1,8,0:0:0:0:
256,96,73739,1,4,0:0:0:0:
241,93,73958,1,4,0:0:0:0:
256,128,74615,5,4,0:0:0:0:
147,113,74834,1,0,0:0:0:0:
256,96,75053,1,8,0:0:0:0:
176,72,75272,1,8,0:0:0:0:
239,97,75381,1,0,0:0:0:0:
256,96,75491,1,0,0:0:0:0:
256,96,75819,1,8,0:0:0:0:
256,64,76367,1,0,0:0:0:0:
256,64,76586,1,0,0:0:0:0:
256,64,76805,1,8,0:0:0:0:
267,87,77024,1,8,0:0:0:0:
250,93,77133,1,8,0:0:0:0:
256,64,77243,1,0,0:0:0:0:
256,64,77352,1,0,0:0:0:0:
256,64,77462,1,8,0:0:0:0:
250,93,77681,1,0,0:0:0:0:
256,64,77900,1,8,0:0:0:0:
256,128,78118,1,0,0:0:0:0:
256,96,78337,1,0,0:0:0:0:
256,96,78556,1,8,0:0:0:0:
195,61,78775,1,0,0:0:0:0:
243,63,78885,1,8,0:0:0:0:
256,96,78994,1,0,0:0:0:0:
256,96,79323,1,8,0:0:0:0:
256,64,79870,1,0,0:0:0:0:
256,64,80089,1,0,0:0:0:0:
256,64,80308,1,8,0:0:0:0:
248,114,80527,1,8,0:0:0:0:
259,78,80637,1,0,0:0:0:0:
259,78,80746,1,0,0:0:0:0:
256,32,81075,1,0,0:0:0:0:
246,55,81184,1,8,0:0:0:0:
256,128,81622,1,4,0:0:0:0:
185,82,81841,1,0,0:0:0:0:
256,96,82060,1,8,0:0:0:0:
256,96,82279,1,8,0:0:0:0:
244,108,82389,1,0,0:0:0:0:
256,96,82498,1,0,0:0:0:0:
256,96,82827,1,8,0:0:0:0:
256,64,83374,1,0,0:0:0:0:
256,64,83593,1,0,0:0:0:0:
256,64,83812,1,8,0:0:0:0:
256,106,84031,1,8,0:0:0:0:
256,106,84140,1,8,0:0:0:0:
256,64,84250,1,0,0:0:0:0:
240,57,84359,1,0,0:0:0:0:
256,64,84469,1,8,0:0:0:0:
263,95,84688,1,0,0:0:0:0:
256,64,84907,1,8,0:0:0:0:
256,128,85126,1,0,0:0:0:0:
256,96,85345,1,0,0:0:0:0:
256,96,85564,1,8,0:0:0:0:
187,47,85783,1,0,0:0:0:0:
247,90,85892,1,8,0:0:0:0:
256,96,86002,1,0,0:0:0:0:
256,96,86330,1,8,0:0:0:0:
240,57,86440,1,0,0:0:0:0:
240,57,86549,1,0,0:0:0:0:
240,57,86659,1,8,0:0:0:0:
256,64,86878,1,0,0:0:0:0:
256,64,87097,1,0,0:0:0:0:
256,64,87316,1,8,0:0:0:0:
272,76,87535,1,0,0:0:0:0:
245,97,87644,1,0,0:0:0:0:
256,64,87754,1,8,0:0:0:0:
212,37,87973,1,0,0:0:0:0:
256,32,88191,1,8,0:0:0:0:
228,73,88301,5,8,0:0:0:0:
218,74,88410,1,8,0:0:0:0:
256,64,88629,5,4,0:0:0:0:
256,64,89067,1,8,0:0:0:0:
256,64,89286,1,0,0:0:0:0:
256,64,89505,1,8,0:0:0:0:
261,90,89615,1,8,0:0:0:0:
256,64,89724,1,0,0:0:0:0:
256,64,89943,1,0,0:0:0:0:
256,64,90162,1,8,0:0:0:0:
256,64,90600,1,8,0:0:0:0:
256,64,90819,1,0,0:0:0:0:
266,86,90929,1,0,0:0:0:0:
207,42,91148,1,8,0:0:0:0:
256,64,91476,1,8,0:0:0:0:
256,64,91695,1,0,0:0:0:0:
256,64,92352,1,8,0:0:0:0:
244,71,92462,1,0,0:0:0:0:
258,57,92681,1,0,0:0:0:0:
256,64,92790,1,8,0:0:0:0:
256,64,93009,1,0,0:0:0:0:
256,64,93228,1,8,0:0:0:0:
256,64,93447,1,0,0:0:0:0:
256,64,93666,1,8,0:0:0:0:
256,64,93775,1,8,0:0:0:0:
256,64,93885,1,0,0:0:0:0:
258,126,94104,1,8,0:0:0:0:
258,126,94323,1,0,0:0:0:0:
258,126,94542,1,8,0:0:0:0:
256,64,95637,1,4,0:0:0:0:
256,64,96075,1,0,0:0:0:0:
256,64,96294,1,8,0:0:0:0:
256,64,96513,1,0,0:0:0:0:
256,64,96732,1,8,0:0:0:0:
256,64,96951,1,0,0:0:0:0:
256,64,97060,1,0,0:0:0:0:
256,64,97170,1,8,0:0:0:0:
256,64,97608,1,8,0:0:0:0:
256,64,97827,1,0,0:0:0:0:
256,64,98045,1,8,0:0:0:0:
256,64,98264,1,0,0:0:0:0:
249,79,98483,1,0,0:0:0:0:
256,64,98702,1,8,0:0:0:0:
245,78,98812,1,0,0:0:0:0:
256,64,98921,1,8,0:0:0:0:
256,96,99359,1,8,0:0:0:0:
243,80,99469,1,8,0:0:0:0:
256,96,99578,1,8,0:0:0:0:
256,96,99797,1,0,0:0:0:0:
256,96,100016,1,8,0:0:0:0:
243,115,100235,1,8,0:0:0:0:
256,96,100454,1,0,0:0:0:0:
252,56,100564,1,0,0:0:0:0:
256,96,100673,1,8,0:0:0:0:
256,96,100892,1,4,0:0:0:0:
197,46,101330,1,8,0:0:0:0:
197,46,101549,1,8,0:0:0:0:
256,96,101768,1,0,0:0:0:0:
197,46,101987,1,8,0:0:0:0:
256,96,102097,1,0,0:0:0:0:
198,36,102316,1,8,0:0:0:0:
256,96,102425,1,8,0:0:0:0:
256,64,102644,1,4,0:0:0:0:
256,64,102863,1,4,0:0:0:0:
256,64,103301,1,8,0:0:0:0:
256,64,103739,1,8,0:0:0:0:
256,64,103958,1,0,0:0:0:0:
256,64,104177,1,8,0:0:0:0:
256,64,104396,1,4,0:0:0:0:
256,64,104615,1,4,0:0:0:0:
217,49,104834,1,8,0:0:0:0:
256,64,105053,1,8,0:0:0:0:
217,49,105272,1,0,0:0:0:0:
256,64,105491,1,8,0:0:0:0:
256,64,105710,1,8,0:0:0:0:
256,64,106148,1,4,0:0:0:0:
256,64,106367,1,4,0:0:0:0:
256,64,106805,1,8,0:0:0:0:
256,64,107243,1,8,0:0:0:0:
256,64,107462,1,0,0:0:0:0:
256,64,107681,1,8,0:0:0:0:
256,64,107900,1,4,0:0:0:0:
256,64,108118,1,4,0:0:0:0:
197,66,108337,1,8,0:0:0:0:
256,64,108556,1,0,0:0:0:0:
197,66,108775,1,0,0:0:0:0:
256,64,108994,1,0,0:0:0:0:
256,64,109213,1,8,0:0:0:0:
256,64,109651,1,4,0:0:0:0:
256,64,109870,1,4,0:0:0:0:
288,96,110527,1,4,0:0:0:0:
256,96,110746,1,4,0:0:0:0:
224,64,111403,1,4,0:0:0:0:
288,96,111622,1,4,0:0:0:0:
256,96,112279,1,4,0:0:0:0:
256,96,112498,1,4,0:0:0:0:
288,96,113155,1,4,0:0:0:0:
256,64,113593,1,4,0:0:0:0:
256,64,114031,1,4,0:0:0:0:
256,64,114469,1,4,0:0:0:0:
256,64,114907,1,4,0:0:0:0:
256,64,115345,1,8,0:0:0:0:
195,99,115564,1,0,0:0:0:0:
256,64,115783,1,8,0:0:0:0:
166,88,115892,1,8,0:0:0:0:
166,88,116002,1,8,0:0:0:0:
288,64,116221,1,0,0:0:0:0:
166,88,116440,1,0,0:0:0:0:
288,64,116659,1,12,0:0:0:0:
256,192,122790,5,8,0:0:0:0:
256,192,123666,1,4,0:0:0:0:
224,192,124104,1,8,0:0:0:0:
224,128,124542,1,4,0:0:0:0:
243,147,124761,1,0,0:0:0:0:
256,192,124980,1,8,0:0:0:0:
224,128,125418,1,4,0:0:0:0:
234,136,125637,1,0,0:0:0:0:
243,115,125856,1,8,0:0:0:0:
261,114,125965,1,8,0:0:0:0:
234,136,126075,1,8,0:0:0:0:
256,192,126294,1,4,0:0:0:0:
196,74,126513,1,8,0:0:0:0:
256,160,126732,1,8,0:0:0:0:
256,192,127170,1,4,0:0:0:0:
224,192,127608,1,8,0:0:0:0:
224,128,128045,1,4,0:0:0:0:
184,94,128264,1,0,0:0:0:0:
243,115,128483,1,8,0:0:0:0:
224,128,128921,1,4,0:0:0:0:
249,104,129140,1,0,0:0:0:0:
243,115,129359,1,8,0:0:0:0:
249,104,129469,1,0,0:0:0:0:
187,38,129578,1,8,0:0:0:0:
256,192,129797,1,0,0:0:0:0:
256,160,130673,1,12,0:0:0:0:
90,90,130892,1,0,0:0:0:0:
288,96,131111,1,8,0:0:0:0:
256,64,131549,1,8,0:0:0:0:
224,32,131768,1,8,0:0:0:0:
256,64,131878,1,0,0:0:0:0:
193,44,132097,1,0,0:0:0:0:
256,96,132206,1,8,0:0:0:0:
256,96,132425,1,12,0:0:0:0:
256,96,132644,1,12,0:0:0:0:
256,96,132863,1,12,0:0:0:0:
256,96,133082,1,12,0:0:0:0:
256,192,134176,5,0,0:0:0:0:
256,192,135051,1,0,0:0:0:0:
256,192,135927,1,8,0:0:0:0:
256,192,137679,1,0,0:0:0:0:
256,192,138555,1,8,0:0:0:0:
256,192,139431,5,0,0:0:0:0:
256,192,140745,1,8,0:0:0:0:
256,192,141183,5,4,0:0:0:0:
288,160,141620,1,8,0:0:0:0:
288,96,141839,1,0,0:0:0:0:
288,96,141949,1,0,0:0:0:0:
256,192,142058,1,0,0:0:0:0:
256,192,142277,1,0,0:0:0:0:
256,96,142496,1,8,0:0:0:0:
256,192,142934,1,0,0:0:0:0:
256,128,143372,1,8,0:0:0:0:
256,128,143591,1,8,0:0:0:0:
256,128,143810,1,0,0:0:0:0:
190,86,143920,1,8,0:0:0:0:
256,128,144029,1,0,0:0:0:0:
224,96,144248,1,8,0:0:0:0:
191,89,144467,1,8,0:0:0:0:
256,128,144686,1,0,0:0:0:0:
256,96,145999,1,0,0:0:0:0:
256,96,146218,1,0,0:0:0:0:
256,128,146437,5,12,0:0:0:0:
288,64,146875,1,8,0:0:0:0:
169,95,147313,1,8,0:0:0:0:
177,40,147423,1,0,0:0:0:0:
256,192,147532,1,8,0:0:0:0:
256,192,147751,1,0,0:0:0:0:
181,27,147970,1,8,0:0:0:0:
224,64,148189,1,8,0:0:0:0:
259,84,148408,1,0,0:0:0:0:
224,64,148627,1,0,0:0:0:0:
224,64,148846,1,8,0:0:0:0:
208,40,148956,1,8,0:0:0:0:
224,64,149065,1,8,0:0:0:0:
256,32,149284,1,0,0:0:0:0:
246,73,149394,1,0,0:0:0:0:
256,32,149503,1,8,0:0:0:0:
191,50,149722,1,8,0:0:0:0:
256,32,149941,1,0,0:0:0:0:
256,88,150270,1,8,0:0:0:0:
256,88,150379,1,0,0:0:0:0:
256,88,150489,1,0,0:0:0:0:
223,66,150598,1,8,0:0:0:0:
224,192,150817,1,0,0:0:0:0:
224,192,151036,1,8,0:0:0:0:
224,192,151255,1,0,0:0:0:0:
233,61,151474,1,8,0:0:0:0:
220,44,151583,1,0,0:0:0:0:
224,192,151693,1,0,0:0:0:0:
227,123,151912,1,8,0:0:0:0:
224,192,152131,1,8,0:0:0:0:
224,43,152350,1,0,0:0:0:0:
218,29,152569,1,0,0:0:0:0:
224,192,152788,1,8,0:0:0:0:
224,192,152897,1,8,0:0:0:0:
224,192,153007,1,0,0:0:0:0:
221,79,153116,5,0,0:0:0:0:
224,192,153226,1,8,0:0:0:0:
224,192,153445,1,4,0:0:0:0:
256,160,153883,1,12,0:0:0:0:
256,160,154321,1,0,0:0:0:0:
226,111,154430,1,0,0:0:0:0:
256,96,154540,1,8,0:0:0:0:
256,96,154759,1,8,0:0:0:0:
256,96,154978,1,0,0:0:0:0:
256,96,155197,1,8,0:0:0:0:
233,96,155416,1,0,0:0:0:0:
256,96,155634,1,0,0:0:0:0:
256,96,155853,1,8,0:0:0:0:
227,88,155963,1,0,0:0:0:0:
256,96,156072,1,8,0:0:0:0:
256,96,156291,1,8,0:0:0:0:
152,93,156401,1,8,0:0:0:0:
224,64,156510,1,0,0:0:0:0:
256,96,156729,1,8,0:0:0:0:
224,64,156839,1,0,0:0:0:0:
256,96,157167,1,8,0:0:0:0:
228,88,157277,1,8,0:0:0:0:
256,96,157386,1,0,0:0:0:0:
256,96,157605,1,8,0:0:0:0:
256,96,157824,1,4,0:0:0:0:
241,93,158043,1,4,0:0:0:0:
256,128,158700,5,4,0:0:0:0:
195,68,158919,1,0,0:0:0:0:
256,96,159138,1,8,0:0:0:0:
262,105,159357,1,0,0:0:0:0:
262,105,159467,1,0,0:0:0:0:
256,96,159576,1,8,0:0:0:0:
256,96,159905,1,8,0:0:0:0:
256,64,160452,1,0,0:0:0:0:
256,64,160671,1,0,0:0:0:0:
256,64,160890,1,8,0:0:0:0:
252,78,161109,1,0,0:0:0:0:
240,53,161218,1,8,0:0:0:0:
256,64,161328,1,0,0:0:0:0:
256,64,161547,1,8,0:0:0:0:
195,64,161656,1,0,0:0:0:0:
256,64,161766,1,8,0:0:0:0:
227,40,161875,1,0,0:0:0:0:
256,96,161985,1,8,0:0:0:0:
256,128,162204,1,0,0:0:0:0:
254,76,162423,1,0,0:0:0:0:
256,64,162642,1,8,0:0:0:0:
254,76,162861,1,0,0:0:0:0:
254,76,162970,1,0,0:0:0:0:
256,96,163080,1,8,0:0:0:0:
256,96,163408,1,8,0:0:0:0:
256,64,163956,1,0,0:0:0:0:
256,64,164175,1,0,0:0:0:0:
256,64,164394,1,8,0:0:0:0:
259,92,164613,1,0,0:0:0:0:
259,92,164722,1,0,0:0:0:0:
256,64,164832,1,8,0:0:0:0:
256,64,165051,1,0,0:0:0:0:
224,32,165270,1,8,0:0:0:0:
249,68,165379,1,8,0:0:0:0:
256,64,165489,1,8,0:0:0:0:
256,128,165707,5,4,0:0:0:0:
243,90,165926,1,0,0:0:0:0:
256,96,166145,1,8,0:0:0:0:
249,79,166364,1,0,0:0:0:0:
265,85,166474,1,0,0:0:0:0:
256,96,166583,1,8,0:0:0:0:
256,96,166912,1,8,0:0:0:0:
256,64,167459,1,0,0:0:0:0:
256,64,167678,1,0,0:0:0:0:
256,64,167897,1,8,0:0:0:0:
261,87,168116,1,0,0:0:0:0:
261,87,168226,1,8,0:0:0:0:
256,64,168335,1,0,0:0:0:0:
256,64,168554,1,0,0:0:0:0:
256,64,168773,1,8,0:0:0:0:
225,47,168883,1,0,0:0:0:0:
256,96,168992,1,8,0:0:0:0:
248,71,169102,1,8,0:0:0:0:
256,128,169211,1,0,0:0:0:0:
238,88,169430,1,0,0:0:0:0:
256,64,169649,1,8,0:0:0:0:
241,84,169868,1,0,0:0:0:0:
241,84,169978,1,0,0:0:0:0:
256,96,170087,1,8,0:0:0:0:
256,96,170416,1,8,0:0:0:0:
256,64,170963,1,0,0:0:0:0:
256,64,171182,1,0,0:0:0:0:
256,64,171401,1,8,0:0:0:0:
238,83,171620,5,0,0:0:0:0:
238,83,171729,1,0,0:0:0:0:
256,64,171839,1,8,0:0:0:0:
229,86,172058,1,8,0:0:0:0:
256,64,172167,1,0,0:0:0:0:
206,27,172715,1,4,0:0:0:0:
177,55,172934,1,4,0:0:0:0:
255,50,173153,1,8,0:0:0:0:
181,13,173372,1,8,0:0:0:0:
256,64,173810,1,8,0:0:0:0:
256,64,174248,1,8,0:0:0:0:
256,64,174467,1,4,0:0:0:0:
256,64,174686,1,4,0:0:0:0:
256,64,175124,1,8,0:0:0:0:
256,64,175562,1,8,0:0:0:0:
256,64,175780,1,0,0:0:0:0:
256,64,175999,1,8,0:0:0:0:
256,64,176218,1,4,0:0:0:0:
256,64,176437,1,4,0:0:0:0:
266,46,176875,1,8,0:0:0:0:
256,64,177313,1,8,0:0:0:0:
256,64,177751,1,8,0:0:0:0:
256,64,177970,1,4,0:0:0:0:
256,64,178189,1,4,0:0:0:0:
181,25,178627,1,8,0:0:0:0:
256,64,179065,1,8,0:0:0:0:
256,64,179284,1,8,0:0:0:0:
256,64,179503,1,8,0:0:0:0:
256,64,179722,1,4,0:0:0:0:
256,64,179941,1,4,0:0:0:0:
256,64,180379,1,8,0:0:0:0:
256,64,180817,1,8,0:0:0:0:
256,64,181036,1,0,0:0:0:0:
256,64,181255,1,8,0:0:0:0:
256,64,181474,1,4,0:0:0:0:
256,64,181693,1,4,0:0:0:0:
217,49,181912,1,8,0:0:0:0:
256,64,182131,1,8,0:0:0:0:
217,49,182350,1,0,0:0:0:0:
256,64,182569,1,8,0:0:0:0:
256,64,182788,1,8,0:0:0:0:
256,64,183226,1,4,0:0:0:0:
256,64,183445,1,4,0:0:0:0:
256,64,183883,1,8,0:0:0:0:
256,64,184321,1,8,0:0:0:0:
256,64,184540,1,0,0:0:0:0:
256,64,184759,1,8,0:0:0:0:
256,64,184978,1,4,0:0:0:0:
256,64,185197,1,4,0:0:0:0:
197,66,185416,1,8,0:0:0:0:
256,64,185634,1,0,0:0:0:0:
197,66,185853,1,0,0:0:0:0:
256,64,186072,1,8,0:0:0:0:
256,64,186291,1,8,0:0:0:0:
256,64,186729,1,4,0:0:0:0:
256,64,186948,1,4,0:0:0:0:
288,96,187605,1,4,0:0:0:0:
256,96,187824,1,4,0:0:0:0:
231,73,188262,1,8,0:0:0:0:
224,64,188481,1,4,0:0:0:0:
288,96,188700,1,4,0:0:0:0:
256,96,189357,1,4,0:0:0:0:
256,96,189576,1,4,0:0:0:0:
253,67,190014,1,8,0:0:0:0:
288,96,190233,1,4,0:0:0:0:
256,64,190671,1,4,0:0:0:0:
256,64,191109,1,4,0:0:0:0:
256,64,191547,1,4,0:0:0:0:
256,64,191985,1,8,0:0:0:0:
256,64,192423,1,8,0:0:0:0:
195,99,192642,1,0,0:0:0:0:
256,64,192861,1,8,0:0:0:0:
166,88,192970,1,8,0:0:0:0:
166,88,193080,1,8,0:0:0:0:
288,64,193299,1,0,0:0:0:0:
166,88,193518,1,8,0:0:0:0:
288,64,193737,1,4,0:0:0:0:
