osu file format v14

[General]
AudioFilename: audio.mp3
AudioLeadIn: 0
PreviewTime: 133850
Countdown: 0
SampleSet: Normal
StackLeniency: 0.7
Mode: 1
LetterboxInBreaks: 0
WidescreenStoryboard: 1

[Editor]
Bookmarks: 1040,13302,20310,34324,41331,48339,62353,74616,88631,102645,116660,123667,130675,134178,146441,158704,165711,172718,179726
DistanceSpacing: 0.5
BeatDivisor: 1
GridSize: 4
TimelineZoom: 1.199999

[Metadata]
Title:Lost Umbrella
TitleUnicode:ロストアンブレラ
Artist:rei sirose
ArtistUnicode:rei sirose
Creator:gaston_2199
Version:Kantan
Source:
Tags:稲葉曇 inabakumori anticyclone ぬくぬくにぎりめし nukunukunigirimeshi 白瀬玲 dustcell ema EM A 久遠千歳 Kudou Chitose Kudo vtuber virtual youtuber youtube cover japanese rock jrock j-rock KTYN KitajimaYN yuni Waribashi
BeatmapID:2991271
BeatmapSetID:1425118

[Difficulty]
HPDrainRate:8
CircleSize:2
OverallDifficulty:3
ApproachRate:10
SliderMultiplier:1.4
SliderTickRate:1

[Events]
//Background and Video events
0,0,"67493108_p0.jpg",0,0
//Break Periods
2,13501,19858
2,116859,122340
//Storyboard Layer 0 (Background)
//Storyboard Layer 1 (Fail)
//Storyboard Layer 2 (Pass)
//Storyboard Layer 3 (Foreground)
//Storyboard Layer 4 (Overlay)
//Storyboard Sound Samples

[TimingPoints]
164,218.978102189781,4,1,0,70,1,8
1039,437.956204379562,4,1,0,70,1,0
8046,218.978102189781,4,1,0,70,1,0
8046,-166.666666666667,4,1,0,70,0,0
13292,-166.666666666667,4,1,0,60,0,0
20300,-166.666666666667,4,1,0,80,0,0
48337,-166.666666666667,4,1,0,80,0,1
48443,-166.666666666667,4,1,0,70,0,1
58848,-166.666666666667,4,1,0,60,0,0
61905,-166.666666666667,4,1,0,80,0,0
62352,-166.666666666667,4,1,0,90,0,1
69359,-166.666666666667,4,1,0,80,0,0
69797,-166.666666666667,4,1,0,90,0,1
74177,-166.666666666667,4,1,0,60,0,0
74575,-166.666666666667,4,1,0,80,0,0
81071,-166.666666666667,4,1,0,70,0,0
81618,-166.666666666667,4,1,0,80,0,0
88840,-166.666666666667,4,1,0,70,0,0
102635,-166.666666666667,4,1,0,80,0,0
116764,-166.666666666667,4,1,0,70,0,0
130665,-166.666666666667,4,1,0,80,0,0
133301,218.978102189781,4,1,0,20,1,8
134094,-166.666666666667,4,1,0,70,0,8
134176,437.956204379562,4,1,0,70,1,0
141183,218.978102189781,4,1,0,60,1,0
141183,-166.666666666667,4,1,0,60,0,0
145562,218.978102189781,4,1,0,60,1,8
145991,-166.666666666667,4,1,0,60,0,0
146437,-166.666666666667,4,1,0,90,0,1
153445,-166.666666666667,4,1,0,80,0,0
153883,-166.666666666667,4,1,0,90,0,1
158262,-166.666666666667,4,1,0,80,0,0
158700,-166.666666666667,4,1,0,90,0,1
172167,-166.666666666667,4,1,0,90,0,0
172711,-166.666666666667,4,1,0,80,0,0

[HitObjects]
256,192,1039,5,0,0:0:0:0:
267,151,1914,1,0,0:0:0:0:
255,153,2790,1,8,0:0:0:0:
256,192,4542,1,0,0:0:0:0:
256,192,5418,1,8,0:0:0:0:
260,185,6294,1,0,0:0:0:0:
256,192,8046,1,4,0:0:0:0:
256,192,8921,1,8,0:0:0:0:
239,171,9359,1,0,0:0:0:0:
256,192,9797,1,8,0:0:0:0:
256,128,10673,1,0,0:0:0:0:
247,191,11111,1,0,0:0:0:0:
256,128,11549,1,8,0:0:0:0:
256,96,12425,1,4,0:0:0:0:
256,96,13301,1,12,0:0:0:0:
256,128,20308,5,4,0:0:0:0:
256,96,21184,1,8,0:0:0:0:
256,64,22060,1,0,0:0:0:0:
254,111,22498,1,8,0:0:0:0:
210,47,22936,1,0,0:0:0:0:
256,128,23812,1,0,0:0:0:0:
256,96,24688,1,8,0:0:0:0:
256,64,25564,1,0,0:0:0:0:
258,112,26878,1,8,0:0:0:0:
256,128,27316,1,4,0:0:0:0:
256,96,28191,1,8,0:0:0:0:
256,64,29067,1,0,0:0:0:0:
256,64,29505,1,8,0:0:0:0:
256,64,29943,1,0,0:0:0:0:
256,128,30819,1,0,0:0:0:0:
256,96,31695,1,8,0:0:0:0:
256,64,32571,1,0,0:0:0:0:
248,120,33447,1,8,0:0:0:0:
256,64,34323,1,4,0:0:0:0:
256,64,35637,1,8,0:0:0:0:
256,64,36075,1,4,0:0:0:0:
256,64,36951,1,0,0:0:0:0:
249,80,37389,1,8,0:0:0:0:
256,64,37827,1,4,0:0:0:0:
256,64,39140,1,8,0:0:0:0:
256,64,39578,1,4,0:0:0:0:
266,19,40454,1,8,0:0:0:0:
245,69,40892,1,8,0:0:0:0:
256,64,41330,1,4,0:0:0:0:
238,91,42206,1,4,0:0:0:0:
224,64,43082,1,4,0:0:0:0:
277,221,43958,1,4,0:0:0:0:
288,96,44834,1,4,0:0:0:0:
248,93,45272,1,4,0:0:0:0:
256,64,45710,1,4,0:0:0:0:
248,93,46148,1,4,0:0:0:0:
256,64,46586,1,8,0:0:0:0:
256,82,47462,1,8,0:0:0:0:
250,61,47900,1,0,0:0:0:0:
288,64,48337,1,12,0:0:0:0:
224,64,49213,1,8,0:0:0:0:
224,64,50089,1,0,0:0:0:0:
224,64,50527,1,8,0:0:0:0:
224,64,50965,1,0,0:0:0:0:
224,64,51841,1,8,0:0:0:0:
224,64,52717,1,0,0:0:0:0:
224,64,53593,1,8,0:0:0:0:
224,64,55345,1,4,0:0:0:0:
224,64,56221,1,8,0:0:0:0:
224,64,57097,1,0,0:0:0:0:
224,64,57973,1,8,0:0:0:0:
222,54,58410,1,8,0:0:0:0:
224,64,58848,1,0,0:0:0:0:
256,64,61914,1,12,0:0:0:0:
256,128,62352,5,4,0:0:0:0:
256,192,63228,1,8,0:0:0:0:
250,124,63666,1,8,0:0:0:0:
224,64,64104,1,0,0:0:0:0:
93,159,64980,1,0,0:0:0:0:
256,32,65418,1,8,0:0:0:0:
256,32,65856,1,0,0:0:0:0:
224,192,66732,1,8,0:0:0:0:
249,68,67608,1,0,0:0:0:0:
224,192,68046,1,8,0:0:0:0:
224,192,68483,1,8,0:0:0:0:
224,192,68921,1,8,0:0:0:0:
224,192,69359,1,4,0:0:0:0:
256,160,70235,1,8,0:0:0:0:
256,96,71111,1,8,0:0:0:0:
256,96,71549,1,0,0:0:0:0:
256,96,71987,1,8,0:0:0:0:
256,96,73301,1,8,0:0:0:0:
256,96,73739,1,4,0:0:0:0:
256,128,74615,5,4,0:0:0:0:
256,96,75491,1,8,0:0:0:0:
256,64,76367,1,0,0:0:0:0:
254,111,76805,1,8,0:0:0:0:
210,47,77243,1,0,0:0:0:0:
256,128,78118,1,0,0:0:0:0:
256,96,78994,1,8,0:0:0:0:
256,64,79870,1,0,0:0:0:0:
240,57,81184,1,8,0:0:0:0:
256,128,81622,1,4,0:0:0:0:
256,96,82498,1,8,0:0:0:0:
256,64,83374,1,0,0:0:0:0:
256,64,83812,1,8,0:0:0:0:
256,64,84250,1,0,0:0:0:0:
256,128,85126,1,0,0:0:0:0:
256,96,86002,1,8,0:0:0:0:
251,127,86440,1,8,0:0:0:0:
256,64,86878,1,0,0:0:0:0:
248,120,87754,1,8,0:0:0:0:
256,64,88629,1,4,0:0:0:0:
256,64,89505,5,8,0:0:0:0:
256,64,89943,1,0,0:0:0:0:
184,18,90381,1,8,0:0:0:0:
256,64,91257,1,0,0:0:0:0:
256,64,92571,1,0,0:0:0:0:
256,64,93009,1,8,0:0:0:0:
224,59,93447,1,0,0:0:0:0:
256,64,93885,1,8,0:0:0:0:
254,72,94323,1,0,0:0:0:0:
256,64,95637,1,4,0:0:0:0:
256,64,96513,1,0,0:0:0:0:
256,64,96951,1,8,0:0:0:0:
182,15,97827,1,0,0:0:0:0:
123,169,98264,1,0,0:0:0:0:
235,73,98702,1,8,0:0:0:0:
256,96,99578,1,8,0:0:0:0:
256,96,100016,1,0,0:0:0:0:
233,81,100454,1,8,0:0:0:0:
256,96,100892,1,4,0:0:0:0:
256,64,102644,1,4,0:0:0:0:
256,64,103958,1,8,0:0:0:0:
256,64,104396,1,4,0:0:0:0:
256,64,105272,1,0,0:0:0:0:
249,80,105710,1,8,0:0:0:0:
256,64,106148,1,4,0:0:0:0:
256,64,107462,1,8,0:0:0:0:
256,64,107900,1,4,0:0:0:0:
266,19,108775,1,8,0:0:0:0:
245,69,109213,1,8,0:0:0:0:
256,64,109651,1,4,0:0:0:0:
238,91,110527,1,4,0:0:0:0:
224,64,111403,1,4,0:0:0:0:
360,164,112279,1,4,0:0:0:0:
288,96,113155,5,4,0:0:0:0:
248,93,113593,1,4,0:0:0:0:
256,64,114031,1,4,0:0:0:0:
248,93,114469,1,4,0:0:0:0:
256,64,114907,1,8,0:0:0:0:
256,82,115783,1,8,0:0:0:0:
250,61,116221,1,0,0:0:0:0:
288,64,116659,1,12,0:0:0:0:
256,192,122790,5,0,0:0:0:0:
256,192,123666,1,12,0:0:0:0:
224,128,124542,1,12,0:0:0:0:
224,128,125418,1,4,0:0:0:0:
256,192,126294,1,12,0:0:0:0:
256,192,127170,1,4,0:0:0:0:
224,128,128045,1,4,0:0:0:0:
224,128,128921,1,12,0:0:0:0:
256,160,130673,1,12,0:0:0:0:
256,64,131549,1,0,0:0:0:0:
250,140,131987,1,0,0:0:0:0:
256,96,132425,1,12,0:0:0:0:
256,96,132863,1,12,0:0:0:0:
256,192,134176,5,0,0:0:0:0:
250,71,135051,1,0,0:0:0:0:
250,71,135927,1,8,0:0:0:0:
248,66,137679,1,0,0:0:0:0:
256,192,138555,1,8,0:0:0:0:
248,66,139431,1,0,0:0:0:0:
256,192,141183,5,4,0:0:0:0:
256,192,142058,1,8,0:0:0:0:
235,78,142496,1,8,0:0:0:0:
256,192,142934,1,0,0:0:0:0:
256,128,143810,1,0,0:0:0:0:
243,97,144248,1,8,0:0:0:0:
256,128,144686,1,0,0:0:0:0:
256,96,146437,1,12,0:0:0:0:
256,192,147313,1,8,0:0:0:0:
250,124,147751,1,8,0:0:0:0:
224,64,148189,1,0,0:0:0:0:
93,159,149065,1,0,0:0:0:0:
256,32,149503,1,8,0:0:0:0:
256,32,149941,1,0,0:0:0:0:
224,192,150817,1,8,0:0:0:0:
249,68,151693,1,0,0:0:0:0:
224,192,152131,1,8,0:0:0:0:
224,192,152569,1,8,0:0:0:0:
224,192,153007,1,8,0:0:0:0:
224,192,153445,1,4,0:0:0:0:
256,160,154321,1,8,0:0:0:0:
256,96,155197,1,0,0:0:0:0:
256,96,155634,1,0,0:0:0:0:
256,96,156072,1,8,0:0:0:0:
189,53,156510,1,8,0:0:0:0:
256,96,157386,1,8,0:0:0:0:
256,96,157824,1,4,0:0:0:0:
256,128,158700,5,12,0:0:0:0:
225,94,159576,1,0,0:0:0:0:
266,93,160014,5,0,0:0:0:0:
256,64,160452,1,8,0:0:0:0:
256,64,161766,1,8,0:0:0:0:
256,128,162204,1,0,0:0:0:0:
145,2,163080,1,8,0:0:0:0:
259,85,163518,1,8,0:0:0:0:
256,64,163956,1,0,0:0:0:0:
259,84,164832,1,0,0:0:0:0:
224,32,165270,1,8,0:0:0:0:
256,128,165707,5,4,0:0:0:0:
256,96,166583,1,0,0:0:0:0:
259,84,167021,1,0,0:0:0:0:
256,64,167459,1,8,0:0:0:0:
256,64,168773,1,8,0:0:0:0:
256,128,169211,1,0,0:0:0:0:
256,96,170087,1,8,0:0:0:0:
256,96,170525,1,8,0:0:0:0:
256,64,170963,1,0,0:0:0:0:
256,64,171839,1,8,0:0:0:0:
206,27,172715,1,4,0:0:0:0:
256,64,174467,1,4,0:0:0:0:
49,69,175562,1,8,0:0:0:0:
256,64,176218,1,4,0:0:0:0:
256,64,177970,1,4,0:0:0:0:
77,161,179065,1,8,0:0:0:0:
256,64,179722,1,4,0:0:0:0:
256,64,181036,1,8,0:0:0:0:
256,64,181474,1,4,0:0:0:0:
256,64,182350,1,0,0:0:0:0:
249,80,182788,1,8,0:0:0:0:
256,64,183226,1,4,0:0:0:0:
256,64,184540,1,8,0:0:0:0:
256,64,184978,1,4,0:0:0:0:
266,19,185853,1,8,0:0:0:0:
245,69,186291,1,8,0:0:0:0:
256,64,186729,1,4,0:0:0:0:
238,91,187605,1,4,0:0:0:0:
224,64,188481,1,4,0:0:0:0:
268,221,189357,1,4,0:0:0:0:
288,96,190233,1,4,0:0:0:0:
248,93,190671,1,4,0:0:0:0:
256,64,191109,1,4,0:0:0:0:
248,93,191547,1,4,0:0:0:0:
256,64,191985,1,8,0:0:0:0:
256,82,192861,1,8,0:0:0:0:
250,61,193299,1,8,0:0:0:0:
288,64,193737,1,4,0:0:0:0:
