osu file format v14

[General]
AudioFilename: audio.mp3
AudioLeadIn: 0
PreviewTime: 133850
Countdown: 0
SampleSet: Normal
StackLeniency: 0.7
Mode: 1
LetterboxInBreaks: 0
WidescreenStoryboard: 1

[Editor]
Bookmarks: 1040,13302,20310,34324,41331,48339,62353,74616,88631,102645,116660,123667,130675,134178,146441,158704,165711,172718,179726
DistanceSpacing: 0.5
BeatDivisor: 8
GridSize: 32
TimelineZoom: 1.899999

[Metadata]
Title:Lost Umbrella
TitleUnicode:ロストアンブレラ
Artist:rei sirose
ArtistUnicode:rei sirose
Creator:gaston_2199
Version:Huh?
Source:
Tags:稲葉曇 inabakumori anticyclone ぬくぬくにぎりめし nukunukunigirimeshi 白瀬玲 dustcell ema EM A 久遠千歳 Kudou Chitose Kudo vtuber virtual youtuber youtube cover japanese rock jrock j-rock KTYN KitajimaYN yuni Waribashi
BeatmapID:4074431
BeatmapSetID:1425118

[Difficulty]
HPDrainRate:6
CircleSize:2
OverallDifficulty:8
ApproachRate:10
SliderMultiplier:1.4
SliderTickRate:1

[Events]
//Background and Video events
0,0,"67493108_p0.jpg",0,0
//Break Periods
2,116859,122340
//Storyboard Layer 0 (Background)
//Storyboard Layer 1 (Fail)
//Storyboard Layer 2 (Pass)
//Storyboard Layer 3 (Foreground)
//Storyboard Layer 4 (Overlay)
//Storyboard Sound Samples

[TimingPoints]
164,218.978102189781,4,1,0,70,1,8
1039,437.956204379562,4,1,0,70,1,0
8046,218.978102189781,4,1,0,70,1,0
8046,-133.333333333333,4,1,0,70,0,0
12421,-100,4,1,0,70,0,0
13297,-142.857142857143,4,1,0,80,0,0
13407,-200,4,1,0,60,0,0
19867,-10000,4,1,0,60,0,0
20300,-100,4,1,0,80,0,0
34319,-90.9090909090909,4,1,0,80,0,0
34752,-111.111111111111,4,1,0,80,0,0
36066,-90.9090909090909,4,1,0,80,0,0
36504,-111.111111111111,4,1,0,80,0,0
37818,-90.9090909090909,4,1,0,80,0,0
38256,-111.111111111111,4,1,0,80,0,0
39570,-90.9090909090909,4,1,0,80,0,0
40008,-111.111111111111,4,1,0,80,0,0
41321,-90.9090909090909,4,1,0,80,0,0
41761,-111.111111111111,4,1,0,80,0,0
41871,-114.300626304802,4,1,0,80,0,0
41980,-117.647058823529,4,1,0,80,0,0
42090,-121.228895654581,4,1,0,80,0,0
42197,-90.9090909090909,4,1,0,80,0,0
42635,-111.111111111111,4,1,0,80,0,0
42745,-114.300626304802,4,1,0,80,0,0
42854,-117.647058823529,4,1,0,80,0,0
42964,-121.228895654581,4,1,0,80,0,0
43073,-90.9090909090909,4,1,0,80,0,0
43509,-111.111111111111,4,1,0,80,0,0
43619,-114.300626304802,4,1,0,80,0,0
43728,-117.647058823529,4,1,0,80,0,0
43838,-121.228895654581,4,1,0,80,0,0
43949,-90.9090909090909,4,1,0,80,0,0
44386,-111.111111111111,4,1,0,80,0,0
44496,-114.300626304802,4,1,0,80,0,0
44605,-117.647058823529,4,1,0,80,0,0
44715,-121.228895654581,4,1,0,80,0,0
44825,-90.9090909090909,4,1,0,80,0,0
45046,-113.475177304965,4,1,0,80,0,0
45155,-114.689709347997,4,1,0,80,0,0
45265,-94.1176470588234,4,1,0,80,0,0
45484,-118.518518518519,4,1,0,80,0,0
45703,-97.560975609756,4,1,0,80,0,0
45922,-124.031007751938,4,1,0,80,0,0
46031,-125.483455092394,4,1,0,80,0,0
46141,-101.26582278481,4,1,0,80,0,0
46360,-130.081300813008,4,1,0,80,0,0
46579,-105.263157894737,4,1,0,80,0,0
46688,-107.732513451191,4,1,0,80,0,0
46798,-110.344827586207,4,1,0,80,0,0
46907,-113.061435209086,4,1,0,80,0,0
47017,-115.942028985507,4,1,0,80,0,0
47126,-118.94497437116,4,1,0,80,0,0
47236,-122.137404580153,4,1,0,80,0,0
47345,-125.474468237485,4,1,0,80,0,0
47455,-129.032258064516,4,1,0,80,0,0
47564,-132.762474898647,4,1,0,80,0,0
47674,-136.752136752137,4,1,0,80,0,0
47783,-140.949316170555,4,1,0,80,0,0
47893,-145.454545454545,4,1,0,80,0,0
48002,-150.212200454409,4,1,0,80,0,0
48112,-155.339805825243,4,1,0,80,0,0
48221,-160.778195833716,4,1,0,80,0,0
48337,-166.666666666667,4,1,0,80,0,1
48443,-200,4,1,0,70,0,1
55286,-166.666666666667,4,1,0,80,0,1
55398,-200,4,1,0,70,0,1
58848,-200,4,1,0,60,0,0
59718,-222.236324406651,4,1,0,60,0,0
60593,-250,4,1,0,60,0,0
61905,-66.6666666666667,4,1,0,80,0,0
62352,-100,4,1,0,90,0,1
69359,-100,4,1,0,80,0,0
69679,-125,4,1,0,80,0,0
69797,-100,4,1,0,90,0,1
73735,-83.3333333333333,4,1,0,90,0,1
74177,-125,4,1,0,60,0,0
74575,-100,4,1,0,80,0,0
80733,-100,4,1,0,60,0,0
80849,-103.241013553329,4,1,0,60,0,0
80958,-106.666666666667,4,1,0,60,0,0
81068,-110.362204724409,4,1,0,60,0,0
81177,-114.285714285714,4,1,0,90,0,0
81287,-118.538565629229,4,1,0,60,0,0
81396,-123.076923076923,4,1,0,60,0,0
81506,-128.02338326635,4,1,0,60,0,0
81615,-100,4,1,0,80,0,0
88840,-111.111111111111,4,1,0,70,0,0
94971,-125,4,1,0,70,0,0
95628,-111.111111111111,4,1,0,70,0,0
100888,-90.9090909090908,4,1,0,70,0,0
101761,-111.111111111111,4,1,0,70,0,0
101871,-109.58218663998,4,1,0,70,0,0
101926,-108.833395452851,4,1,0,70,0,0
101980,-108.108108108108,4,1,0,70,0,0
102090,-106.660172896627,4,1,0,70,0,0
102199,-105.263157894737,4,1,0,70,0,0
102309,-103.889943074004,4,1,0,70,0,0
102364,-103.216684340756,4,1,0,70,0,0
102418,-102.564102564103,4,1,0,70,0,0
102528,-101.259969945671,4,1,0,70,0,0
102636,-90.9090909090909,4,1,0,80,0,0
103069,-111.111111111111,4,1,0,80,0,0
104383,-90.9090909090909,4,1,0,80,0,0
104821,-111.111111111111,4,1,0,80,0,0
106135,-90.9090909090909,4,1,0,80,0,0
106573,-111.111111111111,4,1,0,80,0,0
107887,-90.9090909090909,4,1,0,80,0,0
108325,-111.111111111111,4,1,0,80,0,0
109638,-90.9090909090909,4,1,0,80,0,0
110080,-111.111111111111,4,1,0,80,0,0
110190,-114.300626304802,4,1,0,80,0,0
110299,-117.647058823529,4,1,0,80,0,0
110409,-121.228895654581,4,1,0,80,0,0
110514,-90.9090909090909,4,1,0,80,0,0
110955,-111.111111111111,4,1,0,80,0,0
111065,-114.300626304802,4,1,0,80,0,0
111174,-117.647058823529,4,1,0,80,0,0
111284,-121.228895654581,4,1,0,80,0,0
111390,-90.9090909090909,4,1,0,80,0,0
111829,-111.111111111111,4,1,0,80,0,0
111939,-114.300626304802,4,1,0,80,0,0
112048,-117.647058823529,4,1,0,80,0,0
112158,-121.228895654581,4,1,0,80,0,0
112266,-90.9090909090909,4,1,0,80,0,0
112709,-111.111111111111,4,1,0,80,0,0
112819,-114.300626304802,4,1,0,80,0,0
112928,-117.647058823529,4,1,0,80,0,0
113038,-121.228895654581,4,1,0,80,0,0
113142,-90.9090909090909,4,1,0,80,0,0
113363,-113.475177304965,4,1,0,80,0,0
113472,-114.689709347997,4,1,0,80,0,0
113582,-94.1176470588234,4,1,0,80,0,0
113801,-118.518518518519,4,1,0,80,0,0
114020,-97.560975609756,4,1,0,80,0,0
114239,-124.031007751938,4,1,0,80,0,0
114348,-125.483455092394,4,1,0,80,0,0
114458,-101.26582278481,4,1,0,80,0,0
114677,-130.081300813008,4,1,0,80,0,0
114896,-105.263157894737,4,1,0,80,0,0
115005,-107.732513451191,4,1,0,80,0,0
115115,-110.344827586207,4,1,0,80,0,0
115224,-113.061435209086,4,1,0,80,0,0
115334,-115.942028985507,4,1,0,80,0,0
115443,-118.94497437116,4,1,0,80,0,0
115553,-122.137404580153,4,1,0,80,0,0
115662,-125.474468237485,4,1,0,80,0,0
115772,-129.032258064516,4,1,0,80,0,0
115881,-132.762474898647,4,1,0,80,0,0
115991,-136.752136752137,4,1,0,80,0,0
116100,-140.949316170555,4,1,0,80,0,0
116210,-145.454545454545,4,1,0,80,0,0
116319,-150.212200454409,4,1,0,80,0,0
116429,-155.339805825243,4,1,0,80,0,0
116538,-160.778195833716,4,1,0,80,0,0
116648,-166.666666666667,4,1,0,80,0,0
116764,-166.522901894698,4,1,0,50,0,0
122786,-100,4,1,0,50,0,0
123110,-125,4,1,0,70,0,0
123657,-111.175098556725,4,1,0,80,0,0
123878,-125,4,1,0,80,0,0
123988,-119.978086194302,4,1,0,80,0,0
124097,-115.384615384615,4,1,0,80,0,0
124207,-111.092323300643,4,1,0,80,0,0
124316,-107.142857142857,4,1,0,80,0,0
124426,-103.431989924433,4,1,0,80,0,0
124535,-100,4,1,0,80,0,0
124754,-125,4,1,0,80,0,0
124864,-119.978086194302,4,1,0,80,0,0
124973,-115.384615384615,4,1,0,80,0,0
125083,-111.092323300643,4,1,0,80,0,0
125192,-107.142857142857,4,1,0,80,0,0
125301,-103.464566929134,4,1,0,80,0,0
125411,-100,4,1,0,80,0,0
125630,-125,4,1,0,80,0,0
125739,-120.021921812203,4,1,0,80,0,0
125849,-115.384615384615,4,1,0,80,0,0
125958,-111.129905277402,4,1,0,80,0,0
126068,-107.142857142857,4,1,0,80,0,0
126177,-103.464566929134,4,1,0,80,0,0
126287,-100,4,1,0,80,0,0
126506,-125,4,1,0,80,0,0
126615,-120.021921812203,4,1,0,80,0,0
126725,-115.384615384615,4,1,0,80,0,0
126834,-111.129905277402,4,1,0,80,0,0
126944,-107.142857142857,4,1,0,80,0,0
127053,-103.464566929134,4,1,0,80,0,0
127163,-100,4,1,0,80,0,0
127382,-105.263157894737,4,1,0,80,0,0
127491,-108.094768015795,4,1,0,80,0,0
127601,-111.111111111111,4,1,0,80,0,0
127710,-114.270806157057,4,1,0,80,0,0
127820,-117.647058823529,4,1,0,80,0,0
127929,-121.195351411179,4,1,0,80,0,0
128039,-100,4,1,0,80,0,0
128258,-105.263157894737,4,1,0,80,0,0
128367,-108.094768015795,4,1,0,80,0,0
128477,-111.111111111111,4,1,0,80,0,0
128586,-114.270806157057,4,1,0,80,0,0
128696,-117.647058823529,4,1,0,80,0,0
128805,-121.195351411179,4,1,0,80,0,0
128915,-100,4,1,0,80,0,0
129134,-105.263157894737,4,1,0,80,0,0
129243,-108.094768015795,4,1,0,80,0,0
129353,-111.111111111111,4,1,0,80,0,0
129462,-114.270806157057,4,1,0,80,0,0
129572,-117.647058823529,4,1,0,80,0,0
129681,-121.195351411179,4,1,0,80,0,0
129791,-125,4,1,0,80,0,0
130665,-100,4,1,0,80,0,0
132418,-83.3333333333333,4,1,0,85,0,0
132637,-76.9230769230769,4,1,0,90,0,0
132856,-71.4285714285714,4,1,0,95,0,0
133075,-66.6666666666667,4,1,0,100,0,0
133301,218.978102189781,4,1,0,20,1,8
134094,-100,4,1,0,70,0,8
134176,437.956204379562,4,1,0,70,1,0
140628,-83.3333333333333,4,1,0,60,0,0
141183,218.978102189781,4,1,0,60,1,0
141183,-133.333333333333,4,1,0,60,0,0
145562,218.978102189781,4,1,0,60,1,8
145562,-200,4,1,0,60,0,0
146437,-100,4,1,0,90,0,1
153445,-100,4,1,0,80,0,0
153761,-125,4,1,0,80,0,0
153883,-100,4,1,0,90,0,1
157823,-83.3333333333333,4,1,0,90,0,1
158262,-125,4,1,0,80,0,0
158700,-95.2380952380952,4,1,0,90,0,1
172167,-66.6666666666667,4,1,0,90,0,0
172713,-90.9090909090909,4,1,0,80,0,0
173146,-111.111111111111,4,1,0,80,0,0
174460,-90.9090909090909,4,1,0,80,0,0
174898,-111.111111111111,4,1,0,80,0,0
176212,-90.9090909090909,4,1,0,80,0,0
176650,-111.111111111111,4,1,0,80,0,0
177964,-90.9090909090909,4,1,0,80,0,0
178402,-111.111111111111,4,1,0,80,0,0
179717,-90.9090909090909,4,1,0,80,0,0
180150,-111.111111111111,4,1,0,80,0,0
181464,-90.9090909090909,4,1,0,80,0,0
181902,-111.111111111111,4,1,0,80,0,0
183216,-90.9090909090909,4,1,0,80,0,0
183654,-111.111111111111,4,1,0,80,0,0
184968,-90.9090909090909,4,1,0,80,0,0
185406,-111.111111111111,4,1,0,80,0,0
186719,-90.9090909090909,4,1,0,80,0,0
187159,-111.111111111111,4,1,0,80,0,0
187269,-114.300626304802,4,1,0,80,0,0
187378,-117.647058823529,4,1,0,80,0,0
187488,-121.228895654581,4,1,0,80,0,0
187595,-90.9090909090909,4,1,0,80,0,0
188033,-111.111111111111,4,1,0,80,0,0
188143,-114.300626304802,4,1,0,80,0,0
188252,-117.647058823529,4,1,0,80,0,0
188362,-121.228895654581,4,1,0,80,0,0
188471,-90.9090909090909,4,1,0,80,0,0
188907,-111.111111111111,4,1,0,80,0,0
189017,-114.300626304802,4,1,0,80,0,0
189126,-117.647058823529,4,1,0,80,0,0
189236,-121.228895654581,4,1,0,80,0,0
189347,-90.9090909090909,4,1,0,80,0,0
189784,-111.111111111111,4,1,0,80,0,0
189894,-114.300626304802,4,1,0,80,0,0
190003,-117.647058823529,4,1,0,80,0,0
190113,-121.228895654581,4,1,0,80,0,0
190223,-90.9090909090909,4,1,0,80,0,0
190444,-113.475177304965,4,1,0,80,0,0
190553,-114.689709347997,4,1,0,80,0,0
190663,-94.1176470588234,4,1,0,80,0,0
190882,-118.518518518519,4,1,0,80,0,0
191101,-97.560975609756,4,1,0,80,0,0
191320,-124.031007751938,4,1,0,80,0,0
191429,-125.483455092394,4,1,0,80,0,0
191539,-101.26582278481,4,1,0,80,0,0
191758,-130.081300813008,4,1,0,80,0,0
191977,-105.263157894737,4,1,0,80,0,0
192086,-107.732513451191,4,1,0,80,0,0
192196,-110.344827586207,4,1,0,80,0,0
192305,-113.061435209086,4,1,0,80,0,0
192415,-115.942028985507,4,1,0,80,0,0
192524,-118.94497437116,4,1,0,80,0,0
192634,-122.137404580153,4,1,0,80,0,0
192743,-125.474468237485,4,1,0,80,0,0
192853,-129.032258064516,4,1,0,80,0,0
192962,-132.762474898647,4,1,0,80,0,0
193072,-136.752136752137,4,1,0,80,0,0
193181,-140.949316170555,4,1,0,80,0,0
193291,-145.454545454545,4,1,0,80,0,0
193400,-150.212200454409,4,1,0,80,0,0
193510,-155.339805825243,4,1,0,80,0,0
193619,-160.778195833716,4,1,0,80,0,0
193729,-83.3333333333333,4,1,0,80,0,0

[HitObjects]
256,192,1039,5,0,0:0:0:0:
256,192,1914,1,0,0:0:0:0:
256,192,2790,1,8,0:0:0:0:
256,192,4542,5,0,0:0:0:0:
256,192,5418,1,8,0:0:0:0:
256,192,6294,1,0,0:0:0:0:
256,192,8046,5,4,0:0:0:0:
256,192,8264,1,8,0:0:0:0:
256,192,8483,1,0,0:0:0:0:
256,192,8593,1,0,0:0:0:0:
256,192,8702,1,8,0:0:0:0:
256,192,8921,1,0,0:0:0:0:
256,192,9140,1,8,0:0:0:0:
256,192,9250,1,0,0:0:0:0:
256,192,9469,1,0,0:0:0:0:
256,192,9578,1,8,0:0:0:0:
256,192,9797,1,0,0:0:0:0:
256,128,10016,1,8,0:0:0:0:
256,128,10235,1,0,0:0:0:0:
256,128,10345,1,0,0:0:0:0:
256,128,10454,1,8,0:0:0:0:
256,128,10673,1,0,0:0:0:0:
256,128,10892,1,8,0:0:0:0:
256,128,11002,1,0,0:0:0:0:
256,128,11221,1,0,0:0:0:0:
256,128,11330,1,8,0:0:0:0:
256,128,11549,1,0,0:0:0:0:
256,128,11768,1,8,0:0:0:0:
256,128,11987,1,0,0:0:0:0:
256,128,12097,1,0,0:0:0:0:
256,96,12206,1,8,0:0:0:0:
256,96,12425,5,4,0:0:0:0:
256,96,12644,1,4,0:0:0:0:
256,96,13301,5,12,0:0:0:0:
256,96,13520,1,8,0:0:0:0:
256,96,13739,1,0,0:0:0:0:
256,96,13958,1,0,0:0:0:0:
256,96,14067,1,0,0:0:0:0:
256,96,14177,1,8,0:0:0:0:
256,128,14505,1,8,0:0:0:0:
256,160,14834,1,0,0:0:0:0:
256,160,15053,1,8,0:0:0:0:
256,160,15272,1,8,0:0:0:0:
256,160,15491,1,0,0:0:0:0:
256,160,15710,1,8,0:0:0:0:
256,160,15819,1,8,0:0:0:0:
256,160,15929,1,0,0:0:0:0:
256,128,16148,1,8,0:0:0:0:
256,128,16257,1,0,0:0:0:0:
256,160,16476,1,8,0:0:0:0:
256,160,16586,1,0,0:0:0:0:
256,160,16805,5,8,0:0:0:0:
256,160,17024,1,8,0:0:0:0:
256,128,17243,1,0,0:0:0:0:
256,128,17462,1,0,0:0:0:0:
256,128,17571,1,0,0:0:0:0:
256,128,17681,1,8,0:0:0:0:
256,128,18009,1,8,0:0:0:0:
256,128,18337,1,0,0:0:0:0:
256,128,18556,1,8,0:0:0:0:
256,128,18775,1,8,0:0:0:0:
256,128,18994,1,0,0:0:0:0:
256,128,19213,1,8,0:0:0:0:
256,128,19323,1,8,0:0:0:0:
256,128,19432,1,0,0:0:0:0:
256,192,19870,8,0,20199,0:0:0:0:
256,128,20308,5,12,0:0:0:0:
157,94,20418,1,0,0:0:0:0:
256,96,20527,1,8,0:0:0:0:
256,96,20637,1,0,0:0:0:0:
256,96,20691,1,0,0:0:0:0:
256,96,20746,1,8,0:0:0:0:
256,96,20856,1,0,0:0:0:0:
256,96,20965,1,8,0:0:0:0:
256,96,21020,1,0,0:0:0:0:
256,96,21075,1,8,0:0:0:0:
256,96,21184,1,0,0:0:0:0:
183,18,21239,1,0,0:0:0:0:
224,64,21294,1,0,0:0:0:0:
256,64,21348,1,0,0:0:0:0:
256,96,21403,1,8,0:0:0:0:
256,96,21513,1,8,0:0:0:0:
224,64,21567,1,8,0:0:0:0:
224,64,21622,1,0,0:0:0:0:
256,64,21732,1,0,0:0:0:0:
256,64,21841,1,8,0:0:0:0:
256,128,21896,1,8,0:0:0:0:
256,128,21951,1,8,0:0:0:0:
256,96,22005,1,8,0:0:0:0:
256,64,22060,1,0,0:0:0:0:
256,64,22170,1,0,0:0:0:0:
256,64,22279,1,8,0:0:0:0:
256,64,22389,1,0,0:0:0:0:
256,64,22443,1,0,0:0:0:0:
256,64,22498,1,8,0:0:0:0:
256,64,22608,1,0,0:0:0:0:
256,64,22717,1,8,0:0:0:0:
256,64,22772,1,0,0:0:0:0:
256,64,22827,1,8,0:0:0:0:
256,64,22936,1,0,0:0:0:0:
256,128,22991,1,0,0:0:0:0:
256,64,23046,1,0,0:0:0:0:
245,85,23100,1,0,0:0:0:0:
256,64,23155,1,8,0:0:0:0:
256,64,23210,1,8,0:0:0:0:
256,64,23264,1,0,0:0:0:0:
256,96,23319,1,0,0:0:0:0:
256,64,23374,1,8,0:0:0:0:
256,64,23483,1,0,0:0:0:0:
173,64,23593,1,8,0:0:0:0:
256,64,23648,1,8,0:0:0:0:
256,64,23702,1,8,0:0:0:0:
256,128,23757,1,8,0:0:0:0:
256,128,23812,1,0,0:0:0:0:
256,64,23921,1,0,0:0:0:0:
256,96,24031,1,8,0:0:0:0:
256,96,24140,1,0,0:0:0:0:
256,96,24195,1,0,0:0:0:0:
256,96,24250,1,8,0:0:0:0:
256,96,24359,1,0,0:0:0:0:
256,96,24469,1,8,0:0:0:0:
256,96,24524,1,0,0:0:0:0:
256,96,24578,1,8,0:0:0:0:
256,96,24688,1,0,0:0:0:0:
256,128,24743,1,0,0:0:0:0:
224,64,24797,1,0,0:0:0:0:
256,64,24852,1,0,0:0:0:0:
256,96,24907,1,8,0:0:0:0:
256,96,25016,1,8,0:0:0:0:
224,64,25071,1,8,0:0:0:0:
224,64,25126,1,0,0:0:0:0:
256,64,25235,1,0,0:0:0:0:
256,64,25345,1,8,0:0:0:0:
256,96,25400,1,8,0:0:0:0:
256,96,25454,1,8,0:0:0:0:
256,96,25509,1,8,0:0:0:0:
256,64,25564,1,0,0:0:0:0:
256,64,25673,1,0,0:0:0:0:
256,64,25783,1,8,0:0:0:0:
256,64,25892,1,0,0:0:0:0:
256,64,25947,1,0,0:0:0:0:
256,64,26002,1,8,0:0:0:0:
256,64,26111,1,0,0:0:0:0:
256,64,26221,1,8,0:0:0:0:
256,64,26275,1,0,0:0:0:0:
256,64,26330,1,8,0:0:0:0:
256,128,26385,1,8,0:0:0:0:
256,64,26440,1,0,0:0:0:0:
256,64,26549,1,0,0:0:0:0:
256,64,26659,1,8,0:0:0:0:
256,128,26713,1,8,0:0:0:0:
256,64,26768,1,0,0:0:0:0:
256,64,26823,1,0,0:0:0:0:
256,32,26878,1,8,0:0:0:0:
256,128,26932,1,0,0:0:0:0:
256,128,26987,1,0,0:0:0:0:
214,61,27042,1,0,0:0:0:0:
256,64,27097,1,8,0:0:0:0:
256,64,27151,1,8,0:0:0:0:
256,64,27206,1,0,0:0:0:0:
256,128,27316,5,12,0:0:0:0:
214,61,27425,1,0,0:0:0:0:
256,96,27535,1,8,0:0:0:0:
256,96,27644,1,0,0:0:0:0:
256,96,27699,1,0,0:0:0:0:
256,96,27754,1,8,0:0:0:0:
256,96,27863,1,0,0:0:0:0:
256,96,27973,1,8,0:0:0:0:
256,96,28027,1,0,0:0:0:0:
256,96,28082,1,8,0:0:0:0:
224,64,28191,1,0,0:0:0:0:
239,89,28246,1,0,0:0:0:0:
224,64,28301,1,0,0:0:0:0:
256,64,28356,1,0,0:0:0:0:
256,96,28410,1,8,0:0:0:0:
256,96,28520,1,8,0:0:0:0:
224,64,28575,1,8,0:0:0:0:
224,64,28629,1,0,0:0:0:0:
256,64,28739,1,0,0:0:0:0:
256,64,28848,1,8,0:0:0:0:
256,96,28903,1,8,0:0:0:0:
256,96,28958,1,8,0:0:0:0:
256,96,29013,1,8,0:0:0:0:
256,64,29067,1,0,0:0:0:0:
256,64,29177,1,0,0:0:0:0:
256,64,29286,1,8,0:0:0:0:
256,64,29396,1,0,0:0:0:0:
256,64,29451,1,0,0:0:0:0:
256,64,29505,1,8,0:0:0:0:
256,64,29615,1,0,0:0:0:0:
256,64,29724,1,8,0:0:0:0:
256,64,29779,1,0,0:0:0:0:
256,64,29834,1,8,0:0:0:0:
256,64,29943,1,0,0:0:0:0:
256,96,29998,1,0,0:0:0:0:
245,40,30053,1,0,0:0:0:0:
245,40,30108,1,0,0:0:0:0:
256,64,30162,1,8,0:0:0:0:
256,64,30217,1,8,0:0:0:0:
256,64,30272,1,8,0:0:0:0:
224,64,30327,1,8,0:0:0:0:
256,64,30381,1,0,0:0:0:0:
256,64,30491,1,0,0:0:0:0:
256,64,30600,1,8,0:0:0:0:
256,64,30655,1,8,0:0:0:0:
256,96,30710,1,0,0:0:0:0:
256,96,30764,1,0,0:0:0:0:
256,128,30819,1,8,0:0:0:0:
256,64,30929,1,0,0:0:0:0:
256,96,31038,1,8,0:0:0:0:
256,96,31148,1,0,0:0:0:0:
256,96,31202,1,0,0:0:0:0:
256,96,31257,1,8,0:0:0:0:
256,96,31367,1,0,0:0:0:0:
256,96,31476,1,8,0:0:0:0:
256,96,31531,1,0,0:0:0:0:
256,96,31586,1,8,0:0:0:0:
256,96,31695,1,0,0:0:0:0:
256,96,31750,1,0,0:0:0:0:
224,64,31805,1,0,0:0:0:0:
256,64,31859,1,0,0:0:0:0:
256,96,31914,1,8,0:0:0:0:
256,96,32024,1,8,0:0:0:0:
224,64,32078,1,8,0:0:0:0:
224,64,32133,1,0,0:0:0:0:
256,64,32243,1,0,0:0:0:0:
256,64,32352,1,8,0:0:0:0:
256,96,32407,1,8,0:0:0:0:
256,96,32462,1,8,0:0:0:0:
256,96,32516,1,8,0:0:0:0:
256,64,32571,1,0,0:0:0:0:
256,64,32681,1,0,0:0:0:0:
256,64,32790,1,8,0:0:0:0:
256,64,32900,1,0,0:0:0:0:
256,64,32954,1,0,0:0:0:0:
256,64,33009,1,8,0:0:0:0:
256,64,33118,1,0,0:0:0:0:
256,64,33228,1,8,0:0:0:0:
256,64,33283,1,0,0:0:0:0:
256,64,33337,1,8,0:0:0:0:
256,96,33392,1,0,0:0:0:0:
256,64,33447,1,8,0:0:0:0:
256,64,33556,1,0,0:0:0:0:
256,64,33666,1,8,0:0:0:0:
256,64,33775,1,8,0:0:0:0:
256,64,33830,1,8,0:0:0:0:
256,32,33885,1,0,0:0:0:0:
248,65,33940,1,8,0:0:0:0:
256,64,33994,1,0,0:0:0:0:
256,64,34049,1,0,0:0:0:0:
256,64,34104,1,8,0:0:0:0:
235,43,34159,1,0,0:0:0:0:
256,64,34213,1,8,0:0:0:0:
256,64,34323,5,4,0:0:0:0:
256,64,34542,1,4,0:0:0:0:
256,64,34761,5,0,0:0:0:0:
256,64,34870,1,0,0:0:0:0:
256,64,34980,1,8,0:0:0:0:
256,64,35089,1,8,0:0:0:0:
256,64,35199,1,0,0:0:0:0:
256,64,35308,1,0,0:0:0:0:
256,64,35418,1,8,0:0:0:0:
256,64,35527,1,0,0:0:0:0:
256,64,35637,1,0,0:0:0:0:
256,64,35746,1,0,0:0:0:0:
256,64,35856,1,8,0:0:0:0:
256,64,35965,1,8,0:0:0:0:
256,64,36075,5,4,0:0:0:0:
256,64,36294,1,4,0:0:0:0:
256,64,36513,5,8,0:0:0:0:
256,64,36622,1,0,0:0:0:0:
256,64,36732,1,8,0:0:0:0:
256,64,36841,1,8,0:0:0:0:
256,64,36951,1,0,0:0:0:0:
256,64,37060,1,0,0:0:0:0:
256,64,37170,1,8,0:0:0:0:
256,64,37279,1,0,0:0:0:0:
256,64,37389,1,8,0:0:0:0:
256,64,37498,1,8,0:0:0:0:
256,64,37608,1,8,0:0:0:0:
256,64,37717,1,8,0:0:0:0:
256,64,37827,1,4,0:0:0:0:
256,64,38046,1,4,0:0:0:0:
256,64,38264,5,0,0:0:0:0:
256,64,38374,1,0,0:0:0:0:
256,64,38483,1,8,0:0:0:0:
256,64,38593,1,8,0:0:0:0:
256,64,38702,1,8,0:0:0:0:
256,64,38812,1,0,0:0:0:0:
256,64,38921,1,8,0:0:0:0:
256,64,39031,1,0,0:0:0:0:
256,64,39140,1,0,0:0:0:0:
256,64,39250,1,0,0:0:0:0:
256,64,39359,1,8,0:0:0:0:
256,64,39469,1,8,0:0:0:0:
256,64,39578,5,4,0:0:0:0:
256,64,39797,1,4,0:0:0:0:
256,64,40016,5,8,0:0:0:0:
256,64,40126,1,0,0:0:0:0:
256,64,40235,1,8,0:0:0:0:
256,64,40345,1,8,0:0:0:0:
256,64,40454,1,0,0:0:0:0:
256,64,40564,1,0,0:0:0:0:
256,64,40673,1,8,0:0:0:0:
256,64,40783,1,0,0:0:0:0:
256,64,40892,1,8,0:0:0:0:
256,64,41002,1,8,0:0:0:0:
256,64,41111,1,8,0:0:0:0:
256,64,41221,1,8,0:0:0:0:
256,64,41330,5,4,0:0:0:0:
256,64,41549,1,4,0:0:0:0:
288,96,41768,5,8,0:0:0:0:
288,96,41878,1,0,0:0:0:0:
288,96,41987,1,8,0:0:0:0:
288,96,42097,1,8,0:0:0:0:
288,96,42206,5,4,0:0:0:0:
256,96,42425,1,4,0:0:0:0:
288,96,42644,5,0,0:0:0:0:
288,96,42754,1,0,0:0:0:0:
256,64,42863,1,8,0:0:0:0:
256,64,42973,1,8,0:0:0:0:
224,64,43082,1,4,0:0:0:0:
288,96,43301,1,4,0:0:0:0:
256,96,43520,5,0,0:0:0:0:
256,96,43629,1,0,0:0:0:0:
256,96,43739,1,8,0:0:0:0:
256,96,43848,1,8,0:0:0:0:
256,96,43958,5,4,0:0:0:0:
256,96,44177,1,4,0:0:0:0:
288,96,44396,5,8,0:0:0:0:
288,96,44505,1,0,0:0:0:0:
288,96,44615,1,8,0:0:0:0:
288,96,44724,1,8,0:0:0:0:
288,96,44834,5,4,0:0:0:0:
256,64,45053,1,8,0:0:0:0:
256,64,45162,1,8,0:0:0:0:
256,64,45272,1,4,0:0:0:0:
256,64,45491,1,8,0:0:0:0:
256,64,45710,5,4,0:0:0:0:
256,64,45929,1,8,0:0:0:0:
256,64,46038,1,8,0:0:0:0:
256,64,46148,1,4,0:0:0:0:
256,64,46367,1,8,0:0:0:0:
256,64,46586,5,0,0:0:0:0:
278,71,46695,1,0,0:0:0:0:
256,64,46805,1,8,0:0:0:0:
278,71,46914,1,8,0:0:0:0:
256,64,47024,5,0,0:0:0:0:
278,71,47133,1,0,0:0:0:0:
256,64,47243,1,8,0:0:0:0:
278,71,47352,1,0,0:0:0:0:
256,64,47462,5,8,0:0:0:0:
256,64,47571,1,8,0:0:0:0:
256,64,47681,1,0,0:0:0:0:
278,71,47790,1,0,0:0:0:0:
288,64,47900,5,8,0:0:0:0:
256,64,48009,1,0,0:0:0:0:
263,77,48118,1,0,0:0:0:0:
265,68,48228,1,0,0:0:0:0:
288,64,48337,5,12,0:0:0:0:
224,64,48556,1,0,0:0:0:0:
224,64,48775,1,0,0:0:0:0:
224,64,48994,1,0,0:0:0:0:
224,64,49213,5,8,0:0:0:0:
224,64,49432,1,0,0:0:0:0:
224,64,49651,5,8,0:0:0:0:
224,64,49870,1,8,0:0:0:0:
224,64,50089,1,0,0:0:0:0:
224,64,50308,1,0,0:0:0:0:
224,64,50527,5,8,0:0:0:0:
224,64,50746,1,0,0:0:0:0:
224,64,50965,1,8,0:0:0:0:
224,64,51184,1,0,0:0:0:0:
224,64,51403,5,8,0:0:0:0:
224,64,51622,1,0,0:0:0:0:
224,64,51841,5,8,0:0:0:0:
224,64,52060,1,0,0:0:0:0:
224,64,52279,1,0,0:0:0:0:
224,64,52498,1,0,0:0:0:0:
224,64,52717,5,8,0:0:0:0:
224,64,52936,1,0,0:0:0:0:
224,64,53155,1,0,0:0:0:0:
224,64,53374,5,8,0:0:0:0:
224,64,53593,1,8,0:0:0:0:
224,64,53812,1,0,0:0:0:0:
224,64,54031,5,8,0:0:0:0:
224,64,54250,1,8,0:0:0:0:
224,64,54469,1,0,0:0:0:0:
224,64,54688,1,0,0:0:0:0:
224,64,54907,1,8,0:0:0:0:
224,64,55126,1,0,0:0:0:0:
224,64,55345,5,12,0:0:0:0:
224,64,55564,1,0,0:0:0:0:
224,64,55783,1,0,0:0:0:0:
224,64,56002,5,8,0:0:0:0:
224,64,56221,1,8,0:0:0:0:
224,64,56440,1,0,0:0:0:0:
224,64,56659,1,0,0:0:0:0:
224,64,56878,5,8,0:0:0:0:
224,64,57097,1,8,0:0:0:0:
224,64,57316,1,0,0:0:0:0:
224,64,57535,5,8,0:0:0:0:
224,64,57754,1,8,0:0:0:0:
224,64,57973,1,0,0:0:0:0:
224,64,58191,5,8,0:0:0:0:
224,64,58410,1,8,0:0:0:0:
224,64,58629,1,8,0:0:0:0:
224,64,58848,5,0,0:0:0:0:
256,64,59724,5,0,0:0:0:0:
256,64,60600,5,8,0:0:0:0:
256,64,61914,5,4,0:0:0:0:
256,128,62352,5,12,0:0:0:0:
238,77,62462,1,0,0:0:0:0:
249,127,62516,1,0,0:0:0:0:
249,120,62571,1,8,0:0:0:0:
249,120,62681,1,0,0:0:0:0:
288,64,62790,1,8,0:0:0:0:
256,192,62845,1,8,0:0:0:0:
288,64,62900,1,0,0:0:0:0:
224,32,62954,1,0,0:0:0:0:
256,192,63009,1,8,0:0:0:0:
256,192,63118,1,0,0:0:0:0:
256,192,63228,1,8,0:0:0:0:
256,192,63283,1,0,0:0:0:0:
256,192,63337,1,8,0:0:0:0:
256,192,63392,1,0,0:0:0:0:
256,192,63447,1,8,0:0:0:0:
256,192,63556,1,0,0:0:0:0:
201,21,63611,1,0,0:0:0:0:
256,192,63666,1,8,0:0:0:0:
219,54,63775,1,0,0:0:0:0:
223,59,63830,1,0,0:0:0:0:
219,54,63885,1,8,0:0:0:0:
224,96,63940,1,0,0:0:0:0:
224,64,63994,1,8,0:0:0:0:
224,192,64049,1,8,0:0:0:0:
224,64,64104,1,0,0:0:0:0:
256,192,64213,1,0,0:0:0:0:
224,64,64323,1,8,0:0:0:0:
209,50,64378,1,8,0:0:0:0:
224,64,64432,1,0,0:0:0:0:
224,64,64542,1,8,0:0:0:0:
224,64,64597,1,0,0:0:0:0:
224,64,64651,1,0,0:0:0:0:
224,64,64761,1,8,0:0:0:0:
224,64,64816,1,0,0:0:0:0:
256,128,64870,1,8,0:0:0:0:
224,64,64925,1,8,0:0:0:0:
224,64,64980,1,0,0:0:0:0:
218,28,65035,1,8,0:0:0:0:
256,32,65089,1,0,0:0:0:0:
224,71,65144,1,0,0:0:0:0:
256,32,65199,1,8,0:0:0:0:
256,32,65308,1,0,0:0:0:0:
228,36,65363,1,0,0:0:0:0:
256,32,65418,1,8,0:0:0:0:
256,32,65527,1,0,0:0:0:0:
256,32,65637,1,8,0:0:0:0:
222,80,65691,1,8,0:0:0:0:
288,96,65746,1,0,0:0:0:0:
226,114,65801,1,0,0:0:0:0:
256,32,65856,1,8,0:0:0:0:
256,96,65965,1,0,0:0:0:0:
239,51,66020,1,0,0:0:0:0:
256,32,66075,1,8,0:0:0:0:
256,32,66184,1,0,0:0:0:0:
224,192,66239,1,8,0:0:0:0:
256,32,66294,1,0,0:0:0:0:
224,192,66403,1,0,0:0:0:0:
224,192,66513,1,8,0:0:0:0:
256,96,66567,1,0,0:0:0:0:
224,192,66622,1,0,0:0:0:0:
224,192,66677,1,0,0:0:0:0:
224,192,66732,1,8,0:0:0:0:
224,192,66841,1,0,0:0:0:0:
249,48,66896,1,0,0:0:0:0:
224,192,66951,1,8,0:0:0:0:
256,64,67005,1,8,0:0:0:0:
224,192,67060,1,0,0:0:0:0:
241,77,67115,1,8,0:0:0:0:
224,192,67170,1,0,0:0:0:0:
224,192,67279,1,0,0:0:0:0:
224,192,67389,1,8,0:0:0:0:
256,160,67443,1,0,0:0:0:0:
224,192,67498,1,8,0:0:0:0:
248,64,67553,1,0,0:0:0:0:
224,192,67608,1,8,0:0:0:0:
224,192,67717,1,0,0:0:0:0:
224,192,67827,1,8,0:0:0:0:
224,192,67881,1,8,0:0:0:0:
224,192,67936,1,8,0:0:0:0:
224,192,67991,1,0,0:0:0:0:
224,192,68046,1,8,0:0:0:0:
242,89,68100,1,8,0:0:0:0:
224,192,68155,1,0,0:0:0:0:
242,89,68210,1,0,0:0:0:0:
242,89,68264,1,8,0:0:0:0:
228,177,68319,1,0,0:0:0:0:
224,192,68374,1,8,0:0:0:0:
234,72,68483,1,0,0:0:0:0:
224,192,68593,1,0,0:0:0:0:
201,9,68648,1,0,0:0:0:0:
224,192,68702,1,8,0:0:0:0:
256,64,68757,1,0,0:0:0:0:
224,192,68812,1,8,0:0:0:0:
224,32,68867,1,8,0:0:0:0:
224,192,68921,1,0,0:0:0:0:
256,64,68976,1,8,0:0:0:0:
224,192,69031,1,0,0:0:0:0:
231,50,69086,1,0,0:0:0:0:
224,192,69140,1,8,0:0:0:0:
231,50,69195,1,0,0:0:0:0:
224,192,69250,1,8,0:0:0:0:
224,192,69359,1,4,0:0:0:0:
192,64,69688,1,0,0:0:0:0:
256,160,69797,5,12,0:0:0:0:
256,160,69907,1,0,0:0:0:0:
256,160,69962,1,0,0:0:0:0:
256,160,70016,1,8,0:0:0:0:
256,160,70126,1,0,0:0:0:0:
256,160,70235,1,8,0:0:0:0:
209,42,70290,1,0,0:0:0:0:
256,96,70345,1,8,0:0:0:0:
208,44,70400,1,0,0:0:0:0:
256,96,70454,1,8,0:0:0:0:
256,96,70564,1,0,0:0:0:0:
256,96,70618,1,0,0:0:0:0:
256,96,70673,1,8,0:0:0:0:
256,96,70783,1,0,0:0:0:0:
256,96,70892,1,8,0:0:0:0:
223,76,70947,1,0,0:0:0:0:
256,96,71002,1,0,0:0:0:0:
256,96,71111,1,8,0:0:0:0:
221,60,71166,1,8,0:0:0:0:
256,96,71221,1,8,0:0:0:0:
221,60,71275,1,8,0:0:0:0:
256,96,71330,1,0,0:0:0:0:
270,79,71385,1,0,0:0:0:0:
256,96,71440,1,0,0:0:0:0:
295,114,71494,1,0,0:0:0:0:
256,96,71549,1,8,0:0:0:0:
256,96,71659,1,0,0:0:0:0:
256,96,71768,1,8,0:0:0:0:
256,96,71823,1,8,0:0:0:0:
256,96,71878,1,0,0:0:0:0:
256,96,71932,1,0,0:0:0:0:
256,96,71987,1,8,0:0:0:0:
256,96,72097,1,0,0:0:0:0:
256,96,72206,1,8,0:0:0:0:
224,43,72261,1,0,0:0:0:0:
256,96,72316,1,0,0:0:0:0:
231,48,72370,1,0,0:0:0:0:
224,64,72425,1,8,0:0:0:0:
231,48,72480,1,8,0:0:0:0:
256,96,72535,1,0,0:0:0:0:
256,96,72644,1,8,0:0:0:0:
224,160,72699,1,0,0:0:0:0:
224,64,72754,1,8,0:0:0:0:
258,88,72808,1,8,0:0:0:0:
256,96,72863,1,0,0:0:0:0:
256,96,72973,1,0,0:0:0:0:
256,96,73082,1,8,0:0:0:0:
246,104,73137,1,0,0:0:0:0:
256,96,73191,1,8,0:0:0:0:
213,68,73246,1,0,0:0:0:0:
256,96,73301,1,8,0:0:0:0:
256,96,73410,1,0,0:0:0:0:
256,96,73465,1,0,0:0:0:0:
256,96,73520,1,8,0:0:0:0:
256,64,73629,1,0,0:0:0:0:
256,96,73739,1,12,0:0:0:0:
256,96,73958,1,12,0:0:0:0:
256,288,74177,5,0,0:0:0:0:
256,288,74286,1,0,0:0:0:0:
256,288,74396,1,0,0:0:0:0:
256,288,74505,1,0,0:0:0:0:
256,128,74615,5,12,0:0:0:0:
231,70,74724,1,0,0:0:0:0:
256,96,74834,1,8,0:0:0:0:
256,96,74943,1,0,0:0:0:0:
256,96,74998,1,0,0:0:0:0:
256,96,75053,1,8,0:0:0:0:
256,96,75162,1,0,0:0:0:0:
256,96,75272,1,8,0:0:0:0:
256,96,75327,1,0,0:0:0:0:
256,96,75381,1,8,0:0:0:0:
256,96,75491,1,0,0:0:0:0:
243,94,75545,1,0,0:0:0:0:
224,64,75600,1,0,0:0:0:0:
256,64,75655,1,0,0:0:0:0:
256,96,75710,1,8,0:0:0:0:
256,96,75819,1,8,0:0:0:0:
224,64,75874,1,8,0:0:0:0:
224,64,75929,1,0,0:0:0:0:
256,64,76038,1,0,0:0:0:0:
256,64,76148,1,8,0:0:0:0:
256,96,76202,1,8,0:0:0:0:
256,96,76257,1,8,0:0:0:0:
256,96,76312,1,8,0:0:0:0:
256,64,76367,1,0,0:0:0:0:
256,64,76476,1,0,0:0:0:0:
256,64,76586,1,8,0:0:0:0:
256,64,76695,1,0,0:0:0:0:
256,64,76750,1,0,0:0:0:0:
256,64,76805,1,8,0:0:0:0:
256,64,76914,1,0,0:0:0:0:
256,64,77024,1,8,0:0:0:0:
256,64,77078,1,0,0:0:0:0:
256,64,77133,1,8,0:0:0:0:
256,64,77243,1,0,0:0:0:0:
224,32,77297,1,0,0:0:0:0:
256,64,77352,1,0,0:0:0:0:
192,0,77407,1,0,0:0:0:0:
256,64,77462,1,8,0:0:0:0:
229,65,77516,1,8,0:0:0:0:
256,64,77571,1,0,0:0:0:0:
256,96,77626,1,0,0:0:0:0:
256,64,77681,1,8,0:0:0:0:
256,64,77790,1,0,0:0:0:0:
256,64,77900,1,8,0:0:0:0:
256,64,77954,1,0,0:0:0:0:
256,64,78009,1,0,0:0:0:0:
256,160,78064,1,0,0:0:0:0:
256,128,78118,1,8,0:0:0:0:
239,33,78173,1,8,0:0:0:0:
256,64,78228,1,0,0:0:0:0:
256,96,78337,1,8,0:0:0:0:
256,96,78447,1,0,0:0:0:0:
256,96,78502,1,0,0:0:0:0:
256,96,78556,1,8,0:0:0:0:
256,96,78666,1,0,0:0:0:0:
256,96,78775,1,8,0:0:0:0:
256,96,78830,1,0,0:0:0:0:
256,96,78885,1,8,0:0:0:0:
256,160,78994,1,0,0:0:0:0:
256,192,79049,1,0,0:0:0:0:
224,64,79104,1,0,0:0:0:0:
256,64,79159,1,0,0:0:0:0:
256,96,79213,1,8,0:0:0:0:
256,96,79323,1,8,0:0:0:0:
224,64,79378,1,8,0:0:0:0:
224,64,79432,1,0,0:0:0:0:
256,64,79542,1,0,0:0:0:0:
256,64,79651,1,8,0:0:0:0:
241,80,79706,1,8,0:0:0:0:
241,80,79761,1,8,0:0:0:0:
241,80,79816,1,8,0:0:0:0:
256,64,79870,1,0,0:0:0:0:
256,64,79980,1,0,0:0:0:0:
256,64,80089,1,8,0:0:0:0:
256,64,80199,1,0,0:0:0:0:
256,64,80254,1,0,0:0:0:0:
256,64,80308,1,8,0:0:0:0:
256,64,80418,1,0,0:0:0:0:
256,64,80527,1,8,0:0:0:0:
256,64,80582,1,0,0:0:0:0:
256,64,80637,1,8,0:0:0:0:
256,192,80691,1,8,0:0:0:0:
256,64,80746,1,0,0:0:0:0:
256,64,80856,1,0,0:0:0:0:
256,64,80965,1,0,0:0:0:0:
256,64,81075,1,0,0:0:0:0:
256,32,81184,5,8,0:0:0:0:
256,64,81294,5,0,0:0:0:0:
256,64,81403,1,0,0:0:0:0:
256,64,81513,1,0,0:0:0:0:
256,128,81622,5,12,0:0:0:0:
247,74,81732,1,0,0:0:0:0:
256,96,81841,1,8,0:0:0:0:
256,96,81951,1,0,0:0:0:0:
256,96,82005,1,0,0:0:0:0:
256,96,82060,1,8,0:0:0:0:
256,96,82170,1,0,0:0:0:0:
256,96,82279,1,8,0:0:0:0:
256,96,82334,1,0,0:0:0:0:
256,96,82389,1,8,0:0:0:0:
256,96,82498,1,0,0:0:0:0:
224,64,82553,1,0,0:0:0:0:
224,64,82608,1,0,0:0:0:0:
256,64,82662,1,0,0:0:0:0:
256,96,82717,1,8,0:0:0:0:
256,96,82827,1,8,0:0:0:0:
224,64,82881,1,8,0:0:0:0:
224,64,82936,1,0,0:0:0:0:
256,64,83045,1,0,0:0:0:0:
256,64,83155,1,8,0:0:0:0:
247,77,83210,1,8,0:0:0:0:
238,85,83264,1,8,0:0:0:0:
256,192,83319,1,8,0:0:0:0:
256,64,83374,1,0,0:0:0:0:
256,64,83483,1,0,0:0:0:0:
256,64,83593,1,8,0:0:0:0:
256,64,83702,1,0,0:0:0:0:
256,64,83757,1,0,0:0:0:0:
256,64,83812,1,8,0:0:0:0:
256,64,83921,1,0,0:0:0:0:
256,64,84031,1,8,0:0:0:0:
256,64,84086,1,0,0:0:0:0:
256,64,84140,1,8,0:0:0:0:
256,64,84250,1,0,0:0:0:0:
224,32,84305,1,0,0:0:0:0:
244,57,84359,1,0,0:0:0:0:
248,58,84414,1,0,0:0:0:0:
256,64,84469,1,8,0:0:0:0:
243,55,84524,1,8,0:0:0:0:
256,64,84578,1,8,0:0:0:0:
224,64,84633,1,8,0:0:0:0:
256,64,84688,1,0,0:0:0:0:
256,64,84797,1,0,0:0:0:0:
256,64,84907,1,8,0:0:0:0:
256,64,84962,1,8,0:0:0:0:
256,64,85016,1,0,0:0:0:0:
256,192,85071,1,0,0:0:0:0:
256,128,85126,1,8,0:0:0:0:
244,117,85181,1,8,0:0:0:0:
256,64,85235,1,0,0:0:0:0:
256,96,85345,1,8,0:0:0:0:
256,96,85454,1,0,0:0:0:0:
256,96,85509,1,0,0:0:0:0:
256,96,85564,1,8,0:0:0:0:
256,96,85673,1,0,0:0:0:0:
256,96,85783,1,8,0:0:0:0:
256,96,85837,1,0,0:0:0:0:
256,96,85892,1,8,0:0:0:0:
256,96,86002,1,0,0:0:0:0:
256,192,86056,1,0,0:0:0:0:
224,64,86111,1,0,0:0:0:0:
256,64,86166,1,0,0:0:0:0:
256,96,86221,1,8,0:0:0:0:
256,96,86330,1,0,0:0:0:0:
224,64,86440,1,8,0:0:0:0:
207,10,86494,1,8,0:0:0:0:
256,64,86549,1,0,0:0:0:0:
224,64,86604,1,0,0:0:0:0:
256,64,86659,1,8,0:0:0:0:
224,64,86713,1,8,0:0:0:0:
208,56,86768,1,8,0:0:0:0:
211,55,86823,1,8,0:0:0:0:
64,352,86878,1,0,0:0:0:0:
256,64,86987,1,0,0:0:0:0:
256,64,87097,1,8,0:0:0:0:
256,64,87206,1,0,0:0:0:0:
256,64,87261,1,0,0:0:0:0:
256,64,87316,1,8,0:0:0:0:
256,64,87425,1,0,0:0:0:0:
256,64,87535,1,8,0:0:0:0:
256,64,87589,1,0,0:0:0:0:
256,64,87644,1,8,0:0:0:0:
320,128,87699,1,0,0:0:0:0:
256,64,87754,1,8,0:0:0:0:
256,64,87863,1,0,0:0:0:0:
256,64,87973,1,8,0:0:0:0:
256,64,88082,1,0,0:0:0:0:
224,32,88137,1,0,0:0:0:0:
256,32,88191,1,8,0:0:0:0:
256,64,88246,1,0,0:0:0:0:
256,64,88301,1,8,0:0:0:0:
224,32,88356,1,8,0:0:0:0:
256,64,88410,1,0,0:0:0:0:
283,79,88465,1,0,0:0:0:0:
285,86,88520,1,8,0:0:0:0:
256,64,88629,1,4,0:0:0:0:
256,64,88848,5,8,0:0:0:0:
256,64,88958,1,0,0:0:0:0:
285,104,89013,1,0,0:0:0:0:
256,64,89067,1,8,0:0:0:0:
256,64,89177,1,0,0:0:0:0:
256,64,89286,1,8,0:0:0:0:
256,64,89396,1,8,0:0:0:0:
256,64,89505,1,0,0:0:0:0:
247,34,89560,1,8,0:0:0:0:
256,64,89615,1,0,0:0:0:0:
256,64,89724,1,8,0:0:0:0:
256,64,89834,1,0,0:0:0:0:
256,64,89943,1,8,0:0:0:0:
256,64,90053,1,0,0:0:0:0:
256,64,90162,1,8,0:0:0:0:
238,35,90217,1,0,0:0:0:0:
256,64,90272,1,8,0:0:0:0:
245,74,90327,1,8,0:0:0:0:
256,64,90381,1,0,0:0:0:0:
240,65,90491,1,8,0:0:0:0:
256,64,90600,1,8,0:0:0:0:
256,64,90710,1,0,0:0:0:0:
238,35,90764,1,0,0:0:0:0:
256,64,90819,1,8,0:0:0:0:
256,64,90929,1,8,0:0:0:0:
256,64,91038,1,0,0:0:0:0:
256,64,91148,1,8,0:0:0:0:
238,35,91202,1,8,0:0:0:0:
238,35,91257,1,0,0:0:0:0:
256,64,91367,1,0,0:0:0:0:
256,64,91476,1,8,0:0:0:0:
238,35,91531,1,0,0:0:0:0:
256,64,91586,1,8,0:0:0:0:
218,43,91640,1,0,0:0:0:0:
256,64,91695,1,8,0:0:0:0:
256,64,91805,1,0,0:0:0:0:
256,64,91914,1,8,0:0:0:0:
256,64,92024,1,8,0:0:0:0:
256,64,92133,1,0,0:0:0:0:
256,64,92352,5,8,0:0:0:0:
256,64,92462,1,8,0:0:0:0:
250,82,92516,1,8,0:0:0:0:
256,64,92571,1,0,0:0:0:0:
256,64,92681,1,0,0:0:0:0:
256,64,92790,1,8,0:0:0:0:
256,64,92900,1,0,0:0:0:0:
250,82,92954,1,0,0:0:0:0:
256,64,93009,1,8,0:0:0:0:
256,64,93118,1,0,0:0:0:0:
256,64,93228,1,8,0:0:0:0:
238,76,93283,1,0,0:0:0:0:
256,64,93337,1,0,0:0:0:0:
222,97,93392,1,0,0:0:0:0:
256,64,93447,1,8,0:0:0:0:
256,64,93556,1,0,0:0:0:0:
256,64,93666,1,8,0:0:0:0:
243,34,93721,1,0,0:0:0:0:
256,64,93775,1,8,0:0:0:0:
238,75,93830,1,0,0:0:0:0:
256,64,93885,1,8,0:0:0:0:
256,64,93994,1,0,0:0:0:0:
256,64,94104,1,8,0:0:0:0:
256,64,94213,1,0,0:0:0:0:
242,62,94268,1,0,0:0:0:0:
256,64,94323,1,8,0:0:0:0:
256,64,94432,1,0,0:0:0:0:
256,64,94542,1,8,0:0:0:0:
256,64,94651,1,8,0:0:0:0:
256,64,94761,1,0,0:0:0:0:
256,64,94980,5,8,0:0:0:0:
243,55,95035,1,8,0:0:0:0:
256,64,95089,1,0,0:0:0:0:
256,64,95144,1,0,0:0:0:0:
256,64,95199,1,8,0:0:0:0:
256,64,95418,1,0,0:0:0:0:
256,64,95637,1,12,0:0:0:0:
256,32,95856,5,8,0:0:0:0:
256,64,95965,1,0,0:0:0:0:
232,120,96020,1,0,0:0:0:0:
256,64,96075,1,8,0:0:0:0:
256,64,96184,1,0,0:0:0:0:
256,64,96294,1,8,0:0:0:0:
256,64,96403,1,0,0:0:0:0:
256,64,96513,1,8,0:0:0:0:
234,32,96567,1,0,0:0:0:0:
256,64,96622,1,8,0:0:0:0:
256,64,96732,1,0,0:0:0:0:
256,64,96841,1,0,0:0:0:0:
256,64,96951,1,8,0:0:0:0:
256,64,97060,1,0,0:0:0:0:
235,71,97115,1,0,0:0:0:0:
256,64,97170,1,8,0:0:0:0:
256,64,97224,1,8,0:0:0:0:
256,64,97279,1,8,0:0:0:0:
256,64,97389,1,0,0:0:0:0:
256,64,97498,1,8,0:0:0:0:
256,64,97608,1,8,0:0:0:0:
256,64,97717,1,0,0:0:0:0:
261,77,97772,1,0,0:0:0:0:
256,64,97827,1,8,0:0:0:0:
256,64,97936,1,0,0:0:0:0:
256,64,98045,1,8,0:0:0:0:
256,64,98100,1,0,0:0:0:0:
256,64,98155,1,8,0:0:0:0:
256,64,98264,1,0,0:0:0:0:
256,64,98374,1,8,0:0:0:0:
256,64,98483,1,0,0:0:0:0:
256,64,98593,1,0,0:0:0:0:
256,64,98702,1,8,0:0:0:0:
256,64,98757,1,8,0:0:0:0:
256,64,98812,1,0,0:0:0:0:
256,64,98867,1,0,0:0:0:0:
256,64,98921,1,8,0:0:0:0:
256,64,99140,5,0,0:0:0:0:
256,96,99250,1,0,0:0:0:0:
256,96,99359,1,8,0:0:0:0:
241,57,99414,1,0,0:0:0:0:
256,96,99469,1,8,0:0:0:0:
256,96,99578,1,0,0:0:0:0:
256,96,99688,1,0,0:0:0:0:
237,59,99743,1,0,0:0:0:0:
226,52,99797,1,8,0:0:0:0:
256,96,99907,1,0,0:0:0:0:
256,96,100016,1,8,0:0:0:0:
237,59,100071,1,0,0:0:0:0:
256,96,100126,1,8,0:0:0:0:
239,76,100181,1,8,0:0:0:0:
243,115,100235,1,0,0:0:0:0:
256,96,100345,1,8,0:0:0:0:
256,96,100454,1,8,0:0:0:0:
243,75,100509,1,8,0:0:0:0:
256,96,100564,1,0,0:0:0:0:
243,75,100618,1,0,0:0:0:0:
256,96,100673,1,8,0:0:0:0:
253,68,100783,1,0,0:0:0:0:
256,96,100892,5,12,0:0:0:0:
256,96,101111,1,12,0:0:0:0:
256,96,101330,5,4,0:0:0:0:
256,96,101549,1,4,0:0:0:0:
256,96,101768,5,8,0:0:0:0:
256,96,101878,1,0,0:0:0:0:
245,71,101932,1,0,0:0:0:0:
256,96,101987,1,8,0:0:0:0:
256,96,102097,1,8,0:0:0:0:
256,96,102206,1,0,0:0:0:0:
256,96,102316,1,8,0:0:0:0:
233,70,102370,1,8,0:0:0:0:
256,96,102425,1,0,0:0:0:0:
256,96,102535,1,8,0:0:0:0:
256,64,102644,5,4,0:0:0:0:
256,64,102863,1,4,0:0:0:0:
256,64,103082,5,0,0:0:0:0:
256,64,103191,1,0,0:0:0:0:
256,64,103301,1,8,0:0:0:0:
256,64,103410,1,0,0:0:0:0:
256,64,103520,1,8,0:0:0:0:
256,64,103629,1,8,0:0:0:0:
256,64,103739,1,8,0:0:0:0:
256,64,103848,1,8,0:0:0:0:
256,64,103958,1,0,0:0:0:0:
256,64,104067,1,0,0:0:0:0:
256,64,104177,1,8,0:0:0:0:
256,64,104286,1,8,0:0:0:0:
256,64,104396,5,4,0:0:0:0:
256,64,104615,1,4,0:0:0:0:
256,64,104834,5,8,0:0:0:0:
256,64,104943,1,0,0:0:0:0:
256,64,105053,1,8,0:0:0:0:
256,64,105162,1,8,0:0:0:0:
256,64,105272,1,0,0:0:0:0:
256,64,105381,1,0,0:0:0:0:
256,64,105491,1,8,0:0:0:0:
256,64,105600,1,0,0:0:0:0:
256,64,105710,1,8,0:0:0:0:
256,64,105819,1,8,0:0:0:0:
256,64,105929,1,8,0:0:0:0:
256,64,106038,1,8,0:0:0:0:
256,64,106148,1,4,0:0:0:0:
256,64,106367,1,4,0:0:0:0:
256,64,106586,5,0,0:0:0:0:
256,64,106695,1,0,0:0:0:0:
256,64,106805,1,8,0:0:0:0:
256,64,106914,1,8,0:0:0:0:
256,64,107024,1,8,0:0:0:0:
256,64,107133,1,0,0:0:0:0:
256,64,107243,1,8,0:0:0:0:
256,64,107352,1,0,0:0:0:0:
256,64,107462,1,0,0:0:0:0:
256,64,107571,1,0,0:0:0:0:
256,64,107681,1,8,0:0:0:0:
256,64,107790,1,8,0:0:0:0:
256,64,107900,5,4,0:0:0:0:
256,64,108118,1,4,0:0:0:0:
256,64,108337,5,8,0:0:0:0:
256,64,108447,1,0,0:0:0:0:
256,64,108556,1,8,0:0:0:0:
256,64,108666,1,0,0:0:0:0:
256,64,108775,1,8,0:0:0:0:
256,64,108885,1,8,0:0:0:0:
256,64,108994,1,8,0:0:0:0:
256,64,109104,1,0,0:0:0:0:
256,64,109213,1,8,0:0:0:0:
256,64,109323,1,0,0:0:0:0:
256,64,109432,1,8,0:0:0:0:
256,64,109542,1,8,0:0:0:0:
256,64,109651,5,4,0:0:0:0:
256,64,109870,1,4,0:0:0:0:
288,96,110089,5,8,0:0:0:0:
288,96,110199,1,0,0:0:0:0:
288,96,110308,1,8,0:0:0:0:
288,96,110418,1,8,0:0:0:0:
288,96,110527,5,4,0:0:0:0:
256,96,110746,1,4,0:0:0:0:
288,96,110965,5,0,0:0:0:0:
288,96,111075,1,0,0:0:0:0:
256,64,111184,1,8,0:0:0:0:
256,64,111294,1,8,0:0:0:0:
224,64,111403,1,4,0:0:0:0:
288,96,111622,1,4,0:0:0:0:
256,96,111841,5,0,0:0:0:0:
256,96,111951,1,0,0:0:0:0:
256,96,112060,1,8,0:0:0:0:
256,96,112170,1,8,0:0:0:0:
256,96,112279,5,4,0:0:0:0:
256,96,112498,1,4,0:0:0:0:
288,96,112717,5,8,0:0:0:0:
288,96,112827,1,0,0:0:0:0:
288,96,112936,1,8,0:0:0:0:
288,96,113045,1,8,0:0:0:0:
288,96,113155,5,4,0:0:0:0:
256,64,113374,1,8,0:0:0:0:
256,64,113483,1,8,0:0:0:0:
256,64,113593,1,4,0:0:0:0:
256,64,113812,1,8,0:0:0:0:
256,64,114031,5,4,0:0:0:0:
256,64,114250,1,8,0:0:0:0:
256,64,114359,1,8,0:0:0:0:
256,64,114469,1,4,0:0:0:0:
256,64,114688,1,8,0:0:0:0:
256,64,114907,5,0,0:0:0:0:
256,64,115016,1,0,0:0:0:0:
256,64,115126,1,8,0:0:0:0:
256,64,115235,1,8,0:0:0:0:
256,64,115345,5,0,0:0:0:0:
256,64,115454,1,0,0:0:0:0:
256,64,115564,1,8,0:0:0:0:
256,64,115673,1,0,0:0:0:0:
256,64,115783,5,8,0:0:0:0:
256,64,115892,1,8,0:0:0:0:
256,64,116002,1,0,0:0:0:0:
256,64,116111,1,0,0:0:0:0:
288,64,116221,5,8,0:0:0:0:
256,64,116330,1,0,0:0:0:0:
256,64,116440,1,0,0:0:0:0:
256,64,116549,1,0,0:0:0:0:
288,64,116659,5,12,0:0:0:0:
256,192,122790,5,0,0:0:0:0:
256,192,123118,1,0,0:0:0:0:
256,192,123173,1,0,0:0:0:0:
256,192,123228,1,8,0:0:0:0:
256,192,123447,1,0,0:0:0:0:
256,192,123666,1,12,0:0:0:0:
224,192,123885,5,8,0:0:0:0:
236,163,123994,1,0,0:0:0:0:
224,192,124104,1,8,0:0:0:0:
224,192,124213,1,8,0:0:0:0:
243,115,124323,1,0,0:0:0:0:
224,128,124432,1,0,0:0:0:0:
224,128,124542,1,12,0:0:0:0:
224,128,124761,5,8,0:0:0:0:
236,163,124870,1,0,0:0:0:0:
256,192,124980,1,8,0:0:0:0:
224,128,125089,1,0,0:0:0:0:
224,128,125199,1,8,0:0:0:0:
224,64,125308,1,8,0:0:0:0:
224,128,125418,1,4,0:0:0:0:
256,192,125637,5,8,0:0:0:0:
243,115,125746,1,0,0:0:0:0:
243,115,125856,1,8,0:0:0:0:
256,192,125965,1,0,0:0:0:0:
256,192,126075,1,0,0:0:0:0:
243,115,126184,1,0,0:0:0:0:
256,192,126294,1,12,0:0:0:0:
256,160,126513,5,8,0:0:0:0:
224,160,126622,1,0,0:0:0:0:
256,160,126732,1,8,0:0:0:0:
191,37,126841,1,8,0:0:0:0:
256,160,126951,1,8,0:0:0:0:
256,96,127060,1,0,0:0:0:0:
256,192,127170,5,12,0:0:0:0:
224,192,127389,1,8,0:0:0:0:
256,96,127498,1,0,0:0:0:0:
224,192,127608,1,8,0:0:0:0:
243,115,127717,1,0,0:0:0:0:
224,192,127827,1,0,0:0:0:0:
224,128,127936,1,0,0:0:0:0:
224,128,128045,5,12,0:0:0:0:
224,128,128264,1,8,0:0:0:0:
224,128,128374,1,0,0:0:0:0:
243,115,128483,1,8,0:0:0:0:
224,128,128593,1,0,0:0:0:0:
224,128,128702,1,8,0:0:0:0:
224,64,128812,1,8,0:0:0:0:
224,128,128921,5,4,0:0:0:0:
256,192,129140,1,8,0:0:0:0:
242,128,129250,1,8,0:0:0:0:
243,115,129359,1,0,0:0:0:0:
243,115,129469,1,8,0:0:0:0:
256,192,129578,1,0,0:0:0:0:
229,100,129688,1,8,0:0:0:0:
256,192,129797,5,0,0:0:0:0:
224,64,129943,5,8,0:0:0:0:
256,160,130089,5,8,0:0:0:0:
256,160,130235,5,0,0:0:0:0:
256,160,130673,5,12,0:0:0:0:
240,112,130783,1,0,0:0:0:0:
256,128,130892,1,8,0:0:0:0:
256,64,131002,1,0,0:0:0:0:
239,127,131056,1,0,0:0:0:0:
218,136,131111,1,8,0:0:0:0:
215,126,131166,1,8,0:0:0:0:
224,32,131221,1,0,0:0:0:0:
224,32,131330,1,8,0:0:0:0:
256,64,131440,1,0,0:0:0:0:
256,64,131549,1,8,0:0:0:0:
250,57,131604,1,8,0:0:0:0:
256,64,131659,1,0,0:0:0:0:
256,64,131768,1,8,0:0:0:0:
256,64,131878,1,8,0:0:0:0:
261,71,131932,1,8,0:0:0:0:
224,32,131987,1,0,0:0:0:0:
229,91,132042,1,0,0:0:0:0:
256,96,132097,1,0,0:0:0:0:
256,96,132206,1,8,0:0:0:0:
255,78,132316,1,0,0:0:0:0:
256,96,132425,5,12,0:0:0:0:
256,96,132644,5,12,0:0:0:0:
256,96,132863,5,12,0:0:0:0:
256,96,133082,5,12,0:0:0:0:
256,192,134176,5,0,0:0:0:0:
256,192,135051,1,0,0:0:0:0:
256,192,135927,1,8,0:0:0:0:
256,192,137679,5,0,0:0:0:0:
256,192,138555,1,8,0:0:0:0:
256,192,139431,1,0,0:0:0:0:
256,192,140635,1,0,0:0:0:0:
256,192,140690,1,0,0:0:0:0:
256,192,140745,1,8,0:0:0:0:
256,192,141183,5,4,0:0:0:0:
256,192,141401,1,8,0:0:0:0:
256,192,141511,1,0,0:0:0:0:
288,160,141620,1,8,0:0:0:0:
288,96,141839,1,0,0:0:0:0:
288,96,141949,1,8,0:0:0:0:
256,192,142058,1,0,0:0:0:0:
288,96,142168,1,0,0:0:0:0:
256,192,142277,1,8,0:0:0:0:
256,96,142387,1,0,0:0:0:0:
256,96,142496,1,8,0:0:0:0:
256,192,142715,1,8,0:0:0:0:
256,96,142825,1,8,0:0:0:0:
256,192,142934,1,0,0:0:0:0:
256,96,143044,1,0,0:0:0:0:
256,128,143153,1,8,0:0:0:0:
256,96,143263,1,0,0:0:0:0:
256,128,143372,1,8,0:0:0:0:
256,128,143591,1,8,0:0:0:0:
224,96,143701,1,8,0:0:0:0:
256,128,143810,1,0,0:0:0:0:
224,96,143920,1,8,0:0:0:0:
256,128,144029,1,0,0:0:0:0:
256,128,144139,1,0,0:0:0:0:
224,96,144248,1,8,0:0:0:0:
256,128,144467,1,8,0:0:0:0:
224,64,144577,1,8,0:0:0:0:
256,128,144686,1,0,0:0:0:0:
256,96,145999,5,0,0:0:0:0:
256,96,146218,1,0,0:0:0:0:
256,128,146437,5,12,0:0:0:0:
272,89,146547,1,0,0:0:0:0:
245,52,146602,1,0,0:0:0:0:
288,64,146656,1,8,0:0:0:0:
288,64,146766,1,0,0:0:0:0:
288,64,146875,1,8,0:0:0:0:
256,192,146930,1,8,0:0:0:0:
288,64,146985,1,0,0:0:0:0:
224,32,147040,1,0,0:0:0:0:
256,192,147094,1,8,0:0:0:0:
256,192,147204,1,0,0:0:0:0:
256,192,147313,1,8,0:0:0:0:
256,192,147368,1,0,0:0:0:0:
256,192,147423,1,8,0:0:0:0:
256,192,147478,1,0,0:0:0:0:
256,192,147532,1,8,0:0:0:0:
256,192,147642,1,0,0:0:0:0:
201,21,147697,1,0,0:0:0:0:
256,192,147751,1,8,0:0:0:0:
219,54,147861,1,0,0:0:0:0:
223,59,147916,1,0,0:0:0:0:
219,54,147970,1,8,0:0:0:0:
224,96,148025,1,0,0:0:0:0:
224,64,148080,1,8,0:0:0:0:
224,192,148134,1,8,0:0:0:0:
224,64,148189,1,0,0:0:0:0:
256,192,148299,1,0,0:0:0:0:
224,64,148408,1,8,0:0:0:0:
209,50,148463,1,8,0:0:0:0:
224,64,148518,1,0,0:0:0:0:
224,64,148627,1,8,0:0:0:0:
224,64,148682,1,0,0:0:0:0:
224,64,148737,1,0,0:0:0:0:
224,64,148846,1,8,0:0:0:0:
224,64,148901,1,0,0:0:0:0:
256,128,148956,1,8,0:0:0:0:
224,64,149010,1,8,0:0:0:0:
224,64,149065,1,0,0:0:0:0:
218,28,149120,1,8,0:0:0:0:
256,32,149175,1,0,0:0:0:0:
224,71,149229,1,0,0:0:0:0:
256,32,149284,1,8,0:0:0:0:
256,32,149394,1,0,0:0:0:0:
228,36,149448,1,0,0:0:0:0:
256,32,149503,1,8,0:0:0:0:
256,32,149613,1,0,0:0:0:0:
256,32,149722,1,8,0:0:0:0:
222,80,149777,1,8,0:0:0:0:
288,96,149832,1,0,0:0:0:0:
226,114,149886,1,0,0:0:0:0:
256,32,149941,1,8,0:0:0:0:
255,67,150051,1,0,0:0:0:0:
239,51,150105,1,0,0:0:0:0:
256,32,150160,1,8,2:0:0:0:
256,32,150270,1,0,0:0:0:0:
224,192,150324,1,8,0:0:0:0:
256,32,150379,1,0,0:0:0:0:
224,192,150489,1,0,0:0:0:0:
224,192,150598,1,8,0:0:0:0:
256,96,150653,1,0,0:0:0:0:
224,192,150707,1,0,0:0:0:0:
224,192,150762,1,0,0:0:0:0:
224,192,150817,1,8,0:0:0:0:
224,192,150926,1,0,0:0:0:0:
238,47,150981,1,0,0:0:0:0:
224,192,151036,1,8,0:0:0:0:
256,64,151091,1,8,0:0:0:0:
224,192,151145,1,0,0:0:0:0:
241,77,151200,1,8,0:0:0:0:
224,192,151255,1,0,0:0:0:0:
224,192,151364,1,0,0:0:0:0:
224,192,151474,1,8,0:0:0:0:
256,160,151529,1,0,0:0:0:0:
224,192,151583,1,8,0:0:0:0:
248,64,151638,1,0,0:0:0:0:
224,192,151693,1,8,0:0:0:0:
224,192,151802,1,0,0:0:0:0:
224,192,151912,1,8,0:0:0:0:
224,192,151967,1,8,0:0:0:0:
224,192,152021,1,8,0:0:0:0:
224,192,152076,1,0,0:0:0:0:
224,192,152131,1,8,0:0:0:0:
242,89,152186,1,8,0:0:0:0:
224,192,152240,1,0,0:0:0:0:
242,89,152295,1,0,0:0:0:0:
242,89,152350,1,8,0:0:0:0:
224,192,152405,1,0,0:0:0:0:
224,192,152459,1,8,0:0:0:0:
224,192,152569,1,0,0:0:0:0:
224,192,152678,1,0,0:0:0:0:
201,9,152733,1,0,0:0:0:0:
224,192,152788,1,8,0:0:0:0:
256,64,152843,1,0,0:0:0:0:
224,192,152897,1,8,0:0:0:0:
224,32,152952,1,8,0:0:0:0:
224,192,153007,1,0,0:0:0:0:
256,64,153062,1,8,0:0:0:0:
224,192,153116,1,0,0:0:0:0:
231,50,153171,1,0,0:0:0:0:
224,192,153226,1,8,0:0:0:0:
231,50,153280,1,0,0:0:0:0:
224,192,153335,1,8,0:0:0:0:
224,192,153445,1,4,0:0:0:0:
192,64,153773,1,0,0:0:0:0:
256,160,153883,5,12,0:0:0:0:
256,160,153992,1,0,0:0:0:0:
256,160,154047,1,0,0:0:0:0:
256,160,154102,1,8,0:0:0:0:
256,160,154211,1,0,0:0:0:0:
256,160,154321,1,8,0:0:0:0:
209,42,154375,1,0,0:0:0:0:
256,96,154430,1,8,0:0:0:0:
208,44,154485,1,0,0:0:0:0:
256,96,154540,1,8,0:0:0:0:
256,96,154649,1,0,0:0:0:0:
256,96,154704,1,0,0:0:0:0:
256,96,154759,1,8,0:0:0:0:
256,96,154868,1,0,0:0:0:0:
256,96,154978,1,8,0:0:0:0:
223,76,155032,1,0,0:0:0:0:
256,96,155087,1,0,0:0:0:0:
209,42,155142,1,0,0:0:0:0:
256,96,155197,1,8,0:0:0:0:
256,96,155306,1,0,0:0:0:0:
256,96,155416,1,8,0:0:0:0:
128,128,155470,1,8,0:0:0:0:
256,96,155525,1,0,0:0:0:0:
256,96,155634,1,8,0:0:0:0:
234,65,155689,1,0,0:0:0:0:
256,96,155744,1,0,0:0:0:0:
256,96,155853,1,8,0:0:0:0:
209,42,155908,1,8,0:0:0:0:
256,96,155963,1,0,0:0:0:0:
256,96,156018,1,0,0:0:0:0:
256,96,156072,1,8,0:0:0:0:
256,96,156127,1,0,0:0:0:0:
256,96,156182,1,0,0:0:0:0:
205,29,156237,1,0,0:0:0:0:
256,96,156291,1,8,0:0:0:0:
256,96,156401,1,0,0:0:0:0:
256,96,156456,1,0,0:0:0:0:
224,64,156510,1,8,0:0:0:0:
256,96,156620,1,0,0:0:0:0:
256,96,156729,1,8,0:0:0:0:
256,96,156784,1,0,0:0:0:0:
224,64,156839,1,8,0:0:0:0:
192,96,156894,1,8,0:0:0:0:
256,96,156948,1,0,0:0:0:0:
256,96,157058,1,0,0:0:0:0:
256,96,157167,1,8,0:0:0:0:
257,81,157222,1,0,0:0:0:0:
256,96,157277,1,8,0:0:0:0:
232,55,157332,1,0,0:0:0:0:
256,96,157386,1,8,0:0:0:0:
256,96,157496,1,0,0:0:0:0:
256,96,157551,1,0,0:0:0:0:
256,96,157605,1,8,0:0:0:0:
256,64,157715,1,0,0:0:0:0:
256,96,157824,1,12,0:0:0:0:
256,96,158043,1,12,0:0:0:0:
256,288,158262,5,0,0:0:0:0:
256,128,158700,5,12,0:0:0:0:
273,150,158810,1,0,0:0:0:0:
258,83,158864,1,0,0:0:0:0:
256,96,158919,1,8,0:0:0:0:
256,96,159029,1,0,0:0:0:0:
256,96,159083,1,0,0:0:0:0:
256,96,159138,1,8,0:0:0:0:
256,64,159193,1,8,0:0:0:0:
256,96,159248,1,0,0:0:0:0:
255,111,159302,1,0,0:0:0:0:
256,96,159357,1,8,0:0:0:0:
256,96,159467,1,0,0:0:0:0:
288,64,159521,1,0,0:0:0:0:
256,96,159576,1,8,0:0:0:0:
224,64,159686,1,0,0:0:0:0:
320,96,159740,1,0,0:0:0:0:
256,96,159795,1,8,0:0:0:0:
224,64,159850,1,0,0:0:0:0:
256,96,159905,1,8,0:0:0:0:
256,64,159959,1,8,0:0:0:0:
224,64,160014,1,0,0:0:0:0:
256,64,160124,1,0,0:0:0:0:
256,64,160233,1,8,0:0:0:0:
256,64,160288,1,0,0:0:0:0:
224,64,160343,1,8,0:0:0:0:
256,64,160452,1,0,0:0:0:0:
256,64,160562,1,0,0:0:0:0:
288,96,160616,1,0,0:0:0:0:
256,64,160671,1,8,0:0:0:0:
256,64,160780,1,0,0:0:0:0:
256,64,160835,1,0,0:0:0:0:
256,64,160890,1,8,0:0:0:0:
256,64,160945,1,8,0:0:0:0:
264,56,160999,1,0,0:0:0:0:
269,56,161054,1,0,0:0:0:0:
256,64,161109,1,8,0:0:0:0:
256,64,161218,1,0,0:0:0:0:
256,64,161273,1,0,0:0:0:0:
256,64,161328,1,8,0:0:0:0:
256,64,161437,1,0,0:0:0:0:
256,64,161547,1,8,0:0:0:0:
256,64,161602,1,8,0:0:0:0:
256,64,161656,1,0,0:0:0:0:
256,64,161711,1,0,0:0:0:0:
256,64,161766,1,8,0:0:0:0:
320,96,161821,1,0,0:0:0:0:
256,64,161875,1,0,0:0:0:0:
258,83,161930,1,0,0:0:0:0:
256,96,161985,1,8,0:0:0:0:
256,64,162040,1,8,0:0:0:0:
256,64,162094,1,0,0:0:0:0:
256,96,162149,1,0,0:0:0:0:
256,128,162204,1,8,0:0:0:0:
270,79,162313,1,0,0:0:0:0:
256,96,162423,1,8,0:0:0:0:
270,79,162478,1,8,0:0:0:0:
256,96,162532,1,0,0:0:0:0:
256,64,162642,1,8,0:0:0:0:
256,64,162697,1,0,0:0:0:0:
256,96,162751,1,0,0:0:0:0:
270,79,162806,1,0,0:0:0:0:
256,96,162861,1,8,0:0:0:0:
268,102,162916,1,8,0:0:0:0:
256,96,162970,1,0,0:0:0:0:
256,96,163080,1,8,0:0:0:0:
256,96,163134,1,8,0:0:0:0:
256,64,163189,1,0,0:0:0:0:
224,32,163244,1,0,0:0:0:0:
256,96,163299,1,8,0:0:0:0:
256,96,163408,1,8,0:0:0:0:
224,64,163463,1,8,0:0:0:0:
224,64,163518,1,0,0:0:0:0:
256,96,163627,1,0,0:0:0:0:
251,57,163682,1,0,0:0:0:0:
256,64,163737,1,8,0:0:0:0:
224,64,163791,1,0,0:0:0:0:
256,64,163846,1,8,0:0:0:0:
320,96,163901,1,8,0:0:0:0:
256,64,163956,1,0,0:0:0:0:
256,64,164065,1,0,0:0:0:0:
256,64,164175,1,8,0:0:0:0:
256,64,164229,1,8,0:0:0:0:
256,64,164284,1,0,0:0:0:0:
256,64,164394,1,8,0:0:0:0:
256,64,164448,1,0,0:0:0:0:
256,64,164503,1,0,0:0:0:0:
256,64,164558,1,0,0:0:0:0:
256,64,164613,1,8,0:0:0:0:
262,104,164667,1,8,0:0:0:0:
256,64,164722,1,0,0:0:0:0:
256,64,164832,1,8,0:0:0:0:
256,64,164886,1,8,0:0:0:0:
245,43,164941,1,0,0:0:0:0:
245,43,164996,1,0,0:0:0:0:
256,64,165051,1,8,0:0:0:0:
269,56,165105,1,0,0:0:0:0:
256,64,165160,1,8,0:0:0:0:
192,32,165215,1,8,0:0:0:0:
224,32,165270,1,0,0:0:0:0:
256,64,165379,1,0,0:0:0:0:
256,64,165489,1,8,0:0:0:0:
256,96,165543,1,8,0:0:0:0:
256,64,165598,1,0,0:0:0:0:
256,128,165707,5,12,0:0:0:0:
269,70,165817,1,0,0:0:0:0:
210,67,165872,1,0,0:0:0:0:
256,96,165926,1,8,0:0:0:0:
256,96,166036,1,0,0:0:0:0:
264,109,166091,1,0,0:0:0:0:
256,96,166145,1,8,0:0:0:0:
256,64,166200,1,8,0:0:0:0:
256,96,166255,1,0,0:0:0:0:
256,96,166310,1,0,0:0:0:0:
256,96,166364,1,8,0:0:0:0:
256,96,166474,1,0,0:0:0:0:
224,64,166529,1,0,0:0:0:0:
256,96,166583,1,8,0:0:0:0:
224,64,166693,1,0,0:0:0:0:
256,96,166802,1,8,0:0:0:0:
212,45,166857,1,0,0:0:0:0:
256,96,166912,1,8,0:0:0:0:
224,64,167021,1,0,0:0:0:0:
212,45,167076,1,0,0:0:0:0:
256,64,167131,1,0,0:0:0:0:
230,61,167186,1,0,0:0:0:0:
256,64,167240,1,8,0:0:0:0:
269,56,167295,1,8,0:0:0:0:
224,64,167350,1,0,0:0:0:0:
249,55,167405,1,0,0:0:0:0:
256,64,167459,1,8,0:0:0:0:
256,64,167569,1,0,0:0:0:0:
256,64,167678,1,8,0:0:0:0:
256,64,167733,1,0,0:0:0:0:
256,64,167788,1,0,0:0:0:0:
256,64,167897,1,8,0:0:0:0:
220,93,167952,1,8,0:0:0:0:
256,64,168007,1,0,0:0:0:0:
256,64,168062,1,0,0:0:0:0:
256,64,168116,1,8,0:0:0:0:
256,64,168171,1,0,0:0:0:0:
240,49,168226,1,0,0:0:0:0:
241,53,168280,1,0,0:0:0:0:
256,64,168335,1,8,0:0:0:0:
256,64,168445,1,0,0:0:0:0:
229,79,168499,1,0,0:0:0:0:
256,64,168554,1,8,0:0:0:0:
256,64,168664,1,0,0:0:0:0:
256,64,168773,1,8,0:0:0:0:
233,66,168828,1,8,0:0:0:0:
256,64,168883,1,0,0:0:0:0:
256,64,168937,1,0,0:0:0:0:
256,96,168992,1,8,0:0:0:0:
233,66,169047,1,8,0:0:0:0:
256,64,169102,1,8,0:0:0:0:
243,57,169156,1,8,0:0:0:0:
256,128,169211,1,0,0:0:0:0:
242,84,169321,1,0,0:0:0:0:
256,96,169430,1,8,0:0:0:0:
249,77,169485,1,8,0:0:0:0:
256,96,169540,1,0,0:0:0:0:
256,64,169649,1,8,0:0:0:0:
256,64,169704,1,0,0:0:0:0:
256,96,169759,1,0,0:0:0:0:
256,96,169813,1,0,0:0:0:0:
256,96,169868,1,8,0:0:0:0:
256,64,169923,1,8,0:0:0:0:
256,96,169978,1,0,0:0:0:0:
256,96,170087,1,8,0:0:0:0:
256,96,170142,1,8,0:0:0:0:
224,64,170197,1,0,0:0:0:0:
256,64,170251,1,0,0:0:0:0:
256,96,170306,1,8,0:0:0:0:
256,96,170416,1,8,0:0:0:0:
224,64,170470,1,8,0:0:0:0:
224,64,170525,1,0,0:0:0:0:
256,96,170634,1,0,0:0:0:0:
267,90,170689,1,0,0:0:0:0:
256,64,170744,1,8,0:0:0:0:
224,64,170799,1,0,0:0:0:0:
256,64,170853,1,8,0:0:0:0:
320,96,170908,1,8,0:0:0:0:
256,64,170963,1,0,0:0:0:0:
256,64,171072,1,0,0:0:0:0:
256,64,171182,1,8,0:0:0:0:
256,64,171237,1,8,0:0:0:0:
256,64,171291,1,0,0:0:0:0:
256,64,171401,1,8,0:0:0:0:
256,64,171456,1,0,0:0:0:0:
256,64,171510,1,0,0:0:0:0:
242,60,171565,1,0,0:0:0:0:
256,64,171620,1,8,0:0:0:0:
228,78,171675,1,8,0:0:0:0:
256,64,171729,1,0,0:0:0:0:
256,64,171839,1,8,0:0:0:0:
256,64,171894,1,8,0:0:0:0:
256,64,171948,1,0,0:0:0:0:
256,64,172058,1,8,0:0:0:0:
256,64,172167,1,4,0:0:0:0:
256,128,172715,5,4,0:0:0:0:
256,64,172934,1,4,0:0:0:0:
256,64,173153,5,8,0:0:0:0:
256,64,173262,1,8,0:0:0:0:
256,64,173372,1,8,0:0:0:0:
256,64,173481,1,8,0:0:0:0:
256,64,173591,1,0,0:0:0:0:
256,64,173700,1,0,0:0:0:0:
256,64,173810,1,8,0:0:0:0:
256,64,173919,1,0,0:0:0:0:
256,64,174029,1,0,0:0:0:0:
256,64,174138,1,0,0:0:0:0:
256,64,174248,1,8,0:0:0:0:
256,64,174357,1,8,0:0:0:0:
256,64,174467,5,4,0:0:0:0:
256,64,174686,1,4,0:0:0:0:
256,64,174905,5,0,0:0:0:0:
256,64,175014,1,0,0:0:0:0:
256,64,175124,1,8,0:0:0:0:
256,64,175233,1,0,0:0:0:0:
256,64,175343,1,0,0:0:0:0:
256,64,175452,1,0,0:0:0:0:
256,64,175562,1,8,0:0:0:0:
256,64,175671,1,8,0:0:0:0:
256,64,175780,1,8,0:0:0:0:
256,64,175890,1,0,0:0:0:0:
256,64,175999,1,8,0:0:0:0:
256,64,176109,1,8,0:0:0:0:
256,64,176218,1,4,0:0:0:0:
256,64,176437,1,4,0:0:0:0:
256,64,176656,5,0,0:0:0:0:
256,64,176766,1,0,0:0:0:0:
256,64,176875,1,8,0:0:0:0:
256,64,176985,1,0,0:0:0:0:
256,64,177094,1,0,0:0:0:0:
256,64,177204,1,0,0:0:0:0:
256,64,177313,1,8,0:0:0:0:
256,64,177423,1,0,0:0:0:0:
256,64,177532,1,0,0:0:0:0:
256,64,177642,1,0,0:0:0:0:
256,64,177751,1,8,0:0:0:0:
256,64,177861,1,8,0:0:0:0:
256,64,177970,5,4,0:0:0:0:
256,64,178189,1,4,0:0:0:0:
256,64,178408,5,0,0:0:0:0:
256,64,178518,1,0,0:0:0:0:
256,64,178627,1,8,0:0:0:0:
256,64,178737,1,0,0:0:0:0:
256,64,178846,1,0,0:0:0:0:
256,64,178956,1,0,0:0:0:0:
256,64,179065,1,8,0:0:0:0:
256,64,179175,1,0,0:0:0:0:
256,64,179284,1,8,0:0:0:0:
256,64,179394,1,0,0:0:0:0:
256,64,179503,1,8,0:0:0:0:
256,64,179613,1,8,0:0:0:0:
256,64,179722,5,4,0:0:0:0:
256,64,179941,1,4,0:0:0:0:
256,64,180160,5,0,0:0:0:0:
256,64,180270,1,0,0:0:0:0:
256,64,180379,1,8,0:0:0:0:
256,64,180489,1,0,0:0:0:0:
256,64,180598,1,8,0:0:0:0:
256,64,180707,1,8,0:0:0:0:
256,64,180817,1,8,0:0:0:0:
256,64,180926,1,8,0:0:0:0:
256,64,181036,1,0,0:0:0:0:
256,64,181145,1,0,0:0:0:0:
256,64,181255,1,8,0:0:0:0:
256,64,181364,1,8,0:0:0:0:
256,64,181474,5,4,0:0:0:0:
256,64,181693,1,4,0:0:0:0:
256,64,181912,1,8,0:0:0:0:
256,64,182021,1,0,0:0:0:0:
256,64,182131,1,8,0:0:0:0:
256,64,182240,1,8,0:0:0:0:
256,64,182350,1,0,0:0:0:0:
256,64,182459,1,0,0:0:0:0:
256,64,182569,1,8,0:0:0:0:
256,64,182678,1,0,0:0:0:0:
256,64,182788,1,8,0:0:0:0:
256,64,182897,1,8,0:0:0:0:
256,64,183007,1,8,0:0:0:0:
256,64,183116,1,8,0:0:0:0:
256,64,183226,1,4,0:0:0:0:
256,64,183445,1,4,0:0:0:0:
256,64,183664,5,0,0:0:0:0:
256,64,183773,1,0,0:0:0:0:
256,64,183883,1,8,0:0:0:0:
256,64,183992,1,8,0:0:0:0:
256,64,184102,1,8,0:0:0:0:
256,64,184211,1,0,0:0:0:0:
256,64,184321,1,8,0:0:0:0:
256,64,184430,1,0,0:0:0:0:
256,64,184540,1,0,0:0:0:0:
256,64,184649,1,0,0:0:0:0:
256,64,184759,1,8,0:0:0:0:
256,64,184868,1,8,0:0:0:0:
256,64,184978,5,4,0:0:0:0:
256,64,185197,1,4,0:0:0:0:
256,64,185416,5,8,0:0:0:0:
256,64,185525,1,0,0:0:0:0:
256,64,185634,1,8,0:0:0:0:
256,64,185744,1,8,0:0:0:0:
256,64,185853,1,0,0:0:0:0:
256,64,185963,1,0,0:0:0:0:
256,64,186072,1,8,0:0:0:0:
256,64,186182,1,0,0:0:0:0:
256,64,186291,1,8,0:0:0:0:
256,64,186401,1,8,0:0:0:0:
256,64,186510,1,8,0:0:0:0:
256,64,186620,1,8,0:0:0:0:
256,64,186729,5,4,0:0:0:0:
256,64,186948,1,4,0:0:0:0:
288,96,187167,5,8,0:0:0:0:
288,96,187277,1,0,0:0:0:0:
288,96,187386,1,8,0:0:0:0:
288,96,187496,1,8,0:0:0:0:
288,96,187605,5,4,0:0:0:0:
256,96,187824,1,4,0:0:0:0:
288,96,188043,5,0,0:0:0:0:
288,96,188153,1,0,0:0:0:0:
256,64,188262,1,8,0:0:0:0:
256,64,188372,1,8,0:0:0:0:
224,64,188481,1,4,0:0:0:0:
288,96,188700,1,4,0:0:0:0:
256,96,188919,5,0,0:0:0:0:
256,96,189029,1,0,0:0:0:0:
256,96,189138,1,8,0:0:0:0:
256,96,189248,1,8,0:0:0:0:
256,96,189357,5,4,0:0:0:0:
256,96,189576,1,4,0:0:0:0:
288,96,189795,5,8,0:0:0:0:
288,96,189905,1,0,0:0:0:0:
288,96,190014,1,8,0:0:0:0:
288,96,190124,1,8,0:0:0:0:
288,96,190233,5,4,0:0:0:0:
256,64,190452,1,8,0:0:0:0:
256,64,190562,1,8,0:0:0:0:
256,64,190671,1,4,0:0:0:0:
256,64,190890,1,8,0:0:0:0:
256,64,191109,5,4,0:0:0:0:
256,64,191328,1,8,0:0:0:0:
256,64,191437,1,8,0:0:0:0:
256,64,191547,1,4,0:0:0:0:
256,64,191766,1,8,0:0:0:0:
205,158,191985,5,0,0:0:0:0:
205,158,192094,1,0,0:0:0:0:
205,158,192204,1,8,0:0:0:0:
205,158,192313,1,8,0:0:0:0:
205,158,192423,5,0,0:0:0:0:
205,158,192532,1,0,0:0:0:0:
205,158,192642,1,8,0:0:0:0:
205,158,192751,1,0,0:0:0:0:
256,64,192861,5,8,0:0:0:0:
256,64,192970,1,8,0:0:0:0:
256,64,193080,1,0,0:0:0:0:
250,69,193189,1,8,0:0:0:0:
288,64,193299,5,0,0:0:0:0:
256,64,193408,5,0,0:0:0:0:
256,64,193518,5,8,0:0:0:0:
256,64,193627,5,0,0:0:0:0:
288,64,193737,5,12,0:0:0:0:
