osu file format v14

[General]
AudioFilename: audio.mp3
AudioLeadIn: 0
PreviewTime: 133850
Countdown: 0
SampleSet: Normal
StackLeniency: 0.7
Mode: 1
LetterboxInBreaks: 0
WidescreenStoryboard: 1

[Editor]
Bookmarks: 1040,13302,20310,34324,41331,48339,62353,74616,88631,102645,116660,123667,130675,134178,146441,158704,165711,172718,179726
DistanceSpacing: 0.5
BeatDivisor: 1
GridSize: 32
TimelineZoom: 1.699999

[Metadata]
Title:Lost Umbrella
TitleUnicode:ロストアンブレラ
Artist:rei sirose
ArtistUnicode:rei sirose
Creator:gaston_2199
Version:Futsuu
Source:
Tags:稲葉曇 inabakumori anticyclone ぬくぬくにぎりめし nukunukunigirimeshi 白瀬玲 dustcell ema EM A 久遠千歳 Kudou Chitose Kudo vtuber virtual youtuber youtube cover japanese rock jrock j-rock KTYN KitajimaYN yuni Waribashi
BeatmapID:2987972
BeatmapSetID:1425118

[Difficulty]
HPDrainRate:7
CircleSize:2
OverallDifficulty:4
ApproachRate:10
SliderMultiplier:1.4
SliderTickRate:1

[Events]
//Background and Video events
0,0,"67493108_p0.jpg",0,0
//Break Periods
2,13501,19858
2,116859,122340
//Storyboard Layer 0 (Background)
//Storyboard Layer 1 (Fail)
//Storyboard Layer 2 (Pass)
//Storyboard Layer 3 (Foreground)
//Storyboard Layer 4 (Overlay)
//Storyboard Sound Samples

[TimingPoints]
164,218.978102189781,4,1,0,70,1,8
1039,437.956204379562,4,1,0,70,1,0
8046,218.978102189781,4,1,0,70,1,0
8046,-181.818181818182,4,1,0,70,0,0
13292,-181.818181818182,4,1,0,60,0,0
20300,-166.666666666667,4,1,0,80,0,0
48337,-166.666666666667,4,1,0,80,0,1
48443,-199.793014437044,4,1,0,70,0,1
58848,-200,4,1,0,60,0,0
61905,-166.666666666667,4,1,0,80,0,0
62352,-166.666666666667,4,1,0,90,0,1
69359,-166.666666666667,4,1,0,80,0,0
69797,-166.666666666667,4,1,0,90,0,1
74177,-166.666666666667,4,1,0,60,0,0
74575,-166.666666666667,4,1,0,80,0,0
81071,-166.666666666667,4,1,0,70,0,0
81618,-166.666666666667,4,1,0,80,0,0
88840,-181.818181818182,4,1,0,70,0,0
102635,-166.666666666667,4,1,0,80,0,0
116764,-166.522901894698,4,1,0,70,0,0
130665,-166.666666666667,4,1,0,80,0,0
133301,218.978102189781,4,1,0,20,1,8
134094,-166.666666666667,4,1,0,70,0,8
134176,437.956204379562,4,1,0,70,1,0
141183,218.978102189781,4,1,0,60,1,0
141183,-181.818181818182,4,1,0,60,0,0
145562,218.978102189781,4,1,0,60,1,8
145991,-200,4,1,0,60,0,0
146437,-166.666666666667,4,1,0,90,0,1
153445,-166.666666666667,4,1,0,80,0,0
153883,-166.666666666667,4,1,0,90,0,1
158262,-166.666666666667,4,1,0,80,0,0
158700,-166.666666666667,4,1,0,90,0,1
172167,-166.666666666667,4,1,0,90,0,0
172711,-166.666666666667,4,1,0,80,0,0

[HitObjects]
256,192,1039,5,0,0:0:0:0:
278,162,1914,1,0,0:0:0:0:
256,192,2790,1,8,0:0:0:0:
256,192,4542,1,0,0:0:0:0:
265,168,5418,1,8,0:0:0:0:
256,192,6294,1,0,0:0:0:0:
256,192,8046,1,4,0:0:0:0:
256,192,8483,1,8,0:0:0:0:
256,192,8921,1,0,0:0:0:0:
256,160,9140,1,8,0:0:0:0:
256,192,9578,1,8,0:0:0:0:
256,192,9797,1,0,0:0:0:0:
256,128,10235,1,0,0:0:0:0:
250,164,10454,1,8,0:0:0:0:
256,128,10673,1,0,0:0:0:0:
229,118,11111,1,0,0:0:0:0:
256,128,11549,1,8,0:0:0:0:
256,128,11987,1,8,0:0:0:0:
256,96,12425,1,4,0:0:0:0:
256,96,13301,1,12,0:0:0:0:
256,128,20308,5,4,0:0:0:0:
266,99,20746,1,8,0:0:0:0:
256,96,21184,1,0,0:0:0:0:
234,121,21513,1,8,0:0:0:0:
256,64,22060,1,0,0:0:0:0:
256,96,22279,1,0,0:0:0:0:
256,64,22498,1,8,0:0:0:0:
256,64,22936,1,0,0:0:0:0:
256,64,23155,1,8,0:0:0:0:
256,64,23593,1,8,0:0:0:0:
256,128,23812,1,0,0:0:0:0:
250,75,24031,1,0,0:0:0:0:
256,96,24250,1,8,0:0:0:0:
256,96,24688,1,0,0:0:0:0:
256,96,25016,1,8,0:0:0:0:
256,64,25564,1,0,0:0:0:0:
256,78,25783,1,0,0:0:0:0:
256,64,26002,1,8,0:0:0:0:
256,64,26440,1,0,0:0:0:0:
256,128,27316,1,4,0:0:0:0:
256,64,27754,1,8,0:0:0:0:
256,96,28191,1,0,0:0:0:0:
256,96,28520,1,8,0:0:0:0:
256,64,29067,1,0,0:0:0:0:
261,90,29286,1,0,0:0:0:0:
256,64,29505,1,8,0:0:0:0:
256,64,29943,1,0,0:0:0:0:
256,64,30162,1,8,0:0:0:0:
256,64,30600,1,8,0:0:0:0:
256,128,30819,1,0,0:0:0:0:
255,111,31038,1,0,0:0:0:0:
258,72,31257,1,8,0:0:0:0:
256,96,31695,1,0,0:0:0:0:
256,96,32024,1,8,0:0:0:0:
256,64,32571,1,0,0:0:0:0:
266,94,32790,1,0,0:0:0:0:
256,64,33009,1,8,0:0:0:0:
256,64,33447,1,0,0:0:0:0:
256,64,34323,1,4,0:0:0:0:
216,20,34980,1,8,0:0:0:0:
262,88,35418,1,8,0:0:0:0:
256,64,35637,1,0,0:0:0:0:
256,64,36075,1,4,0:0:0:0:
249,79,36513,1,8,0:0:0:0:
256,64,36951,1,0,0:0:0:0:
223,67,37170,1,8,0:0:0:0:
256,64,37389,1,8,0:0:0:0:
256,64,37827,1,4,0:0:0:0:
220,67,38483,1,8,0:0:0:0:
277,29,38921,1,8,0:0:0:0:
256,64,39140,1,0,0:0:0:0:
256,64,39578,1,4,0:0:0:0:
253,53,40016,1,8,0:0:0:0:
266,19,40454,1,0,0:0:0:0:
253,53,40673,1,8,0:0:0:0:
256,64,40892,1,8,0:0:0:0:
256,64,41330,1,4,0:0:0:0:
288,96,42206,1,4,0:0:0:0:
224,64,43082,1,4,0:0:0:0:
256,96,43958,1,4,0:0:0:0:
288,96,44834,1,4,0:0:0:0:
256,64,45272,1,4,0:0:0:0:
256,64,45710,1,4,0:0:0:0:
215,136,46148,1,4,0:0:0:0:
256,64,46586,1,8,0:0:0:0:
256,64,47024,1,8,0:0:0:0:
250,75,47243,1,0,0:0:0:0:
256,64,47462,1,8,0:0:0:0:
250,75,47900,1,0,0:0:0:0:
288,64,48337,1,12,0:0:0:0:
224,64,49213,1,8,0:0:0:0:
224,64,49651,1,0,0:0:0:0:
224,64,50089,1,8,0:0:0:0:
230,73,50527,1,8,0:0:0:0:
224,64,50965,1,0,0:0:0:0:
224,64,51403,1,8,0:0:0:0:
224,64,51841,1,8,0:0:0:0:
224,64,52717,1,0,0:0:0:0:
224,64,53374,1,8,0:0:0:0:
224,64,53593,1,0,0:0:0:0:
224,64,54031,1,8,0:0:0:0:
224,64,54469,1,0,0:0:0:0:
224,73,54688,1,0,0:0:0:0:
224,64,54907,1,8,0:0:0:0:
224,64,55345,1,4,0:0:0:0:
224,73,56002,1,8,0:0:0:0:
224,64,56221,1,8,0:0:0:0:
224,73,56878,1,0,0:0:0:0:
224,64,57097,1,0,0:0:0:0:
224,64,57754,1,8,0:0:0:0:
224,64,58191,1,8,0:0:0:0:
224,64,58410,1,8,0:0:0:0:
224,64,58848,1,0,0:0:0:0:
256,64,61914,1,12,0:0:0:0:
256,128,62352,5,4,0:0:0:0:
255,147,62790,1,0,0:0:0:0:
256,192,63228,1,8,0:0:0:0:
253,116,63447,1,8,0:0:0:0:
256,192,63666,1,0,0:0:0:0:
239,131,63885,1,8,0:0:0:0:
224,64,64104,1,0,0:0:0:0:
224,64,64542,1,0,0:0:0:0:
224,64,64980,1,8,0:0:0:0:
200,54,65199,1,0,0:0:0:0:
256,32,65418,1,8,0:0:0:0:
256,32,65856,1,8,0:0:0:0:
220,62,66294,1,0,0:0:0:0:
197,50,66513,1,8,0:0:0:0:
224,192,66732,1,8,0:0:0:0:
224,192,67170,1,0,0:0:0:0:
224,192,67608,1,0,0:0:0:0:
224,192,67827,1,8,0:0:0:0:
224,192,68046,1,8,0:0:0:0:
245,90,68264,1,0,0:0:0:0:
224,192,68483,1,0,0:0:0:0:
224,192,69359,1,4,0:0:0:0:
256,160,69797,1,12,0:0:0:0:
256,160,70235,1,0,0:0:0:0:
246,143,70454,1,8,0:0:0:0:
246,143,70673,1,8,0:0:0:0:
256,96,71111,1,8,0:0:0:0:
256,96,71549,1,0,0:0:0:0:
187,64,71768,1,8,0:0:0:0:
256,96,71987,1,8,0:0:0:0:
256,96,72206,1,0,0:0:0:0:
224,64,72425,1,8,0:0:0:0:
147,109,72644,1,0,0:0:0:0:
256,96,73082,1,8,0:0:0:0:
256,96,73301,1,0,0:0:0:0:
256,96,73739,1,4,0:0:0:0:
256,128,74615,5,4,0:0:0:0:
266,99,75053,1,8,0:0:0:0:
256,96,75491,1,0,0:0:0:0:
234,121,75819,1,8,0:0:0:0:
256,64,76367,1,0,0:0:0:0:
256,96,76586,1,0,0:0:0:0:
256,64,76805,1,8,0:0:0:0:
256,64,77243,1,0,0:0:0:0:
256,64,77462,1,8,0:0:0:0:
256,64,77900,1,8,0:0:0:0:
256,128,78118,1,8,0:0:0:0:
250,75,78337,1,0,0:0:0:0:
256,96,78556,1,8,0:0:0:0:
256,96,78994,1,0,0:0:0:0:
256,96,79323,1,8,0:0:0:0:
256,64,79870,1,0,0:0:0:0:
256,78,80089,1,0,0:0:0:0:
256,64,80308,1,8,0:0:0:0:
276,91,80746,1,0,0:0:0:0:
256,128,81622,1,4,0:0:0:0:
256,64,82060,1,8,0:0:0:0:
256,96,82498,1,0,0:0:0:0:
256,96,82827,1,8,0:0:0:0:
256,64,83374,1,0,0:0:0:0:
261,90,83593,1,0,0:0:0:0:
256,64,83812,1,8,0:0:0:0:
256,64,84250,1,0,0:0:0:0:
256,64,84469,1,8,0:0:0:0:
256,64,84907,1,8,0:0:0:0:
256,128,85126,1,0,0:0:0:0:
255,111,85345,1,0,0:0:0:0:
258,72,85564,1,8,0:0:0:0:
256,96,86002,1,0,0:0:0:0:
256,96,86440,1,8,0:0:0:0:
256,96,86659,1,8,0:0:0:0:
256,64,86878,1,0,0:0:0:0:
256,64,87316,1,8,0:0:0:0:
256,64,87754,1,0,0:0:0:0:
256,64,88629,1,4,0:0:0:0:
256,64,89067,5,8,0:0:0:0:
256,64,89505,1,8,0:0:0:0:
163,111,89724,1,0,0:0:0:0:
208,37,89943,1,0,0:0:0:0:
182,98,90162,1,8,0:0:0:0:
256,64,90600,1,8,0:0:0:0:
256,64,90819,1,0,0:0:0:0:
256,64,91257,1,8,0:0:0:0:
256,64,91695,1,0,0:0:0:0:
256,64,92571,1,0,0:0:0:0:
256,64,93009,1,8,0:0:0:0:
243,72,93228,1,8,0:0:0:0:
256,64,93447,1,0,0:0:0:0:
237,65,93666,1,0,0:0:0:0:
256,64,93885,1,8,0:0:0:0:
258,126,94323,1,0,0:0:0:0:
256,64,95637,1,4,0:0:0:0:
256,64,96075,1,8,0:0:0:0:
256,64,96513,1,0,0:0:0:0:
256,64,96951,1,0,0:0:0:0:
256,64,97170,1,8,0:0:0:0:
256,64,97827,1,8,0:0:0:0:
256,64,98264,1,0,0:0:0:0:
256,64,98702,1,8,0:0:0:0:
260,71,98921,1,8,0:0:0:0:
256,96,99578,1,8,0:0:0:0:
262,55,99797,1,8,0:0:0:0:
256,96,100016,1,0,0:0:0:0:
256,96,100454,1,8,0:0:0:0:
256,96,100892,1,4,0:0:0:0:
256,96,101768,1,8,0:0:0:0:
256,96,102097,1,8,0:0:0:0:
248,99,102644,1,4,0:0:0:0:
216,20,103301,1,8,0:0:0:0:
262,88,103739,1,8,0:0:0:0:
256,64,103958,1,0,0:0:0:0:
256,64,104396,1,4,0:0:0:0:
249,79,104834,1,8,0:0:0:0:
256,64,105272,1,0,0:0:0:0:
223,67,105491,1,8,0:0:0:0:
256,64,105710,1,8,0:0:0:0:
256,64,106148,1,4,0:0:0:0:
220,67,106805,1,8,0:0:0:0:
277,29,107243,1,8,0:0:0:0:
256,64,107462,1,0,0:0:0:0:
256,64,107900,1,4,0:0:0:0:
253,53,108337,1,8,0:0:0:0:
266,19,108775,1,8,0:0:0:0:
253,53,108994,1,0,0:0:0:0:
256,64,109213,1,8,0:0:0:0:
256,64,109651,1,4,0:0:0:0:
288,96,110527,1,4,0:0:0:0:
224,64,111403,1,4,0:0:0:0:
256,96,112279,1,4,0:0:0:0:
288,96,113155,1,4,0:0:0:0:
256,64,113593,1,4,0:0:0:0:
256,64,114031,1,4,0:0:0:0:
247,76,114469,1,4,0:0:0:0:
256,64,114907,1,8,0:0:0:0:
256,64,115345,1,8,0:0:0:0:
250,75,115564,1,0,0:0:0:0:
256,64,115783,1,8,0:0:0:0:
250,75,116221,1,0,0:0:0:0:
288,64,116659,1,12,0:0:0:0:
256,192,122790,5,8,0:0:0:0:
256,192,123666,1,4,0:0:0:0:
224,128,124542,1,4,0:0:0:0:
256,192,124980,1,8,0:0:0:0:
252,168,125199,1,8,0:0:0:0:
224,128,125418,1,4,0:0:0:0:
246,156,125856,1,8,0:0:0:0:
256,192,126294,1,4,0:0:0:0:
256,160,126732,1,8,0:0:0:0:
256,192,127170,1,4,0:0:0:0:
224,128,128045,1,4,0:0:0:0:
243,115,128483,1,8,0:0:0:0:
256,71,128702,1,8,0:0:0:0:
224,128,128921,1,4,0:0:0:0:
162,87,129359,1,8,0:0:0:0:
256,192,129797,1,0,0:0:0:0:
256,160,130673,1,12,0:0:0:0:
206,57,131111,1,0,0:0:0:0:
256,64,131549,1,8,0:0:0:0:
185,37,131768,1,0,0:0:0:0:
256,64,131987,1,8,0:0:0:0:
256,96,132425,1,12,0:0:0:0:
256,96,132863,1,12,0:0:0:0:
256,192,134176,5,0,0:0:0:0:
205,57,135051,1,0,0:0:0:0:
256,192,135927,1,8,0:0:0:0:
256,192,137679,1,0,0:0:0:0:
188,52,138555,1,8,0:0:0:0:
256,192,139431,5,0,0:0:0:0:
256,192,141183,5,4,0:0:0:0:
288,160,141620,1,8,0:0:0:0:
256,192,142058,1,8,0:0:0:0:
256,192,142277,1,0,0:0:0:0:
228,56,142496,1,8,0:0:0:0:
256,192,142934,1,0,0:0:0:0:
256,128,143372,1,8,0:0:0:0:
256,128,143810,1,0,0:0:0:0:
256,128,144029,1,0,0:0:0:0:
227,43,144248,1,8,0:0:0:0:
256,128,144686,1,0,0:0:0:0:
256,128,146437,5,12,0:0:0:0:
255,147,146875,1,0,0:0:0:0:
256,192,147313,1,8,0:0:0:0:
253,116,147532,1,8,0:0:0:0:
256,192,147751,1,0,0:0:0:0:
239,131,147970,1,8,0:0:0:0:
224,64,148189,1,0,0:0:0:0:
224,64,148627,1,0,0:0:0:0:
224,64,149065,1,8,0:0:0:0:
200,54,149284,1,0,0:0:0:0:
256,32,149503,1,8,0:0:0:0:
256,32,149941,1,8,0:0:0:0:
220,62,150379,1,0,0:0:0:0:
197,50,150598,1,8,0:0:0:0:
224,192,150817,1,8,0:0:0:0:
224,192,151255,1,0,0:0:0:0:
224,192,151693,1,0,0:0:0:0:
224,192,151912,1,8,0:0:0:0:
224,192,152131,1,8,0:0:0:0:
245,90,152350,1,0,0:0:0:0:
224,192,152569,1,0,0:0:0:0:
224,192,153445,1,4,0:0:0:0:
256,160,153883,1,12,0:0:0:0:
256,160,154321,1,0,0:0:0:0:
246,143,154540,1,8,0:0:0:0:
246,143,154759,1,8,0:0:0:0:
256,96,155197,1,0,0:0:0:0:
256,96,155634,1,0,0:0:0:0:
187,64,155853,1,8,0:0:0:0:
256,96,156072,1,8,0:0:0:0:
256,96,156291,1,0,0:0:0:0:
224,64,156510,1,0,0:0:0:0:
147,109,156729,1,8,0:0:0:0:
256,96,157167,1,8,0:0:0:0:
256,96,157386,1,0,0:0:0:0:
256,96,157824,1,4,0:0:0:0:
256,128,158700,5,4,0:0:0:0:
256,96,159138,1,8,0:0:0:0:
256,96,159576,1,0,0:0:0:0:
200,76,159905,1,8,0:0:0:0:
256,64,160452,1,0,0:0:0:0:
220,70,160671,5,0,0:0:0:0:
256,64,160890,1,8,0:0:0:0:
256,64,161328,1,0,0:0:0:0:
256,64,161547,1,8,0:0:0:0:
256,64,161766,1,8,0:0:0:0:
184,83,161985,1,8,0:0:0:0:
256,128,162204,1,0,0:0:0:0:
256,64,162642,1,8,0:0:0:0:
256,96,163080,1,8,0:0:0:0:
192,68,163408,1,8,0:0:0:0:
256,64,163956,1,0,0:0:0:0:
256,64,164394,1,8,0:0:0:0:
256,64,164832,1,8,0:0:0:0:
256,128,165707,5,4,0:0:0:0:
256,96,166145,1,8,0:0:0:0:
256,96,166583,1,0,0:0:0:0:
208,75,166912,1,8,0:0:0:0:
256,64,167459,1,0,0:0:0:0:
256,64,167897,1,8,0:0:0:0:
256,64,168335,1,0,0:0:0:0:
224,72,168554,1,0,0:0:0:0:
256,64,168773,1,8,0:0:0:0:
256,96,168992,1,8,0:0:0:0:
256,128,169211,1,0,0:0:0:0:
256,64,169649,1,8,0:0:0:0:
256,96,170087,1,8,0:0:0:0:
256,64,170416,1,8,0:0:0:0:
256,64,170963,1,0,0:0:0:0:
256,64,171401,1,8,0:0:0:0:
256,64,171839,1,8,0:0:0:0:
256,64,172167,1,0,0:0:0:0:
206,27,172715,5,4,0:0:0:0:
188,35,173153,1,8,0:0:0:0:
256,64,173810,1,8,0:0:0:0:
256,64,174248,1,8,0:0:0:0:
256,64,174467,1,4,0:0:0:0:
236,72,175124,1,8,0:0:0:0:
256,64,175562,1,8,0:0:0:0:
256,64,175999,1,8,0:0:0:0:
256,64,176218,1,4,0:0:0:0:
245,70,176875,1,8,0:0:0:0:
256,64,177313,1,8,0:0:0:0:
256,64,177751,1,8,0:0:0:0:
256,64,177970,1,4,0:0:0:0:
245,70,178627,1,8,0:0:0:0:
256,64,179065,1,8,0:0:0:0:
256,64,179284,1,8,0:0:0:0:
256,64,179722,1,4,0:0:0:0:
216,20,180379,1,8,0:0:0:0:
262,88,180817,1,8,0:0:0:0:
256,64,181036,1,0,0:0:0:0:
256,64,181474,1,4,0:0:0:0:
249,79,181912,1,8,0:0:0:0:
256,64,182350,1,0,0:0:0:0:
223,67,182569,1,8,0:0:0:0:
256,64,182788,1,8,0:0:0:0:
256,64,183226,1,4,0:0:0:0:
220,67,183883,1,8,0:0:0:0:
277,29,184321,1,8,0:0:0:0:
256,64,184540,1,0,0:0:0:0:
256,64,184978,1,4,0:0:0:0:
253,53,185416,1,8,0:0:0:0:
266,19,185853,1,0,0:0:0:0:
253,53,186072,1,8,0:0:0:0:
256,64,186291,1,8,0:0:0:0:
256,64,186729,1,4,0:0:0:0:
288,96,187605,1,4,0:0:0:0:
224,64,188481,1,4,0:0:0:0:
256,96,189357,1,4,0:0:0:0:
288,96,190233,1,4,0:0:0:0:
256,64,190671,1,4,0:0:0:0:
256,64,191109,1,4,0:0:0:0:
345,61,191547,1,4,0:0:0:0:
256,64,191985,1,8,0:0:0:0:
256,64,192423,1,8,0:0:0:0:
250,75,192642,1,0,0:0:0:0:
256,64,192861,1,8,0:0:0:0:
250,75,193299,1,8,0:0:0:0:
288,64,193737,1,4,0:0:0:0:
