osu file format v14

[General]
AudioFilename: audio.mp3
AudioLeadIn: 0
PreviewTime: 133850
Countdown: 0
SampleSet: Soft
StackLeniency: 0.4
Mode: 0
LetterboxInBreaks: 0
WidescreenStoryboard: 0

[Editor]
DistanceSpacing: 0.5
BeatDivisor: 8
GridSize: 32
TimelineZoom: 1.999999

[Metadata]
Title:Lost Umbrella
TitleUnicode:ロストアンブレラ
Artist:rei sirose
ArtistUnicode:rei sirose
Creator:SMOKELIND
Version:EX
Source:
Tags:白瀬玲 dustcell ema EM A Kudou Chitose 久遠千歳 Kudo vtuber youtube virtual youtuber Japanese J Rock J-Rock JRock Basensorex Chiga DeRandom Otaku Fuju Agatsu nukunukunigirimeshi ぬくぬくにぎりめし 稲葉曇 inabakumori 歌愛ユキ Kaai Yuki vocaloid
BeatmapID:2777517
BeatmapSetID:1340777

[Difficulty]
HPDrainRate:5
CircleSize:4.2
OverallDifficulty:9
ApproachRate:9.7
SliderMultiplier:1.87
SliderTickRate:1

[Events]
//Background and Video events
0,0,"67493108_p0.jpg",0,0
//Break Periods
2,59050,61420
2,116860,122296
2,134391,140143
//Storyboard Layer 0 (Background)
//Storyboard Layer 1 (Fail)
//Storyboard Layer 2 (Pass)
//Storyboard Layer 3 (Foreground)
//Storyboard Layer 4 (Overlay)
//Storyboard Sound Samples

[TimingPoints]
1040,218.978102189781,4,2,77,47,1,0
8047,-129.87012987013,4,2,77,57,0,0
8457,-129.87012987013,4,2,77,5,0,0
8485,-129.87012987013,4,2,77,57,0,0
9552,-129.87012987013,4,2,77,5,0,0
9580,-129.87012987013,4,2,77,57,0,0
9990,-129.87012987013,4,2,77,5,0,0
10018,-129.87012987013,4,2,77,57,0,0
10647,-129.87012987013,4,2,77,5,0,0
10675,-129.87012987013,4,2,77,57,0,0
11741,-129.87012987013,4,2,77,5,0,0
11769,-129.87012987013,4,2,77,57,0,0
12426,-68.0272108843537,4,2,77,77,0,0
13302,-212.765957446809,4,2,77,57,0,0
19872,-370.370370370372,4,2,77,57,0,0
20282,-370.370370370372,4,2,77,5,0,0
20310,-93.4579439252336,4,2,77,77,0,0
20501,-93.4579439252336,4,2,77,5,0,0
20529,-93.4579439252336,4,2,77,77,0,0
20939,-93.4579439252336,4,2,77,5,0,0
20967,-93.4579439252336,4,2,77,77,0,0
21376,-93.4579439252336,4,2,77,5,0,0
21404,-93.4579439252336,4,2,77,77,0,0
23128,-93.4579439252336,4,2,77,5,0,0
23156,-93.4579439252336,4,2,77,77,0,0
24442,-93.4579439252336,4,2,77,5,0,0
24470,-93.4579439252336,4,2,77,77,0,0
24880,-93.4579439252336,4,2,77,5,0,0
24908,-93.4579439252336,4,2,77,77,0,0
26632,-93.4579439252336,4,2,77,5,0,0
26660,-93.4579439252336,4,2,77,77,0,0
27508,-93.4579439252336,4,2,77,5,0,0
27536,-93.4579439252336,4,2,77,77,0,0
28384,-93.4579439252336,4,2,77,5,0,0
28412,-93.4579439252336,4,2,77,77,0,0
30136,-93.4579439252336,4,2,77,5,0,0
30164,-93.4579439252336,4,2,77,77,0,0
31887,-93.4579439252336,4,2,77,5,0,0
31915,-93.4579439252336,4,2,77,77,0,0
34324,-114.942528735632,4,2,77,67,0,0
45026,-114.942528735632,4,2,77,5,0,0
45054,-114.942528735632,4,2,77,67,0,0
45464,-114.942528735632,4,2,77,5,0,0
45492,-114.942528735632,4,2,77,67,0,0
45902,-114.942528735632,4,2,77,5,0,0
45930,-114.942528735632,4,2,77,67,0,0
46340,-114.942528735632,4,2,77,5,0,0
46368,-114.942528735632,4,2,77,67,0,0
48339,-175.438596491228,4,2,77,77,0,0
48503,-175.438596491228,4,2,77,5,0,0
48558,-175.438596491228,4,2,77,77,0,0
48722,-175.438596491228,4,2,77,5,0,0
48777,-175.438596491228,4,2,77,77,0,0
48941,-175.438596491228,4,2,77,5,0,0
48996,-175.438596491228,4,2,77,77,0,0
49160,-175.438596491228,4,2,77,5,0,0
49215,-175.438596491228,4,2,77,77,0,0
49817,-175.438596491228,4,2,77,5,0,0
49872,-175.438596491228,4,2,77,77,0,0
50036,-175.438596491228,4,2,77,5,0,0
50091,-175.438596491228,4,2,77,77,0,0
50255,-175.438596491228,4,2,77,5,0,0
50310,-175.438596491228,4,2,77,77,0,0
50474,-175.438596491228,4,2,77,5,0,0
50529,-175.438596491228,4,2,77,77,0,0
50693,-175.438596491228,4,2,77,5,0,0
50748,-175.438596491228,4,2,77,77,0,0
50912,-175.438596491228,4,2,77,5,0,0
50967,-175.438596491228,4,2,77,77,0,0
51569,-175.438596491228,4,2,77,5,0,0
51624,-175.438596491228,4,2,77,77,0,0
52007,-175.438596491228,4,2,77,5,0,0
52062,-175.438596491228,4,2,77,77,0,0
52226,-175.438596491228,4,2,77,5,0,0
52281,-175.438596491228,4,2,77,77,0,0
52445,-175.438596491228,4,2,77,5,0,0
52500,-175.438596491228,4,2,77,77,0,0
52664,-175.438596491228,4,2,77,5,0,0
52719,-175.438596491228,4,2,77,77,0,0
53539,-175.438596491228,4,2,77,5,0,0
53594,-175.438596491228,4,2,77,77,0,0
53758,-175.438596491228,4,2,77,5,0,0
53813,-175.438596491228,4,2,77,77,0,0
53977,-175.438596491228,4,2,77,5,0,0
54032,-175.438596491228,4,2,77,77,0,0
54196,-175.438596491228,4,2,77,5,0,0
54251,-175.438596491228,4,2,77,77,0,0
54415,-175.438596491228,4,2,77,5,0,0
54470,-175.438596491228,4,2,77,77,0,0
55072,-175.438596491228,4,2,77,5,0,0
55127,-175.438596491228,4,2,77,77,0,0
55291,-175.438596491228,4,2,77,5,0,0
55346,-175.438596491228,4,2,77,77,0,0
55510,-175.438596491228,4,2,77,5,0,0
55565,-175.438596491228,4,2,77,77,0,0
55729,-175.438596491228,4,2,77,5,0,0
55784,-175.438596491228,4,2,77,77,0,0
56167,-175.438596491228,4,2,77,5,0,0
56222,-175.438596491228,4,2,77,77,0,0
56386,-175.438596491228,4,2,77,5,0,0
56441,-175.438596491228,4,2,77,77,0,0
56605,-175.438596491228,4,2,77,5,0,0
56660,-175.438596491228,4,2,77,77,0,0
56824,-175.438596491228,4,2,77,5,0,0
56879,-175.438596491228,4,2,77,77,0,0
57043,-175.438596491228,4,2,77,5,0,0
57098,-175.438596491228,4,2,77,77,0,0
57700,-175.438596491228,4,2,77,5,0,0
57755,-175.438596491228,4,2,77,77,0,0
57919,-175.438596491228,4,2,77,5,0,0
57974,-175.438596491228,4,2,77,77,0,0
58357,-175.438596491228,4,2,77,5,0,0
58412,-175.438596491228,4,2,77,77,0,0
58576,-175.438596491228,4,2,77,5,0,0
58631,-175.438596491228,4,2,77,77,0,0
58795,-175.438596491228,4,2,77,5,0,0
58850,-175.438596491228,4,2,77,77,0,0
61915,-114.942528735632,4,2,77,77,0,0
62325,-114.942528735632,4,2,77,5,0,0
62353,-68.0272108843537,4,2,77,87,0,0
62572,-85.4700854700855,4,2,77,87,0,0
64296,-85.4700854700855,4,2,77,5,0,0
64324,-85.4700854700855,4,2,77,87,0,0
66048,-85.4700854700855,4,2,77,5,0,0
66076,-85.4700854700855,4,2,77,87,0,0
66924,-85.4700854700855,4,2,77,5,0,0
66952,-85.4700854700855,4,2,77,87,0,0
68019,-85.4700854700855,4,2,77,5,0,0
68047,-85.4700854700855,4,2,77,87,0,0
71085,-85.4700854700855,4,2,77,5,0,0
71112,-85.4700854700855,4,2,77,87,0,0
73740,-68.0272108843537,4,2,77,87,0,0
73959,-93.4579439252336,4,2,77,87,0,0
74616,-93.4579439252336,4,2,77,77,0,0
74807,-93.4579439252336,4,2,77,5,0,0
74835,-93.4579439252336,4,2,77,77,0,0
75683,-93.4579439252336,4,2,77,5,0,0
75710,-93.4579439252336,4,2,77,77,0,0
77435,-93.4579439252336,4,2,77,5,0,0
77462,-93.4579439252336,4,2,77,77,0,0
77763,-93.4579439252336,4,2,77,5,0,0
77791,-93.4579439252336,4,2,77,77,0,0
78092,-93.4579439252336,4,2,77,5,0,0
78119,-93.4579439252336,4,2,77,77,0,0
79187,-93.4579439252336,4,2,77,5,0,0
79214,-93.4579439252336,4,2,77,77,0,0
80748,-175.438596491228,4,2,77,57,0,0
81623,-93.4579439252336,4,2,77,77,0,0
81814,-93.4579439252336,4,2,77,5,0,0
81842,-93.4579439252336,4,2,77,77,0,0
82690,-93.4579439252336,4,2,77,5,0,0
82718,-93.4579439252336,4,2,77,77,0,0
84442,-93.4579439252336,4,2,77,5,0,0
84470,-93.4579439252336,4,2,77,77,0,0
87946,-93.4579439252336,4,2,77,5,0,0
87974,-93.4579439252336,4,2,77,77,0,0
88165,-93.4579439252336,4,2,77,5,0,0
88193,-93.4579439252336,4,2,77,77,0,0
88631,-114.942528735632,4,2,77,67,0,0
94981,-212.765957446808,4,2,77,57,0,0
95610,-212.765957446808,4,2,77,5,0,0
95638,-114.942528735632,4,2,77,67,0,0
100894,-93.4579439252336,4,2,77,77,0,0
101960,-93.4579439252336,4,2,77,5,0,0
101988,-93.4579439252336,4,2,77,77,0,0
102645,-114.942528735632,4,2,77,67,0,0
113347,-114.942528735632,4,2,77,5,0,0
113375,-114.942528735632,4,2,77,67,0,0
113785,-114.942528735632,4,2,77,5,0,0
113813,-114.942528735632,4,2,77,67,0,0
114223,-114.942528735632,4,2,77,5,0,0
114251,-114.942528735632,4,2,77,67,0,0
114661,-114.942528735632,4,2,77,5,0,0
114689,-114.942528735632,4,2,77,67,0,0
115099,-114.942528735632,4,2,77,5,0,0
115127,-114.942528735632,4,2,77,67,0,0
116660,-212.765957446808,4,2,77,57,0,0
123009,-212.765957446808,4,2,77,5,0,0
123120,-212.765957446808,4,2,77,57,0,0
123667,-114.942528735633,4,2,77,77,0,0
123858,-114.942528735633,4,2,77,5,0,0
123886,-114.942528735633,4,2,77,77,0,0
124077,-114.942528735633,4,2,77,5,0,0
124105,-114.942528735633,4,2,77,77,0,0
124296,-114.942528735633,4,2,77,5,0,0
124324,-114.942528735633,4,2,77,77,0,0
124734,-114.942528735633,4,2,77,5,0,0
124762,-114.942528735633,4,2,77,77,0,0
124953,-114.942528735633,4,2,77,5,0,0
124981,-114.942528735633,4,2,77,77,0,0
125172,-114.942528735633,4,2,77,5,0,0
125200,-114.942528735633,4,2,77,77,0,0
125610,-114.942528735633,4,2,77,5,0,0
125638,-114.942528735633,4,2,77,77,0,0
125829,-114.942528735633,4,2,77,5,0,0
125857,-114.942528735633,4,2,77,77,0,0
126048,-114.942528735633,4,2,77,5,0,0
126076,-114.942528735633,4,2,77,77,0,0
127362,-114.942528735633,4,2,77,5,0,0
127390,-114.942528735633,4,2,77,77,0,0
128238,-114.942528735633,4,2,77,5,0,0
128266,-114.942528735633,4,2,77,77,0,0
129114,-114.942528735633,4,2,77,5,0,0
129142,-114.942528735633,4,2,77,77,0,0
130675,-103.092783505155,4,2,77,77,0,0
134178,-103.092783505155,4,2,77,77,0,0
140748,-370.370370370374,4,2,77,47,0,0
141158,-370.370370370374,4,2,77,5,0,0
141185,-175.438596491229,4,2,77,57,0,0
146003,-114.942528735633,4,2,77,77,0,0
146194,-114.942528735633,4,2,77,5,0,0
146222,-103.092783505155,4,2,77,77,0,0
146441,-68.0272108843537,4,2,77,87,0,0
146660,-85.4700854700855,4,2,77,87,0,0
148384,-85.4700854700855,4,2,77,5,0,0
148412,-85.4700854700855,4,2,77,87,0,0
150136,-85.4700854700855,4,2,77,5,0,0
150164,-85.4700854700855,4,2,77,87,0,0
151012,-85.4700854700855,4,2,77,5,0,0
151040,-85.4700854700855,4,2,77,87,0,0
152107,-85.4700854700855,4,2,77,5,0,0
152134,-85.4700854700855,4,2,77,87,0,0
155172,-85.4700854700855,4,2,77,5,0,0
155200,-85.4700854700855,4,2,77,87,0,0
156267,-85.4700854700855,4,2,77,5,0,0
156295,-85.4700854700855,4,2,77,87,0,0
157828,-68.0272108843537,4,2,77,87,0,0
158047,-93.4579439252336,4,2,77,87,0,0
158704,-93.4579439252336,4,2,77,77,0,0
161303,-93.4579439252336,4,2,77,5,0,0
161331,-93.4579439252336,4,2,77,77,0,0
162398,-93.4579439252336,4,2,77,5,0,0
162426,-93.4579439252336,4,2,77,77,0,0
162836,-93.4579439252336,4,2,77,5,0,0
162864,-93.4579439252336,4,2,77,77,0,0
164150,-93.4579439252336,4,2,77,5,0,0
164178,-93.4579439252336,4,2,77,77,0,0
166340,-93.4579439252336,4,2,77,5,0,0
166368,-93.4579439252336,4,2,77,77,0,0
167216,-93.4579439252336,4,2,77,5,0,0
167244,-93.4579439252336,4,2,77,77,0,0
170282,-93.4579439252336,4,2,77,5,0,0
170310,-93.4579439252336,4,2,77,77,0,0
172171,-175.438596491228,4,2,77,77,0,0
172691,-175.438596491228,4,2,77,5,0,0
172718,-129.87012987013,4,2,77,67,0,0
179726,-114.942528735632,4,2,77,67,0,0
190428,-114.942528735632,4,2,77,5,0,0
190456,-114.942528735632,4,2,77,67,0,0
190866,-114.942528735632,4,2,77,5,0,0
190894,-114.942528735632,4,2,77,67,0,0
191303,-114.942528735632,4,2,77,5,0,0
191331,-114.942528735632,4,2,77,67,0,0
191741,-114.942528735632,4,2,77,5,0,0
191769,-114.942528735632,4,2,77,67,0,0

[Colours]
Combo1 : 233,233,233
Combo2 : 128,128,128

[HitObjects]
24,33,8047,6,0,P|60:24|104:17,1,71.9949985718766,6|0,1:0|0:0,0:0:0:0:
249,54,8266,2,0,P|227:87|210:178,1,125.991247500784,10|0,0:0|0:0,0:0:0:0:
217,179,8485,1,10,0:3:0:0:
288,207,8594,1,8,0:3:0:0:
108,279,8704,1,10,0:0:0:0:
108,279,8923,5,10,0:3:0:0:
181,250,9032,1,2,0:0:0:0:
274,347,9142,1,10,0:0:0:0:
389,260,9251,1,8,0:3:0:0:
331,215,9361,2,0,P|356:282|372:344,1,125.991247500784,2|0,0:0|0:0,0:0:0:0:
367,344,9580,1,10,0:0:0:0:
482,131,9799,6,0,P|436:94|373:124,1,125.991247500784,10|0,0:3|0:0,0:0:0:0:
374,127,10018,2,0,P|342:144|294:133,1,71.9949985718766,10|0,0:0|0:0,0:0:0:0:
201,33,10237,1,10,0:3:0:0:
244,95,10346,1,8,0:3:0:0:
57,56,10456,2,0,P|118:68|170:103,1,125.991247500784,10|0,0:0|0:0,0:0:0:0:
166,115,10675,6,0,P|128:128|105:159,1,71.9949985718766,10|0,0:3|0:0,0:0:0:0:
29,190,10894,2,0,P|33:229|58:259,1,71.9949985718766,10|8,0:0|0:3,0:0:0:0:
39,339,11112,2,0,P|78:343|113:326,1,71.9949985718766,2|8,0:0|0:3,0:0:0:0:
192,243,11331,1,10,0:0:0:0:
237,312,11441,1,2,0:0:0:0:
264,171,11550,6,0,B|331:157|316:210|383:224,1,125.991247500784,8|0,0:3|0:0,0:0:0:0:
381,214,11769,1,10,0:0:0:0:
417,141,11879,1,2,0:0:0:0:
323,29,11988,2,0,P|344:12|387:-1,1,71.9949985718766,10|8,0:3|0:3,0:0:0:0:
341,109,12207,1,10,0:0:0:0:
0,36,12426,6,0,B|29:41|50:65|50:65|103:-2|199:33,1,206.167490405108,14|0,0:0|0:0,0:0:0:0:
97,149,12645,2,0,P|186:125|103:164,1,274.889987206811,14|2,0:0|0:0,0:0:0:0:
43,298,13302,6,0,P|92:283|137:272,2,87.8899986589051,6|0|0,1:0|0:0|0:0,0:0:0:0:
273,348,13959,1,0,0:0:0:0:
293,280,14069,1,0,0:0:0:0:
332,384,14178,6,0,P|267:365|193:346,2,131.834997988358,2|0|0,0:0|0:0|0:0,0:0:0:0:
452,328,15054,6,0,P|423:291|391:249,2,87.8899986589051,2|0|0,0:0|0:0|0:0,0:0:0:0:
458,61,15711,1,0,0:0:0:0:
429,128,15821,1,0,0:0:0:0:
376,68,15930,6,0,P|333:51|282:22,1,87.8899986589051,2|0,0:0|0:0,0:0:0:0:
228,106,16258,2,0,P|187:122|148:142,1,87.8899986589051,2|0,0:0|0:0,0:0:0:0:
91,100,16587,2,0,P|105:116|123:141,1,43.9449993294525,2|0,0:0|0:0,0:0:0:0:
26,249,16806,6,0,P|29:206|47:166,2,87.8899986589051,2|0|0,0:0|0:0|0:0,0:0:0:0:
214,214,17463,1,0,0:0:0:0:
162,265,17572,1,0,0:0:0:0:
230,207,17682,6,0,P|291:224|363:246,2,131.834997988358,2|0|0,0:0|0:0|0:0,0:0:0:0:
462,69,18558,6,0,P|447:89|428:106,1,43.9449993294525,2|0,0:0|0:0,0:0:0:0:
456,181,18777,2,0,P|431:185|405:183,1,43.9449993294525,2|0,0:0|0:0,0:0:0:0:
456,62,18996,2,0,P|441:82|422:99,1,43.9449993294525,2|0,0:0|0:0,0:0:0:0:
469,189,19215,1,0,0:0:0:0:
399,172,19324,1,0,0:0:0:0:
321,279,19434,5,2,0:0:0:0:
9,217,19872,6,0,L|21:119,1,94.6687523112488,2|0,0:0|0:0,0:0:0:0:
23,109,20310,6,0,P|66:54|155:99,1,175.078744657021,4|0,1:0|0:0,0:0:0:0:
146,106,20529,1,8,0:0:0:0:
95,239,20638,1,8,0:3:0:0:
86,259,20693,1,8,0:3:0:0:
77,279,20748,2,0,P|155:248|248:233,1,175.078744657021,0|0,1:0|0:0,0:0:0:0:
253,245,20967,1,8,0:0:0:0:
400,110,21076,1,8,0:3:0:0:
469,149,21185,6,0,B|373:180|405:85|309:116,1,175.078744657021,0|0,1:0|0:0,0:0:0:0:
298,132,21404,5,8,0:0:0:0:
439,234,21514,1,0,1:0:0:0:
282,362,21623,1,8,0:3:0:0:
242,277,21733,5,8,0:3:0:0:
464,373,21842,1,8,0:0:0:0:
464,373,22061,6,0,P|397:349|306:323,1,150.067495420303,0|0,1:0|0:0,0:0:0:0:
121,384,22280,2,0,P|175:337|243:272,1,150.067495420303,8|0,0:0|0:0,0:0:0:0:
280,84,22499,2,0,P|292:154|315:245,1,150.067495420303,0|0,1:0|0:0,0:0:0:0:
152,96,22718,1,8,0:0:0:0:
124,168,22828,1,8,0:3:0:0:
337,39,22937,6,0,B|297:-5|297:-5|251:22|177:28,1,175.078744657021,0|0,1:0|0:0,0:0:0:0:
177,19,23156,5,10,0:0:0:0:
51,182,23266,2,0,P|34:133|12:89,1,100.044996946869,2|8,1:0|0:3,0:0:0:0:
199,215,23485,5,8,0:3:0:0:
165,317,23594,2,0,P|187:272|203:224,1,100.044996946869,10|0,0:0|0:0,0:0:0:0:
395,369,23813,5,0,1:0:0:0:
476,125,24032,5,8,0:0:0:0:
422,186,24142,1,8,0:3:0:0:
402,181,24196,1,8,0:3:0:0:
382,174,24251,2,0,P|345:97|299:16,1,175.078744657021,0|0,1:0|0:0,0:0:0:0:
287,14,24470,1,8,0:0:0:0:
64,179,24580,1,8,0:3:0:0:
24,115,24689,6,0,B|51:108|75:84|75:84|105:146|181:163,1,175.078744657021,0|0,1:0|0:0,0:0:0:0:
171,153,24908,5,8,0:0:0:0:
337,238,25018,1,0,1:0:0:0:
470,133,25127,1,8,0:3:0:0:
384,141,25237,5,8,0:3:0:0:
284,340,25346,1,8,0:0:0:0:
284,340,25565,6,0,P|241:280|161:251,1,150.067495420303,0|0,1:0|0:0,0:0:0:0:
243,159,25784,2,0,P|170:145|92:180,1,150.067495420303,8|0,0:0|0:0,0:0:0:0:
92,63,26003,2,0,P|30:103|-1:182,1,150.067495420303,0|0,1:0|0:0,0:0:0:0:
65,276,26222,1,8,0:0:0:0:
101,172,26331,1,8,0:3:0:0:
97,377,26441,6,0,B|187:327|120:292|224:238,1,175.078744657021,0|0,1:0|0:0,0:0:0:0:
218,256,26660,6,0,P|241:277|280:285,1,50.0224984734345,10|0,0:0|0:0,0:0:0:0:
344,249,26769,1,0,1:0:0:0:
240,86,26879,6,0,P|224:113|225:152,1,50.0224984734345,10|0,0:3|0:0,0:0:0:0:
275,207,26988,1,8,0:0:0:0:
422,10,27098,5,10,0:0:0:0:
306,58,27207,1,10,0:0:0:0:
450,278,27317,6,0,B|493:179|425:211|471:109,1,175.078744657021,4|0,1:0|0:0,0:0:0:0:
472,96,27536,2,0,P|435:128|370:160,1,100.044996946869,8|0,0:0|0:0,0:0:0:0:
295,234,27700,1,0,0:0:0:0:
276,242,27755,2,0,P|232:218|194:185,1,100.044996946869,0|0,1:0|0:0,0:0:0:0:
24,126,27974,1,8,0:0:0:0:
98,349,28083,1,8,0:3:0:0:
20,345,28193,6,0,P|60:325|199:280,1,175.078744657021,0|0,1:0|0:0,0:0:0:0:
191,295,28412,1,8,0:0:0:0:
413,365,28521,1,8,0:3:0:0:
405,346,28576,1,8,0:3:0:0:
398,326,28631,1,0,1:0:0:0:
444,245,28740,1,8,0:3:0:0:
282,58,28850,1,8,0:0:0:0:
282,58,29069,6,0,P|326:81|381:105,1,100.044996946869,0|0,1:0|0:0,0:0:0:0:
173,199,29288,2,0,P|216:175|262:155,1,100.044996946869,8|0,0:0|0:0,0:0:0:0:
446,249,29507,2,0,P|402:225|356:205,1,100.044996946869,0|0,1:0|0:0,0:0:0:0:
275,251,29671,1,0,0:0:0:0:
270,270,29726,1,8,0:0:0:0:
70,149,29835,1,8,0:3:0:0:
32,219,29945,6,0,B|135:181|64:148|168:110,1,175.078744657021,0|0,1:0|0:0,0:0:0:0:
165,104,30164,2,0,P|155:81|148:56,1,50.0224984734345,10|0,0:0|0:0,0:0:0:0:
377,32,30273,2,0,P|309:45|371:15,1,200.089993893738,8|8,0:3|0:3,0:0:0:0:
410,200,30602,6,0,P|387:209|362:216,1,50.0224984734345,10|0,0:0|0:0,0:0:0:0:
183,274,30711,5,8,0:3:0:0:
198,287,30766,1,8,0:3:0:0:
208,304,30821,2,0,P|217:240|246:146,1,150.067495420303,0|0,1:0|0:0,0:0:0:0:
4,235,31039,2,0,P|54:274|121:346,1,150.067495420303,8|0,0:0|0:0,0:0:0:0:
168,84,31258,2,0,P|108:108|12:130,1,150.067495420303,0|0,1:0|0:0,0:0:0:0:
137,211,31477,1,8,0:0:0:0:
369,132,31587,1,8,0:3:0:0:
270,37,31696,6,0,B|308:70|297:114|297:114|308:70|358:59,1,175.078744657021,0|0,1:0|0:0,0:0:0:0:
372,63,31915,1,8,0:0:0:0:
304,195,32025,1,0,1:0:0:0:
405,312,32134,1,8,0:3:0:0:
436,236,32244,5,8,0:3:0:0:
194,167,32353,1,8,0:0:0:0:
194,167,32572,6,0,P|153:192|87:241,1,100.044996946869,0|0,1:0|0:0,0:0:0:0:
41,350,32737,1,2,0:0:0:0:
58,341,32791,2,0,P|67:310|91:174,1,150.067495420303,10|0,0:0|0:0,0:0:0:0:
171,62,33010,6,0,P|149:45|113:33,1,50.0224984734345,2|0,1:0|0:0,0:0:0:0:
50,73,33120,1,2,0:0:0:0:
232,137,33229,6,0,P|210:154|174:166,1,50.0224984734345,10|0,0:0|0:0,0:0:0:0:
116,117,33339,1,10,0:3:0:0:
308,49,33448,6,0,B|355:85|355:85|307:126|295:221,1,200.089993893738,14|8,0:0|0:3,0:0:0:0:
459,339,33777,2,0,P|443:302|332:277,1,150.067495420303,10|0,0:0|0:0,0:0:0:0:
289,334,33996,1,8,0:3:0:0:
455,157,34105,6,0,P|442:184|430:219,1,50.0224984734345,8|0,0:0|0:0,0:0:0:0:
394,305,34215,1,8,0:3:0:0:
446,78,34324,6,0,B|353:119|420:145|327:186,1,162.690001365349,4|10,1:0|0:0,0:0:0:0:
15,22,34762,5,10,0:3:0:0:
85,67,34872,1,8,0:3:0:0:
10,106,34981,2,0,P|25:165|41:275,1,162.690001365349,10|8,0:0|0:3,0:0:0:0:
40,265,35419,6,0,P|80:242|117:234,1,81.3450006826744,10|8,0:0|0:3,0:0:0:0:
184,170,35638,2,0,P|228:180|261:200,1,81.3450006826744,10|8,0:3|0:3,0:0:0:0:
361,192,35857,2,0,P|385:230|395:267,1,81.3450006826744,10|8,0:0|0:3,0:0:0:0:
276,334,36076,6,0,P|290:278|299:325,1,122.017501024012,6|0,1:0|0:0,0:0:0:0:
347,356,36295,2,0,P|407:371|478:287,1,162.690001365349,10|10,0:0|0:3,0:0:0:0:
466,74,36733,2,0,P|437:97|399:120,1,81.3450006826744,10|8,0:0|0:3,0:0:0:0:
291,60,36952,6,0,P|304:98|315:144,1,81.3450006826744,10|8,0:3|0:3,0:0:0:0:
203,201,37171,2,0,P|216:162|225:123,1,81.3450006826744,10|8,0:0|0:3,0:0:0:0:
105,54,37390,2,0,P|114:93|127:131,2,81.3450006826744,10|8|8,0:3|0:3|0:0,0:0:0:0:
215,231,37828,6,0,P|233:184|208:226,1,122.017501024012,4|0,1:0|0:0,0:0:0:0:
117,270,38047,2,0,P|73:244|123:265,1,162.690001365349,10|10,0:0|0:3,0:0:0:0:
398,352,38485,6,0,P|347:331|226:297,1,162.690001365349,10|8,0:0|0:3,0:0:0:0:
244,301,38923,6,0,P|285:285|330:272,1,81.3450006826744,10|8,0:0|0:3,0:0:0:0:
429,225,39142,2,0,P|388:209|343:196,1,81.3450006826744,10|8,0:3|0:3,0:0:0:0:
276,127,39361,2,0,P|317:111|362:98,1,81.3450006826744,10|8,0:0|0:3,0:0:0:0:
185,88,39580,6,0,P|146:39|63:29,1,122.017501024012,6|0,1:0|0:0,0:0:0:0:
66,110,39799,2,0,P|101:158|91:99,1,162.690001365349,10|10,0:0|0:3,0:0:0:0:
16,294,40237,1,10,0:0:0:0:
16,294,40456,6,0,P|31:255|46:210,1,81.3450006826744,10|8,0:3|0:3,0:0:0:0:
136,346,40675,2,0,P|132:304|126:257,1,81.3450006826744,10|8,0:0|0:3,0:0:0:0:
245,297,40894,2,0,P|226:259|202:218,2,81.3450006826744,10|8|8,0:3|0:3|0:0,0:0:0:0:
367,75,41331,6,0,P|340:118|355:70,1,122.017501024012,4|0,1:0|0:0,0:0:0:0:
414,1,41550,2,0,P|448:34|443:155,2,162.690001365349,10|10|10,0:0|0:3|0:0,0:0:0:0:
386,298,42207,6,0,P|431:315|409:273,1,122.017501024012,6|0,1:0|0:0,0:0:0:0:
336,235,42426,2,0,P|286:289|167:307,2,162.690001365349,10|10|10,0:0|0:3|0:0,0:0:0:0:
107,125,43083,6,0,P|84:167|129:150,1,122.017501024012,6|0,1:0|0:0,0:0:0:0:
178,74,43302,2,0,B|274:32|243:101|340:51,2,162.690001365349,10|10|10,0:0|0:3|0:0,0:0:0:0:
53,306,43959,6,0,P|8:289|30:331,1,122.017501024012,6|0,1:0|0:0,0:0:0:0:
106,365,44178,2,0,P|132:338|177:323,1,81.3450006826744,10|8,0:0|0:3,0:0:0:0:
156,232,44397,2,0,P|193:230|236:251,1,81.3450006826744,10|8,0:3|0:3,0:0:0:0:
275,174,44616,2,0,P|302:199|319:243,1,81.3450006826744,10|8,0:0|0:3,0:0:0:0:
404,348,44835,6,0,P|408:308|461:209,1,142.35375119468,2|0,1:0|0:0,0:0:0:0:
466,215,45054,1,8,0:0:0:0:
167,142,45273,6,0,P|163:102|110:3,1,142.35375119468,2|0,1:0|0:0,0:0:0:0:
105,9,45492,1,8,0:0:0:0:
23,222,45711,6,0,P|63:226|162:279,1,142.35375119468,2|0,1:0|0:0,0:0:0:0:
156,284,45930,1,8,0:0:0:0:
410,94,46149,6,0,P|370:98|271:151,1,142.35375119468,2|0,1:0|0:0,0:0:0:0:
277,156,46368,1,10,0:0:0:0:
303,351,46587,6,0,B|385:302|312:273|402:214,1,162.690001365349,6|8,1:0|0:0,0:0:0:0:
182,161,46915,1,8,0:0:0:0:
243,205,47025,2,0,P|228:265|214:336,1,122.017501024012,2|0,1:0|0:0,0:0:0:0:
119,373,47244,2,0,P|106:313|92:253,1,122.017501024012,10|0,0:0|0:0,0:0:0:0:
18,194,47463,5,2,1:0:0:0:
109,72,47572,1,8,0:0:0:0:
254,120,47682,1,10,0:0:0:0:
254,120,47901,5,10,0:0:0:0:
254,120,48120,1,10,0:3:0:0:
254,120,48339,6,0,P|278:101|327:101,1,79.9424990241394,6|0,1:0|0:0,0:0:0:0:
374,32,48558,2,0,P|397:51|408:98,1,79.9424990241394,0|0,1:0|0:0,0:0:0:0:
484,137,48777,2,0,P|470:164|426:186,1,79.9424990241394,2|0,1:0|0:0,0:0:0:0:
411,271,48996,2,0,P|381:264|350:226,1,79.9424990241394,2|0,1:0|0:0,0:0:0:0:
361,157,49215,5,2,1:0:0:0:
214,324,49434,1,0,1:0:0:0:
52,158,49653,6,0,P|58:197|65:243,1,79.9424990241394,2|0,1:0|0:0,0:0:0:0:
143,282,49872,2,0,P|149:242|155:202,1,79.9424990241394,2|0,1:0|0:0,0:0:0:0:
206,123,50091,6,0,P|231:152|287:167,1,79.9424990241394,2|0,1:0|0:0,0:0:0:0:
256,250,50310,2,0,P|294:246|338:208,1,79.9424990241394,0|0,1:0|0:0,0:0:0:0:
388,281,50529,2,0,P|406:247|401:189,1,79.9424990241394,2|0,1:0|0:0,0:0:0:0:
486,191,50748,2,0,P|469:156|419:127,1,79.9424990241394,2|0,1:0|0:0,0:0:0:0:
357,134,50967,5,2,1:0:0:0:
106,83,51185,1,0,1:0:0:0:
186,327,51404,6,0,P|218:314|280:301,1,79.9424990241394,2|0,1:0|0:0,0:0:0:0:
334,347,51623,1,0,1:0:0:0:
50,370,51842,6,0,P|40:330|24:282,1,79.9424990241394,2|0,1:0|0:0,0:0:0:0:
115,304,52061,2,0,P|124:264|141:216,1,79.9424990241394,0|0,1:0|0:0,0:0:0:0:
55,205,52280,2,0,P|45:165|29:117,1,79.9424990241394,2|0,1:0|0:0,0:0:0:0:
120,114,52499,2,0,P|129:74|146:26,1,79.9424990241394,0|0,1:0|0:0,0:0:0:0:
221,10,52718,5,2,1:0:0:0:
172,203,52937,1,0,1:0:0:0:
334,361,53156,1,2,1:0:0:0:
487,94,53375,6,0,P|452:115|403:155,1,79.9424990241394,2|0,1:0|0:0,0:0:0:0:
382,204,53594,6,0,P|343:187|297:178,1,79.9424990241394,2|0,1:0|0:0,0:0:0:0:
285,107,53813,2,0,P|245:121|205:147,1,79.9424990241394,2|0,1:0|0:0,0:0:0:0:
148,97,54032,2,0,P|129:135|119:181,1,79.9424990241394,2|0,1:0|0:0,0:0:0:0:
44,192,54251,2,0,P|57:232|81:272,1,79.9424990241394,2|0,1:0|0:0,0:0:0:0:
155,267,54470,5,2,1:0:0:0:
418,348,54689,1,2,1:0:0:0:
486,180,54908,6,0,P|459:205|405:231,1,79.9424990241394,2|0,1:0|0:0,0:0:0:0:
334,278,55127,2,0,P|298:259|269:232,1,79.9424990241394,2|0,1:0|0:0,0:0:0:0:
259,158,55346,6,0,P|221:142|163:127,1,79.9424990241394,6|0,1:0|0:0,0:0:0:0:
129,65,55565,2,0,P|167:49|225:34,1,79.9424990241394,2|0,1:0|0:0,0:0:0:0:
274,76,55784,1,2,1:0:0:0:
82,188,56003,6,0,P|103:226|122:273,1,79.9424990241394,2|0,1:0|0:0,0:0:0:0:
108,358,56222,6,0,P|140:333|187:320,1,79.9424990241394,2|0,1:0|0:0,0:0:0:0:
187,238,56441,2,0,P|227:242|270:265,1,79.9424990241394,0|0,1:0|0:0,0:0:0:0:
327,205,56660,2,0,P|353:236|367:282,1,79.9424990241394,2|0,1:0|0:0,0:0:0:0:
453,273,56879,2,0,P|450:313|428:357,1,79.9424990241394,2|0,1:0|0:0,0:0:0:0:
351,362,57098,5,2,1:0:0:0:
481,170,57317,1,2,1:0:0:0:
244,90,57536,6,0,P|283:66|331:44,1,79.9424990241394,2|0,1:0|0:0,0:0:0:0:
367,111,57755,2,0,P|331:128|297:149,1,79.9424990241394,2|0,1:0|0:0,0:0:0:0:
289,230,57974,1,2,1:0:0:0:
27,123,58193,6,0,P|57:154|82:188,1,79.9424990241394,2|0,1:0|0:0,0:0:0:0:
168,174,58412,2,0,P|180:132|197:93,1,79.9424990241394,2|0,1:0|0:0,0:0:0:0:
142,30,58631,2,0,P|99:40|57:45,1,79.9424990241394,2|0,1:0|0:0,0:0:0:0:
113,111,58850,5,0,0:0:0:0:
45,69,61915,6,0,B|61:0|149:0|199:144|19:113|49:247,1,305.043752560029,14|0,0:0|0:0,0:0:0:0:
52,241,62353,6,0,B|162:286|132:170|243:216,1,206.167490405108,6|0,1:0|0:0,0:0:0:0:
326,286,62572,1,8,0:0:0:0:
458,66,62791,5,2,1:0:0:0:
385,21,62901,1,2,1:0:0:0:
289,158,63010,2,0,P|343:129|401:120,1,109.395000417309,8|0,0:0|0:0,0:0:0:0:
150,32,63229,5,2,1:0:0:0:
166,47,63284,2,0,P|174:102|182:167,1,109.395000417309,2|0,0:0|0:0,0:0:0:0:
108,211,63448,1,10,0:0:0:0:
250,373,63558,1,0,1:0:0:0:
313,345,63667,2,0,P|258:332|194:315,1,109.395000417309,2|0,0:0|0:0,0:0:0:0:
402,244,63886,1,10,0:0:0:0:
430,335,63996,1,2,0:0:0:0:
311,150,64105,6,0,P|354:215|463:167,1,191.44125073029,2|0,1:0|0:0,0:0:0:0:
456,175,64324,1,10,0:0:0:0:
171,24,64543,6,0,P|218:69|253:108,1,109.395000417309,2|0,1:0|0:0,0:0:0:0:
72,218,64762,1,10,0:0:0:0:
111,119,64872,1,0,0:0:0:0:
255,270,64981,6,0,P|207:297|161:326,1,109.395000417309,2|0,1:0|0:0,0:0:0:0:
309,153,65200,2,0,P|356:180|404:205,1,109.395000417309,10|0,0:0|1:0,0:0:0:0:
163,214,65419,2,0,P|138:165|110:118,1,109.395000417309,2|0,0:0|0:0,0:0:0:0:
340,15,65638,1,10,0:0:0:0:
277,88,65748,1,0,0:0:0:0:
448,246,65857,6,0,B|408:210|408:210|448:141|442:69,1,191.44125073029,2|0,1:0|0:0,0:0:0:0:
433,70,66076,2,0,P|432:116|411:182,1,109.395000417309,10|2,0:0|0:0,0:0:0:0:
273,287,66295,1,2,1:0:0:0:
295,173,66404,1,2,1:0:0:0:
149,52,66514,1,10,0:0:0:0:
171,166,66623,1,10,0:3:0:0:
338,19,66733,6,0,P|430:42|512:91,1,191.44125073029,2|0,1:0|0:0,0:0:0:0:
508,109,66952,1,10,0:0:0:0:
292,212,67061,1,2,1:0:0:0:
322,147,67171,2,0,P|366:130|437:124,1,109.395000417309,2|0,0:0|0:0,0:0:0:0:
377,352,67390,1,10,0:0:0:0:
334,285,67499,1,2,0:0:0:0:
139,384,67609,6,0,P|103:362|-6:270,1,164.092500625963,2|0,1:0|0:0,0:0:0:0:
41,153,67828,2,0,P|112:167|34:185,1,191.44125073029,10|0,0:0|0:0,0:0:0:0:
47,224,68047,2,0,P|93:226|122:164,1,109.395000417309,2|0,1:0|1:0,0:0:0:0:
282,93,68266,1,10,0:0:0:0:
216,173,68375,1,10,0:3:0:0:
371,95,68485,6,0,P|358:142|338:216,1,109.395000417309,2|8,1:0|0:0,0:0:0:0:
375,331,68704,5,10,0:3:0:0:
385,311,68813,1,10,0:3:0:0:
365,300,68923,1,10,0:3:0:0:
352,318,69032,1,8,0:3:0:0:
459,283,69142,5,10,0:0:0:0:
333,190,69251,1,10,0:0:0:0:
281,355,69361,1,14,0:0:0:0:
281,355,69689,6,0,P|251:350|218:318,1,54.6975002086544,14|0,0:0|0:0,0:0:0:0:
154,185,69799,6,0,B|268:237|157:297|272:350,1,218.790000834618,6|10,1:0|0:0,0:0:0:0:
459,51,70237,5,2,1:0:0:0:
407,138,70346,1,2,0:0:0:0:
217,21,70456,2,0,P|170:45|111:79,1,109.395000417309,10|0,0:0|1:0,0:0:0:0:
33,150,70620,1,0,0:0:0:0:
17,165,70675,2,0,P|65:189|113:217,1,109.395000417309,2|0,0:0|0:0,0:0:0:0:
297,168,70894,2,0,P|235:186|311:234,1,191.44125073029,10|0,0:0|0:0,0:0:0:0:
309,240,71112,6,0,P|360:260|417:287,1,109.395000417309,2|0,1:0|0:0,0:0:0:0:
331,28,71331,2,0,P|288:62|236:98,1,109.395000417309,10|0,0:0|0:0,0:0:0:0:
484,200,71550,2,0,P|475:145|470:82,1,109.395000417309,2|0,1:0|1:0,0:0:0:0:
368,156,71769,1,10,0:0:0:0:
368,156,71988,6,0,P|348:209|331:258,1,109.395000417309,2|0,1:0|0:0,0:0:0:0:
117,345,72207,1,10,0:0:0:0:
179,277,72317,1,0,1:0:0:0:
355,379,72426,2,0,P|406:359|457:341,1,109.395000417309,2|0,0:0|0:0,0:0:0:0:
244,216,72645,1,10,0:0:0:0:
306,175,72755,2,0,P|357:193|408:212,1,109.395000417309,2|0,0:0|1:0,0:0:0:0:
78,89,73083,5,10,0:0:0:0:
66,125,73193,1,2,1:0:0:0:
212,206,73302,5,10,0:3:0:0:
179,130,73412,1,0,1:0:0:0:
56,272,73521,5,10,0:3:0:0:
130,185,73631,1,0,1:0:0:0:
266,343,73740,6,0,P|309:305|467:256,1,206.167490405108,6|0,1:0|0:0,0:0:0:0:
512,133,73959,6,0,P|464:187|459:100,1,200.089993893738,6|2,1:0|0:0,0:0:0:0:
139,371,74616,6,0,B|163:265|203:330|228:225,1,175.078744657021,6|0,1:0|0:0,0:0:0:0:
221,214,74835,1,8,0:0:0:0:
9,247,74945,1,8,0:3:0:0:
5,266,74999,1,8,0:3:0:0:
14,285,75054,2,0,P|73:239|163:231,1,150.067495420303,0|0,1:0|0:0,0:0:0:0:
218,363,75273,1,8,0:0:0:0:
406,279,75382,1,8,0:3:0:0:
355,332,75492,6,0,B|337:319|315:306|315:306|347:245|360:168,1,175.078744657021,0|0,1:0|0:0,0:0:0:0:
342,176,75710,5,8,0:0:0:0:
211,112,75820,1,0,1:0:0:0:
80,197,75929,1,8,0:3:0:0:
151,238,76039,5,8,0:3:0:0:
253,19,76148,1,8,0:0:0:0:
253,19,76368,6,0,P|324:36|388:105,1,150.067495420303,0|0,1:0|0:0,0:0:0:0:
502,95,76587,2,0,P|501:168|448:245,1,150.067495420303,8|0,0:0|0:0,0:0:0:0:
457,346,76806,2,0,P|385:361|297:327,1,150.067495420303,0|0,1:0|0:0,0:0:0:0:
236,179,77024,1,8,0:0:0:0:
311,209,77134,1,8,0:3:0:0:
106,315,77244,6,0,P|134:237|161:148,1,175.078744657021,2|0,1:0|0:0,0:0:0:0:
148,136,77462,5,8,0:0:0:0:
0,38,77572,2,0,P|69:81|124:11,1,175.078744657021,0|0,1:0|0:0,0:0:0:0:
111,15,77791,1,8,0:3:0:0:
369,128,77901,2,0,P|316:96|207:65,1,175.078744657021,10|0,0:0|0:0,0:0:0:0:
196,78,78119,5,2,1:0:0:0:
281,362,78338,5,8,0:0:0:0:
315,292,78448,1,8,0:3:0:0:
333,285,78503,1,8,0:3:0:0:
352,279,78558,1,0,1:0:0:0:
66,211,78776,5,8,0:0:0:0:
39,297,78886,1,8,0:3:0:0:
202,121,78996,6,0,B|106:152|138:57|42:88,1,175.078744657021,0|0,1:0|0:0,0:0:0:0:
33,106,79214,5,8,0:0:0:0:
173,36,79324,1,0,1:0:0:0:
309,135,79433,1,8,0:3:0:0:
369,86,79543,5,8,0:3:0:0:
193,234,79652,1,8,0:0:0:0:
193,234,79872,6,0,P|265:261|343:299,1,150.067495420303,2|0,1:0|0:0,0:0:0:0:
461,176,80091,2,0,P|387:161|312:152,1,150.067495420303,8|0,0:0|0:0,0:0:0:0:
201,41,80310,2,0,P|275:31|350:27,1,150.067495420303,0|0,1:0|0:0,0:0:0:0:
459,157,80528,1,8,0:0:0:0:
435,65,80637,1,8,0:3:0:0:
357,270,80748,6,0,L|301:256,2,53.2949993494263,0|0|0,1:0|0:0|0:0,0:0:0:0:
260,368,81076,5,0,1:0:0:0:
208,310,81185,2,0,L|146:323,3,53.2949993494263,2|0|8|0,0:0|0:0|0:3|0:0,0:0:0:0:
29,238,81623,6,0,P|46:199|146:235,1,175.078744657021,4|0,1:0|0:0,0:0:0:0:
156,243,81842,2,0,P|144:198|83:164,1,100.044996946869,8|0,0:0|0:0,0:0:0:0:
60,39,82007,1,0,0:0:0:0:
47,53,82061,2,0,P|87:75|154:55,1,100.044996946869,0|0,1:0|0:0,0:0:0:0:
247,0,82280,1,8,0:0:0:0:
382,127,82389,1,8,0:3:0:0:
418,52,82499,6,0,B|319:75|396:140|298:163,1,175.078744657021,0|0,1:0|0:0,0:0:0:0:
286,157,82718,1,8,0:0:0:0:
444,245,82828,1,8,0:3:0:0:
447,225,82883,1,8,0:3:0:0:
449,205,82937,1,0,1:0:0:0:
302,301,83046,1,8,0:3:0:0:
161,206,83156,1,8,0:0:0:0:
161,206,83375,6,0,P|119:129|76:79,1,150.067495420303,0|0,1:0|0:0,0:0:0:0:
236,0,83594,2,0,P|188:57|153:124,1,150.067495420303,8|0,0:0|0:0,0:0:0:0:
352,140,83813,2,0,P|304:112|247:92,1,100.044996946869,0|0,1:0|0:0,0:0:0:0:
227,163,83977,1,0,0:0:0:0:
233,182,84032,1,8,0:0:0:0:
88,342,84141,1,8,0:3:0:0:
45,271,84251,6,0,P|102:310|213:338,1,175.078744657021,2|0,1:0|0:0,0:0:0:0:
208,327,84470,2,0,P|239:318|280:313,1,50.0224984734345,8|0,0:0|0:0,0:0:0:0:
412,379,84580,2,0,P|368:359|436:277,1,200.089993893738,0|8,1:0|0:3,0:0:0:0:
489,150,84908,6,0,P|468:137|436:131,1,50.0224984734345,10|0,0:0|0:0,0:0:0:0:
361,280,85018,2,0,P|382:266|406:261,1,50.0224984734345,8|0,0:3|0:0,0:0:0:0:
295,127,85127,6,0,P|236:90|160:54,1,150.067495420303,2|0,1:0|0:0,0:0:0:0:
216,171,85346,2,0,P|242:241|260:313,1,150.067495420303,8|0,0:0|0:0,0:0:0:0:
83,363,85565,2,0,P|120:297|149:229,1,150.067495420303,0|0,1:0|0:0,0:0:0:0:
82,123,85783,1,8,0:0:0:0:
266,237,85893,1,8,0:3:0:0:
298,161,86003,6,0,P|317:140|462:181,1,200.089993893738,0|8,1:0|0:0,0:0:0:0:
373,331,86331,1,0,1:0:0:0:
324,231,86440,1,10,0:3:0:0:
140,353,86550,5,8,0:3:0:0:
300,303,86659,1,10,0:0:0:0:
36,214,86879,6,0,P|24:157|13:100,1,100.044996946869,0|0,1:0|0:0,0:0:0:0:
89,52,87043,1,0,0:0:0:0:
103,66,87098,2,0,P|112:115|123:164,1,100.044996946869,8|0,0:0|0:0,0:0:0:0:
220,196,87262,1,0,0:0:0:0:
231,179,87317,2,0,P|221:129|210:80,1,100.044996946869,0|0,1:0|0:0,0:0:0:0:
362,3,87536,1,8,0:0:0:0:
420,79,87645,1,8,0:3:0:0:
317,243,87755,6,0,P|340:219|409:298,1,175.078744657021,4|0,1:0|0:0,0:0:0:0:
417,304,87974,2,0,P|431:276|422:244,1,50.0224984734345,0|0,1:0|0:0,0:0:0:0:
289,366,88083,2,0,P|261:344|211:326,1,75.0337477101517,8|0,0:0|0:0,0:0:0:0:
207,340,88193,5,10,0:0:0:0:
113,371,88302,1,10,0:0:0:0:
16,229,88412,5,8,0:3:0:0:
140,265,88521,1,8,0:0:0:0:
218,175,88631,6,0,P|231:85|245:4,1,162.690001365349,4|8,1:0|0:0,0:0:0:0:
243,14,88959,1,8,0:3:0:0:
347,181,89069,2,0,P|424:157|512:136,1,162.690001365349,8|8,0:3|0:0,0:0:0:0:
503,137,89397,1,8,0:3:0:0:
473,314,89507,2,0,P|434:302|385:292,1,81.3450006826744,8|0,0:3|0:0,0:0:0:0:
394,293,89726,1,8,0:0:0:0:
182,384,89835,2,0,P|254:361|345:343,1,162.690001365349,8|8,0:3|0:3,0:0:0:0:
339,344,90164,1,8,0:0:0:0:
60,309,90383,6,0,P|54:264|45:206,1,81.3450006826744,8|8,0:3|0:3,0:0:0:0:
155,169,90602,2,0,P|159:128|165:88,1,81.3450006826744,8|0,0:0|0:0,0:0:0:0:
301,31,90821,2,0,P|306:71|311:111,1,81.3450006826744,8|8,0:3|0:3,0:0:0:0:
422,186,91040,1,8,0:0:0:0:
412,154,91149,1,8,0:3:0:0:
296,286,91258,6,0,P|258:298|214:319,1,81.3450006826744,8|0,0:3|0:0,0:0:0:0:
220,315,91477,1,8,0:0:0:0:
356,230,91587,2,0,P|320:212|274:196,1,81.3450006826744,8|8,0:3|0:3,0:0:0:0:
281,198,91806,1,8,0:3:0:0:
476,121,91915,1,8,0:0:0:0:
476,121,92134,6,0,P|441:143|394:156,1,81.3450006826744,8|0,0:3|0:0,0:0:0:0:
283,63,92353,2,0,P|319:81|358:89,1,81.3450006826744,8|0,0:0|0:0,0:0:0:0:
218,154,92572,2,0,P|178:162|142:180,1,81.3450006826744,8|8,0:3|0:3,0:0:0:0:
142,180,92791,1,8,0:0:0:0:
76,125,92901,1,8,0:3:0:0:
55,300,93010,6,0,P|29:216|-7:133,1,162.690001365349,8|8,0:3|0:0,0:0:0:0:
119,47,93339,2,0,P|84:99|163:99,1,162.690001365349,8|8,0:3|0:3,0:0:0:0:
254,0,93667,1,8,0:0:0:0:
254,0,93886,5,8,0:3:0:0:
312,88,94105,5,8,0:0:0:0:
293,190,94324,5,8,0:3:0:0:
377,253,94543,5,8,0:0:0:0:
408,327,94653,1,8,0:3:0:0:
330,350,94762,5,8,0:3:0:0:
330,350,94981,5,10,0:0:0:0:
264,289,95091,1,0,1:0:0:0:
264,289,95145,1,0,1:0:0:0:
264,289,95200,2,0,B|215:267|152:277|152:277|179:267|194:241,1,164.793747485447,10|0,0:0|0:0,0:0:0:0:
188,231,95638,6,0,P|157:265|106:268,1,81.3450006826744,4|8,1:0|0:3,0:0:0:0:
268,148,95857,2,0,P|294:185|285:236,1,81.3450006826744,8|0,0:0|0:0,0:0:0:0:
226,61,96076,2,0,P|268:44|315:63,1,81.3450006826744,8|0,0:3|0:0,0:0:0:0:
395,144,96295,1,8,0:0:0:0:
388,175,96404,1,8,0:3:0:0:
491,318,96514,6,0,P|429:273|354:319,1,162.690001365349,8|8,0:3|0:0,0:0:0:0:
191,360,96842,2,0,P|232:330|254:201,1,162.690001365349,8|8,0:3|0:3,0:0:0:0:
135,113,97171,1,8,0:0:0:0:
135,113,97390,6,0,P|105:138|50:156,1,81.3450006826744,8|8,0:3|0:3,0:0:0:0:
204,62,97609,2,0,P|172:36|135:21,1,81.3450006826744,8|0,0:0|0:0,0:0:0:0:
277,125,97828,2,0,P|245:150|208:165,1,81.3450006826744,8|8,0:3|0:3,0:0:0:0:
303,19,98047,1,8,0:0:0:0:
296,51,98156,1,8,0:3:0:0:
417,170,98266,6,0,P|433:128|451:96,1,81.3450006826744,8|8,0:3|0:3,0:0:0:0:
450,96,98485,1,8,0:0:0:0:
370,249,98594,2,0,P|354:207|336:175,1,81.3450006826744,8|8,0:3|0:3,0:0:0:0:
336,175,98813,1,8,0:3:0:0:
260,307,98923,1,8,0:0:0:0:
260,307,99142,6,0,P|219:324|184:341,1,81.3450006826744,8|8,0:3|0:3,0:0:0:0:
74,384,99361,2,0,P|37:366|0:350,1,81.3450006826744,8|0,0:0|0:0,0:0:0:0:
12,232,99580,2,0,P|48:214|86:198,1,81.3450006826744,8|8,0:3|0:3,0:0:0:0:
206,222,99799,1,8,0:0:0:0:
213,190,99908,1,8,0:3:0:0:
76,67,100018,6,0,P|110:107|194:55,1,162.690001365349,8|8,0:3|0:0,0:0:0:0:
357,11,100346,2,0,P|307:27|323:124,1,162.690001365349,8|8,0:3|0:3,0:0:0:0:
458,168,100675,1,8,0:0:0:0:
458,168,100894,5,6,1:0:0:0:
150,316,101112,5,10,0:0:0:0:
487,348,101331,5,10,0:0:0:0:
118,136,101550,5,10,0:0:0:0:
486,54,101769,6,0,B|461:44|447:21|447:21|419:69|339:88,1,175.078744657021,2|0,1:0|0:0,0:0:0:0:
335,77,101988,1,8,0:0:0:0:
398,175,102098,2,0,B|360:235|342:307|342:307|341:273|317:244,1,200.089993893738,10|8,0:0|0:0,0:0:0:0:
256,207,102372,1,8,0:0:0:0:
237,213,102426,1,2,1:0:0:0:
165,274,102536,1,8,0:0:0:0:
3,123,102645,6,0,B|40:93|78:119|78:119|98:76|146:87,1,162.690001365349,4|10,1:0|0:0,0:0:0:0:
144,86,103083,2,0,P|178:110|230:112,1,81.3450006826744,10|8,0:3|0:3,0:0:0:0:
355,16,103302,1,10,0:0:0:0:
355,16,103521,6,0,P|345:56|337:100,1,81.3450006826744,10|8,0:3|0:3,0:0:0:0:
430,154,103740,2,0,P|437:193|447:233,1,81.3450006826744,10|8,0:0|0:3,0:0:0:0:
325,318,103959,2,0,P|334:278|342:238,2,81.3450006826744,10|8|10,0:3|0:3|0:0,0:0:0:0:
145,274,104397,6,0,P|132:257|137:268,1,122.017501024012,6|0,1:0|0:0,0:0:0:0:
121,355,104616,2,0,P|186:353|251:283,2,162.690001365349,10|10|10,0:0|0:3|0:0,0:0:0:0:
5,231,105273,6,0,P|16:191|24:147,1,81.3450006826744,10|8,0:3|0:3,0:0:0:0:
21,5,105492,2,0,P|49:35|84:63,1,81.3450006826744,10|8,0:0|0:3,0:0:0:0:
187,131,105711,2,0,P|218:104|246:75,1,81.3450006826744,10|8,0:3|0:3,0:0:0:0:
398,51,105930,1,8,0:0:0:0:
398,51,106149,6,0,P|422:13|431:69,1,122.017501024012,4|0,1:0|0:0,0:0:0:0:
386,147,106368,2,0,P|324:94|233:76,2,162.690001365349,10|10|10,0:0|0:3|0:0,0:0:0:0:
386,147,107025,5,10,0:3:0:0:
289,345,107244,6,0,P|252:327|209:312,1,81.3450006826744,10|8,0:0|0:3,0:0:0:0:
391,237,107463,2,0,P|352:250|316:268,1,81.3450006826744,10|8,0:3|0:3,0:0:0:0:
451,351,107682,1,10,0:0:0:0:
451,351,107901,6,0,P|466:309|488:203,1,122.017501024012,6|0,1:0|0:0,0:0:0:0:
422,166,108120,2,0,P|412:100|448:162,2,162.690001365349,10|10|10,0:0|0:3|0:0,0:0:0:0:
20,174,108777,6,0,P|53:196|105:208,1,81.3450006826744,10|8,0:3|0:3,0:0:0:0:
114,312,108996,2,0,P|151:298|191:262,1,81.3450006826744,10|8,0:0|0:3,0:0:0:0:
278,322,109215,2,0,P|288:284|281:231,1,81.3450006826744,10|8,0:3|0:3,0:0:0:0:
377,194,109434,2,0,P|351:164|304:139,1,81.3450006826744,10|10,0:0|0:3,0:0:0:0:
96,56,109653,6,0,P|100:3|108:48,1,122.017501024012,4|0,1:0|0:0,0:0:0:0:
176,61,109872,2,0,P|258:44|346:33,2,162.690001365349,10|10|10,0:0|0:3|0:0,0:0:0:0:
269,282,110529,6,0,P|264:229|256:274,1,122.017501024012,6|0,1:0|0:0,0:0:0:0:
189,287,110748,2,0,P|107:270|19:259,2,162.690001365349,10|10|10,0:0|0:3|0:0,0:0:0:0:
459,339,111404,6,0,P|434:284|417:209,1,122.017501024012,6|0,1:0|0:0,0:0:0:0:
478,171,111623,2,0,P|500:123|440:155,2,162.690001365349,10|10|10,0:0|0:3|0:0,0:0:0:0:
151,262,112280,6,0,P|176:207|193:132,1,122.017501024012,6|0,1:0|0:0,0:0:0:0:
132,94,112499,2,0,P|109:46|169:78,2,162.690001365349,10|10|10,0:0|0:3|0:0,0:0:0:0:
50,261,113156,6,0,P|93:211|178:191,1,142.35375119468,2|0,1:0|0:0,0:0:0:0:
174,198,113375,1,8,0:0:0:0:
480,215,113594,6,0,P|412:196|365:143,1,142.35375119468,2|0,1:0|0:0,0:0:0:0:
371,133,113813,1,10,0:0:0:0:
237,363,114032,6,0,P|267:293|285:219,1,142.35375119468,2|0,1:0|0:0,0:0:0:0:
275,220,114251,1,8,0:0:0:0:
58,0,114470,6,0,P|76:68|104:133,1,142.35375119468,2|0,1:0|0:0,0:0:0:0:
117,139,114689,1,10,0:0:0:0:
410,56,114908,6,0,B|328:28|355:110|274:83,1,142.35375119468,6|0,1:0|0:0,0:0:0:0:
270,73,115127,6,0,L|276:120,1,40.6725003413372,10|0,0:0|0:0,0:0:0:0:
390,130,115237,6,0,L|384:177,1,40.6725003413372,10|0,0:0|0:0,0:0:0:0:
297,232,115346,5,2,1:0:0:0:
474,106,115565,5,10,0:0:0:0:
359,361,115784,5,2,1:0:0:0:
246,286,115894,1,8,0:0:0:0:
267,136,116003,1,10,0:3:0:0:
267,136,116222,5,10,0:0:0:0:
267,136,116441,5,10,0:0:0:0:
267,136,116660,5,6,0:0:0:0:
446,97,122791,6,0,P|408:113|363:136,1,87.8899986589051,0|0,1:0|0:0,0:0:0:0:
332,238,123120,1,0,1:0:0:0:
331,246,123175,1,0,1:0:0:0:
330,254,123229,2,0,P|340:287|348:333,1,65.9174989941788,8|0,0:0|0:0,0:0:0:0:
298,372,123448,5,8,0:3:0:0:
12,73,123667,6,0,P|72:81|112:155,1,142.35375119468,12|0,0:3|0:0,0:0:0:0:
105,161,123886,2,0,P|137:221|205:234,1,142.35375119468,10|0,0:0|0:0,0:0:0:0:
208,226,124105,2,0,P|235:214|354:188,1,142.35375119468,10|0,0:3|0:0,0:0:0:0:
349,198,124324,1,8,0:3:0:0:
454,249,124434,5,8,0:3:0:0:
454,249,124488,1,8,0:3:0:0:
454,249,124543,2,0,P|456:217|493:113,1,142.35375119468,14|0,0:3|0:0,0:0:0:0:
487,100,124762,2,0,P|446:72|356:90,1,142.35375119468,10|0,0:0|0:0,0:0:0:0:
354,102,124981,2,0,P|313:130|223:112,1,142.35375119468,10|0,0:3|0:0,0:0:0:0:
222,101,125200,1,10,0:3:0:0:
41,151,125310,5,8,0:3:0:0:
41,151,125364,1,8,0:3:0:0:
41,151,125419,2,0,P|69:228|89:294,1,142.35375119468,14|0,0:3|0:0,0:0:0:0:
82,300,125638,2,0,P|125:308|238:337,1,142.35375119468,10|0,0:0|0:0,0:0:0:0:
228,343,125857,2,0,P|296:325|366:311,1,142.35375119468,10|0,0:3|0:0,0:0:0:0:
375,321,126076,1,10,0:3:0:0:
229,253,126185,5,8,0:3:0:0:
229,253,126240,1,8,0:3:0:0:
229,253,126295,2,0,P|198:189|155:148,1,122.017501024012,14|0,0:3|0:0,0:0:0:0:
58,103,126514,2,0,P|32:143|69:112,1,122.017501024012,10|0,0:0|0:0,0:0:0:0:
158,25,126733,2,0,P|184:65|147:34,1,122.017501024012,10|0,0:3|0:0,0:0:0:0:
71,20,126952,1,8,0:3:0:0:
238,125,127061,5,8,0:3:0:0:
238,125,127116,1,8,0:3:0:0:
238,125,127171,2,0,P|264:104|378:78,1,142.35375119468,12|0,0:3|0:0,0:0:0:0:
379,90,127390,2,0,P|388:130|403:175,1,81.3450006826744,10|0,0:0|0:0,0:0:0:0:
445,299,127609,2,0,P|457:260|466:220,1,81.3450006826744,10|0,0:3|0:0,0:0:0:0:
366,319,127828,1,8,0:3:0:0:
288,338,127937,1,10,0:3:0:0:
189,186,128047,6,0,P|218:204|177:285,1,142.35375119468,14|0,0:3|0:0,0:0:0:0:
168,282,128266,1,10,0:0:0:0:
305,102,128485,6,0,P|264:119|213:134,1,81.3450006826744,10|8,0:0|0:3,0:0:0:0:
79,47,128704,1,10,0:3:0:0:
143,113,128813,1,8,0:3:0:0:
241,3,128923,6,0,P|305:23|390:52,1,142.35375119468,14|0,0:3|0:0,0:0:0:0:
383,61,129142,2,0,P|415:91|448:130,1,81.3450006826744,10|0,0:0|0:0,0:0:0:0:
344,248,129361,1,10,0:3:0:0:
321,231,129470,1,8,0:3:0:0:
338,217,129580,1,10,0:3:0:0:
357,233,129689,1,8,0:3:0:0:
250,325,129799,5,2,1:0:0:0:
250,325,129945,6,0,P|222:323|188:302,1,54.2300004551163,8|0,0:0|0:0,0:0:0:0:
202,233,130091,2,0,P|199:206|186:182,1,54.2300004551163,8|0,0:0|0:0,0:0:0:0:
113,161,130237,1,8,0:3:0:0:
113,161,130675,6,0,P|154:140|212:120,1,90.6950021450387,6|0,1:0|0:0,0:0:0:0:
407,77,130894,2,0,P|366:56|308:36,1,90.6950021450387,8|0,0:0|0:0,0:0:0:0:
300,265,131112,2,0,P|347:241|490:193,1,181.390004290077,0|8,1:0|0:0,0:0:0:0:
468,198,131441,1,8,0:3:0:0:
270,335,131550,6,0,B|241:332|226:299|226:299|167:344|82:299,1,181.390004290077,8|8,0:3|0:0,0:0:0:0:
110,311,131879,1,8,0:3:0:0:
132,134,131988,2,0,P|141:174|159:220,1,90.6950021450387,8|8,0:3|0:3,0:0:0:0:
264,48,132207,1,10,0:0:0:0:
492,340,132426,5,6,1:0:0:0:
83,235,132645,5,4,1:0:0:0:
450,132,132864,5,4,1:0:0:0:
41,45,133083,5,4,1:0:0:0:
41,45,134178,6,0,L|43:56,1,11.3368752681298,2|0,0:0|0:0,0:0:0:0:
61,37,140638,5,0,1:0:0:0:
61,37,140693,1,0,1:0:0:0:
61,37,140748,2,0,P|110:52|154:69,1,94.6687523112488,10|0,0:0|0:0,0:0:0:0:
155,81,141185,6,0,L|263:64,2,106.589998698853,8|0|8,0:3|0:0|0:0,0:0:0:0:
235,163,141842,1,0,1:0:0:0:
243,167,142061,5,8,0:3:0:0:
263,173,142171,1,8,0:3:0:0:
283,179,142280,1,0,0:0:0:0:
317,261,142499,1,8,0:0:0:0:
317,261,142718,2,0,L|379:268,1,53.2949993494263,0|8,1:0|0:0,0:0:0:0:
445,222,142937,6,0,P|462:168|495:112,2,106.589998698853,8|0|8,0:3|1:0|0:0,0:0:0:0:
332,346,143594,2,0,L|279:340,1,53.2949993494263,8|8,0:0|0:3,0:0:0:0:
169,335,143813,6,0,P|154:312|139:292,1,53.2949993494263,0|8,1:0|0:0,0:0:0:0:
51,263,144032,2,0,P|45:236|42:211,1,53.2949993494263,0|0,1:0|1:0,0:0:0:0:
105,141,144251,1,8,0:0:0:0:
105,141,144470,2,0,P|130:134|160:125,1,53.2949993494263,0|8,1:0|0:0,0:0:0:0:
224,41,144689,5,8,0:3:0:0:
64,79,146003,6,0,B|153:65|110:145|200:132,1,142.35375119468,10|0,0:3|0:0,0:0:0:0:
194,125,146222,2,0,P|216:108|341:89,1,136.042503217558,10|0,0:3|0:0,0:0:0:0:
445,195,146441,6,0,B|335:240|365:124|254:170,1,206.167490405108,6|0,1:0|0:0,0:0:0:0:
318,286,146660,1,8,0:0:0:0:
79,327,146879,5,2,1:0:0:0:
53,239,146989,1,2,1:0:0:0:
205,349,147098,2,0,P|255:327|317:311,1,109.395000417309,8|0,0:0|0:0,0:0:0:0:
146,227,147317,5,2,1:0:0:0:
127,214,147372,2,0,P|115:151|99:90,1,109.395000417309,2|0,0:0|0:0,0:0:0:0:
29,51,147536,1,10,0:0:0:0:
189,134,147646,1,0,1:0:0:0:
226,70,147755,2,0,P|285:56|342:35,1,109.395000417309,2|0,0:0|0:0,0:0:0:0:
453,132,147974,1,10,0:0:0:0:
480,40,148084,1,2,0:0:0:0:
415,220,148193,6,0,P|357:181|235:145,1,191.44125073029,2|0,1:0|0:0,0:0:0:0:
226,158,148412,1,10,0:0:0:0:
226,158,148631,6,0,P|210:212|198:278,1,109.395000417309,2|0,1:0|1:0,0:0:0:0:
64,319,148850,1,10,0:0:0:0:
131,235,148960,1,0,0:0:0:0:
0,95,149069,6,0,P|44:131|87:170,1,109.395000417309,2|0,1:0|0:0,0:0:0:0:
218,0,149288,2,0,P|164:20|109:37,1,109.395000417309,10|0,0:0|1:0,0:0:0:0:
289,172,149507,2,0,P|237:152|185:135,1,109.395000417309,2|0,0:0|0:0,0:0:0:0:
332,47,149726,1,10,0:0:0:0:
364,132,149836,1,2,0:0:0:0:
485,229,149945,6,0,P|445:193|369:281,1,191.44125073029,2|0,1:0|0:0,0:0:0:0:
370,286,150164,2,0,P|329:320|260:342,1,109.395000417309,10|2,0:0|0:0,0:0:0:0:
120,304,150383,1,2,1:0:0:0:
158,211,150492,1,2,1:0:0:0:
0,108,150602,1,10,0:0:0:0:
38,201,150711,1,10,0:3:0:0:
187,46,150821,6,0,B|238:33|268:80|268:80|272:24|323:11,1,191.44125073029,2|0,1:0|0:0,0:0:0:0:
336,24,151040,1,10,0:0:0:0:
192,123,151149,1,2,1:0:0:0:
261,158,151258,2,0,P|277:214|292:267,1,109.395000417309,2|0,0:0|0:0,0:0:0:0:
447,336,151478,1,10,0:0:0:0:
340,375,151587,1,2,0:0:0:0:
439,254,151696,6,0,P|464:161|488:89,1,164.092500625963,2|0,1:0|0:0,0:0:0:0:
313,26,151916,2,0,P|253:67|334:69,1,191.44125073029,10|0,0:0|0:0,0:0:0:0:
337,91,152134,2,0,P|292:114|241:72,1,109.395000417309,2|0,1:0|0:0,0:0:0:0:
86,22,152354,1,10,0:0:0:0:
156,109,152463,1,10,0:3:0:0:
0,225,152572,6,0,P|9:168|24:109,1,109.395000417309,2|8,1:0|0:0,0:0:0:0:
205,202,152792,5,10,0:3:0:0:
224,210,152901,1,8,0:3:0:0:
217,230,153011,1,8,0:3:0:0:
196,223,153120,1,8,0:3:0:0:
270,138,153230,5,8,0:0:0:0:
185,300,153339,1,8,0:0:0:0:
85,143,153449,1,12,0:0:0:0:
85,143,153777,6,0,P|105:128|143:118,1,54.6975002086544,14|0,0:0|0:0,0:0:0:0:
299,115,153886,6,0,B|256:160|256:160|207:85|110:114,1,218.790000834618,6|10,1:0|0:0,0:0:0:0:
354,332,154325,5,2,1:0:0:0:
322,229,154434,1,2,0:0:0:0:
158,343,154543,1,10,0:0:0:0:
238,284,154653,1,8,3:0:0:0:
240,262,154707,1,8,3:0:0:0:
243,240,154762,2,0,P|231:182|216:105,1,109.395000417309,2|0,0:0|0:0,0:0:0:0:
368,25,154981,2,0,P|306:71|383:87,1,191.44125073029,10|0,0:0|0:0,0:0:0:0:
390,91,155200,6,0,P|433:115|447:174,1,109.395000417309,2|0,1:0|0:0,0:0:0:0:
275,273,155419,2,0,P|322:249|339:198,1,109.395000417309,10|0,0:0|0:0,0:0:0:0:
174,91,155638,2,0,P|221:114|238:165,1,109.395000417309,2|0,1:0|1:0,0:0:0:0:
16,214,155857,1,10,0:0:0:0:
16,214,156076,6,0,P|119:253|202:303,1,191.44125073029,2|0,1:0|0:0,0:0:0:0:
195,306,156295,1,10,0:0:0:0:
404,368,156405,1,0,1:0:0:0:
437,305,156514,2,0,P|388:324|320:349,1,109.395000417309,2|0,0:0|0:0,0:0:0:0:
259,159,156733,1,10,0:0:0:0:
188,173,156842,2,0,P|235:201|282:229,1,109.395000417309,2|0,0:0|1:0,0:0:0:0:
406,100,157171,5,10,0:0:0:0:
418,136,157281,1,2,1:0:0:0:
220,229,157390,5,10,0:3:0:0:
262,89,157500,1,0,1:0:0:0:
439,213,157609,5,10,0:3:0:0:
322,131,157719,1,0,1:0:0:0:
195,311,157828,6,0,P|155:334|16:241,1,206.167490405108,6|0,1:0|0:0,0:0:0:0:
121,190,158047,2,0,P|139:259|95:202,1,200.089993893738,6|2,1:0|0:0,0:0:0:0:
434,11,158704,6,0,B|392:130|473:75|423:207,2,200.089993893738,6|8|0,1:0|0:0|1:0,0:0:0:0:
365,140,159251,1,0,1:0:0:0:
174,36,159361,2,0,P|223:17|281:1,1,100.044996946869,8|0,0:0|0:0,0:0:0:0:
126,193,159580,6,0,P|77:174|19:158,1,100.044996946869,0|0,1:0|0:0,0:0:0:0:
254,207,159799,2,0,P|231:159|201:107,1,100.044996946869,8|0,0:0|1:0,0:0:0:0:
350,251,160018,1,0,0:0:0:0:
374,172,160127,1,0,0:0:0:0:
275,303,160237,2,0,P|226:316|180:335,1,100.044996946869,8|0,0:0|0:0,0:0:0:0:
3,222,160456,6,0,B|24:211|46:185|46:185|5:253|9:337,2,200.089993893738,0|8|0,1:0|0:0|1:0,0:0:0:0:
252,46,161112,6,0,P|223:111|117:101,1,175.078744657021,8|0,0:0|0:0,0:0:0:0:
122,97,161331,1,0,1:0:0:0:
465,235,161550,6,0,P|443:285|423:337,1,100.044996946869,10|0,0:0|1:0,0:0:0:0:
313,156,161769,2,0,P|367:149|422:141,1,100.044996946869,2|0,0:0|0:0,0:0:0:0:
311,329,161988,2,0,P|278:285|243:241,1,100.044996946869,10|0,0:0|0:0,0:0:0:0:
79,75,162207,6,0,B|182:88|120:140|253:157,1,175.078744657021,0|0,1:0|0:0,0:0:0:0:
243,144,162426,1,8,0:0:0:0:
445,13,162645,2,0,P|409:31|362:160,1,175.078744657021,0|0,1:0|0:0,0:0:0:0:
374,160,162864,1,8,0:0:0:0:
449,200,162974,1,0,0:0:0:0:
285,342,163083,6,0,P|241:320|190:305,1,100.044996946869,0|0,1:0|0:0,0:0:0:0:
301,184,163302,1,8,0:0:0:0:
235,144,163412,2,0,P|187:158|142:180,1,100.044996946869,0|0,1:0|0:0,0:0:0:0:
92,278,163631,1,0,0:0:0:0:
10,43,163740,1,8,0:0:0:0:
10,43,163959,6,0,B|106:12|74:107|170:76,1,175.078744657021,0|0,1:0|0:0,0:0:0:0:
176,66,164178,2,0,P|223:47|275:31,1,100.044996946869,8|0,0:0|0:0,0:0:0:0:
454,153,164397,5,0,1:0:0:0:
360,92,164507,1,0,1:0:0:0:
204,193,164616,1,8,0:0:0:0:
204,193,164835,5,0,1:0:0:0:
301,216,164945,1,0,1:0:0:0:
125,329,165054,1,8,0:0:0:0:
33,150,165164,2,0,P|16:97|-2:49,2,100.044996946869,0|0|0,1:0|0:0|0:0,0:0:0:0:
244,44,165492,5,8,0:0:0:0:
244,44,165711,6,0,P|293:28|345:13,1,100.044996946869,4|0,1:0|0:0,0:0:0:0:
412,165,165930,2,0,P|367:142|322:119,1,100.044996946869,8|0,0:0|0:0,0:0:0:0:
175,284,166149,2,0,P|219:261|337:221,1,175.078744657021,2|0,1:0|0:0,0:0:0:0:
345,228,166368,1,10,0:0:0:0:
345,228,166587,6,0,P|366:273|384:319,1,100.044996946869,0|0,1:0|0:0,0:0:0:0:
421,169,166806,1,8,0:0:0:0:
276,86,166915,5,0,1:0:0:0:
232,142,167025,2,0,P|187:119|70:79,1,175.078744657021,2|0,0:0|0:0,0:0:0:0:
62,86,167244,1,10,0:0:0:0:
31,374,167463,5,0,1:0:0:0:
307,228,167682,5,8,0:0:0:0:
307,228,167901,2,0,P|360:247|429:275,1,100.044996946869,0|0,1:0|1:0,0:0:0:0:
248,302,168120,1,8,0:0:0:0:
218,218,168229,1,0,0:0:0:0:
344,371,168339,6,0,P|390:352|437:335,1,100.044996946869,0|0,1:0|0:0,0:0:0:0:
299,216,168558,1,8,0:0:0:0:
496,76,168667,2,0,P|461:145|414:285,1,200.089993893738,2|0,1:0|0:0,0:0:0:0:
300,95,168996,2,0,P|351:66|398:33,1,100.044996946869,10|0,0:0|0:0,0:0:0:0:
144,203,169215,6,0,P|97:175|38:144,1,100.044996946869,0|0,1:0|0:0,0:0:0:0:
259,253,169434,2,0,P|209:275|150:306,1,100.044996946869,8|0,0:0|0:0,0:0:0:0:
390,180,169653,2,0,P|380:233|371:299,1,100.044996946869,0|0,1:0|1:0,0:0:0:0:
471,140,169872,1,8,0:0:0:0:
401,81,169981,1,0,0:0:0:0:
259,193,170091,6,0,P|234:141|162:44,1,175.078744657021,0|0,1:0|0:0,0:0:0:0:
148,41,170310,1,8,0:0:0:0:
51,208,170419,2,0,P|25:128|67:192,1,200.089993893738,0|0,1:0|0:0,0:0:0:0:
194,347,170748,1,8,0:0:0:0:
194,347,170967,6,0,P|264:306|356:300,1,150.067495420303,0|0,1:0|0:0,0:0:0:0:
430,251,171185,2,0,P|369:208|297:192,1,150.067495420303,8|0,0:0|0:0,0:0:0:0:
184,143,171404,2,0,P|244:99|317:83,1,150.067495420303,0|0,1:0|0:0,0:0:0:0:
433,150,171623,1,8,0:0:0:0:
349,230,171733,1,0,0:0:0:0:
205,37,171842,6,0,P|155:23|94:9,2,100.044996946869,8|0|8,0:0|1:0|0:3,0:0:0:0:
155,223,172171,6,0,B|114:256|-20:239|-2:97|109:110|102:166,1,253.151246909775,8|0,0:3|0:0,0:0:0:0:
105,161,172718,6,0,P|117:114|128:79,2,71.9949985718766,12|8|8,0:3|0:3|0:0,0:0:0:0:
339,316,173156,6,0,P|326:269|316:234,2,71.9949985718766,10|8|8,0:3|0:3|0:0,0:0:0:0:
339,316,173485,1,8,0:3:0:0:
443,181,173594,2,0,P|408:171|373:161,2,71.9949985718766,8|8|8,0:3|0:3|0:0,0:0:0:0:
443,181,173923,1,8,0:3:0:0:
329,56,174032,2,0,P|294:65|259:75,2,71.9949985718766,8|8|8,0:3|0:3|0:0,0:0:0:0:
329,56,174361,1,8,0:3:0:0:
237,182,174470,5,12,0:3:0:0:
21,335,174689,6,0,P|48:310|102:302,2,71.9949985718766,8|8|8,0:0|0:3|0:3,0:0:0:0:
21,335,175018,1,8,0:3:0:0:
83,219,175127,2,0,P|118:226|156:266,2,71.9949985718766,8|8|8,0:0|0:3|0:3,0:0:0:0:
83,219,175456,1,8,0:3:0:0:
12,47,175565,6,0,P|26:78|40:121,1,71.9949985718766,10|8,0:0|0:3,0:0:0:0:
156,66,175784,1,10,0:3:0:0:
95,24,175894,1,10,0:3:0:0:
172,77,176003,2,0,P|208:59|258:51,1,71.9949985718766,10|8,0:0|0:3,0:0:0:0:
384,116,176222,5,12,0:3:0:0:
447,346,176441,5,8,0:0:0:0:
447,346,176660,6,0,P|428:309|410:261,2,71.9949985718766,8|8|8,0:3|0:3|0:0,0:0:0:0:
447,346,176988,1,8,0:3:0:0:
297,272,177098,2,0,P|309:232|329:185,2,71.9949985718766,8|8|8,0:3|0:3|0:0,0:0:0:0:
297,272,177426,1,8,0:3:0:0:
223,144,177536,2,0,P|259:123|306:104,2,71.9949985718766,8|8|8,0:3|0:3|0:0,0:0:0:0:
223,144,177864,1,8,0:3:0:0:
376,136,177974,5,12,0:3:0:0:
61,21,178193,5,8,0:0:0:0:
17,176,178412,6,0,L|94:153,2,71.9949985718766,8|8|8,0:3|0:3|0:0,0:0:0:0:
17,176,178740,1,8,0:3:0:0:
91,293,178850,2,0,L|159:313,1,71.9949985718766,8|8,0:3|0:3,0:0:0:0:
341,361,179069,5,10,0:0:0:0:
331,333,179178,1,0,1:0:0:0:
415,270,179288,5,10,0:3:0:0:
425,242,179397,1,0,1:0:0:0:
341,180,179507,5,10,0:0:0:0:
331,152,179616,1,0,1:0:0:0:
483,151,179726,6,0,B|390:110|457:84|364:43,1,162.690001365349,12|10,0:3|0:0,0:0:0:0:
140,44,180164,5,10,0:3:0:0:
206,1,180274,1,8,0:3:0:0:
140,44,180383,2,0,P|127:122|111:216,1,162.690001365349,10|10,0:0|0:3,0:0:0:0:
112,204,180821,6,0,P|156:224|193:265,1,81.3450006826744,10|8,0:0|0:3,0:0:0:0:
247,191,181040,2,0,P|264:234|262:290,1,81.3450006826744,8|8,0:3|0:3,0:0:0:0:
354,274,181258,2,0,P|335:317|296:356,1,81.3450006826744,10|8,0:0|0:3,0:0:0:0:
457,194,181477,6,0,P|409:216|443:183,1,122.017501024012,14|0,0:3|0:0,0:0:0:0:
457,114,181696,2,0,P|422:91|281:57,1,162.690001365349,10|10,0:0|0:3,0:0:0:0:
205,240,182134,1,10,0:0:0:0:
205,240,182353,6,0,P|170:210|117:188,1,81.3450006826744,10|8,0:3|0:3,0:0:0:0:
167,97,182572,2,0,P|120:99|67:120,1,81.3450006826744,10|8,0:0|0:3,0:0:0:0:
47,30,182791,2,0,P|15:63|-8:116,2,81.3450006826744,10|8|8,0:3|0:3|0:0,0:0:0:0:
77,277,183230,6,0,P|59:324|84:282,1,122.017501024012,12|0,0:3|0:0,0:0:0:0:
173,258,183449,2,0,P|217:284|167:263,1,162.690001365349,10|10,0:0|0:3,0:0:0:0:
241,115,183886,6,0,P|293:107|377:194,1,162.690001365349,10|8,0:0|0:3,0:0:0:0:
372,173,184324,6,0,P|386:117|397:81,1,81.3450006826744,10|10,0:0|0:3,0:0:0:0:
300,266,184543,2,0,P|286:210|275:173,1,81.3450006826744,8|8,0:3|0:3,0:0:0:0:
384,333,184762,2,0,P|397:277|408:240,1,81.3450006826744,10|8,0:0|0:3,0:0:0:0:
265,352,184981,6,0,P|219:319|119:294,1,122.017501024012,14|0,0:3|0:0,0:0:0:0:
85,248,185200,2,0,P|127:229|199:116,1,162.690001365349,10|10,0:0|0:3,0:0:0:0:
344,18,185639,1,10,0:0:0:0:
344,18,185858,6,0,P|329:57|314:102,1,81.3450006826744,10|8,0:3|0:3,0:0:0:0:
431,170,186076,2,0,P|416:132|403:93,1,81.3450006826744,10|8,0:0|0:3,0:0:0:0:
304,226,186295,2,0,P|264:209|212:192,2,81.3450006826744,10|8|8,0:3|0:3|0:0,0:0:0:0:
153,298,186733,6,0,P|195:269|161:307,1,122.017501024012,4|0,1:0|0:0,0:0:0:0:
115,376,186952,2,0,P|81:343|86:222,2,162.690001365349,10|10|10,0:0|0:3|0:0,0:0:0:0:
120,55,187609,6,0,P|75:38|97:80,1,122.017501024012,6|0,1:0|0:0,0:0:0:0:
172,118,187828,2,0,P|222:64|341:46,2,162.690001365349,10|10|10,0:0|0:3|0:0,0:0:0:0:
420,235,188485,6,0,P|443:193|398:210,1,122.017501024012,6|0,1:0|0:0,0:0:0:0:
343,281,188704,2,0,B|247:239|278:308|186:260,2,162.690001365349,10|10|10,0:0|0:3|0:0,0:0:0:0:
451,74,189361,6,0,P|496:91|474:49,1,122.017501024012,6|0,1:0|0:0,0:0:0:0:
392,21,189580,2,0,P|357:38|327:81,1,81.3450006826744,10|8,0:0|0:3,0:0:0:0:
245,37,189799,2,0,P|238:75|256:124,1,81.3450006826744,10|8,0:3|0:3,0:0:0:0:
175,166,190018,2,0,P|202:193|253:206,1,81.3450006826744,10|8,0:0|0:3,0:0:0:0:
498,327,190237,6,0,L|343:299,1,142.35375119468,2|0,1:0|0:0,0:0:0:0:
348,298,190456,1,8,0:0:0:0:
457,188,190675,6,0,L|302:220,1,142.35375119468,2|0,1:0|0:0,0:0:0:0:
307,217,190894,1,10,0:0:0:0:
388,72,191112,6,0,L|257:159,1,142.35375119468,2|0,1:0|0:0,0:0:0:0:
259,155,191331,1,8,0:0:0:0:
260,0,191550,6,0,L|171:130,1,142.35375119468,2|0,1:0|0:0,0:0:0:0:
171,125,191769,1,10,0:0:0:0:
42,306,191988,6,0,B|131:335|101:246|190:276,1,162.690001365349,6|10,1:0|0:0,0:0:0:0:
381,223,192317,1,10,0:0:0:0:
352,293,192426,2,0,P|338:234|314:171,1,122.017501024012,2|0,1:0|0:0,0:0:0:0:
198,75,192645,2,0,P|247:114|303:79,1,122.017501024012,10|0,0:0|0:0,0:0:0:0:
385,24,192865,5,2,1:0:0:0:
485,123,192974,1,8,0:0:0:0:
412,252,193084,1,10,0:0:0:0:
412,252,193303,5,10,0:0:0:0:
412,252,193522,5,10,0:3:0:0:
412,252,193740,5,10,0:3:0:0:
